<?xml version="1.0" standalone="no"?>
<!DOCTYPE svg PUBLIC "-//W3C//DTD SVG 1.1//EN" "http://www.w3.org/Graphics/SVG/1.1/DTD/svg11.dtd">
<svg xmlns="http://www.w3.org/2000/svg">
  <defs>
    <font id="Antonio" horiz-adv-x="834">
      <font-face font-family="Antonio ExtraLight" units-per-em="2048" panose-1="0 0 0 0 0 0 0 0 0 0" ascent="2365" descent="-285" alphabetic="0" />
      <glyph unicode=" " glyph-name="gid146" horiz-adv-x="469" />
      <glyph unicode="!" glyph-name="gid153" horiz-adv-x="508" d="M221,375L154,1760H355L287,375H221ZM155,0V209H351V0H155Z" />
      <glyph unicode="&quot;" glyph-name="gid184" horiz-adv-x="764" d="M487,1106v654H653L553,1106H487Zm-301,0v654H351l-99-654H186Z" />
      <glyph unicode="#" glyph-name="gid160" horiz-adv-x="836" d="M46,0L165,658H2v95H182l53,299H43v95H253l112,613H484L370,1147H573l114,613H799L688,1147H847v-95H670L616,753H806V658H600L479,0H367L485,658H282L164,0H46ZM298,751H504l53,295H352L298,751Z" />
      <glyph unicode="$" glyph-name="gid199" horiz-adv-x="823" d="M387-228V58H495V-228H387ZM353,1489v288H460V1489H353ZM446,17Q288,17 212,118.5T136,446V571H299V465q0-144 33.5-222.5T434,164q71,0 101.5,45.5T566,374q0,55-9.5,108t-40,107.5T423,703L313,807q-100,95-143.5,196T126,1218q0,172 80.5,254.5T420,1555q88,0 152.5-42.5t99-144.5T706,1088v-88H551v117q0,149-30.5,220T422,1408q-71,0-101-56.5T290,1195q0-47 11-91t41.5-91.5T432,908L537,806Q643,705 689,597t46-229q0-158-69.5-254.5T446,17Z" />
      <glyph unicode="%" glyph-name="gid214" horiz-adv-x="2106" d="M619,0l724,1760h149L776,0H619ZM442,581q-112,0-174,38T182,750.5T158,1011v353q0,162 24.5,253t86,128.5T442,1783q113,0 174.5-37.5t86-128.5T727,1364V1011q0-167-24-260.5T617,619T442,581Zm0,144q78,0 106,44.5T576,936v499q0,119-28,161.5T442,1639q-77,0-105.5-42.5T308,1435V936q0-122 28.5-166.5T442,725ZM1660-20q-112,0-174,38t-86.5,131.5T1375,410V763q0,162 24.5,252.5t86.5,128t174,37.5q113,0 174.5-37.5t85.5-128T1944,763V410q0-167-24-260.5T1834.5,18T1660-20Zm0,144q78,0 106,44.5T1794,335V834q0,119-28,161.5T1660,1038q-77,0-105-42.5T1527,834V335q0-122 28-166.5T1660,124Z" />
      <glyph unicode="&amp;" glyph-name="gid187" horiz-adv-x="865" d="M348-20Q232-20 151.5,62T71,334q0,137 34,242.5t90,196T317,953q-62,160-103.5,288.5T172,1441q0,170 70.5,256T440,1783q101,0 154.5-41.5t74.5-120T690,1433q0-100-31.5-188T577,1076.5T472,918L640,516q30,69 67,140t89,141l69-118q-56-78-92.5-160T706,357L861,0H719L622,230q-22-67-55.5-124T480,14.5T348-20Zm19,140q48,0 80,32t58,88.5T559,370L377,810q-47-61-82.5-139.5t-56-162T217,348q-2-99 33-163.5T367,120Zm50,941q59,82 99,177.5T556,1450q0,102-20,152.5T443,1653q-50,0-76-22t-36.5-56t-12-70t-1.5-64q0-57 29-158t71-222Z" />
      <glyph unicode="&apos;" glyph-name="gid185" horiz-adv-x="406" d="M181,1125l-60,635H289l-65-635H181Z" />
      <glyph unicode="(" glyph-name="gid168" horiz-adv-x="550" d="M456-152q-92,0-151,15T212.5-79T166,46.5T153,265V1365q0,136 13,219t46.5,126t92.5,58t151,15V1657q-45,0-72.5-5t-42-30.5T322,1537t-5-168V261q0-108 5-167.5T341.5,9t42-30.5T456-27V-152Z" />
      <glyph unicode=")" glyph-name="gid169" horiz-adv-x="550" d="M94-153V-28q45,0 72.5,5t42,30.5T228,92t5,168V1369q0,109-5,168t-19.5,84.5t-42,30.5T94,1657v126q92,0 151-15t92.5-58T384,1584t13-219V264q0-136-13-219T337.5-81T245-138.5T94-153Z" />
      <glyph unicode="*" glyph-name="gid159" horiz-adv-x="936" d="M398,1068l26,278L200,1173l-70,124l244,129L122,1547l72,122l230-164l-26,272H539l-21-270l224,172l72-123L562,1426l252-138l-72-124L518,1342l21-274H398Z" />
      <glyph unicode="+" glyph-name="gid202" horiz-adv-x="742" d="M306,555V817H78V932H306v256H433V932H665V817H433V555H306Z" />
      <glyph unicode="," glyph-name="gid149" horiz-adv-x="444" d="M164-348L254,0H136V190H352V9L249-348H164Z" />
      <glyph unicode="-" glyph-name="gid163" horiz-adv-x="696" d="M103,820V944H574V820H103Z" />
      <glyph unicode="." glyph-name="gid148" horiz-adv-x="532" d="M173,0V173H333V0H173Z" />
      <glyph unicode="/" glyph-name="gid161" horiz-adv-x="739" d="M79,0L526,1779H674L226,0H79Z" />
      <glyph unicode="0" glyph-name="gid129" horiz-adv-x="837" d="M421-21Q302-21 240,32.5t-84.5,164T133,475v841q0,160 23,263t85,153t180,50q119,0 180.5-50T684,1579t21-263V475q0-126-11-219.5t-40.5-155T567.5,9T421-21Zm-3,137q41,0 65.5,18T521,192t17.5,108.5T543,470v857q0,121-9,189.5T498.5,1614T418,1643q-49,0-76.5-29T304,1516.5T294,1328V470q0-102 5-170t18-108t37.5-58T418,116Z" />
      <glyph unicode="1" glyph-name="gid130" horiz-adv-x="837" d="M405,0V1520q-24-28-72-52.5t-100-39T144,1414v113q53,8 117,38t120,79.5T465,1760H569V0H405Z" />
      <glyph unicode="2" glyph-name="gid131" horiz-adv-x="837" d="M178,0V115q16,64 37.5,123.5t49,121.5T328,491L473,791q37,78 58.5,142T564,1055t14.5,118.5T582,1306q0,143-11,215t-38,96.5T459,1642q-44-1-72.5-30.5T344,1511t-14-199V1065H172v221q0,173 27.5,283T293,1731t182,51q97-1 154-54.5T711.5,1569T737,1305q0-121-14.5-217.5T677.5,903T601,718L466,440q-31-60-54-111t-41.5-98T337,130H712V0H178Z" />
      <glyph unicode="3" glyph-name="gid132" horiz-adv-x="837" d="M412-20Q241-20 171.5,100.5T102,471v56H265V473q0-137 11.5-214.5t44.5-109T418,118t97.5,34.5t46,113T574,476q0,145-20.5,226.5T488.5,817T371,850H329V989h40q72,0 116.5,22t65,92.5T571,1321q0,138-21,206t-57,91t-80,23t-76-26t-49.5-95.5T270,1317v-34H108v40q0,227 67.5,342T414,1780q173,0 247-116t74-344q0-150-40-258.5T560,918q63-29 102.5-96.5t58-159T739,473q0-250-77-371.5T412-20Z" />
      <glyph unicode="4" glyph-name="gid133" horiz-adv-x="837" d="M488,0V346H91V457L475,1760H638V476H790V346H638V0H488ZM226,476H488v976L226,476Z" />
      <glyph unicode="5" glyph-name="gid134" horiz-adv-x="837" d="M436-20Q324-20 263.5,25t-83,117.5T158,298V473H317V277q0-79 26-120t90-41q57,0 86,39t29,133V864q0,110-24,164t-86,54q-50,0-84.5-48T319,883L181,904v856H666V1610H330V1136q15,42 58.5,66t94.5,24q67,0 116.5-34.5t77.5-130T705,784V406q0-100-11-179T654,92.5t-81.5-84T436-20Z" />
      <glyph unicode="6" glyph-name="gid135" horiz-adv-x="837" d="M447-20Q343-20 280.5,18.5T186,127.5t-42.5,166T133,503v753q0,181 24,297.5T248,1726t195,56q116,0 175.5-52T699,1571t22-275v-46H560v37q0,144-8,220t-35,105t-84,29q-63,0-92.5-34.5t-38-119T294,1253V1021q31,38 72.5,58t86.5,21q119,5 184-50t90.5-175T753,561V460q0-150-24-258T639.5,37T447-20Zm-1,141q60,0 91.5,27.5T581,247t12,200V557q0,153-10.5,242t-40,127.5T455,965q-44,0-78-11.5t-55-24T294,915V492q0-130 9.5-212t41-120.5T446,121Z" />
      <glyph unicode="7" glyph-name="gid136" horiz-adv-x="837" d="M228,0q19,239 52.5,452t75,394.5T438,1170q63,218 109.5,337T594,1627H92v133H744V1641q-1-3-46.5-133T594,1158q-39-149-78-333T446.5,432.5T401,0H228Z" />
      <glyph unicode="8" glyph-name="gid137" horiz-adv-x="837" d="M424-20Q263-20 187.5,81.5T106,407v44q-1,125 16,219.5t51,160T259,931q-73,53-105,153.5T122,1346q0,228 70.5,332T426,1782t233-104t70-332q0-159-33-258.5T586,935q51-36 82.5-102.5t46.5-162T730,451V416q0-228-73.5-332T424-20Zm2,137q53,0 84,33t43.5,104T566,439v50q0,197-35,287.5T426,867q-75,0-114.5-92.5T272,479V430q0-167 34-240t120-73Zm-2,872q48,0 79,35t47,114t16,210q0,111-15,175.5T505,1615t-81,27q-48,0-79-28t-46-93.5T284,1344q0-130 15.5-208T346,1023.5T424,989Z" />
      <glyph unicode="9" glyph-name="gid138" horiz-adv-x="837" d="M420-20Q311-20 251,31T167.5,188.5T144,461v48H298V476q1-155 10.5-232T347,142t87-25q63,0 85.5,41.5t25,130.5T547,519V713q-26-24-67-37.5T393,662q-121,0-182.5,63T128,911.5T107,1217v35q0,113 8.5,209.5t37,168.5t89,112T406,1782t165-39.5t91-110T701,1466t9-209V537q0-181-18.5-305t-80-188T420-20ZM410,790q38,0 66,7t46,14.5T547,822v445q0,187-23,279.5T409,1639q-64,0-94.5-40.5t-38.5-122T268,1271v-72q0-152 8.5-242T315,828.5T410,790Z" />
      <glyph unicode=":" glyph-name="gid150" horiz-adv-x="537" d="M166,1048v239H361V1048H166Zm0-748V539H361V300H166Z" />
      <glyph unicode=";" glyph-name="gid151" horiz-adv-x="561" d="M197-29l93,360H187V526H394V340L287-29H197ZM183,1048v239H377V1048H183Z" />
      <glyph unicode="&lt;" glyph-name="gid208" horiz-adv-x="730" d="M641,281L63,677V833l578,392V1043L183,757L641,456V281Z" />
      <glyph unicode="=" glyph-name="gid206" horiz-adv-x="722" d="M91,594V731H639V594H91Zm0,301v137H639V895H91Z" />
      <glyph unicode="&gt;" glyph-name="gid207" horiz-adv-x="730" d="M85,281V464L543,749L85,1050v175L663,829V673L85,281Z" />
      <glyph unicode="?" glyph-name="gid155" horiz-adv-x="748" d="M236,494V810q95,33 149,76.5T463.5,993t31,154t6.5,220q0,150-15,214t-75,64q-65,0-83-58t-18-217V1160H158v206q0,58 2,129.5t21.5,137t71.5,108T407,1783q93,0 144-34t73-97t26-149.5t4-192.5q0-173-24-288T546,839.5T376,741V494H236ZM236,0V299H377V0H236Z" />
      <glyph unicode="@" glyph-name="gid186" horiz-adv-x="1390" d="M1194,97Q939,14 734,24T382,128T156.5,393T78,803q0,191 35,348t114.5,271.5t211,176.5T762,1661q207,0 327-96.5T1261,1292t52-413q0-136-23.5-252.5t-76-186.5T1076,370q-64,0-110,49.5T906,549q-22-89-87-140T675,359q-74,1-141,47T425.5,549.5T384,802q0,116 24.5,212T483,1179t124.5,106T781,1321t221-47V650q0-87 16.5-133.5T1079,470q38,0 63,45t38,137.5T1193,886q0,118-12.5,235t-55,214t-131,155T753,1548q-201,0-318.5-95T267,1189.5T217,800q0-232 73-380.5T493.5,200T798,132t376,75l20-110ZM679,461q45-1 87.5,25.5t72,70.5T876,653v550q-68,18-133.5,12t-118-47.5T541,1039T510,807q0-181 47.5-262T679,461Z" />
      <glyph unicode="A" glyph-name="gid1" horiz-adv-x="843" d="M39,0L318,1760H497L803,0H645L590,355H247L196,0H39ZM267,482H568L412,1464h-2L267,482Z" />
      <glyph unicode="B" glyph-name="gid10" horiz-adv-x="882" d="M160,0V1760H434q136,0 207-40t97.5-126.5T766,1365v-27q0-152-21.5-247.5T648,949q58-27 89-91t43-151.5T792,521V489q-2-169-30-277T666,52T474,0H160ZM325,139H474q62,0 94.5,32t45,114T626,514v29q0,180-28,258T480,879H325V139Zm0,871H454q47,0 75.5,8.5t44.5,40t22,95.5t6,175v23q-1,118-18,174.5t-53.5,74T434,1618H325V1010Z" />
      <glyph unicode="C" glyph-name="gid11" horiz-adv-x="882" d="M454-20Q325-20 255.5,44.5t-96,190T133,541v710q0,113 12,210t45.5,169t99,112T460,1782q106,0 168-40t91.5-112.5T758,1460t9-211V1085H602v177q0,187-25,283.5T460,1642q-97,0-129.5-96.5T298,1263V541q0-152 11.5-245.5t45.5-136T454,117q93,0 120.5,98T602,541V697H767V542q0-181-24.5-307t-92-190.5T454-20Z" />
      <glyph unicode="D" glyph-name="gid13" horiz-adv-x="925" d="M160,0V1760H448q141,0 215-60.5T764.5,1528T792,1265V505q0-181-34-292T647,51T441,0H160ZM324,139H442q63,0 104,28.5t61,108T627,507v771q0,187-43,267t-135,80H324V139Z" />
      <glyph unicode="E" glyph-name="gid15" horiz-adv-x="727" d="M160,0V1760H642V1628H325V964H623V829H325V133H641V0H160Z" />
      <glyph unicode="F" glyph-name="gid20" horiz-adv-x="709" d="M160,0V1760H641V1628H324V1012H623V878H324V0H160Z" />
      <glyph unicode="G" glyph-name="gid21" horiz-adv-x="904" d="M425-19Q276-19 204.5,108.5T133,530v720q0,114 12.5,210.5t47,168.5T292,1741.5T463,1782t166.5-40T720,1629.5t38.5-169T767,1250V1106H601v260q0,135-26.5,205.5T460,1642q-92,0-127-84.5T298,1264V540q0-228 29-325.5T454,117q92,0 122.5,97.5T607,539V763H458V899H767V0H666L646,111q-33-63-85.5-96.5T425-19Z" />
      <glyph unicode="H" glyph-name="gid22" horiz-adv-x="961" d="M160,0V1760H325V1000H636v760H801V0H636V873H325V0H160Z" />
      <glyph unicode="I" glyph-name="gid23" horiz-adv-x="488" d="M161,0V1760H326V0H161Z" />
      <glyph unicode="J" glyph-name="gid28" horiz-adv-x="809" d="M375-20Q211-20 146,81T81,389V562H246V402q0-76 5-141t30.5-104.5T369,117q63,0 88.5,38.5t30,106.5T492,418V1760H657V422q0-225-66.5-333.5T375-20Z" />
      <glyph unicode="K" glyph-name="gid29" horiz-adv-x="869" d="M160,0V1760H325V901l343,859H830L477,891L853,0H682L327,855V0H160Z" />
      <glyph unicode="L" glyph-name="gid30" horiz-adv-x="657" d="M160,0V1760H325V133H641V0H160Z" />
      <glyph unicode="M" glyph-name="gid32" horiz-adv-x="1229" d="M160,0V1760H347L622,302L887,1760h187V0H927V730l22,695L694,27H550L286,1425l21-695V0H160Z" />
      <glyph unicode="N" glyph-name="gid33" horiz-adv-x="992" d="M160,0V1760H278L704,444l-17,579v737H832V0H706L303,1293l11-467V0H160Z" />
      <glyph unicode="O" glyph-name="gid35" horiz-adv-x="906" d="M454-20Q326-20 256,38T159.5,215T133,515v757q0,152 23.5,267T250,1718.5T461,1783q106,0 168.5-37T723,1641t40.5-161.5T773,1272V515q0-181-26-300T652.5,38T454-20Zm0,138q63,0 96,35.5T595.5,276T608,515v769q0,188-27.5,273.5T461,1643q-96,0-129.5-86T298,1285V515q0-153 12.5-239.5t46-122T454,118Z" />
      <glyph unicode="P" glyph-name="gid43" horiz-adv-x="860" d="M160,0V1760H479q106,0 169-37t94-104.5t40.5-161T792,1251v-21q0-182-26-302T671,749T473,690H325V0H160ZM325,828H474q62,0 94.5,37T614,990t13,239v34q0,187-27.5,274.5T481,1625H325V828Z" />
      <glyph unicode="Q" glyph-name="gid45" horiz-adv-x="906" d="M634-356L415-15L532,35L734-292L634-356ZM454-20Q326-20 256,38T159.5,215T133,515v757q0,152 23.5,267T250,1718.5T461,1783q106,0 168.5-37T723,1641t40.5-161.5T773,1272V515q0-181-26-300T652.5,38T454-20Zm0,138q63,0 96,35.5T595.5,276T608,515v769q0,188-27.5,273.5T461,1643q-96,0-129.5-86T298,1285V515q0-153 12.5-239.5t46-122T454,118Z" />
      <glyph unicode="R" glyph-name="gid46" horiz-adv-x="910" d="M160,0V1760H478q142,0 208-46t86-143t20-249q0-167-34.5-268.5T630,926q50-8 82-43.5T761,768t23.5-216.5T791,202q0-22 0-44.5t1-43.5t3.5-41t6-38.5T812,0H648q-6,11-9.5,31.5t-6,58t-3.5,99t-1.5,154T627,567q0,115-6,175t-38.5,83.5T473,854l-148,9V0H160ZM324,977H474q62,0 95,22.5t45.5,96T627,1321v12q0,125-11,187.5T573.5,1604T481,1625H324V977Z" />
      <glyph unicode="S" glyph-name="gid47" horiz-adv-x="803" d="M416-20Q310-20 247,21.5t-94.5,115T110.5,308T100,519V698H262V519q0-215 30.5-308.5T423,117q69,0 100,34t39,107t8,192q0,131-36,214.5T415,827L308,928q-49,46-100,105t-85.5,136T88,1347q0,128 24,226.5t92.5,154T407,1783q107,0 168.5-40.5t89.5-113T700.5,1460t7.5-211V1149H557v112q0,147-13,230t-45,117.5T408,1643q-56,0-91-23.5t-50.5-82T251,1372q0-80 18-130t56-91t94-98L522,948q99-98 156.5-218T736,440q0-138-24.5-241.5t-93-161T416-20Z" />
      <glyph unicode="T" glyph-name="gid48" horiz-adv-x="566" d="M210,0V1628H23v132H544V1628H374V0H210Z" />
      <glyph unicode="U" glyph-name="gid49" horiz-adv-x="926" d="M465-20Q339-20 269,31.5t-98,156T143,452V1760H308V457q0-109 8-185t41-116t108-40q76,0 108,40t38.5,115.5T618,456V1760H783V452q0-160-27-264.5t-96-156T465-20Z" />
      <glyph unicode="V" glyph-name="gid54" horiz-adv-x="856" d="M353,0L45,1760H203l119-711L441,330h2l105,719l106,711H811L532,0H353Z" />
      <glyph unicode="W" glyph-name="gid55" horiz-adv-x="1320" d="M300,0L56,1760H215L389,347L604,1760H740L967,347l142,1413h155L1052,0H889L679,1407L455,0H300Z" />
      <glyph unicode="X" glyph-name="gid56" horiz-adv-x="734" d="M50,0L288,923L63,1760H212l170-639l159,639H682L454,854L682,0H536L359,660L192,0H50Z" />
      <glyph unicode="Y" glyph-name="gid57" horiz-adv-x="797" d="M330,0V763L16,1760H181L412,999h3l198,761H782L495,764V0H330Z" />
      <glyph unicode="Z" glyph-name="gid59" horiz-adv-x="652" d="M81,0V140L426,1628H96v132H595V1642L248,133H589V0H81Z" />
      <glyph unicode="[" glyph-name="gid172" horiz-adv-x="600" d="M160-91V1760H537V1634H325V36H537V-91H160Z" />
      <glyph unicode="\" glyph-name="gid162" horiz-adv-x="729" d="M499,0L88,1760H231L641,0H499Z" />
      <glyph unicode="]" glyph-name="gid173" horiz-adv-x="600" d="M62-91V36H275V1634H62v126H440V-91H62Z" />
      <glyph unicode="^" glyph-name="gid212" horiz-adv-x="957" d="M127,837l241,923H589L830,837H667L480,1635L292,837H127Z" />
      <glyph unicode="_" glyph-name="gid167" horiz-adv-x="748" d="M48-189V-59H699V-189H48Z" />
      <glyph unicode="`" glyph-name="gid228" horiz-adv-x="368" d="M237,1640L50,1983H224l94-343H237Z" />
      <glyph unicode="a" glyph-name="gid60" horiz-adv-x="860" d="M367-12Q243-12 183,90T123,379V558q0,86 33.5,144.5t94,101t141,78.5T566,957v106q0,110-6,179t-32.5,101.5T440,1376q-60,0-88.5-32t-37-102.5T306,1055v-41H141v41q0,92 8,175.5t37,148t89,102T441,1518q105,0 164-34.5T691,1382t33.5-166T731,988V0H566V117q-7-21-30.5-52T470,11T367-12Zm36,136q57,0 102,34t61,65V834q-89-40-144-69t-84-60t-40-75.5T287,515V390q0-143 23-204.5T403,124Z" />
      <glyph unicode="b" glyph-name="gid68" horiz-adv-x="892" d="M523-12q-59,0-114.5,28.5T321,117V0H157V1782H321V1374q13,63 66.5,103T498,1518q113,4 170.5-62.5t77-180.5T765,1020V483q0-141-17-253T679.5,53T523-12ZM468,126q80,1 106.5,79.5T601,465v598q0,95-8,165t-34.5,108.5T474,1375q-47,0-81-20.5T340,1267t-19-206V459q0-171 28-252t119-81Z" />
      <glyph unicode="c" glyph-name="gid69" horiz-adv-x="824" d="M429-18Q325-18 264,20.5t-90.5,109t-38,167T127,510v512q0,140 21,252.5t87,178T436,1518q101,0 159-35t84.5-100.5t34-155.5t7.5-198V966H556v103q0,100-5.5,166.5t-30,100.5T436,1370q-64,0-94.5-38t-40-107T292,1061V449q0-109 8-180t37-105t92-34q61,0 87,37t33,107.5T556,444V566H721V506q0-115-7-211T680.5,129t-86-108.5T429-18Z" />
      <glyph unicode="d" glyph-name="gid71" horiz-adv-x="878" d="M369-12Q265-12 213,53T144,229.5T127,481v538q0,142 21.5,255t82,178.5T406,1518q55,0 99.5-36.5T570,1395v387H736V0H570V117Q539,45 483.5,16.5T369-12Zm51,137q47,0 81,20.5t52,87T571,438v603q0,172-26.5,252.5T427,1374q-80-1-107.5-80T292,1034V437q0-94 8.5-164t36-109T420,125Z" />
      <glyph unicode="e" glyph-name="gid73" horiz-adv-x="824" d="M430-18Q326-18 264.5,20t-91,108.5T135.5,296T127,509v511q0,106 10.5,196.5t42,158.5t93,105.5T435,1518q102,0 160-38.5T679.5,1372T713,1210t7-201V750H292V448q0-163 21.5-243.5T429,124q61,0 87,38.5t33,110T556,443V558H716V505q0-115-6-210.5T678.5,129T594,20.5T430-18ZM291,878H556v191q0,100-5,168.5T521,1341t-85,35q-63,0-94-39t-41-109.5T291,1062V878Z" />
      <glyph unicode="f" glyph-name="gid78" horiz-adv-x="620" d="M214,0V1318H77v124H214v71q0,131 49,203t170,72q56,0 96.5-8.5T572,1769V1642q-43,7-78,7q-79,0-96.5-32.5T380,1531v-89H572V1318H380V0H214Z" />
      <glyph unicode="g" glyph-name="gid79" horiz-adv-x="878" d="M429-231q-87-4-167,22T130-143L192-21q38-28 96-52T429-94q65,2 103,51T570,91V250q-31-73-80-96T383,131q-105,0-160.5,65t-76,177T126,625v395q0,141 27,254.5T241.5,1454T406,1518q54-1 98-26.5t66-85.5v94H734V109q0-47-11.5-104t-44-109T586-191.5T429-231Zm15,499q44,0 72,26.5T557,395t13,217v443q0,163-24.5,242T433,1376q-64,0-94-40.5t-39-112T291,1057V609q0-175 30.5-258T444,268Z" />
      <glyph unicode="h" glyph-name="gid80" horiz-adv-x="934" d="M156,0V1782H320V1350q20,65 87,117t156,52q101,0 163.5-75.5T789,1207V0H624V1195q0,104-37.5,139.5T490,1370q-41,0-80.5-17T345,1294.5T320,1181V0H156Z" />
      <glyph unicode="i" glyph-name="gid81" horiz-adv-x="482" d="M158,0V1500H324V0H158Zm0,1638v157H323V1638H158Z" />
      <glyph unicode="j" glyph-name="gid87" horiz-adv-x="490" d="M183-220q-37,0-69,3t-48,5V-95q14-1 30-2.5T129-99q27,0 36,21t9,49V1500H339V-19q0-80-22.5-123.5T258-203t-75-17Zm-8,1858v157H340V1638H175Z" />
      <glyph unicode="k" glyph-name="gid89" horiz-adv-x="852" d="M157,0V1782H321V767l321,733H808L473,757L825,0H654L321,739V0H157Z" />
      <glyph unicode="l" glyph-name="gid90" horiz-adv-x="476" d="M158,0V1782H323V0H158Z" />
      <glyph unicode="m" glyph-name="gid92" horiz-adv-x="1379" d="M155,0V1500H320V1349q19,66 81,118t149,52q72,0 125-37t79-115q37,67 104,109.5t150,42.5q100,0 163-75t63-236V0H1069V1216q0,88-37,121t-96,33q-87,0-123-33.5T777,1208V0H612V1216q0,89-36.5,121.5T481,1370q-78,0-119.5-44T320,1198V0H155Z" />
      <glyph unicode="n" glyph-name="gid93" horiz-adv-x="933" d="M155,0V1500H320V1350q20,65 86.5,117T562,1519q101,0 163.5-75.5T788,1207V0H623V1215q0,89-40.5,125T483,1376q-41,0-78.5-15t-61-51.5T320,1208V0H155Z" />
      <glyph unicode="o" glyph-name="gid95" horiz-adv-x="864" d="M435-18Q331-18 269,20.5T176.5,129t-40,167T127,510v510q0,141 21,254t87,178.5T435,1518q101,0 162-37.5t91-105T727.5,1217t9.5-197V510q0-115-8.5-211.5T691,131T601.5,21T435-18Zm0,142q60,0 89.5,42T563,282.5T572,456v601q0,95-9,166.5t-38.5,112T435,1376q-64,0-95-40.5t-39.5-112T292,1057V456q0-99 9-173.5T341,166t94-42Z" />
      <glyph unicode="p" glyph-name="gid103" horiz-adv-x="893" d="M159-267V1500H323V1382q31,74 87,102t115,28q104,0 155.5-65t69-176.5T767,1018V478q0-140-22.5-253T662,47T487-18q-54,0-98.5,37T323,106V-267H159ZM470,126q80,1 106,80t26,260v596q0,95-7.5,165T560,1336t-84,39q-47,0-81-21t-53-87.5T323,1061V460q0-172 28-253t119-81Z" />
      <glyph unicode="q" glyph-name="gid105" horiz-adv-x="876" d="M571-267V105q-21-49-65.5-86T406-18Q292-18 231.5,47.5T149,226T127,479v539q0,141 17,252.5T213,1447t155,65q60,0 116-28.5T571,1382v118H736V-267H571ZM417,125q47,0 81,20.5T551,233t19,206v602q0,171-28,252t-119,81q-81-1-106.5-79.5T291,1035V437q0-141 20-226.5T417,125Z" />
      <glyph unicode="r" glyph-name="gid106" horiz-adv-x="615" d="M156,0V1500H321V1333q26,87 90.5,136T576,1518q2,0 2.5-21t0.5-49t0-49t0-21q-49,0-94-12t-85.5-42.5T321,1239V0H156Z" />
      <glyph unicode="s" glyph-name="gid107" horiz-adv-x="761" d="M412-20Q254-20 177.5,81T101,409V534H264V428q0-145 33.5-223T400,127q70,0 101,45t31,164q0,56-10,108.5t-40.5,107T388,665L279,769Q178,865 135,966T92,1180q0,172 80,255t213,83q89,0 153-43t99-145t35-279V963H516v116q0,149-30,220t-98,71q-72,0-102-56.5T255,1157q0-46 11-90.5T307.5,975T397,871L503,768Q608,667 654,559t46-229q0-157-69.5-253.5T412-20Z" />
      <glyph unicode="t" glyph-name="gid109" horiz-adv-x="588" d="M419-9Q323-9 275,13T211,85T195,219V1371H49v126H195v263H360V1497H533V1371H360V218q0-40 10-59t46.5-25T533,128V-9H419Z" />
      <glyph unicode="u" glyph-name="gid110" horiz-adv-x="927" d="M385-20Q333-20 277,8.5T182.5,105T144,292V1500H309V304q0-88 37.5-131T451,130q78,0 120,50t42,133l-2,1187H777V0H613V151Q593,85 533.5,32.5T385-20Z" />
      <glyph unicode="v" glyph-name="gid115" horiz-adv-x="734" d="M281,0L56,1500H205L323,679l48-423h7l42,424l108,820H678L456,0H281Z" />
      <glyph unicode="w" glyph-name="gid116" horiz-adv-x="1104" d="M234,0L59,1500H205l87-873l24-304h11l32,305l124,872h49h65h28L757,658l40-335h10l21,336l76,841h141L870,0H710L562,1253L387,0H234Z" />
      <glyph unicode="x" glyph-name="gid117" horiz-adv-x="691" d="M32,0L273,765L50,1500H194L353,986l147,514H654L419,775L660,0H506L337,556L179,0H32Z" />
      <glyph unicode="y" glyph-name="gid118" horiz-adv-x="756" d="M125-242v136h59q43,0 78,3t43,11q16,17 13,52.5T308,42L59,1500H223L339,711l47-408h14l42,408l104,789H709L467-6q-13-87-29.5-139t-54-74.5T270-242H125Z" />
      <glyph unicode="z" glyph-name="gid121" horiz-adv-x="635" d="M78,0V120L407,1358H103v142H581V1394L248,142H562V0H78Z" />
      <glyph unicode="{" glyph-name="gid170" horiz-adv-x="636" d="M470-119q-94,0-147.5,30t-75,104T226,219V525q0,104-8.5,158t-38,72.5T88,774V888q62,0 91.5,19t38,72.5T226,1137v306q0,131 21.5,205t75,104.5T470,1783h60V1646q-62,0-92-16t-39-62t-9-138V1156q0-105-10-168t-38.5-98.5T258,831q55-23 83.5-58.5t38.5-98T390,507V232q0-91 9-137.5T438,32t92-16V-119H470Z" />
      <glyph unicode="|" glyph-name="gid194" horiz-adv-x="497" d="M168-131V1798H331V-131H168Z" />
      <glyph unicode="}" glyph-name="gid171" horiz-adv-x="636" d="M106-119V16q62,0 92,16t39,62.5T246,232V507q0,105 10,167.5t38.5,98T378,831q-55,23-83.5,58.5T256,988t-10,168v274q0,92-9,138t-39,62t-92,16v137h60q95,0 148-30.5T388.5,1648T410,1443V1137q0-104 8.5-157.5t38-72.5T548,888V774q-62,0-91.5-18.5t-38-72.5T410,525V219q0-130-21.5-204T314-89T166-119H106Z" />
      <glyph unicode="~" glyph-name="gid210" horiz-adv-x="1068" d="M238,838L111,884q27,121 77.5,173.5T308,1110q39,0 101-16.5T538,1056t122-37t79-16q32,0 50.5,30.5T819,1146l134-24q-8-68-24.5-119t-41-86T832,864.5T763,847q-43,0-105,16.5T531,901T411.5,939T328,957q-38,2-57-30t-33-89Z" />
      <glyph unicode="&#xa0;" glyph-name="gid147" horiz-adv-x="469" />
      <glyph unicode="&#xa1;" glyph-name="gid154" horiz-adv-x="508" d="M287,1125L354-260H153l68,1385h66Zm66,375V1291H157v209H353Z" />
      <glyph unicode="&#xa2;" glyph-name="gid197" horiz-adv-x="824" d="M386,1505v257h99V1505H386Zm0-1754V6h99V-249H386ZM429-18Q325-18 264,20.5t-90.5,109t-38,167T127,510v512q0,140 21,252.5t87,178T436,1518q101,0 159-35t84.5-100.5t34-155.5t7.5-198V966H556v103q0,100-5.5,166.5t-30,100.5T436,1370q-64,0-94.5-38t-40-107T292,1061V449q0-109 8-180t37-105t92-34q61,0 87,37t33,107.5T556,444V566H721V506q0-115-7-211T680.5,129t-86-108.5T429-18Z" />
      <glyph unicode="&#xa3;" glyph-name="gid200" horiz-adv-x="837" d="M118,0V102q71,43 117.5,89.5t69,106.5T327,441T305,640q-8,44-16,87.5T272,815H86V928H249l-38,183q-15,76-26,151t-11,129q0,195 72,293.5T476,1783q86,0 150.5-32.5t101-117.5T764,1391V1246H623v155q0,99-14.5,152T563,1626.5T483,1647q-46,0-80-18t-52.5-69T332,1408q0-47 9.5-120T367,1132l39-204H709V815H431q9-45 16.5-90T463,635q28-152 22.5-251t-43-160T335,125H780V0H118Z" />
      <glyph unicode="&#xa4;" glyph-name="gid198" horiz-adv-x="1159" d="M274,497L125,647l91,91q-53,98-53,214q0,117 52,214l-90,90l149,150l87-88q97,55 218,55t218-54l87,87l150-149l-90-90q54-97 54-215T944,736l90-90L884,497l-89,88q-92-52-216-52T363,586l-89-89ZM579,651q86,0 149.5,41t98,110T861,954q0,128-76,212.5T579,1251q-85,0-148.5-40t-98-108T298,952t34.5-151.5t97.5-109T579,651Z" />
      <glyph unicode="&#xa5;" glyph-name="gid201" horiz-adv-x="797" d="M62,442v92H385V725H62v92H739V725H459V534H739V442H62ZM330,0V763L16,1760H181L412,999h3l198,761H782L495,764V0H330Z" />
      <glyph unicode="&#xa6;" glyph-name="gid195" horiz-adv-x="481" d="M160-102V715H321V-102H160Zm0,1033v829H321V931H160Z" />
      <glyph unicode="&#xa7;" glyph-name="gid189" horiz-adv-x="775" d="M421-20Q267-19 194,75T121,381V501H275V390q0-136 28.5-205T408,110q71-5 114.5,37.5T563,302q-3,72-30.5,129.5T461.5,539T368,636L251,743q-58,56-97,118T115,998q0,54 19.5,114T217,1221q-49,67-74,130.5T116,1478q-3,105 32.5,172t102,100T408,1783q149,0 216-98.5T691,1377V1251H541v101q0,148-29,224t-102,76q-37,0-70-13t-54-46.5T264,1498q0-62 14-105t50-88t101-117l116-120q42-45 71-90.5T658.5,883T671,778q-1-34-14-64t-30.5-57.5T590,602q61-67 88-146.5T710,313q10-148-65-241T421-20Zm92,702q11,14 18,38.5t7,50.5q0,61-25,110T433.5,988T289,1133q-25-27-34.5-54.5T245,1017q3-53 40.5-104.5T383,805T513,682Z" />
      <glyph unicode="&#xa8;" glyph-name="gid227" horiz-adv-x="740" d="M495,1640v145H690V1640H495Zm-445,0v145H245V1640H50Z" />
      <glyph unicode="&#xa9;" glyph-name="gid190" horiz-adv-x="1466" d="M735,178q-140,0-256.5,50.5T277,370.5T145,584T98,849t47,264.5t132,213t201.5,142T735,1519t256.5-50.5t202-142t132-213T1372,849t-46.5-265t-132-213.5t-202-142T735,178Zm0,85q124,0 224.5,46.5T1132,437t110,187t38,225q0,159-67,292t-189.5,213T735,1434q-124,0-224.5-46.5T338.5,1260t-110-186.5T190,849q0-159 67.5-292.5T447.5,343T735,263Zm0,139q-104,0-162.5,55T514,625v426q0,120 50.5,185T739,1301q101,0 153.5-50.5T945,1096V965H840v90q0,83-23.5,114.5T735,1201q-62,0-85.5-33T626,1068V625q0-65 26.5-97T735,496q58,0 81.5,29T840,625V748H949V626q0-107-46-165.5T735,402Z" />
      <glyph unicode="&#xaa;" glyph-name="gid127" horiz-adv-x="810" d="M374,554q-99,0-146.5,82T179,868v144q0,68 27,115t75,81.5t113,63T534,1333v85q0,89-5,144t-25.5,80.5T434,1668q-73,0-91-59.5T325,1411v-34H194v34q0,73 6.5,140t29,119.5t71,82.5T434,1783q112,0 160.5-49.5T655,1589t12-232V564H535v94q-9-26-48.5-65T374,554Zm29,109q46,0 82,27.5T534,743v491q-94-42-142.5-72t-65-69.5T310,977V877q0-116 18.5-165T403,663Z" />
      <glyph unicode="&#xab;" glyph-name="gid180" horiz-adv-x="1304" d="M1074,402L605,687V806l469,271V912L762,749l312-172V402Zm-527,0L78,687V806l469,271V912L235,749L547,577V402Z" />
      <glyph unicode="&#xac;" glyph-name="gid211" horiz-adv-x="947" d="M674,439V758H97V891H817V439H674Z" />
      <glyph unicode="&#xad;" glyph-name="gid164" horiz-adv-x="696" d="M90,611V741H606V611H90Z" />
      <glyph unicode="&#xae;" glyph-name="gid191" horiz-adv-x="1502" d="M538,442v852H751q106,0 162-46.5T969,1087v-18q0-67-27.5-106T855,907q48-7 76-41t28-86V442H838V752q0,57-20,79t-59.5,25.5T661,860V442H538ZM662,949h72q61,0 89.5,32.5T852,1075q0,79-37,103.5T662,1203V949Zm76-661q124,0 226.5,45.5t177.5,125T1257,642t40,220q0,156-70.5,286.5t-197,209T738,1436q-124,0-226.5-45.5t-177-125T219.5,1082T179,862q0-155 70.5-286T446,366.5T738,288Zm0-83q-140,0-259.5,49.5t-209,139t-139,209T81,862t49.5,259.5t139,209t209,139T738,1519t259.5-49.5t209-139t139-209T1395,862t-49.5-259.5t-139-209t-209-139T738,205Z" />
      <glyph unicode="&#xaf;" glyph-name="gid233" horiz-adv-x="616" d="M50,1640v122H566V1640H50Z" />
      <glyph unicode="&#xb0;" glyph-name="gid193" horiz-adv-x="877" d="M438,1114q-86,0-165.5,37t-130,111.5T92,1448q0,112 50.5,186T273,1745.5T438,1783q87,0 166.5-37.5t130-111.5T785,1448q0-111-50.5-185.5T604.5,1151T438,1114Zm2,96q55,0 106,26t83,79.5T661,1448q0,80-32.5,133t-83,79T439,1686q-55,0-106-26t-83.5-79T217,1448t32.5-133t83.5-79t107-26Z" />
      <glyph unicode="&#xb1;" glyph-name="gid209" horiz-adv-x="854" d="M364,543V805H136V920H364v256H490V920H722V805H490V543H364ZM171,239V366H687V239H171Z" />
      <glyph unicode="&#xb2;" glyph-name="gid140" horiz-adv-x="857" d="M253,439v71q0,23 18,78.5t46.5,128t60,147.5t60,140t46,104.5T500,1147q23,48 38,129.5T553,1426q0,106-11.5,158.5t-31,70.5T467,1673q-25,0-46-18t-34-73t-13-167V1240H249v81q0,144 12,245.5T322,1723t160,55q63,0 101-32.5t57.5-86.5t26-118.5T673,1412q0-107-26.5-196t-67-170t-83-161T421,717.5T377,527H655V439H253Z" />
      <glyph unicode="&#xb3;" glyph-name="gid141" horiz-adv-x="877" d="M437,550q-118,0-166,83T223,886v36H335V885q0-140 18-191t84-51t88.5,55T548,887q0,148-32.5,201.5T408,1142H377v94h29q50,1 80.5,15.5t45,63.5T546,1463q0,94-15,140.5T491.5,1665T436,1680q-30,0-51.5-17T351,1598.5T339,1460v-22H227v24q0,155 46.5,234.5T438,1776q117,0 168.5-80T658,1462q0-102-27.5-175.5T538,1188q65-29 93.5-115.5T660,885q0-169-53.5-252T437,550Z" />
      <glyph unicode="&#xb4;" glyph-name="gid229" horiz-adv-x="368" d="M50,1640l94,343H318L131,1640H50Z" />
      <glyph unicode="&#xb5;" glyph-name="gid213" horiz-adv-x="927" d="M385-20Q333-20 277,8.5T182.5,105T144,292V1500H309V304q0-88 37.5-131T451,130q78,0 120,50t42,133l-2,1187H777V0H613V151Q593,85 533.5,32.5T385-20ZM144,483H309V-265H144V483Z" />
      <glyph unicode="&#xb6;" glyph-name="gid188" horiz-adv-x="1010" d="M428,0V1168q-156,17-234,97.5T116,1455q0,67 19,123.5t70,97T349,1738t241,22H850V0H714V1608H564V0H428Z" />
      <glyph unicode="&#xb7;" glyph-name="gid157" horiz-adv-x="480" d="M159,781V965H337V781H159Z" />
      <glyph unicode="&#xb8;" glyph-name="gid234" horiz-adv-x="467" d="M145-602q-44,0-95,12v89q95,0 144.5,20t68,52.5T281-359q0,68-49,109T121-196L161,0h60l10-146q98-47 142-109t44-123q0-59-34.5-110t-96-82.5T145-602Z" />
      <glyph unicode="&#xb9;" glyph-name="gid139" horiz-adv-x="626" d="M262,434V1577q-26-32-74-48.5T99,1512v81q40,6 80,26.5t73.5,55.5t54.5,85h79V434H262Z" />
      <glyph unicode="&#xba;" glyph-name="gid128" horiz-adv-x="886" d="M460,534q-111,0-164,54T228,737.5T213,957v409q0,114 16.5,204.5t69.5,143T460,1766q109,0 160.5-52.5t67-143T703,1366V957q0-122-14-218T624,588.5T460,534Zm0,113q73,0 91.5,73.5T570,914v482q0,114-19,184.5T460,1651q-77,0-96-70.5T345,1396V914q0-120 19-193.5T460,647Z" />
      <glyph unicode="&#xbb;" glyph-name="gid181" horiz-adv-x="1304" d="M714,402V577l312,172L714,912v165l470-271V687L714,402Zm-527,0V577L499,749L187,912v165L657,806V687L187,402Z" />
      <glyph unicode="&#xbc;" glyph-name="gid144" horiz-adv-x="1535" d="M483,0L947,1777h124L605,0H483ZM262,449V1594q-26-32-73.5-48.5T99,1529v81q40,6 80,26.5t74,55.5t55,85h79V449H262ZM1190,0V237H914l-4,76l271,890h112V326h104V237H1293V0H1190ZM1013,326h177V972L1013,326Z" />
      <glyph unicode="&#xbd;" glyph-name="gid143" horiz-adv-x="1620" d="M486,0L950,1777h124L608,0H486ZM262,449V1594q-26-32-73.5-48.5T99,1529v81q40,6 80,26.5t74,55.5t55,85h79V449H262ZM1121,0V72q0,49 16.5,123.5T1198,362l170,348q30,62 42,136.5T1422,990q0,105-11.5,158t-31.5,70.5t-44,17.5q-25,0-46.5-17.5t-34-72.5T1242,978V803H1117v81q0,144 12,246.5t61,157t161,54.5q84,0 124.5-52t53.5-135.5T1542,975q0-91-17.5-167.5T1469,656L1306,320q-38-77-49.5-139.5T1244,101h279V0H1121Z" />
      <glyph unicode="&#xbe;" glyph-name="gid145" horiz-adv-x="1555" d="M540,0l465,1777h123L662,0H540ZM353,567q-118,0-166,83T139,904v36H252V904q0-141 18-192t85-51q65,0 88,55t23,189q0,149-33,202.5T325,1161H294v94h30q49,0 80,15t45.5,63.5T464,1482q0,93-14.5,140t-40,62.5T353,1700q-30,0-52-18t-33.5-65T256,1479v-23H143v25q0,155 47,234.5T355,1795t169.5-79T576,1481q0-103-27.5-176.5T457,1206q65-29 93.5-115.5T579,903q0-170-54-253T353,567ZM1247,0V237H971l-3,76l270,890h112V326h104V237H1350V0H1247ZM1070,326h177V972L1070,326Z" />
      <glyph unicode="&#xbf;" glyph-name="gid156" horiz-adv-x="748" d="M550,1008V692q-95-33-149-76.5T322.5,509t-31-154T285,135q0-150 15-214t75-64q65,0 83,58t18,217V342H628V136q0-58-2-129.5t-21.5-137T533-238.5T379-281q-93,0-144,34t-73,97T136-0.5T132,192q0,173 24,288t84,182.5T410,761v247H550Zm0,494V1203H409v299H550Z" />
      <glyph unicode="&#xc0;" glyph-name="gid6" horiz-adv-x="843" d="M39,0L318,1760H497L803,0H645L590,355H247L196,0H39ZM267,482H568L412,1464h-2L267,482ZM396,1900L209,2243H383l94-343H396Z" />
      <glyph unicode="&#xc1;" glyph-name="gid2" horiz-adv-x="843" d="M39,0L318,1760H497L803,0H645L590,355H247L196,0H39ZM267,482H568L412,1464h-2L267,482Zm47,1418l94,343H582L395,1900H314Z" />
      <glyph unicode="&#xc2;" glyph-name="gid4" horiz-adv-x="843" d="M39,0L318,1760H497L803,0H645L590,355H247L196,0H39ZM267,482H568L412,1464h-2L267,482ZM188,1900l130,265H502l130-265H496l-86,183l-86-183H188Z" />
      <glyph unicode="&#xc3;" glyph-name="gid8" horiz-adv-x="843" d="M39,0L318,1760H497L803,0H645L590,355H247L196,0H39ZM267,482H568L412,1464h-2L267,482ZM553,1900q-44,0-90,20.5t-91,41T285,1982q-16,0-23-2q-16-4-26.5-18.5T211,1921l-98,47q20,68 47,97t59,36t65,7q41,0 90.5-18.5t94-36.5t69.5-18h4q14,2 27,14.5t29,57.5l110-29l-9-29q-30-98-62.5-123.5T553,1900Z" />
      <glyph unicode="&#xc4;" glyph-name="gid5" horiz-adv-x="843" d="M39,0L318,1760H497L803,0H645L590,355H247L196,0H39ZM267,482H568L412,1464h-2L267,482ZM536,1900v145H731V1900H536Zm-445,0v145H286V1900H91Z" />
      <glyph unicode="&#xc5;" glyph-name="gid7" horiz-adv-x="843" d="M39,0L318,1760H497L803,0H645L590,355H247L196,0H39ZM267,482H568L412,1464h-2L267,482ZM411,1900q-89,0-133.5,50.5T233,2062t44.5,112T411,2225t133-51t44-112t-44-111.5T411,1900Zm0,57q51,0 76.5,33t25.5,72q0,40-25.5,73.5T411,2169q-50,0-75-33.5T311,2062q0-39 25-72t75-33Z" />
      <glyph unicode="&#xc6;" glyph-name="gid9" horiz-adv-x="1106" d="M49,0L429,1760h592V1628H717V964h286V829H717V133h303V0H563V361H278L205,0H49ZM308,487H563V1630l-20-1L308,487Z" />
      <glyph unicode="&#xc7;" glyph-name="gid12" horiz-adv-x="882" d="M454-20Q325-20 255.5,44.5t-96,190T133,541v710q0,113 12,210t45.5,169t99,112T460,1782q106,0 168-40t91.5-112.5T758,1460t9-211V1085H602v177q0,187-25,283.5T460,1642q-97,0-129.5-96.5T298,1263V541q0-152 11.5-245.5t45.5-136T454,117q93,0 120.5,98T602,541V697H767V542q0-181-24.5-307t-92-190.5T454-20ZM395-602q-44,0-95,12v89q95,0 144.5,20t68,52.5T531-359q0,68-49,109T371-196L411,0h60l10-146q98-47 142-109t44-123q0-59-34.5-110t-96-82.5T395-602Z" />
      <glyph unicode="&#xc8;" glyph-name="gid19" horiz-adv-x="727" d="M160,0V1760H642V1628H325V964H623V829H325V133H641V0H160ZM385,1900L198,2243H372l94-343H385Z" />
      <glyph unicode="&#xc9;" glyph-name="gid16" horiz-adv-x="727" d="M160,0V1760H642V1628H325V964H623V829H325V133H641V0H160ZM303,1900l94,343H571L384,1900H303Z" />
      <glyph unicode="&#xca;" glyph-name="gid17" horiz-adv-x="727" d="M160,0V1760H642V1628H325V964H623V829H325V133H641V0H160Zm17,1900l130,265H491l130-265H485l-86,183l-86-183H177Z" />
      <glyph unicode="&#xcb;" glyph-name="gid18" horiz-adv-x="727" d="M160,0V1760H642V1628H325V964H623V829H325V133H641V0H160ZM525,1900v145H720V1900H525Zm-445,0v145H275V1900H80Z" />
      <glyph unicode="&#xcc;" glyph-name="gid27" horiz-adv-x="488" d="M161,0V1760H326V0H161Zm69,1900L43,2243H217l94-343H230Z" />
      <glyph unicode="&#xcd;" glyph-name="gid24" horiz-adv-x="488" d="M161,0V1760H326V0H161ZM148,1900l94,343H416L229,1900H148Z" />
      <glyph unicode="&#xce;" glyph-name="gid25" horiz-adv-x="488" d="M161,0V1760H326V0H161ZM22,1900l130,265H336l130-265H330l-86,183l-86-183H22Z" />
      <glyph unicode="&#xcf;" glyph-name="gid26" horiz-adv-x="488" d="M161,0V1760H326V0H161ZM369,1900v145H564V1900H369Zm-445,0v145H119V1900H-76Z" />
      <glyph unicode="&#xd0;" glyph-name="gid14" horiz-adv-x="925" d="M160,0V1760H448q141,0 215-60.5T764.5,1528T792,1265V505q0-181-34-292T647,51T441,0H160ZM324,139H442q63,0 104,28.5t61,108T627,507v771q0,187-43,267t-135,80H324V139ZM34,834v91H510V834H34Z" />
      <glyph unicode="&#xd1;" glyph-name="gid34" horiz-adv-x="992" d="M160,0V1760H278L704,444l-17,579v737H832V0H706L303,1293l11-467V0H160ZM638,1900q-44,0-90,20.5t-91,41T370,1982q-16,0-23-2q-16-4-26.5-18.5T296,1921l-98,47q20,68 47,97t59,36t65,7q41,0 90.5-18.5t94-36.5t69.5-18h4q14,2 27,14.5t29,57.5l110-29l-9-29q-30-98-62.5-123.5T638,1900Z" />
      <glyph unicode="&#xd2;" glyph-name="gid39" horiz-adv-x="906" d="M454-20Q326-20 256,38T159.5,215T133,515v757q0,152 23.5,267T250,1718.5T461,1783q106,0 168.5-37T723,1641t40.5-161.5T773,1272V515q0-181-26-300T652.5,38T454-20Zm0,138q63,0 96,35.5T595.5,276T608,515v769q0,188-27.5,273.5T461,1643q-96,0-129.5-86T298,1285V515q0-153 12.5-239.5t46-122T454,118ZM439,1900L252,2243H426l94-343H439Z" />
      <glyph unicode="&#xd3;" glyph-name="gid36" horiz-adv-x="906" d="M454-20Q326-20 256,38T159.5,215T133,515v757q0,152 23.5,267T250,1718.5T461,1783q106,0 168.5-37T723,1641t40.5-161.5T773,1272V515q0-181-26-300T652.5,38T454-20Zm0,138q63,0 96,35.5T595.5,276T608,515v769q0,188-27.5,273.5T461,1643q-96,0-129.5-86T298,1285V515q0-153 12.5-239.5t46-122T454,118ZM357,1900l94,343H625L438,1900H357Z" />
      <glyph unicode="&#xd4;" glyph-name="gid37" horiz-adv-x="906" d="M454-20Q326-20 256,38T159.5,215T133,515v757q0,152 23.5,267T250,1718.5T461,1783q106,0 168.5-37T723,1641t40.5-161.5T773,1272V515q0-181-26-300T652.5,38T454-20Zm0,138q63,0 96,35.5T595.5,276T608,515v769q0,188-27.5,273.5T461,1643q-96,0-129.5-86T298,1285V515q0-153 12.5-239.5t46-122T454,118ZM231,1900l130,265H545l130-265H539l-86,183l-86-183H231Z" />
      <glyph unicode="&#xd5;" glyph-name="gid41" horiz-adv-x="906" d="M454-20Q326-20 256,38T159.5,215T133,515v757q0,152 23.5,267T250,1718.5T461,1783q106,0 168.5-37T723,1641t40.5-161.5T773,1272V515q0-181-26-300T652.5,38T454-20Zm0,138q63,0 96,35.5T595.5,276T608,515v769q0,188-27.5,273.5T461,1643q-96,0-129.5-86T298,1285V515q0-153 12.5-239.5t46-122T454,118ZM595,1900q-44,0-90,20.5t-91,41T327,1982q-16,0-23-2q-16-4-26.5-18.5T253,1921l-98,47q20,68 47,97t59,36t65,7q41,0 90.5-18.5t94-36.5t69.5-18h4q14,2 27,14.5t29,57.5l110-29l-9-29q-30-98-62.5-123.5T595,1900Z" />
      <glyph unicode="&#xd6;" glyph-name="gid38" horiz-adv-x="906" d="M454-20Q326-20 256,38T159.5,215T133,515v757q0,152 23.5,267T250,1718.5T461,1783q106,0 168.5-37T723,1641t40.5-161.5T773,1272V515q0-181-26-300T652.5,38T454-20Zm0,138q63,0 96,35.5T595.5,276T608,515v769q0,188-27.5,273.5T461,1643q-96,0-129.5-86T298,1285V515q0-153 12.5-239.5t46-122T454,118ZM578,1900v145H773V1900H578Zm-445,0v145H328V1900H133Z" />
      <glyph unicode="&#xd7;" glyph-name="gid204" horiz-adv-x="710" d="M170,388L82,478L266,662L82,846l88,90L355,751L540,936l88-90L444,662L628,478l-88-90L355,574L170,388Z" />
      <glyph unicode="&#xd8;" glyph-name="gid40" horiz-adv-x="893" d="M233-220l-70,25L704,1942l78-21L233-220ZM454-20Q326-20 256,38T159.5,215T133,515v757q0,152 23.5,267T250,1718.5T461,1783q106,0 168.5-37T723,1641t40.5-161.5T773,1272V515q0-181-26-300T652.5,38T454-20Zm0,138q63,0 96,35.5T595.5,276T608,515v769q0,188-27.5,273.5T461,1643q-96,0-129.5-86T298,1285V515q0-153 12.5-239.5t46-122T454,118Z" />
      <glyph unicode="&#xd9;" glyph-name="gid53" horiz-adv-x="926" d="M465-20Q339-20 269,31.5t-98,156T143,452V1760H308V457q0-109 8-185t41-116t108-40q76,0 108,40t38.5,115.5T618,456V1760H783V452q0-160-27-264.5t-96-156T465-20ZM449,1900L262,2243H436l94-343H449Z" />
      <glyph unicode="&#xda;" glyph-name="gid50" horiz-adv-x="926" d="M465-20Q339-20 269,31.5t-98,156T143,452V1760H308V457q0-109 8-185t41-116t108-40q76,0 108,40t38.5,115.5T618,456V1760H783V452q0-160-27-264.5t-96-156T465-20ZM367,1900l94,343H635L448,1900H367Z" />
      <glyph unicode="&#xdb;" glyph-name="gid51" horiz-adv-x="926" d="M465-20Q339-20 269,31.5t-98,156T143,452V1760H308V457q0-109 8-185t41-116t108-40q76,0 108,40t38.5,115.5T618,456V1760H783V452q0-160-27-264.5t-96-156T465-20ZM241,1900l130,265H555l130-265H549l-86,183l-86-183H241Z" />
      <glyph unicode="&#xdc;" glyph-name="gid52" horiz-adv-x="926" d="M465-20Q339-20 269,31.5t-98,156T143,452V1760H308V457q0-109 8-185t41-116t108-40q76,0 108,40t38.5,115.5T618,456V1760H783V452q0-160-27-264.5t-96-156T465-20ZM588,1900v145H783V1900H588Zm-445,0v145H338V1900H143Z" />
      <glyph unicode="&#xdd;" glyph-name="gid58" horiz-adv-x="797" d="M330,0V763L16,1760H181L412,999h3l198,761H782L495,764V0H330ZM302,1900l94,343H570L383,1900H302Z" />
      <glyph unicode="&#xde;" glyph-name="gid44" horiz-adv-x="882" d="M165,0V1760H330V1525H484q106,0 168.5-36.5T746,1384t40.5-161.5T796,1016V995q0-182-26-301.5t-94.5-179T477,455H330V0H165ZM330,594H480q62,0 94.5,37t45,124.5T632,994v35q0,186-27.5,273.5T485,1390H330V594Z" />
      <glyph unicode="&#xdf;" glyph-name="gid108" horiz-adv-x="946" d="M153,0V1417q0,91 8,159.5t36,114t88.5,68.5T452,1782q134,0 207.5-32.5t102.5-112T791,1417V1220q0-85-15-138t-51.5-84T623,945q88-21 137.5-63t70-120T851,553V476q0-112-8.5-200.5t-39-150T708.5,32T531,0H427V119q116,0 171,21.5t72.5,81T688,395V656q0,121-53,171.5T436,878v125q109,0 152.5,37T632,1170v322q0,104-35.5,141T464,1670q-81,0-114.5-37T316,1492V0H153Z" />
      <glyph unicode="&#xe0;" glyph-name="gid64" horiz-adv-x="860" d="M367-12Q243-12 183,90T123,379V558q0,86 33.5,144.5t94,101t141,78.5T566,957v106q0,110-6,179t-32.5,101.5T440,1376q-60,0-88.5-32t-37-102.5T306,1055v-41H141v41q0,92 8,175.5t37,148t89,102T441,1518q105,0 164-34.5T691,1382t33.5-166T731,988V0H566V117q-7-21-30.5-52T470,11T367-12Zm36,136q57,0 102,34t61,65V834q-89-40-144-69t-84-60t-40-75.5T287,515V390q0-143 23-204.5T403,124Zm13,1516L229,1983H403l94-343H416Z" />
      <glyph unicode="&#xe1;" glyph-name="gid61" horiz-adv-x="860" d="M367-12Q243-12 183,90T123,379V558q0,86 33.5,144.5t94,101t141,78.5T566,957v106q0,110-6,179t-32.5,101.5T440,1376q-60,0-88.5-32t-37-102.5T306,1055v-41H141v41q0,92 8,175.5t37,148t89,102T441,1518q105,0 164-34.5T691,1382t33.5-166T731,988V0H566V117q-7-21-30.5-52T470,11T367-12Zm36,136q57,0 102,34t61,65V834q-89-40-144-69t-84-60t-40-75.5T287,515V390q0-143 23-204.5T403,124ZM333,1640l94,343H601L414,1640H333Z" />
      <glyph unicode="&#xe2;" glyph-name="gid62" horiz-adv-x="860" d="M367-12Q243-12 183,90T123,379V558q0,86 33.5,144.5t94,101t141,78.5T566,957v106q0,110-6,179t-32.5,101.5T440,1376q-60,0-88.5-32t-37-102.5T306,1055v-41H141v41q0,92 8,175.5t37,148t89,102T441,1518q105,0 164-34.5T691,1382t33.5-166T731,988V0H566V117q-7-21-30.5-52T470,11T367-12Zm36,136q57,0 102,34t61,65V834q-89-40-144-69t-84-60t-40-75.5T287,515V390q0-143 23-204.5T403,124ZM208,1640l130,265H522l130-265H516l-86,183l-86-183H208Z" />
      <glyph unicode="&#xe3;" glyph-name="gid66" horiz-adv-x="860" d="M367-12Q243-12 183,90T123,379V558q0,86 33.5,144.5t94,101t141,78.5T566,957v106q0,110-6,179t-32.5,101.5T440,1376q-60,0-88.5-32t-37-102.5T306,1055v-41H141v41q0,92 8,175.5t37,148t89,102T441,1518q105,0 164-34.5T691,1382t33.5-166T731,988V0H566V117q-7-21-30.5-52T470,11T367-12Zm36,136q57,0 102,34t61,65V834q-89-40-144-69t-84-60t-40-75.5T287,515V390q0-143 23-204.5T403,124ZM572,1640q-44,0-90,20.5t-91,41T304,1722q-16,0-23-2q-16-4-26.5-18.5T230,1661l-98,47q20,68 47,97t59,36t65,7q41,0 90.5-18.5t94-36.5t69.5-18h4q14,2 27,14.5t29,57.5l110-29l-9-29q-30-98-62.5-123.5T572,1640Z" />
      <glyph unicode="&#xe4;" glyph-name="gid63" horiz-adv-x="860" d="M367-12Q243-12 183,90T123,379V558q0,86 33.5,144.5t94,101t141,78.5T566,957v106q0,110-6,179t-32.5,101.5T440,1376q-60,0-88.5-32t-37-102.5T306,1055v-41H141v41q0,92 8,175.5t37,148t89,102T441,1518q105,0 164-34.5T691,1382t33.5-166T731,988V0H566V117q-7-21-30.5-52T470,11T367-12Zm36,136q57,0 102,34t61,65V834q-89-40-144-69t-84-60t-40-75.5T287,515V390q0-143 23-204.5T403,124ZM555,1640v145H750V1640H555Zm-445,0v145H305V1640H110Z" />
      <glyph unicode="&#xe5;" glyph-name="gid65" horiz-adv-x="860" d="M367-12Q243-12 183,90T123,379V558q0,86 33.5,144.5t94,101t141,78.5T566,957v106q0,110-6,179t-32.5,101.5T440,1376q-60,0-88.5-32t-37-102.5T306,1055v-41H141v41q0,92 8,175.5t37,148t89,102T441,1518q105,0 164-34.5T691,1382t33.5-166T731,988V0H566V117q-7-21-30.5-52T470,11T367-12Zm36,136q57,0 102,34t61,65V834q-89-40-144-69t-84-60t-40-75.5T287,515V390q0-143 23-204.5T403,124Zm27,1516q-89,0-133.5,50.5T252,1802t44.5,112T430,1965t133-51t44-112t-44-111.5T430,1640Zm0,57q51,0 76.5,33t25.5,72q0,40-25.5,73.5T430,1909q-50,0-75-33.5T330,1802q0-39 25-72t75-33Z" />
      <glyph unicode="&#xe6;" glyph-name="gid67" horiz-adv-x="1269" d="M871-18q-95,0-153.5,32T626,106q-23-24-65.5-51.5T468,7.5T369-12Q244-12 185.5,90T127,379V558q0,86 34,144.5T255.5,803T397,881.5T572,958v106q0,111-7,179.5t-33.5,101T443,1377q-60,0-88-32.5T318.5,1241T310,1055v-41H145v41q0,92 8,175.5t36.5,148t89,102T445,1518q86,0 135-23.5t73-69.5q35,45 90,69t135,24q102,0 159.5-38.5t84-107.5t33.5-162t7-201V750H734V447q0-109 8-180.5t37.5-107T872,124q60,0 86.5,38t33,109.5T998,442V558h160V504q0-114-6-209.5t-32-166T1035.5,20T871-18ZM406,123q58,0 104,34.5T571,224V835q-89-40-144-69.5t-84.5-61T302,629T291,515V390q0-144 23-205.5T406,123ZM734,878H998v191q0,100-5,168.5T963,1341t-85,35q-64,0-94.5-39t-40-110T734,1062V878Z" />
      <glyph unicode="&#xe7;" glyph-name="gid70" horiz-adv-x="824" d="M429-18Q325-18 264,20.5t-90.5,109t-38,167T127,510v512q0,140 21,252.5t87,178T436,1518q101,0 159-35t84.5-100.5t34-155.5t7.5-198V966H556v103q0,100-5.5,166.5t-30,100.5T436,1370q-64,0-94.5-38t-40-107T292,1061V449q0-109 8-180t37-105t92-34q61,0 87,37t33,107.5T556,444V566H721V506q0-115-7-211T680.5,129t-86-108.5T429-18ZM366-602q-44,0-95,12v89q95,0 144.5,20t68,52.5T502-359q0,68-49,109T342-196L382,0h60l10-146q98-47 142-109t44-123q0-59-34.5-110t-96-82.5T366-602Z" />
      <glyph unicode="&#xe8;" glyph-name="gid77" horiz-adv-x="824" d="M430-18Q326-18 264.5,20t-91,108.5T135.5,296T127,509v511q0,106 10.5,196.5t42,158.5t93,105.5T435,1518q102,0 160-38.5T679.5,1372T713,1210t7-201V750H292V448q0-163 21.5-243.5T429,124q61,0 87,38.5t33,110T556,443V558H716V505q0-115-6-210.5T678.5,129T594,20.5T430-18ZM291,878H556v191q0,100-5,168.5T521,1341t-85,35q-63,0-94-39t-41-109.5T291,1062V878Zm107,762L211,1983H385l94-343H398Z" />
      <glyph unicode="&#xe9;" glyph-name="gid74" horiz-adv-x="824" d="M430-18Q326-18 264.5,20t-91,108.5T135.5,296T127,509v511q0,106 10.5,196.5t42,158.5t93,105.5T435,1518q102,0 160-38.5T679.5,1372T713,1210t7-201V750H292V448q0-163 21.5-243.5T429,124q61,0 87,38.5t33,110T556,443V558H716V505q0-115-6-210.5T678.5,129T594,20.5T430-18ZM291,878H556v191q0,100-5,168.5T521,1341t-85,35q-63,0-94-39t-41-109.5T291,1062V878Zm24,762l94,343H583L396,1640H315Z" />
      <glyph unicode="&#xea;" glyph-name="gid75" horiz-adv-x="824" d="M430-18Q326-18 264.5,20t-91,108.5T135.5,296T127,509v511q0,106 10.5,196.5t42,158.5t93,105.5T435,1518q102,0 160-38.5T679.5,1372T713,1210t7-201V750H292V448q0-163 21.5-243.5T429,124q61,0 87,38.5t33,110T556,443V558H716V505q0-115-6-210.5T678.5,129T594,20.5T430-18ZM291,878H556v191q0,100-5,168.5T521,1341t-85,35q-63,0-94-39t-41-109.5T291,1062V878ZM190,1640l130,265H504l130-265H498l-86,183l-86-183H190Z" />
      <glyph unicode="&#xeb;" glyph-name="gid76" horiz-adv-x="824" d="M430-18Q326-18 264.5,20t-91,108.5T135.5,296T127,509v511q0,106 10.5,196.5t42,158.5t93,105.5T435,1518q102,0 160-38.5T679.5,1372T713,1210t7-201V750H292V448q0-163 21.5-243.5T429,124q61,0 87,38.5t33,110T556,443V558H716V505q0-115-6-210.5T678.5,129T594,20.5T430-18ZM291,878H556v191q0,100-5,168.5T521,1341t-85,35q-63,0-94-39t-41-109.5T291,1062V878Zm246,762v145H732V1640H537Zm-445,0v145H287V1640H92Z" />
      <glyph unicode="&#xec;" glyph-name="gid86" horiz-adv-x="482" d="M158,0V1500H324V0H158Zm69,1640L40,1983H214l94-343H227Z" />
      <glyph unicode="&#xed;" glyph-name="gid83" horiz-adv-x="482" d="M158,0V1500H324V0H158ZM144,1640l94,343H412L225,1640H144Z" />
      <glyph unicode="&#xee;" glyph-name="gid84" horiz-adv-x="482" d="M158,0V1500H324V0H158ZM19,1640l130,265H333l130-265H327l-86,183l-86-183H19Z" />
      <glyph unicode="&#xef;" glyph-name="gid85" horiz-adv-x="482" d="M158,0V1500H324V0H158ZM366,1640v145H561V1640H366Zm-445,0v145H116V1640H-79Z" />
      <glyph unicode="&#xf0;" glyph-name="gid72" horiz-adv-x="926" d="M439-20Q309-20 237.5,34t-100,158.5T109,448V561q0,197 29,318t100,175t196,48q46-1 97.5-23t83.5-66q0,2-1,40t-3,94.5T605.5,1263t-7,104t-8.5,60L367,1294l-54,105l220,131q-53,62-120,85.5T290,1639l19,141q112,0 208.5-39T679,1617l200,118l55-105L738,1514q8-21 14.5-75.5t11.5-126t8.5-145t5-133.5t1.5-90V509q0-151-26.5-270.5T653,49.5T439-20Zm0,141q108,0 142,90t34,287V906q-13,8-63,33T433,964q-65,0-99.5-38.5T286.5,797T274,554V444q0-130 14.5-200.5T339,147t100-26Z" />
      <glyph unicode="&#xf1;" glyph-name="gid94" horiz-adv-x="933" d="M155,0V1500H320V1350q20,65 86.5,117T562,1519q101,0 163.5-75.5T788,1207V0H623V1215q0,89-40.5,125T483,1376q-41,0-78.5-15t-61-51.5T320,1208V0H155ZM609,1640q-44,0-90,20.5t-91,41T341,1722q-16,0-23-2q-16-4-26.5-18.5T267,1661l-98,47q20,68 47,97t59,36t65,7q41,0 90.5-18.5t94-36.5t69.5-18h4q14,2 27,14.5t29,57.5l110-29l-9-29q-30-98-62.5-123.5T609,1640Z" />
      <glyph unicode="&#xf2;" glyph-name="gid99" horiz-adv-x="864" d="M435-18Q331-18 269,20.5T176.5,129t-40,167T127,510v510q0,141 21,254t87,178.5T435,1518q101,0 162-37.5t91-105T727.5,1217t9.5-197V510q0-115-8.5-211.5T691,131T601.5,21T435-18Zm0,142q60,0 89.5,42T563,282.5T572,456v601q0,95-9,166.5t-38.5,112T435,1376q-64,0-95-40.5t-39.5-112T292,1057V456q0-99 9-173.5T341,166t94-42ZM418,1640L231,1983H405l94-343H418Z" />
      <glyph unicode="&#xf3;" glyph-name="gid96" horiz-adv-x="864" d="M435-18Q331-18 269,20.5T176.5,129t-40,167T127,510v510q0,141 21,254t87,178.5T435,1518q101,0 162-37.5t91-105T727.5,1217t9.5-197V510q0-115-8.5-211.5T691,131T601.5,21T435-18Zm0,142q60,0 89.5,42T563,282.5T572,456v601q0,95-9,166.5t-38.5,112T435,1376q-64,0-95-40.5t-39.5-112T292,1057V456q0-99 9-173.5T341,166t94-42ZM336,1640l94,343H604L417,1640H336Z" />
      <glyph unicode="&#xf4;" glyph-name="gid97" horiz-adv-x="864" d="M435-18Q331-18 269,20.5T176.5,129t-40,167T127,510v510q0,141 21,254t87,178.5T435,1518q101,0 162-37.5t91-105T727.5,1217t9.5-197V510q0-115-8.5-211.5T691,131T601.5,21T435-18Zm0,142q60,0 89.5,42T563,282.5T572,456v601q0,95-9,166.5t-38.5,112T435,1376q-64,0-95-40.5t-39.5-112T292,1057V456q0-99 9-173.5T341,166t94-42ZM210,1640l130,265H524l130-265H518l-86,183l-86-183H210Z" />
      <glyph unicode="&#xf5;" glyph-name="gid101" horiz-adv-x="864" d="M435-18Q331-18 269,20.5T176.5,129t-40,167T127,510v510q0,141 21,254t87,178.5T435,1518q101,0 162-37.5t91-105T727.5,1217t9.5-197V510q0-115-8.5-211.5T691,131T601.5,21T435-18Zm0,142q60,0 89.5,42T563,282.5T572,456v601q0,95-9,166.5t-38.5,112T435,1376q-64,0-95-40.5t-39.5-112T292,1057V456q0-99 9-173.5T341,166t94-42ZM575,1640q-44,0-90,20.5t-91,41T307,1722q-16,0-23-2q-16-4-26.5-18.5T233,1661l-98,47q20,68 47,97t59,36t65,7q41,0 90.5-18.5t94-36.5t69.5-18h4q14,2 27,14.5t29,57.5l110-29l-9-29q-30-98-62.5-123.5T575,1640Z" />
      <glyph unicode="&#xf6;" glyph-name="gid98" horiz-adv-x="864" d="M435-18Q331-18 269,20.5T176.5,129t-40,167T127,510v510q0,141 21,254t87,178.5T435,1518q101,0 162-37.5t91-105T727.5,1217t9.5-197V510q0-115-8.5-211.5T691,131T601.5,21T435-18Zm0,142q60,0 89.5,42T563,282.5T572,456v601q0,95-9,166.5t-38.5,112T435,1376q-64,0-95-40.5t-39.5-112T292,1057V456q0-99 9-173.5T341,166t94-42ZM557,1640v145H752V1640H557Zm-445,0v145H307V1640H112Z" />
      <glyph unicode="&#xf7;" glyph-name="gid205" horiz-adv-x="804" d="M94,698V827H710V698H94ZM332,291V524H479V291H332Zm0,696v226H479V987H332Z" />
      <glyph unicode="&#xf8;" glyph-name="gid100" horiz-adv-x="854" d="M277-209l-72,13L590,1726l72-14L277-209ZM435-18Q331-18 269,20.5T176.5,129t-40,167T127,510v510q0,141 21,254t87,178.5T435,1518q101,0 162-37.5t91-105T727.5,1217t9.5-197V510q0-115-8.5-211.5T691,131T601.5,21T435-18Zm0,142q60,0 89.5,42T563,282.5T572,456v601q0,95-9,166.5t-38.5,112T435,1376q-64,0-95-40.5t-39.5-112T292,1057V456q0-99 9-173.5T341,166t94-42Z" />
      <glyph unicode="&#xf9;" glyph-name="gid114" horiz-adv-x="927" d="M385-20Q333-20 277,8.5T182.5,105T144,292V1500H309V304q0-88 37.5-131T451,130q78,0 120,50t42,133l-2,1187H777V0H613V151Q593,85 533.5,32.5T385-20Zm64,1660L262,1983H436l94-343H449Z" />
      <glyph unicode="&#xfa;" glyph-name="gid111" horiz-adv-x="927" d="M385-20Q333-20 277,8.5T182.5,105T144,292V1500H309V304q0-88 37.5-131T451,130q78,0 120,50t42,133l-2,1187H777V0H613V151Q593,85 533.5,32.5T385-20ZM367,1640l94,343H635L448,1640H367Z" />
      <glyph unicode="&#xfb;" glyph-name="gid112" horiz-adv-x="927" d="M385-20Q333-20 277,8.5T182.5,105T144,292V1500H309V304q0-88 37.5-131T451,130q78,0 120,50t42,133l-2,1187H777V0H613V151Q593,85 533.5,32.5T385-20ZM241,1640l130,265H555l130-265H549l-86,183l-86-183H241Z" />
      <glyph unicode="&#xfc;" glyph-name="gid113" horiz-adv-x="927" d="M385-20Q333-20 277,8.5T182.5,105T144,292V1500H309V304q0-88 37.5-131T451,130q78,0 120,50t42,133l-2,1187H777V0H613V151Q593,85 533.5,32.5T385-20ZM589,1640v145H784V1640H589Zm-445,0v145H339V1640H144Z" />
      <glyph unicode="&#xfd;" glyph-name="gid119" horiz-adv-x="756" d="M125-242v136h59q43,0 78,3t43,11q16,17 13,52.5T308,42L59,1500H223L339,711l47-408h14l42,408l104,789H709L467-6q-13-87-29.5-139t-54-74.5T270-242H125ZM282,1640l94,343H550L363,1640H282Z" />
      <glyph unicode="&#xfe;" glyph-name="gid104" horiz-adv-x="893" d="M156-267V1782H322V1382q31,74 86.5,102T523,1512q105,0 156.5-65t69-176.5T766,1018V478q0-140-22.5-252.5T660.5,48T486-17q-55,0-99,36.5T322,106V-267H156ZM468,120q81,1 106.5,83T600,466v597q0,94-7.5,164.5t-34,109T475,1375q-48,0-82-20.5t-52.5-88T322,1061V460q0-172 27.5-256T468,120Z" />
      <glyph unicode="&#xff;" glyph-name="gid120" horiz-adv-x="756" d="M125-242v136h59q43,0 78,3t43,11q16,17 13,52.5T308,42L59,1500H223L339,711l47-408h14l42,408l104,789H709L467-6q-13-87-29.5-139t-54-74.5T270-242H125ZM503,1640v145H698V1640H503Zm-445,0v145H253V1640H58Z" />
      <glyph unicode="&#x2013;" glyph-name="gid165" horiz-adv-x="756" d="M120,605V741H636V605H120Z" />
      <glyph unicode="&#x2014;" glyph-name="gid166" horiz-adv-x="1153" d="M89,610V741h974V610H89Z" />
      <glyph unicode="&#x2018;" glyph-name="gid178" horiz-adv-x="595" d="M161,1145v203l116,429H390l-92-420H442V1145H161Z" />
      <glyph unicode="&#x2019;" glyph-name="gid179" horiz-adv-x="595" d="M233,1145l91,418H181v214H462V1572L345,1145H233Z" />
      <glyph unicode="&#x201a;" glyph-name="gid174" horiz-adv-x="484" d="M162-422L253,0H109V214H391V9L273-422H162Z" />
      <glyph unicode="&#x201c;" glyph-name="gid176" horiz-adv-x="1030" d="M621,1143v204l118,430H850l-91-421H903V1143H621Zm-450,0v204l118,430H401l-92-421H454V1143H171Z" />
      <glyph unicode="&#x201d;" glyph-name="gid177" horiz-adv-x="1077" d="M688,1142l91,420H636v215H918V1571L800,1142H688Zm-449,0l92,420H186v215H468V1571L350,1142H239Z" />
      <glyph unicode="&#x201e;" glyph-name="gid175" horiz-adv-x="1016" d="M679-421L771,0H626V213H909V9L790-421H679Zm-449,0L321,0H177V213H459V9L341-421H230Z" />
      <glyph unicode="&#x2022;" glyph-name="gid158" horiz-adv-x="861" d="M430,591q-104,0-157.5,60.5T219,828t53.5,176T430,1064q105,0 158.5-60T642,828T588.5,651.5T430,591Z" />
      <glyph unicode="&#x2039;" glyph-name="gid182" horiz-adv-x="606" d="M548,402L79,687V806l469,271V912L236,749L548,577V402Z" />
      <glyph unicode="&#x203a;" glyph-name="gid183" horiz-adv-x="727" d="M162,402V577L474,749L162,912v165L632,806V687L162,402Z" />
    </font>
</defs>
</svg>
