<?xml version="1.0" standalone="no"?>
<!DOCTYPE svg PUBLIC "-//W3C//DTD SVG 1.1//EN" "http://www.w3.org/Graphics/SVG/1.1/DTD/svg11.dtd">
<svg xmlns="http://www.w3.org/2000/svg">
  <defs>
    <font id="Antonio" horiz-adv-x="845">
      <font-face font-family="Antonio Light" units-per-em="2048" panose-1="0 0 0 0 0 0 0 0 0 0" ascent="2365" descent="-285" alphabetic="0" />
      <glyph unicode=" " glyph-name="gid146" horiz-adv-x="479" />
      <glyph unicode="!" glyph-name="gid153" horiz-adv-x="516" d="M221,383L151,1760H365L294,383H221ZM153,0V216H359V0H153Z" />
      <glyph unicode="&quot;" glyph-name="gid184" horiz-adv-x="756" d="M488,1088v672H662L555,1088H488Zm-311,0v672H351L244,1088H177Z" />
      <glyph unicode="#" glyph-name="gid160" horiz-adv-x="843" d="M69,0L176,646H16v93H191l52,323H55v94H259l100,604H486L384,1156H572l103,604H798L697,1156H853v-94H681L629,739H814V646H614L507,0H385L490,646H301L195,0H69ZM314,738H507l51,319H367L314,738Z" />
      <glyph unicode="$" glyph-name="gid199" horiz-adv-x="816" d="M378-235V49H487V-235H378ZM351,1487v283H460V1487H351ZM438,7Q280,7 201,108T122,438V558H299V450q0-138 31-211.5T428,165t97.5,43.5T556,366q0,54-12,107T500.5,579T410,688L302,790q-99,94-144.5,195.5T112,1201q0,176 82.5,260T416,1545q94,0 160-43.5T677,1356t35-279V996H541v111q0,140-28,209.5T419,1386q-68,0-98-48.5T289,1192q0-47 12-93t42.5-94T429,905L536,803Q641,703 690,594t49-232q0-162-72.5-258.5T438,7Z" />
      <glyph unicode="%" glyph-name="gid214" horiz-adv-x="2133" d="M632,0l718,1760h157L797,0H632ZM455,581q-113,0-177.5,39T187,753t-26,257v354q0,160 26,251t90,129t178,38q115,0 179-38t90-129t26-251V1010q0-163-26-257T633.5,620T455,581Zm0,150q76,0 103,44t27,162v497q0,115-26.5,156.5T455,1632q-76,0-103-42t-27-156V937q0-118 27-162t103-44ZM1672-20q-114,0-178.5,39T1403,151.5T1377,409V763q0,160 26,251t90,129t179,38q114,0 178-38t90-129t26-251V409q0-164-26.5-257.5T1849,19T1672-20Zm0,150q75,0 102.5,44T1802,336V833q0,115-27,156.5T1672,1031t-103.5-42T1541,833V336q0-118 27.5-162T1672,130Z" />
      <glyph unicode="&amp;" glyph-name="gid187" horiz-adv-x="901" d="M357-20Q237-20 153.5,64.5T70,335q0,134 35.5,239T199,769T323,947q-62,159-103.5,289.5T178,1438q0,170 74,257t204,87q101,0 158-41.5T694,1621t23-189q0-98-32-188.5t-82.5-173T495,910L659,517q32,68 71,139t92,141l75-129q-56-76-95-158.5T731,346L885,0H727L636,207q-25-63-60.5-114.5t-88-82T357-20Zm23,154q45,0 76,29t57,81t54,120L389,795q-45-61-79-133.5t-54.5-149T233,362q-3-102 30.5-165T380,134Zm55,931q59,82 98,176.5T572,1445q0,99-20,147t-92,48q-47,0-72.5-21T352,1566.5t-12-66t-2-62.5q0-54 28-154.5T435,1065Z" />
      <glyph unicode="&apos;" glyph-name="gid185" horiz-adv-x="409" d="M177,1125l-60,635H297l-65-635H177Z" />
      <glyph unicode="(" glyph-name="gid168" horiz-adv-x="554" d="M465-186q-95,0-157.5,15.5t-97.5,59T160.5,16T146,236V1360q0,136 14.5,220T210,1708t97.5,59T465,1782V1646q-45,0-72.5-6.5t-42-32T331,1525t-5-161V232q0-103 5-161t19.5-83.5t42-31.5T465-50V-186Z" />
      <glyph unicode=")" glyph-name="gid169" horiz-adv-x="554" d="M89-187V-51q45,0 72.5,6t42,32T223,70.5T228,231V1364q0,104-5,161t-19.5,82.5t-42,32T89,1646v136q95,0 157-15t97.5-59t50-128T408,1360V235q0-136-14.5-219.5T343.5-112T246-171.5T89-187Z" />
      <glyph unicode="*" glyph-name="gid159" horiz-adv-x="912" d="M382,1050l28,280L185,1156l-74,130l246,128L104,1534l75,129l230-166l-27,273H530l-22-271l225,172l75-129L555,1414l253-136l-75-130L508,1325l22-275H382Z" />
      <glyph unicode="+" glyph-name="gid202" horiz-adv-x="718" d="M290,534V792H63V916H290v253H425V916H655V792H425V534H290Z" />
      <glyph unicode="," glyph-name="gid149" horiz-adv-x="451" d="M166-347L250,0H130V207H362V9L259-347H166Z" />
      <glyph unicode="-" glyph-name="gid163" horiz-adv-x="696" d="M97,798V930H561V798H97Z" />
      <glyph unicode="." glyph-name="gid148" horiz-adv-x="532" d="M172,0V183H338V0H172Z" />
      <glyph unicode="/" glyph-name="gid161" horiz-adv-x="736" d="M69,0L513,1775H675L230,0H69Z" />
      <glyph unicode="0" glyph-name="gid129" horiz-adv-x="843" d="M425-21Q297-21 233.5,34.5t-84,166T129,475v841q0,157 21.5,260t85,154T425,1781q128,0 190-51t80.5-154T714,1316V475q0-123-9.5-216t-38-155T580,10.5T425-21Zm-2,152q36,0 59,13.5t35.5,50t17,103T539,470v857q0,126-10,190.5T494,1605t-71,23q-44,0-70-23t-37.5-87T304,1328V470q0-106 5-172.5t18-103t36.5-50T423,131Z" />
      <glyph unicode="1" glyph-name="gid130" horiz-adv-x="843" d="M400,0V1506q-24-28-72.5-52.5t-101-39T137,1400v132q53,8 117.5,37t121,77T460,1760H581V0H400Z" />
      <glyph unicode="2" glyph-name="gid131" horiz-adv-x="843" d="M176,0V108q10,79 29.5,147.5t52,141T338,558L489,852q32,64 51,120t29,109.5t13,109t3,117.5q0,136-10.5,204.5t-36,92T468,1627q-43,0-71-26.5t-41-96T343,1305V1065H168v184q0,180 25,298t92.5,176.5T484,1781q104-1 163-58t84-163.5T756,1301q0-108-13.5-196.5t-41-169T630,767L485,485q-40-75-66-130.5t-41.5-105T353,140H730V0H176Z" />
      <glyph unicode="3" glyph-name="gid132" horiz-adv-x="843" d="M419-20Q244-20 174,99T104,468v68H279V472q0-130 10.5-204.5t42-105T424,132q62,0 93,34t42.5,111T571,480q0,141-18.5,221t-60,113T379,847H335V995h42q70,0 112,23t61,93t19,209q0,131-19,196.5t-52.5,88T421,1627t-73.5-25.5T301,1509t-16-192v-37H109v45q0,229 69,341.5T422,1779q176,0 251-115.5T748,1320q0-149-41-256T571,921q65-29 104.5-96T733,668t18-191q0-250-77-373.5T419-20Z" />
      <glyph unicode="4" glyph-name="gid133" horiz-adv-x="843" d="M492,0V341H87V465L474,1760H656V484H805V341H656V0H492ZM236,484H492v953L236,484Z" />
      <glyph unicode="5" glyph-name="gid134" horiz-adv-x="843" d="M441-20Q327-20 264.5,25T177,144T152,305V487H327V292q0-76 24-118.5T439,131q57,0 85,40t28,132V859q0,107-23,160.5T444,1073q-50,0-83.5-47T327,879L173,897v863H685V1596H338V1146q16,38 59.5,60.5T491,1229q74,0 126-40t80-145.5T725,739V492q0-123-10-218.5t-38.5-161t-85-99T441-20Z" />
      <glyph unicode="6" glyph-name="gid135" horiz-adv-x="843" d="M452-21Q347-21 282.5,16.5T185,123T140.5,287.5T129,499v748q0,184 25,302.5t93.5,175T446,1781q114,0 175-48.5t85.5-153T731,1309v-60H562v43q0,140-9,212t-36.5,97.5T434,1627q-61,0-88.5-35.5T311,1474t-7-223V1030q29,31 71.5,49.5T465,1099q121,2 184.5-54.5t87.5-176T761,562V478q0-153-22-265T651,40T452-21Zm-3,156q60,0 90,28t40.5,96.5T590,449V566q0,144-9,228.5T543.5,916T456,953q-40,0-73-12t-53.5-24T304,903V480q0-122 10-198t41-111.5T449,135Z" />
      <glyph unicode="7" glyph-name="gid136" horiz-adv-x="843" d="M220,0q18,239 54,452t80,395t87,328q60,205 104.5,319T591,1612H89v148H760V1630q-2-14-49-144T606,1141q-40-148-79.5-329t-70-386.5T411,0H220Z" />
      <glyph unicode="8" glyph-name="gid137" horiz-adv-x="843" d="M427-20Q260-20 183,83T101,411l-1,56q0,114 17,207t51.5,160.5T253,936q-74,53-106,154.5T115,1345q0,228 71.5,332T429,1781t241-103.5T740,1345q0-152-31-252.5T600,939q49-35 80.5-103.5t46.5-162T742,467V419q0-229-74.5-334T427-20Zm2,151q55,0 84,30.5t39,99T562,440v56q0,192-33.5,281T429,866q-68,0-107.5-90.5T282,489V432q0-162 30-231.5T429,131Zm-2,865q43,0 73.5,32t47,107.5T564,1344q0,117-15,179t-45,85t-77,23q-46,0-76-24.5t-45-88T291,1339q0-130 16-205t46-106.5T427,996Z" />
      <glyph unicode="9" glyph-name="gid138" horiz-adv-x="843" d="M423-20Q314-20 252,28T164,179.5T138,449v61H304V470q0-148 10-220.5T353,154t85-23q60,0 83,40t26,125t3,220V714q-25-23-67-37.5T393,662q-122,0-183.5,61.5T127,907t-21,301v43q0,115 8.5,212T153,1631t91.5,110.5T410,1781q106,0 169-38t95-107t42.5-164.5T727,1260V532q0-184-22-306.5t-87-184T423-20ZM413,804q37,0 66,8.5t48,18T550,842v437q0,177-23.5,261T415,1624q-62,0-91.5-36T285,1477t-9-192v-95q0-143 8.5-228T322,840.5T413,804Z" />
      <glyph unicode=":" glyph-name="gid150" horiz-adv-x="518" d="M153,1047v248H359V1047H153Zm0-758V536H359V289H153Z" />
      <glyph unicode=";" glyph-name="gid151" horiz-adv-x="561" d="M194-57l91,369H193V529H407V321L297-57H194Zm-8,1104v248H392V1047H186Z" />
      <glyph unicode="&lt;" glyph-name="gid208" horiz-adv-x="730" d="M641,275L64,666V843l577,388V1034L192,756L641,465V275Z" />
      <glyph unicode="=" glyph-name="gid206" horiz-adv-x="722" d="M88,587V732H650V587H88Zm0,307v145H650V894H88Z" />
      <glyph unicode="&gt;" glyph-name="gid207" horiz-adv-x="730" d="M86,275V472L534,749L86,1041v190L663,840V663L86,275Z" />
      <glyph unicode="?" glyph-name="gid155" horiz-adv-x="789" d="M245,494V810q96,32 150.5,75t79,105.5T505,1144t6,220q0,143-12.5,204T426,1629q-65,0-80.5-56.5T330,1364V1160H159v208q0,61 3.5,133t26,136t77,104.5T422,1782q97,0 150.5-33.5T650,1652t29.5-150.5T685,1306q0-173-24-289T575,833T400,732V494H245ZM246,0V299H400V0H246Z" />
      <glyph unicode="@" glyph-name="gid186" horiz-adv-x="1441" d="M1226,72Q954-18 744-7T389.5,104.5T170,386T95,815q0,200 36.5,363t118,281.5T463,1642t323,64q204,0 327-100.5T1290.5,1322T1345,891q0-143-24.5-264.5t-78-195.5T1101,357q-63,0-111,55.5T926,549q-21-94-83-149.5T703,344q-79,1-145.5,49.5t-107,150T410,803q0,105 21,201.5t66,173t117.5,121t175.5,46t240-52.5V658q0-89 16-137t60-48q37,0 61,47.5t35.5,144T1214,907q0,122-13.5,242t-57,218t-132,156.5T775,1582q-198,0-314-97T295,1214.5T245,812q0-235 67-390.5T504.5,189T807,114t399,80l20-122ZM709,456q46-1 87,29.5t68.5,81T897,678v540q-77,25-141.5,14.5t-112-59.5t-74-139T543,808q0-176 43-263.5T709,456Z" />
      <glyph unicode="A" glyph-name="gid1" horiz-adv-x="867" d="M43,0L317,1760H523L824,0H652L598,348H264L215,0H43ZM286,490H575L426,1453h-3L286,490Z" />
      <glyph unicode="B" glyph-name="gid10" horiz-adv-x="895" d="M154,0V1760H445q135,0 207.5-40t100-127T781,1365v-31q0-151-23.5-245.5T657,950q61-26 93.5-89t45-150.5T808,525V490q-2-169-31.5-278T676.5,51.5T479,0H154ZM335,150H476q60,0 92.5,31T614,290t13,218v41q-1,174-28,249.5T483,874H335V150Zm0,866H460q44,0 72,9t43,39t20.5,91.5T601,1322v34q0,110-16,164t-51,71t-93,17H335V1016Z" />
      <glyph unicode="C" glyph-name="gid11" horiz-adv-x="896" d="M460-21Q332-21 259.5,43T158,230.5T129,533v719q0,114 13.5,210.5t49,168t102,111T467,1781q105,0 168-39t95-109t42.5-165.5T783,1258V1083H603v184q0,178-24,269t-113,91q-93,0-124.5-91.5T310,1268V531q0-143 11.5-231.5t44-128.5T460,131q90,0 116.5,93T603,531V702H784V533q0-180-27-303.5t-97-187T460-21Z" />
      <glyph unicode="D" glyph-name="gid13" horiz-adv-x="936" d="M154,0V1760H458q140,0 215.5-59.5t104-169T806,1271l1-764q0-180-34.5-292T660,51.5T451,0H154ZM334,150H448q60,0 99,27t59,101.5T626,496v785q0,179-42,256t-132,77H334V150Z" />
      <glyph unicode="E" glyph-name="gid15" horiz-adv-x="738" d="M154,0V1760H653V1613H335V973H635V823H335V148H653V0H154Z" />
      <glyph unicode="F" glyph-name="gid20" horiz-adv-x="724" d="M154,0V1760H653V1612H334V1019H635V869H334V0H154Z" />
      <glyph unicode="G" glyph-name="gid21" horiz-adv-x="917" d="M431-18Q281-18 205,109T129,528v726q0,115 14,211t51,167t103.5,110T470,1781q108,0 170.5-39t94-110T775,1464.5t9-211.5V1112H606v248q0,132-26,199.5T468,1627q-89,0-123.5-80.5T310,1267V536q0-218 29-311.5T462,131q90,0 120.5,94T613,538V764H467V909H784V0H680L658,121Q627,54 571,18T431-18Z" />
      <glyph unicode="H" glyph-name="gid22" horiz-adv-x="970" d="M154,0V1760H335V1003H635v757H816V0H635V859H335V0H154Z" />
      <glyph unicode="I" glyph-name="gid23" horiz-adv-x="491" d="M155,0V1760H336V0H155Z" />
      <glyph unicode="J" glyph-name="gid28" horiz-adv-x="835" d="M389-21Q224-21 154.5,81T85,389V584H264V402q0-73 5-134.5t30-99T383,131q60,0 84.5,36.5T497,269t5,149V1760H683V423q0-223-70.5-333.5T389-21Z" />
      <glyph unicode="K" glyph-name="gid29" horiz-adv-x="884" d="M154,0V1760H335V909l332,851H846L503,891L869,0H681L337,850V0H154Z" />
      <glyph unicode="L" glyph-name="gid30" horiz-adv-x="672" d="M154,0V1760H335V147H654V0H154Z" />
      <glyph unicode="M" glyph-name="gid32" horiz-adv-x="1255" d="M154,0V1760H360L634,321L897,1760h207V0H946V705l19,681L706,17H561L292,1386l20-681V0H154Z" />
      <glyph unicode="N" glyph-name="gid33" horiz-adv-x="1000" d="M154,0V1760H287L705,489l-18,553v718H846V0H710L311,1261l11-459V0H154Z" />
      <glyph unicode="O" glyph-name="gid35" horiz-adv-x="920" d="M462-20Q332-20 259.5,38T158,214T129,512v764q0,152 26,265.5t99,177T468,1782q106,0 170-36t97-103t44.5-160T791,1276V512q0-180-28-298T663.5,38T462-20Zm0,153q60,0 92,34.5t44,117T610,511v777q0,176-26.5,258T468,1628q-93,0-125.5-82T310,1289V511q0-144 12-226.5t45-117T462,133Z" />
      <glyph unicode="P" glyph-name="gid43" horiz-adv-x="873" d="M154,0V1760H486q106,0 170-36t96.5-103t43-160.5T806,1253v-23q0-180-26.5-300T683,750T482,690H335V0H154ZM335,842H475q62,0 94,36t44,120.5T625,1229v34q1,180-26,265.5T481,1614H335V842Z" />
      <glyph unicode="Q" glyph-name="gid45" horiz-adv-x="920" d="M647-323L421-14L546,43L747-248L647-323ZM462-20Q332-20 259.5,38T158,214T129,512v764q0,152 26,265.5t99,177T468,1782q106,0 170-36t97-103t44.5-160T791,1276V512q0-180-28-298T663.5,38T462-20Zm0,153q60,0 92,34.5t44,117T610,511v777q0,176-26.5,258T468,1628q-93,0-125.5-82T310,1289V511q0-144 12-226.5t45-117T462,133Z" />
      <glyph unicode="R" glyph-name="gid46" horiz-adv-x="921" d="M154,0V1760H492q140,0 207-47.5T786,1567t20-249q0-166-34-265T644,927q50-8 81.5-42.5t49-110.5T799,568.5T806,240q0-20 0-46t1-54t3-54.5T815.5,37T824,0H644q-5,10-8,34.5t-5.5,67T627,209t-1,156t0,212q0,109-7.5,166.5T579,823T474,850l-139,8V0H154ZM334,987H477q60,0 92.5,22.5T614,1103t12,216v13q0,120-11,180.5t-42,81T481,1614H334V987Z" />
      <glyph unicode="S" glyph-name="gid47" horiz-adv-x="813" d="M420-20Q314-20 249.5,20.5T152,133.5T107.5,303T96,515V691H272V512q0-203 29-291.5T426,132q66,0 96,32t38,101.5T568,447q0,126-38,210.5T410,820L300,927q-49,48-99,107t-83.5,136.5T84,1348q0,130 25.5,227.5t96.5,152T411,1782q108,0 170.5-39t92-109.5t38-166.5t8.5-210V1155H551v115q0,131-11,209.5t-40.5,114T412,1629q-53,0-87-24t-49-79.5T261,1373q0-77 18-125t54.5-88.5T423,1064L533,951q97-99 156-219.5T748,443q0-140-26-244.5T625.5,37T420-20Z" />
      <glyph unicode="T" glyph-name="gid48" horiz-adv-x="590" d="M213,0V1613H24v147H567V1613H393V0H213Z" />
      <glyph unicode="U" glyph-name="gid49" horiz-adv-x="937" d="M470-21Q343-21 270.5,30.5T168,187T138,452V1760H319V457q0-103 7.5-176.5T366,169t104-38q74,0 105,38t37.5,111T619,456V1760H799V452q0-160-29-265T669.5,30.5T470-21Z" />
      <glyph unicode="V" glyph-name="gid54" horiz-adv-x="866" d="M346,0L44,1760H217l118-724L447,341h2l98,695l104,724H823L548,0H346Z" />
      <glyph unicode="W" glyph-name="gid55" horiz-adv-x="1328" d="M295,0L55,1760H226L391,371L600,1760H749L968,371l136,1389h168L1062,0H883L681,1366L467,0H295Z" />
      <glyph unicode="X" glyph-name="gid56" horiz-adv-x="758" d="M48,0L292,926L59,1760H221l170-619l156,619H706L471,855L709,0H550L372,640L208,0H48Z" />
      <glyph unicode="Y" glyph-name="gid57" horiz-adv-x="809" d="M327,0V754L15,1760H196l220-743h4l190,743H793L508,754V0H327Z" />
      <glyph unicode="Z" glyph-name="gid59" horiz-adv-x="667" d="M76,0V155L428,1613H98v147H615V1627L262,148H608V0H76Z" />
      <glyph unicode="[" glyph-name="gid172" horiz-adv-x="611" d="M154-102V1760H546V1621H334V38H546V-102H154Z" />
      <glyph unicode="\" glyph-name="gid162" horiz-adv-x="732" d="M493,0L82,1760H240L650,0H493Z" />
      <glyph unicode="]" glyph-name="gid173" horiz-adv-x="611" d="M65-102V38H276V1621H65v139H457V-102H65Z" />
      <glyph unicode="^" glyph-name="gid212" horiz-adv-x="943" d="M112,837l241,923H590L831,837H653L472,1621L291,837H112Z" />
      <glyph unicode="_" glyph-name="gid167" horiz-adv-x="748" d="M48-192V-54H699V-192H48Z" />
      <glyph unicode="`" glyph-name="gid228" horiz-adv-x="382" d="M240,1640L50,1994H238l94-354H240Z" />
      <glyph unicode="a" glyph-name="gid60" horiz-adv-x="876" d="M368-12Q240-12 180,91T119,381V548q0,90 34,151.5T248,804t143,79t178,75v110q0,104-6,169.5T531,1334t-84,31q-57,0-85-30.5t-36-97T318,1063v-45H138v41q0,94 9.5,177t40,146t93,99.5T449,1518q104,0 164-33.5t89.5-99.5T741,1223t9-222V0H569V122q-8-25-32.5-56.5T470.5,11T368-12Zm44,147q57,0 99.5,34T569,236V831q-85-37-138-65.5T349.5,706t-39-74.5T300,521V391q0-138 22.5-197T412,135Z" />
      <glyph unicode="b" glyph-name="gid68" horiz-adv-x="911" d="M537-12q-60,0-116,29.5T334,121V0H154V1781H334V1377q14,63 69,101.5T516,1518q113,2 170.5-63t78-177T785,1028V475q0-139-18.5-249T695,52T537-12ZM477,137q78,1 102.5,77.5T604,464v600q0,91-7.5,158t-33,104.5T482,1364q-46,0-79-20.5t-51-85T334,1063V459q0-164 27-243t116-79Z" />
      <glyph unicode="c" glyph-name="gid69" horiz-adv-x="845" d="M441-18Q335-18 272,20T177.5,128T136,294.5T126,508v509q0,144 22.5,257t91,178.5T447,1518q100,0 159.5-34.5T695,1385t38-152.5t9-195.5V959H562v114q0,94-5,157.5t-29,96T446,1359q-62,0-91.5-35.5t-39-101.5T306,1066V444q0-103 8-170.5t36.5-100T439,141q59,0 84.5,35t32,102T562,439V570H742V496q0-114-8.5-208T696,125.5t-90-106T441-18Z" />
      <glyph unicode="d" glyph-name="gid71" horiz-adv-x="902" d="M373-12Q266-12 213,52.5t-70,176T126,480v550q0,139 22.5,249.5t84,174.5T408,1518q56,0 101-35.5t67-85.5v384H757V0H576V121Q546,48 490.5,18T373-12Zm59,148q47,0 79.5,21.5t49,87.5T577,442v602q0,162-25.5,240.5T438,1363q-79-1-105-77.5T307,1038V438q0-91 8-159t35-105.5T432,136Z" />
      <glyph unicode="e" glyph-name="gid73" horiz-adv-x="846" d="M439-18Q334-18 271,20T176.5,128t-41,166.5T126,508v518q0,106 12,195.5t46,156T281,1481t164,37q103,0 162.5-37.5T696,1375t37.5-159.5T742,1015V747H306V447q0-156 21-234t112-78q60,0 85.5,37.5t31.5,106T562,442V559H738V502q0-116-7-211T696,126.5t-89-107T439-18ZM306,880H562v191q0,96-5,161.5T527.5,1332T446,1366q-62,0-92-38t-39-106t-9-159V880Z" />
      <glyph unicode="f" glyph-name="gid78" horiz-adv-x="632" d="M210,0V1308H76v134H210v72q0,131 51.5,202T434,1787q56,0 97.5-9t44.5-10V1634q-42,7-75,7q-74,0-92.5-31T390,1528v-86H576V1308H390V0H210Z" />
      <glyph unicode="g" glyph-name="gid79" horiz-adv-x="897" d="M436-230q-94-4-175,22T126-139L192-10q41-29 99.5-52.5T432-84q67,2 105,52t38,135V256q-30-74-80-98T384,134q-104,0-160.5,63.5T146,371T125,619v408q0,140 26.5,251.5T240,1455t165,63q58-1 103.5-28.5T575,1400v100H755V121q0-53-13.5-113T694-104.5t-96.5-87T436-230Zm17,512q42,0 69,25.5t40,96T575,609v451q0,153-24.5,229T442,1365q-61,0-90.5-38.5t-38-106.5T305,1062V607q0-165 29.5-245T453,282Z" />
      <glyph unicode="h" glyph-name="gid80" horiz-adv-x="948" d="M152,0V1781H332V1346q20,68 86,120.5T573,1519q105,0 168.5-77T805,1203V0H624V1189q0,99-36,134.5T494,1359q-41,0-78.5-18T355,1282t-23-111V0H152Z" />
      <glyph unicode="i" glyph-name="gid81" horiz-adv-x="491" d="M155,0V1500H336V0H155Zm0,1638v169H336V1638H155Z" />
      <glyph unicode="j" glyph-name="gid87" horiz-adv-x="502" d="M189-216q-41,0-74.5,3T65-207V-80q12-1 27.5-2.5T126-84q27,0 37,21t10,49V1500H353V-4q0-82-24-128.5t-61-65T189-216ZM173,1638v169H354V1638H173Z" />
      <glyph unicode="k" glyph-name="gid89" horiz-adv-x="869" d="M154,0V1781H334V775l311,725H826L499,758L844,0H657L334,735V0H154Z" />
      <glyph unicode="l" glyph-name="gid90" horiz-adv-x="486" d="M154,0V1781H334V0H154Z" />
      <glyph unicode="m" glyph-name="gid92" horiz-adv-x="1399" d="M151,0V1500H331V1347q19,68 80.5,120T562,1519q73,0 127-36.5T769,1367q37,68 103.5,110t150.5,42q108,0 170.5-78.5T1256,1199V0H1075V1206q0,87-35,120t-92,33q-84,0-119.5-34T793,1199V0H613V1207q0,85-34.5,118.5T487,1359q-76,0-116-45t-40-128V0H151Z" />
      <glyph unicode="n" glyph-name="gid93" horiz-adv-x="947" d="M151,0V1500H331V1346q20,68 86,120.5T573,1519q105,0 168-77t63-239V0H624V1207q0,86-39,122t-97,36q-41,0-77-16.5T353,1295t-22-100V0H151Z" />
      <glyph unicode="o" glyph-name="gid95" horiz-adv-x="883" d="M444-18Q339-18 276,19.5t-96,107t-43.5,165T126,504v519q0,141 23,253t91.5,177T444,1518q102,0 164-37t94.5-104.5T746,1219t11-196V504q0-115-9.5-210T707,129T613,20.5T444-18Zm0,153q58,0 86,39.5T567.5,285T577,450v611q0,91-9.5,159T530,1326.5T444,1365q-61,0-90.5-38.5T315,1220t-9-159V450q0-94 9-165t39-110.5T444,135Z" />
      <glyph unicode="p" glyph-name="gid103" horiz-adv-x="911" d="M154-270V1500H334V1379q31,74 87.5,103.5T538,1512q106,0 159-64t70.5-174.5T785,1022V482q0-141-22-254.5T680.5,48T502-18q-55,0-100.5,36.5T334,104V-270H154ZM477,137q77,1 102.5,77.5T605,463v601q0,90-7.5,157.5t-33.5,105T482,1364q-46,0-79-20.5t-51-85T334,1063V456q0-163 27-241t116-78Z" />
      <glyph unicode="q" glyph-name="gid105" horiz-adv-x="900" d="M576-270V105q-21-50-66.5-86.5T408-18Q293-18 231.5,47.5T148,225.5T126,480v542q0,140 18,251t71,175t158,64q60,0 116-29t87-101v118H757V-270H576ZM428,136q46,0 79,21t50.5,85.5T575,438v606q0,164-27,241.5T433,1363q-79-1-103.5-77.5T305,1038V437q0-135 19.5-218T428,136Z" />
      <glyph unicode="r" glyph-name="gid106" horiz-adv-x="625" d="M153,0V1500H333V1333q26,87 90.5,136T588,1518q2,0 2.5-23t0.5-53.5t0-53.5t0-23q-48,0-94.5-12T409,1312t-76-81V0H153Z" />
      <glyph unicode="s" glyph-name="gid107" horiz-adv-x="777" d="M417-20Q258-20 179.5,81T101,411V531H278V423q0-138 31-211.5T406,138q68,0 98.5,43.5T535,339q0,54-12.5,107t-44,106T389,661L280,763q-98,94-144,195.5T90,1174q0,176 82.5,260T395,1518q93,0 159.5-43.5t101-145.5T690,1050V969H520v111q0,140-28,209.5T397,1359t-97-48t-32-146q-1-47 11-93t43-93.5T408,878L514,776Q620,676 668.5,567T717,336q0-163-72.5-259.5T417-20Z" />
      <glyph unicode="t" glyph-name="gid109" horiz-adv-x="591" d="M415-9Q319-9 270.5,13.5T205.5,86T189,220V1357H47v136H189v267H370V1493H539V1357H370V227q0-39 9.5-58T425,144t114-6V-9H415Z" />
      <glyph unicode="u" glyph-name="gid110" horiz-adv-x="941" d="M386-20q-59,0-115,30T178,110.5T141,300V1500H321V316q0-88 35-131.5T458,141q76,0 115.5,50.5T613,323l-1,1177H794V0H613V152Q593,84 534,32T386-20Z" />
      <glyph unicode="v" glyph-name="gid115" horiz-adv-x="749" d="M275,0L53,1500H217L334,667l46-397h6l40,398l106,832H697L475,0H275Z" />
      <glyph unicode="w" glyph-name="gid116" horiz-adv-x="1128" d="M233,0L57,1500H214l84-858l23-298h10l35,299l122,857h51h75h30L771,669l40-325h9l22,327l77,829h152L893,0H722L573,1223L396,0H233Z" />
      <glyph unicode="x" glyph-name="gid117" horiz-adv-x="714" d="M31,0L277,768L49,1500H207l159-500l144,500H676L439,772L684,0H516L349,539L193,0H31Z" />
      <glyph unicode="y" glyph-name="gid118" horiz-adv-x="768" d="M117-245v143h64q43,0 77,3.5T300-84q14,16 11.5,51.5T302,46L55,1500H232L345,714l45-407h16l41,407l102,786H725L481-15q-13-85-30.5-135.5T396-223T284-245H117Z" />
      <glyph unicode="z" glyph-name="gid121" horiz-adv-x="650" d="M76,0V133L405,1344H101v156H593V1380L261,155H575V0H76Z" />
      <glyph unicode="{" glyph-name="gid170" horiz-adv-x="644" d="M489-158q-98,0-154.5,30t-80,104T231,180V498q0,101-9,152.5t-38.5,70T92,739V885q62,0 91.5,18.5t38.5,70t9,152.5v318q0,131 23.5,204.5t80,103.5T489,1782h60V1634q-61,0-91-14.5t-39-58T410,1431V1148q0-116-10.5-180.5T358,869t-93-57q62-22 93-56.5t41.5-99T410,476V193q0-86 9-130T458,4.5T549-10V-158H489Z" />
      <glyph unicode="|" glyph-name="gid194" horiz-adv-x="512" d="M171-128V1813H347V-128H171Z" />
      <glyph unicode="}" glyph-name="gid171" horiz-adv-x="644" d="M95-158V-10q61,0 91,14.5T225,63t9,130V476q0,116 10.5,180.5t41.5,99T379,812q-62,23-93,57t-41.5,98.5T234,1148v283q0,87-9,130.5t-39,58T95,1634v148h60q99,0 155-30t79.5-103.5T413,1444V1126q0-101 9-152.5t38.5-70T552,885V739q-62,0-91.5-18.5t-38.5-70T413,498V180q0-130-23.5-204T310-128T155-158H95Z" />
      <glyph unicode="~" glyph-name="gid210" horiz-adv-x="1087" d="M246,835L111,894q31,117 84.5,171T320,1119q39,0 99.5-15T544,1069.5t116.5-35T737,1019q30,2 51.5,31T823,1152l145-31q-9-61-28-112.5T895,920t-59.5-58T763,841q-43,0-101.5,15.5T541,892T425,928t-87,17q-34,1-54.5-28T246,835Z" />
      <glyph unicode="&#xa0;" glyph-name="gid147" horiz-adv-x="479" />
      <glyph unicode="&#xa1;" glyph-name="gid154" horiz-adv-x="516" d="M294,1117L364-260H150l71,1377h73Zm68,383V1284H156v216H362Z" />
      <glyph unicode="&#xa2;" glyph-name="gid197" horiz-adv-x="845" d="M392,1508v256H496V1507l-104,1Zm0-1758V5H496V-250H392ZM441-18Q335-18 272,20T177.5,128T136,294.5T126,508v509q0,144 22.5,257t91,178.5T447,1518q100,0 159.5-34.5T695,1385t38-152.5t9-195.5V959H562v114q0,94-5,157.5t-29,96T446,1359q-62,0-91.5-35.5t-39-101.5T306,1066V444q0-103 8-170.5t36.5-100T439,141q59,0 84.5,35t32,102T562,439V570H742V496q0-114-8.5-208T696,125.5t-90-106T441-18Z" />
      <glyph unicode="&#xa3;" glyph-name="gid200" horiz-adv-x="843" d="M118,0V118q60,35 105,79t71,103t29.5,140.5T305,632q-9,45-18,90t-19,91H84V936H241l-39,188q-16,80-26.5,148T165,1395q0,198 76.5,292.5T477,1782q95,0 161-36t100.5-121.5T773,1390V1246H619v152q0,87-12.5,139t-42,75.5T482,1636q-44,0-76.5-16.5t-50-65.5T338,1407q0-48 8.5-112.5T372,1145l43-209H718V813H444q9-47 17.5-93T478,627q26-138 18.5-233T450,237.5T341,140H783V0H118Z" />
      <glyph unicode="&#xa4;" glyph-name="gid198" horiz-adv-x="1159" d="M274,501L125,651l91,91q-53,98-53,214q0,117 52,214l-90,90l149,150l87-88q97,55 218,55t218-54l87,87l150-149l-90-90q54-97 54-215T944,740l90-90L884,501l-89,88q-92-52-216-52T363,590l-89-89ZM579,671q82,0 142,39t93,104.5T847,958q0,122-72,202.5T579,1241q-81,0-141-38.5t-93-103T312,956q0-78 33-143.5T437.5,709T579,671Z" />
      <glyph unicode="&#xa5;" glyph-name="gid201" horiz-adv-x="809" d="M67,423V524H378V708H67V810H744V708H473V524H744V423H67ZM327,0V754L15,1760H196l220-743h4l190,743H793L508,754V0H327Z" />
      <glyph unicode="&#xa6;" glyph-name="gid195" horiz-adv-x="483" d="M154-120V705H329V-120H154Zm0,1050v830H329V930H154Z" />
      <glyph unicode="&#xa7;" glyph-name="gid189" horiz-adv-x="787" d="M423-20Q271-19 192,73.5T113,365V475H284V372q0-122 27-187.5T419,116q68-3 106,39.5T561,294q-1,67-23.5,118.5t-59,94T396,591L248,719q-61,54-102.5,117T104,981q0,61 27.5,122T227,1206q-57,65-89,135.5T105,1482q-1,98 35,165t105,101t164,34q145,0 219-95.5T702,1395V1282H535v95q0,140-33.5,204.5T404,1646q-38,0-69.5-15.5t-50-48.5T266,1496q-1-53 12-92t47.5-81T424,1215l150-139q51-48 80.5-95T696,887t10-97q-3-41-22-74t-44.5-60.5T588,603q75-72 103.5-155T723,301q7-144-73-232.5T423-20Zm90,702q20,18 32,44.5T557,784q0,56-26,103T450.5,988T308,1115q-31-25-45-55t-13-65q1-46 34-91.5T375.5,805T513,682Z" />
      <glyph unicode="&#xa8;" glyph-name="gid227" horiz-adv-x="768" d="M510,1640v158H718V1640H510Zm-460,0v158H259V1640H50Z" />
      <glyph unicode="&#xa9;" glyph-name="gid190" horiz-adv-x="1466" d="M737,188q-140,0-257.5,50.5T275,379.5T140.5,591T93,854t47.5,262.5T275,1328t204.5,141T737,1519t258-50t205-141t134.5-211.5T1382,854t-47.5-263T1200,379.5t-205-141T737,188Zm0,102q126,0 225.5,46T1131,461t104.5,180.5T1271,855q0,148-63.5,276.5t-183,207T737,1417q-125,0-224-46T345,1246.5t-105-180T204,853q0-148 63.5-276.5T450,369t287-79Zm-3,120q-104,0-159.5,56T519,626v439q0,112 47.5,174.5T738,1302q101,0 153-47.5T943,1096V970H831v96q0,80-23.5,105T736,1196q-50,0-75-26t-25-91V622q0-60 26.5-85.5T736,511q48,0 71.5,23.5T831,622V754H947V625q0-102-45.5-158.5T734,410Z" />
      <glyph unicode="&#xaa;" glyph-name="gid127" horiz-adv-x="855" d="M386,555q-103,0-150.5,83T188,870v134q0,73 27,122t75.5,83.5t114,63.5T548,1334v79q0,85-4.5,139.5T519,1633t-69,26q-69,0-86.5-55.5T346,1418v-38H202v34q0,75 8,141.5T242,1673t74,80t135,29q112,0 162.5-48T678,1593.5T692,1367V565H548v97q-8-29-48.5-68T386,555Zm36,118q46,0 80,27.5T548,754v476q-91-40-137.5-68.5t-62.5-68T332,981V878q0-111 18-158t72-47Z" />
      <glyph unicode="&#xab;" glyph-name="gid180" horiz-adv-x="1304" d="M1083,391L611,676V819l472,271V908L771,749l312-168V391Zm-531,0L79,676V819l473,271V908L240,749L552,581V391Z" />
      <glyph unicode="&#xac;" glyph-name="gid211" horiz-adv-x="947" d="M646,439V772H97V925H808V439H646Z" />
      <glyph unicode="&#xad;" glyph-name="gid164" horiz-adv-x="696" d="M90,597V741H606V597H90Z" />
      <glyph unicode="&#xae;" glyph-name="gid191" horiz-adv-x="1502" d="M549,437v852H761q107,0 153-48t46-160v-18q0-65-22-104t-86-55q55-7 77-43.5T951,772V437H828V756q0,45-15.5,66t-49,27T676,855V437H549ZM677,948h66q57,0 78,32.5t21,93.5q0,75-31,98.5T677,1196V948Zm66-642q126,0 226.5,45t171,123t108,178.5T1286,863q0,146-66,273t-187.5,204.5T743,1418q-126,0-226-45T346,1250T237.5,1071.5T200,861q0-146 66-273T453.5,383.5T743,306Zm0-101q-140,0-259.5,49.5t-209,139t-139,209T86,862t49.5,259.5t139,209t209,139T743,1519t259.5-49.5t209-139t139-209T1400,862t-49.5-259.5t-139-209t-209-139T743,205Z" />
      <glyph unicode="&#xaf;" glyph-name="gid233" horiz-adv-x="616" d="M50,1640v130H566V1640H50Z" />
      <glyph unicode="&#xb0;" glyph-name="gid193" horiz-adv-x="892" d="M445,1114q-87,0-166.5,37T148,1262.5T97,1448q0,112 51,186t131,111t167,37t167-37t131-111t51-186q0-111-51-185.5T613,1151t-168-37Zm2,106q54,0 102.5,25t79.5,76t31,127q0,77-31.5,127.5T548,1651t-102,25t-102-25t-80-75.5T233,1448q0-76 31.5-127t80.5-76t102-25Z" />
      <glyph unicode="&#xb1;" glyph-name="gid209" horiz-adv-x="854" d="M360,533V790H133V915H360v252H494V915H725V790H494V533H360ZM169,220V355H685V220H169Z" />
      <glyph unicode="&#xb2;" glyph-name="gid140" horiz-adv-x="853" d="M243,459v69q0,26 17.5,81.5t45,125.5T364,878t60,136t48,103t21,42q24,47 39,126t15,146q0,100-11.5,150t-30,67T463,1665q-25,0-45.5-17.5t-33-69.5T372,1420V1249H239v79q0,142 13,242.5T315,1725t162,54q63,0 102-32t60-84.5T668,1546t8-128q0-105-26.5-192.5t-66-166.5t-82-157t-76-162T378,556H658V459H243Z" />
      <glyph unicode="&#xb3;" glyph-name="gid141" horiz-adv-x="873" d="M435,558q-122,0-172,83T213,892v43H336V892q0-133 18-182t82-49q65,0 86.5,53.5T544,896q0,142-31.5,195T406,1144H376v102h28q49,0 79,15t44.5,62T542,1465q0,88-14.5,132.5t-38,59.5T435,1672q-29,0-50.5-17T352,1592.5T341,1462v-24H217v26q0,155 49.5,234T438,1777q121,0 174.5-79.5T666,1464q0-100-27-172.5T547,1195q65-29 93-114t28-186q0-170-55-253.5T435,558Z" />
      <glyph unicode="&#xb4;" glyph-name="gid229" horiz-adv-x="382" d="M50,1640l94,354H332L142,1640H50Z" />
      <glyph unicode="&#xb5;" glyph-name="gid213" horiz-adv-x="941" d="M386-20q-59,0-115,30T178,110.5T141,300V1500H321V316q0-88 35-131.5T458,141q76,0 115.5,50.5T613,323l-1,1177H794V0H613V152Q593,84 534,32T386-20ZM141,483H321V-265H141V483Z" />
      <glyph unicode="&#xb6;" glyph-name="gid188" horiz-adv-x="1031" d="M425,0V1155q-157,18-236.5,97.5T109,1455q0,77 23,134t77.5,95t150,57T600,1760H877V0H725V1595H577V0H425Z" />
      <glyph unicode="&#xb7;" glyph-name="gid157" horiz-adv-x="480" d="M155,777V970H341V777H155Z" />
      <glyph unicode="&#xb8;" glyph-name="gid234" horiz-adv-x="478" d="M154-608q-50,0-104,14v93q95,0 144.5,20t68,52.5T281-359q0,68-49,109T121-196L161,0h64l10-145q101-46 147-109t46-127q0-60-34.5-111.5T297-576T154-608Z" />
      <glyph unicode="&#xb9;" glyph-name="gid139" horiz-adv-x="627" d="M259,454V1569q-27-30-74.5-45.5T96,1508v88q40,5 80.5,25.5t75,55.5t53.5,83h90V454H259Z" />
      <glyph unicode="&#xba;" glyph-name="gid128" horiz-adv-x="864" d="M444,541q-112,0-167,52.5T205,741T188,960v415q0,113 18,203t73.5,142T444,1772q110,0 163.5-52T678,1578.5T695,1375V960q0-122-15.5-217t-69-148.5T444,541Zm0,122q68,0 87,69.5T550,916v490q0,109-18.5,176T444,1649q-74,0-92.5-67T333,1406V916q0-114 18.5-183.5T444,663Z" />
      <glyph unicode="&#xbb;" glyph-name="gid181" horiz-adv-x="1304" d="M713,391V581l312,168L713,908v182l472-271V676L713,391Zm-532,0V581L493,749L181,908v182L654,819V676L181,391Z" />
      <glyph unicode="&#xbc;" glyph-name="gid144" horiz-adv-x="1535" d="M477,0L947,1770h127L603,0H477ZM258,474V1583q-27-31-73-46.5T97,1521v87q40,5 80,25t73.5,55t53.5,82h87V474H258ZM1190,0V230H912l-2,82l263,869h129V325h98V230h-98V0H1190ZM1019,325h171V955L1019,325Z" />
      <glyph unicode="&#xbd;" glyph-name="gid143" horiz-adv-x="1620" d="M482,0L952,1770h128L609,0H482ZM258,474V1583q-27-31-73-46.5T97,1521v87q40,5 80,25t73.5,55t53.5,82h87V474H258ZM1112,0V69q0,46 14.5,123.5T1186,359l174,337q28,55 40.5,129T1413,966q0,100-11,150t-30,67t-43,17t-44.5-17t-33-69.5T1239,956V785H1108v80q0,140 12.5,240t62.5,153.5t161,53.5q84,0 126-52t56-133.5T1540,953q0-88-17.5-163.5T1469,643L1307,326q-34-68-47-128t-16-94h278V0H1112Z" />
      <glyph unicode="&#xbe;" glyph-name="gid145" horiz-adv-x="1555" d="M512,0L982,1770h127L638,0H512ZM348,583q-119,0-168,82T131,914v42H251V914q0-132 17.5-181T351,684q63,0 84.5,53T457,918q0,141-31.5,194T320,1165H291v100h28q48,1 77.5,15.5t44,61T455,1481q0,89-14,133.5t-38,59T349,1688q-29,0-50-17t-32-62t-11-130v-24H135v26q0,154 48,231.5T351,1790q118,0 171-78t53-231q0-100-27-171.5T457,1214q65-29 92.5-113T577,916q0-168-54.5-250.5T348,583ZM1225,0V230H947l-2,82l263,869h129V325h98V230h-98V0H1225ZM1054,325h171V955L1054,325Z" />
      <glyph unicode="&#xbf;" glyph-name="gid156" horiz-adv-x="789" d="M577,1007V691q-96-32-150.5-75t-79-105.5T317,357t-6-220Q311-6 323.5-67T396-128q65,0 80.5,56.5T492,137V341H663V133q0-61-3.5-133t-26-136t-77-104.5T400-281q-97,0-150.5,33.5T172-151T142.5-0.5T137,195q0,173 24,289t86,184T422,769v238H577Zm-1,494V1202H422v299H576Z" />
      <glyph unicode="&#xc0;" glyph-name="gid6" horiz-adv-x="867" d="M43,0L317,1760H523L824,0H652L598,348H264L215,0H43ZM286,490H575L426,1453h-3L286,490ZM408,1900L218,2254H406l94-354H408Z" />
      <glyph unicode="&#xc1;" glyph-name="gid2" horiz-adv-x="867" d="M43,0L317,1760H523L824,0H652L598,348H264L215,0H43ZM286,490H575L426,1453h-3L286,490Zm31,1410l94,354H599L409,1900H317Z" />
      <glyph unicode="&#xc2;" glyph-name="gid4" horiz-adv-x="867" d="M43,0L317,1760H523L824,0H652L598,348H264L215,0H43ZM286,490H575L426,1453h-3L286,490ZM183,1900l139,275H525l138-275H510l-86,192l-86-192H183Z" />
      <glyph unicode="&#xc3;" glyph-name="gid8" horiz-adv-x="867" d="M43,0L317,1760H523L824,0H652L598,348H264L215,0H43ZM286,490H575L426,1453h-3L286,490ZM568,1900q-44,0-91,20.5t-92.5,41T297,1982q-16,0-23-2q-16-4-26.5-18.5T223,1921l-103,48q20,68 47.5,98.5T227,2107t68,9q41,0 91-18.5t95-37t70-18.5h4q14,2 27,14.5t29,57.5l115-29l-9-32q-28-98-62-125.5T568,1900Z" />
      <glyph unicode="&#xc4;" glyph-name="gid5" horiz-adv-x="867" d="M43,0L317,1760H523L824,0H652L598,348H264L215,0H43ZM286,490H575L426,1453h-3L286,490ZM549,1900v158H757V1900H549Zm-460,0v158H298V1900H89Z" />
      <glyph unicode="&#xc5;" glyph-name="gid7" horiz-adv-x="867" d="M43,0L317,1760H523L824,0H652L598,348H264L215,0H43ZM286,490H575L426,1453h-3L286,490ZM423,1900q-91,0-138.5,53T237,2072t47.5,119T423,2244q93,0 139.5-53T609,2072t-46.5-119T423,1900Zm0,63q53,0 79.5,34.5T529,2072q0,42-26.5,76T423,2182q-51,0-76.5-34T321,2072q0-40 25.5-74.5T423,1963Z" />
      <glyph unicode="&#xc6;" glyph-name="gid9" horiz-adv-x="1138" d="M56,0L425,1760h628V1613H750V973h285V823H750V148h304V0H576V351H298L228,0H56ZM327,491H576V1615l-23-1L327,491Z" />
      <glyph unicode="&#xc7;" glyph-name="gid12" horiz-adv-x="896" d="M460-21Q332-21 259.5,43T158,230.5T129,533v719q0,114 13.5,210.5t49,168t102,111T467,1781q105,0 168-39t95-109t42.5-165.5T783,1258V1083H603v184q0,178-24,269t-113,91q-93,0-124.5-91.5T310,1268V531q0-143 11.5-231.5t44-128.5T460,131q90,0 116.5,93T603,531V702H784V533q0-180-27-303.5t-97-187T460-21ZM408-608q-50,0-104,14v93q95,0 144.5,20t68,52.5T535-359q0,68-49,109T375-196L415,0h64l10-145q101-46 147-109t46-127q0-60-34.5-111.5T551-576T408-608Z" />
      <glyph unicode="&#xc8;" glyph-name="gid19" horiz-adv-x="738" d="M154,0V1760H653V1613H335V973H635V823H335V148H653V0H154ZM385,1900L195,2254H383l94-354H385Z" />
      <glyph unicode="&#xc9;" glyph-name="gid16" horiz-adv-x="738" d="M154,0V1760H653V1613H335V973H635V823H335V148H653V0H154ZM295,1900l94,354H577L387,1900H295Z" />
      <glyph unicode="&#xca;" glyph-name="gid17" horiz-adv-x="738" d="M154,0V1760H653V1613H335V973H635V823H335V148H653V0H154Zm7,1900l139,275H503l138-275H488l-86,192l-86-192H161Z" />
      <glyph unicode="&#xcb;" glyph-name="gid18" horiz-adv-x="738" d="M154,0V1760H653V1613H335V973H635V823H335V148H653V0H154ZM527,1900v158H735V1900H527Zm-460,0v158H276V1900H67Z" />
      <glyph unicode="&#xcc;" glyph-name="gid27" horiz-adv-x="491" d="M155,0V1760H336V0H155Zm75,1900L40,2254H228l94-354H230Z" />
      <glyph unicode="&#xcd;" glyph-name="gid24" horiz-adv-x="491" d="M155,0V1760H336V0H155ZM139,1900l94,354H421L231,1900H139Z" />
      <glyph unicode="&#xce;" glyph-name="gid25" horiz-adv-x="491" d="M155,0V1760H336V0H155ZM5,1900l139,275H347l138-275H332l-86,192l-86-192H5Z" />
      <glyph unicode="&#xcf;" glyph-name="gid26" horiz-adv-x="491" d="M155,0V1760H336V0H155ZM372,1900v158H580V1900H372Zm-460,0v158H121V1900H-88Z" />
      <glyph unicode="&#xd0;" glyph-name="gid14" horiz-adv-x="936" d="M154,0V1760H458q140,0 215.5-59.5t104-169T806,1271l1-764q0-180-34.5-292T660,51.5T451,0H154ZM334,150H448q60,0 99,27t59,101.5T626,496v785q0,179-42,256t-132,77H334V150ZM34,829V929H520V829H34Z" />
      <glyph unicode="&#xd1;" glyph-name="gid34" horiz-adv-x="1000" d="M154,0V1760H287L705,489l-18,553v718H846V0H710L311,1261l11-459V0H154ZM645,1900q-44,0-91,20.5t-92.5,41T374,1982q-16,0-23-2q-16-4-26.5-18.5T300,1921l-103,48q20,68 47.5,98.5T304,2107t68,9q41,0 91-18.5t95-37t70-18.5h4q14,2 27,14.5t29,57.5l115-29l-9-32q-28-98-62-125.5T645,1900Z" />
      <glyph unicode="&#xd2;" glyph-name="gid39" horiz-adv-x="920" d="M462-20Q332-20 259.5,38T158,214T129,512v764q0,152 26,265.5t99,177T468,1782q106,0 170-36t97-103t44.5-160T791,1276V512q0-180-28-298T663.5,38T462-20Zm0,153q60,0 92,34.5t44,117T610,511v777q0,176-26.5,258T468,1628q-93,0-125.5-82T310,1289V511q0-144 12-226.5t45-117T462,133ZM445,1900L255,2254H443l94-354H445Z" />
      <glyph unicode="&#xd3;" glyph-name="gid36" horiz-adv-x="920" d="M462-20Q332-20 259.5,38T158,214T129,512v764q0,152 26,265.5t99,177T468,1782q106,0 170-36t97-103t44.5-160T791,1276V512q0-180-28-298T663.5,38T462-20Zm0,153q60,0 92,34.5t44,117T610,511v777q0,176-26.5,258T468,1628q-93,0-125.5-82T310,1289V511q0-144 12-226.5t45-117T462,133ZM354,1900l94,354H636L446,1900H354Z" />
      <glyph unicode="&#xd4;" glyph-name="gid37" horiz-adv-x="920" d="M462-20Q332-20 259.5,38T158,214T129,512v764q0,152 26,265.5t99,177T468,1782q106,0 170-36t97-103t44.5-160T791,1276V512q0-180-28-298T663.5,38T462-20Zm0,153q60,0 92,34.5t44,117T610,511v777q0,176-26.5,258T468,1628q-93,0-125.5-82T310,1289V511q0-144 12-226.5t45-117T462,133ZM220,1900l139,275H562l138-275H547l-86,192l-86-192H220Z" />
      <glyph unicode="&#xd5;" glyph-name="gid41" horiz-adv-x="920" d="M462-20Q332-20 259.5,38T158,214T129,512v764q0,152 26,265.5t99,177T468,1782q106,0 170-36t97-103t44.5-160T791,1276V512q0-180-28-298T663.5,38T462-20Zm0,153q60,0 92,34.5t44,117T610,511v777q0,176-26.5,258T468,1628q-93,0-125.5-82T310,1289V511q0-144 12-226.5t45-117T462,133ZM605,1900q-44,0-91,20.5t-92.5,41T334,1982q-16,0-23-2q-16-4-26.5-18.5T260,1921l-103,48q20,68 47.5,98.5T264,2107t68,9q41,0 91-18.5t95-37t70-18.5h4q14,2 27,14.5t29,57.5l115-29l-9-32q-28-98-62-125.5T605,1900Z" />
      <glyph unicode="&#xd6;" glyph-name="gid38" horiz-adv-x="920" d="M462-20Q332-20 259.5,38T158,214T129,512v764q0,152 26,265.5t99,177T468,1782q106,0 170-36t97-103t44.5-160T791,1276V512q0-180-28-298T663.5,38T462-20Zm0,153q60,0 92,34.5t44,117T610,511v777q0,176-26.5,258T468,1628q-93,0-125.5-82T310,1289V511q0-144 12-226.5t45-117T462,133ZM586,1900v158H794V1900H586Zm-460,0v158H335V1900H126Z" />
      <glyph unicode="&#xd7;" glyph-name="gid204" horiz-adv-x="710" d="M172,383L80,478L261,659L80,841l92,95L355,754L538,936l92-95L449,659L630,478l-92-95L355,565L172,383Z" />
      <glyph unicode="&#xd8;" glyph-name="gid40" horiz-adv-x="896" d="M211-214l-82,30L742,1928l89-26L211-214ZM462-20Q332-20 259.5,38T158,214T129,512v764q0,152 26,265.5t99,177T468,1782q106,0 170-36t97-103t44.5-160T791,1276V512q0-180-28-298T663.5,38T462-20Zm0,153q60,0 92,34.5t44,117T610,511v777q0,176-26.5,258T468,1628q-93,0-125.5-82T310,1289V511q0-144 12-226.5t45-117T462,133Z" />
      <glyph unicode="&#xd9;" glyph-name="gid53" horiz-adv-x="937" d="M470-21Q343-21 270.5,30.5T168,187T138,452V1760H319V457q0-103 7.5-176.5T366,169t104-38q74,0 105,38t37.5,111T619,456V1760H799V452q0-160-29-265T669.5,30.5T470-21ZM453,1900L263,2254H451l94-354H453Z" />
      <glyph unicode="&#xda;" glyph-name="gid50" horiz-adv-x="937" d="M470-21Q343-21 270.5,30.5T168,187T138,452V1760H319V457q0-103 7.5-176.5T366,169t104-38q74,0 105,38t37.5,111T619,456V1760H799V452q0-160-29-265T669.5,30.5T470-21ZM362,1900l94,354H644L454,1900H362Z" />
      <glyph unicode="&#xdb;" glyph-name="gid51" horiz-adv-x="937" d="M470-21Q343-21 270.5,30.5T168,187T138,452V1760H319V457q0-103 7.5-176.5T366,169t104-38q74,0 105,38t37.5,111T619,456V1760H799V452q0-160-29-265T669.5,30.5T470-21ZM228,1900l139,275H570l138-275H555l-86,192l-86-192H228Z" />
      <glyph unicode="&#xdc;" glyph-name="gid52" horiz-adv-x="937" d="M470-21Q343-21 270.5,30.5T168,187T138,452V1760H319V457q0-103 7.5-176.5T366,169t104-38q74,0 105,38t37.5,111T619,456V1760H799V452q0-160-29-265T669.5,30.5T470-21ZM594,1900v158H802V1900H594Zm-460,0v158H343V1900H134Z" />
      <glyph unicode="&#xdd;" glyph-name="gid58" horiz-adv-x="809" d="M327,0V754L15,1760H196l220-743h4l190,743H793L508,754V0H327ZM298,1900l94,354H580L390,1900H298Z" />
      <glyph unicode="&#xde;" glyph-name="gid44" horiz-adv-x="899" d="M164,0V1760H344V1516H496q106,0 169.5-36.5t96-104T805,1214t11-209V983q0-180-27-300T692.5,503T492,443H344V0H164ZM344,594H486q61,0 93,36t44.5,121.5T636,983v32q0,181-27,267.5T491,1369H344V594Z" />
      <glyph unicode="&#xdf;" glyph-name="gid108" horiz-adv-x="960" d="M150,0V1417q0,91 9.5,159T199,1689.5t93,68.5t169,23q133,0 208-33t106-112t31-219V1220q0-84-15-137t-51-85T640,945q87-20 136.5-63.5t69.5-122T866,553V476q0-112-9.5-200.5t-41-150T718.5,32T540,0H436V138q110,0 164,19.5T671,232t17,163V656q0,118-51,165T445,868v141q104,0 145,36t41,125v313q0,99-33.5,135T472,1654q-78,0-111-36t-33-135V0H150Z" />
      <glyph unicode="&#xe0;" glyph-name="gid64" horiz-adv-x="876" d="M368-12Q240-12 180,91T119,381V548q0,90 34,151.5T248,804t143,79t178,75v110q0,104-6,169.5T531,1334t-84,31q-57,0-85-30.5t-36-97T318,1063v-45H138v41q0,94 9.5,177t40,146t93,99.5T449,1518q104,0 164-33.5t89.5-99.5T741,1223t9-222V0H569V122q-8-25-32.5-56.5T470.5,11T368-12Zm44,147q57,0 99.5,34T569,236V831q-85-37-138-65.5T349.5,706t-39-74.5T300,521V391q0-138 22.5-197T412,135Zm10,1505L232,1994H420l94-354H422Z" />
      <glyph unicode="&#xe1;" glyph-name="gid61" horiz-adv-x="876" d="M368-12Q240-12 180,91T119,381V548q0,90 34,151.5T248,804t143,79t178,75v110q0,104-6,169.5T531,1334t-84,31q-57,0-85-30.5t-36-97T318,1063v-45H138v41q0,94 9.5,177t40,146t93,99.5T449,1518q104,0 164-33.5t89.5-99.5T741,1223t9-222V0H569V122q-8-25-32.5-56.5T470.5,11T368-12Zm44,147q57,0 99.5,34T569,236V831q-85-37-138-65.5T349.5,706t-39-74.5T300,521V391q0-138 22.5-197T412,135ZM332,1640l94,354H614L424,1640H332Z" />
      <glyph unicode="&#xe2;" glyph-name="gid62" horiz-adv-x="876" d="M368-12Q240-12 180,91T119,381V548q0,90 34,151.5T248,804t143,79t178,75v110q0,104-6,169.5T531,1334t-84,31q-57,0-85-30.5t-36-97T318,1063v-45H138v41q0,94 9.5,177t40,146t93,99.5T449,1518q104,0 164-33.5t89.5-99.5T741,1223t9-222V0H569V122q-8-25-32.5-56.5T470.5,11T368-12Zm44,147q57,0 99.5,34T569,236V831q-85-37-138-65.5T349.5,706t-39-74.5T300,521V391q0-138 22.5-197T412,135ZM198,1640l139,275H540l138-275H525l-86,192l-86-192H198Z" />
      <glyph unicode="&#xe3;" glyph-name="gid66" horiz-adv-x="876" d="M368-12Q240-12 180,91T119,381V548q0,90 34,151.5T248,804t143,79t178,75v110q0,104-6,169.5T531,1334t-84,31q-57,0-85-30.5t-36-97T318,1063v-45H138v41q0,94 9.5,177t40,146t93,99.5T449,1518q104,0 164-33.5t89.5-99.5T741,1223t9-222V0H569V122q-8-25-32.5-56.5T470.5,11T368-12Zm44,147q57,0 99.5,34T569,236V831q-85-37-138-65.5T349.5,706t-39-74.5T300,521V391q0-138 22.5-197T412,135ZM582,1640q-44,0-91,20.5t-92.5,41T311,1722q-16,0-23-2q-16-4-26.5-18.5T237,1661l-103,48q20,68 47.5,98.5T241,1847t68,9q41,0 91-18.5t95-37t70-18.5h4q14,2 27,14.5t29,57.5l115-29l-9-32q-28-98-62-125.5T582,1640Z" />
      <glyph unicode="&#xe4;" glyph-name="gid63" horiz-adv-x="876" d="M368-12Q240-12 180,91T119,381V548q0,90 34,151.5T248,804t143,79t178,75v110q0,104-6,169.5T531,1334t-84,31q-57,0-85-30.5t-36-97T318,1063v-45H138v41q0,94 9.5,177t40,146t93,99.5T449,1518q104,0 164-33.5t89.5-99.5T741,1223t9-222V0H569V122q-8-25-32.5-56.5T470.5,11T368-12Zm44,147q57,0 99.5,34T569,236V831q-85-37-138-65.5T349.5,706t-39-74.5T300,521V391q0-138 22.5-197T412,135ZM564,1640v158H772V1640H564Zm-460,0v158H313V1640H104Z" />
      <glyph unicode="&#xe5;" glyph-name="gid65" horiz-adv-x="876" d="M368-12Q240-12 180,91T119,381V548q0,90 34,151.5T248,804t143,79t178,75v110q0,104-6,169.5T531,1334t-84,31q-57,0-85-30.5t-36-97T318,1063v-45H138v41q0,94 9.5,177t40,146t93,99.5T449,1518q104,0 164-33.5t89.5-99.5T741,1223t9-222V0H569V122q-8-25-32.5-56.5T470.5,11T368-12Zm44,147q57,0 99.5,34T569,236V831q-85-37-138-65.5T349.5,706t-39-74.5T300,521V391q0-138 22.5-197T412,135Zm26,1505q-91,0-138.5,53T252,1812t47.5,119T438,1984q93,0 139.5-53T624,1812t-46.5-119T438,1640Zm0,63q53,0 79.5,34.5T544,1812q0,42-26.5,76T438,1922q-51,0-76.5-34T336,1812q0-40 25.5-74.5T438,1703Z" />
      <glyph unicode="&#xe6;" glyph-name="gid67" horiz-adv-x="1302" d="M892-18q-97,0-157,33.5T643,110q-23-26-65.5-55T484,7T382-12Q252-12 189,91.5T126,383V550q1,90 35,151t95,103.5T399,883t178,76v105q0,104-6.5,170.5t-32,98.5T453,1365q-56,0-83.5-30.5t-36-96.5T325,1064v-46H145v41q0,94 9.5,177t40,146t93,99.5T456,1518q87,0 136.5-24t74.5-72q36,47 92,71.5T896,1518q102,0 161.5-37.5T1146,1375t37.5-159.5T1192,1015V746H756V451q0-106 8.5-176.5t37-105T890,135q59,0 84.5,38T1006,281t6,165V559h177V503q0-115-7.5-210.5t-35-165T1058.5,20T892-18ZM420,135q56,0 99,34.5T577,236V830q-85-38-138-66.5t-81.5-59t-39.5-74T307,520V391q0-138 22.5-197T420,135ZM756,882h256v189q0,96-5,161.5T977.5,1332T895,1366q-61,0-91-38t-39-106.5T756,1061V882Z" />
      <glyph unicode="&#xe7;" glyph-name="gid70" horiz-adv-x="845" d="M441-18Q335-18 272,20T177.5,128T136,294.5T126,508v509q0,144 22.5,257t91,178.5T447,1518q100,0 159.5-34.5T695,1385t38-152.5t9-195.5V959H562v114q0,94-5,157.5t-29,96T446,1359q-62,0-91.5-35.5t-39-101.5T306,1066V444q0-103 8-170.5t36.5-100T439,141q59,0 84.5,35t32,102T562,439V570H742V496q0-114-8.5-208T696,125.5t-90-106T441-18ZM383-608q-50,0-104,14v93q95,0 144.5,20t68,52.5T510-359q0,68-49,109T350-196L390,0h64l10-145q101-46 147-109t46-127q0-60-34.5-111.5T526-576T383-608Z" />
      <glyph unicode="&#xe8;" glyph-name="gid77" horiz-adv-x="846" d="M439-18Q334-18 271,20T176.5,128t-41,166.5T126,508v518q0,106 12,195.5t46,156T281,1481t164,37q103,0 162.5-37.5T696,1375t37.5-159.5T742,1015V747H306V447q0-156 21-234t112-78q60,0 85.5,37.5t31.5,106T562,442V559H738V502q0-116-7-211T696,126.5t-89-107T439-18ZM306,880H562v191q0,96-5,161.5T527.5,1332T446,1366q-62,0-92-38t-39-106t-9-159V880Zm101,760L217,1994H405l94-354H407Z" />
      <glyph unicode="&#xe9;" glyph-name="gid74" horiz-adv-x="846" d="M439-18Q334-18 271,20T176.5,128t-41,166.5T126,508v518q0,106 12,195.5t46,156T281,1481t164,37q103,0 162.5-37.5T696,1375t37.5-159.5T742,1015V747H306V447q0-156 21-234t112-78q60,0 85.5,37.5t31.5,106T562,442V559H738V502q0-116-7-211T696,126.5t-89-107T439-18ZM306,880H562v191q0,96-5,161.5T527.5,1332T446,1366q-62,0-92-38t-39-106t-9-159V880Zm11,760l94,354H599L409,1640H317Z" />
      <glyph unicode="&#xea;" glyph-name="gid75" horiz-adv-x="846" d="M439-18Q334-18 271,20T176.5,128t-41,166.5T126,508v518q0,106 12,195.5t46,156T281,1481t164,37q103,0 162.5-37.5T696,1375t37.5-159.5T742,1015V747H306V447q0-156 21-234t112-78q60,0 85.5,37.5t31.5,106T562,442V559H738V502q0-116-7-211T696,126.5t-89-107T439-18ZM306,880H562v191q0,96-5,161.5T527.5,1332T446,1366q-62,0-92-38t-39-106t-9-159V880ZM183,1640l139,275H525l138-275H510l-86,192l-86-192H183Z" />
      <glyph unicode="&#xeb;" glyph-name="gid76" horiz-adv-x="846" d="M439-18Q334-18 271,20T176.5,128t-41,166.5T126,508v518q0,106 12,195.5t46,156T281,1481t164,37q103,0 162.5-37.5T696,1375t37.5-159.5T742,1015V747H306V447q0-156 21-234t112-78q60,0 85.5,37.5t31.5,106T562,442V559H738V502q0-116-7-211T696,126.5t-89-107T439-18ZM306,880H562v191q0,96-5,161.5T527.5,1332T446,1366q-62,0-92-38t-39-106t-9-159V880Zm243,760v158H757V1640H549Zm-460,0v158H298V1640H89Z" />
      <glyph unicode="&#xec;" glyph-name="gid86" horiz-adv-x="491" d="M155,0V1500H336V0H155Zm74,1640L39,1994H227l94-354H229Z" />
      <glyph unicode="&#xed;" glyph-name="gid83" horiz-adv-x="491" d="M155,0V1500H336V0H155ZM139,1640l94,354H421L231,1640H139Z" />
      <glyph unicode="&#xee;" glyph-name="gid84" horiz-adv-x="491" d="M155,0V1500H336V0H155ZM5,1640l139,275H347l138-275H332l-86,192l-86-192H5Z" />
      <glyph unicode="&#xef;" glyph-name="gid85" horiz-adv-x="491" d="M155,0V1500H336V0H155ZM371,1640v158H579V1640H371Zm-460,0v158H120V1640H-89Z" />
      <glyph unicode="&#xf0;" glyph-name="gid72" horiz-adv-x="942" d="M448-20Q314-20 240,34.5t-103.5,160T107,453V565q0,194 29.5,314T238,1053t198,49q48-1 97.5-22.5T614,1018q0,3-1.5,39.5t-4,90.5t-6,111t-8,101T584,1419L364,1289l-57,110l216,127q-51,60-116,84.5T287,1637l37,142q107-1 200-40t157-121l200,117l56-110L744,1511q10-22 18-80t14.5-132T787,1150t6.5-134t2.5-85V512q0-155-27.5-275T666.5,48.5T448-20Zm-1,155q103,0 135.5,85T615,492V886q-12,13-59.5,38.5T441,950q-62,0-95-36.5T300.5,792T288,563V443q0-124 14-191t48.5-92T447,135Z" />
      <glyph unicode="&#xf1;" glyph-name="gid94" horiz-adv-x="947" d="M151,0V1500H331V1346q20,68 86,120.5T573,1519q105,0 168-77t63-239V0H624V1207q0,86-39,122t-97,36q-41,0-77-16.5T353,1295t-22-100V0H151ZM618,1640q-44,0-91,20.5t-92.5,41T347,1722q-16,0-23-2q-16-4-26.5-18.5T273,1661l-103,48q20,68 47.5,98.5T277,1847t68,9q41,0 91-18.5t95-37t70-18.5h4q14,2 27,14.5t29,57.5l115-29l-9-32q-28-98-62-125.5T618,1640Z" />
      <glyph unicode="&#xf2;" glyph-name="gid99" horiz-adv-x="883" d="M444-18Q339-18 276,19.5t-96,107t-43.5,165T126,504v519q0,141 23,253t91.5,177T444,1518q102,0 164-37t94.5-104.5T746,1219t11-196V504q0-115-9.5-210T707,129T613,20.5T444-18Zm0,153q58,0 86,39.5T567.5,285T577,450v611q0,91-9.5,159T530,1326.5T444,1365q-61,0-90.5-38.5T315,1220t-9-159V450q0-94 9-165t39-110.5T444,135ZM426,1640L236,1994H424l94-354H426Z" />
      <glyph unicode="&#xf3;" glyph-name="gid96" horiz-adv-x="883" d="M444-18Q339-18 276,19.5t-96,107t-43.5,165T126,504v519q0,141 23,253t91.5,177T444,1518q102,0 164-37t94.5-104.5T746,1219t11-196V504q0-115-9.5-210T707,129T613,20.5T444-18Zm0,153q58,0 86,39.5T567.5,285T577,450v611q0,91-9.5,159T530,1326.5T444,1365q-61,0-90.5-38.5T315,1220t-9-159V450q0-94 9-165t39-110.5T444,135ZM335,1640l94,354H617L427,1640H335Z" />
      <glyph unicode="&#xf4;" glyph-name="gid97" horiz-adv-x="883" d="M444-18Q339-18 276,19.5t-96,107t-43.5,165T126,504v519q0,141 23,253t91.5,177T444,1518q102,0 164-37t94.5-104.5T746,1219t11-196V504q0-115-9.5-210T707,129T613,20.5T444-18Zm0,153q58,0 86,39.5T567.5,285T577,450v611q0,91-9.5,159T530,1326.5T444,1365q-61,0-90.5-38.5T315,1220t-9-159V450q0-94 9-165t39-110.5T444,135ZM201,1640l139,275H543l138-275H528l-86,192l-86-192H201Z" />
      <glyph unicode="&#xf5;" glyph-name="gid101" horiz-adv-x="883" d="M444-18Q339-18 276,19.5t-96,107t-43.5,165T126,504v519q0,141 23,253t91.5,177T444,1518q102,0 164-37t94.5-104.5T746,1219t11-196V504q0-115-9.5-210T707,129T613,20.5T444-18Zm0,153q58,0 86,39.5T567.5,285T577,450v611q0,91-9.5,159T530,1326.5T444,1365q-61,0-90.5-38.5T315,1220t-9-159V450q0-94 9-165t39-110.5T444,135ZM586,1640q-44,0-91,20.5t-92.5,41T315,1722q-16,0-23-2q-16-4-26.5-18.5T241,1661l-103,48q20,68 47.5,98.5T245,1847t68,9q41,0 91-18.5t95-37t70-18.5h4q14,2 27,14.5t29,57.5l115-29l-9-32q-28-98-62-125.5T586,1640Z" />
      <glyph unicode="&#xf6;" glyph-name="gid98" horiz-adv-x="883" d="M444-18Q339-18 276,19.5t-96,107t-43.5,165T126,504v519q0,141 23,253t91.5,177T444,1518q102,0 164-37t94.5-104.5T746,1219t11-196V504q0-115-9.5-210T707,129T613,20.5T444-18Zm0,153q58,0 86,39.5T567.5,285T577,450v611q0,91-9.5,159T530,1326.5T444,1365q-61,0-90.5-38.5T315,1220t-9-159V450q0-94 9-165t39-110.5T444,135ZM568,1640v158H776V1640H568Zm-460,0v158H317V1640H108Z" />
      <glyph unicode="&#xf7;" glyph-name="gid205" horiz-adv-x="804" d="M94,688V831H710V688H94ZM321,255V513H488V255H321Zm0,743v254H488V998H321Z" />
      <glyph unicode="&#xf8;" glyph-name="gid100" horiz-adv-x="864" d="M270-195l-83,19L620,1705l83-19L270-195ZM444-18Q339-18 276,19.5t-96,107t-43.5,165T126,504v519q0,141 23,253t91.5,177T444,1518q102,0 164-37t94.5-104.5T746,1219t11-196V504q0-115-9.5-210T707,129T613,20.5T444-18Zm0,153q58,0 86,39.5T567.5,285T577,450v611q0,91-9.5,159T530,1326.5T444,1365q-61,0-90.5-38.5T315,1220t-9-159V450q0-94 9-165t39-110.5T444,135Z" />
      <glyph unicode="&#xf9;" glyph-name="gid114" horiz-adv-x="941" d="M386-20q-59,0-115,30T178,110.5T141,300V1500H321V316q0-88 35-131.5T458,141q76,0 115.5,50.5T613,323l-1,1177H794V0H613V152Q593,84 534,32T386-20Zm68,1660L264,1994H452l94-354H454Z" />
      <glyph unicode="&#xfa;" glyph-name="gid111" horiz-adv-x="941" d="M386-20q-59,0-115,30T178,110.5T141,300V1500H321V316q0-88 35-131.5T458,141q76,0 115.5,50.5T613,323l-1,1177H794V0H613V152Q593,84 534,32T386-20ZM364,1640l94,354H646L456,1640H364Z" />
      <glyph unicode="&#xfb;" glyph-name="gid112" horiz-adv-x="941" d="M386-20q-59,0-115,30T178,110.5T141,300V1500H321V316q0-88 35-131.5T458,141q76,0 115.5,50.5T613,323l-1,1177H794V0H613V152Q593,84 534,32T386-20ZM230,1640l139,275H572l138-275H557l-86,192l-86-192H230Z" />
      <glyph unicode="&#xfc;" glyph-name="gid113" horiz-adv-x="941" d="M386-20q-59,0-115,30T178,110.5T141,300V1500H321V316q0-88 35-131.5T458,141q76,0 115.5,50.5T613,323l-1,1177H794V0H613V152Q593,84 534,32T386-20ZM596,1640v158H804V1640H596Zm-460,0v158H345V1640H136Z" />
      <glyph unicode="&#xfd;" glyph-name="gid119" horiz-adv-x="768" d="M117-245v143h64q43,0 77,3.5T300-84q14,16 11.5,51.5T302,46L55,1500H232L345,714l45-407h16l41,407l102,786H725L481-15q-13-85-30.5-135.5T396-223T284-245H117ZM278,1640l94,354H560L370,1640H278Z" />
      <glyph unicode="&#xfe;" glyph-name="gid104" horiz-adv-x="910" d="M153-270V1781H334V1379q30,74 86.5,103.5T537,1512q106,0 159-64t70.5-174.5T784,1022V482q0-141-22-254.5t-82.5-179T501-17q-55,0-100,36t-67,85V-270H153ZM475,133q79,1 103.5,80T603,464v600q0,90-7,157.5t-33,105T481,1364q-45,0-78.5-20.5t-51-85T334,1062V457q0-163 26.5-243.5T475,133Z" />
      <glyph unicode="&#xff;" glyph-name="gid120" horiz-adv-x="768" d="M117-245v143h64q43,0 77,3.5T300-84q14,16 11.5,51.5T302,46L55,1500H232L345,714l45-407h16l41,407l102,786H725L481-15q-13-85-30.5-135.5T396-223T284-245H117ZM510,1640v158H718V1640H510Zm-460,0v158H259V1640H50Z" />
      <glyph unicode="&#x2013;" glyph-name="gid165" horiz-adv-x="756" d="M120,584V741H636V584H120Z" />
      <glyph unicode="&#x2014;" glyph-name="gid166" horiz-adv-x="1153" d="M78,595V741h996V595H78Z" />
      <glyph unicode="&#x2018;" glyph-name="gid178" horiz-adv-x="594" d="M154,1126v214l120,430H393l-92-421H446V1126H154Z" />
      <glyph unicode="&#x2019;" glyph-name="gid179" horiz-adv-x="594" d="M226,1126l92,421H173v223H465V1556L345,1126H226Z" />
      <glyph unicode="&#x201a;" glyph-name="gid174" horiz-adv-x="484" d="M158-407L247,0H104V221H394V9L278-407H158Z" />
      <glyph unicode="&#x201c;" glyph-name="gid176" horiz-adv-x="1030" d="M619,1136v212l116,422H854l-89-413H909V1136H619Zm-452,0v212l116,422H403l-90-413H457V1136H167Z" />
      <glyph unicode="&#x201d;" glyph-name="gid177" horiz-adv-x="1077" d="M687,1136l89,413H634v221H924V1558L806,1136H687Zm-452,0l89,413H181v221H471V1558L354,1136H235Z" />
      <glyph unicode="&#x201e;" glyph-name="gid175" horiz-adv-x="1016" d="M678-413L768,0H625V221H915V9L798-413H678Zm-452,0L316,0H173V221H463V9L345-413H226Z" />
      <glyph unicode="&#x2022;" glyph-name="gid158" horiz-adv-x="861" d="M430,550q-108,0-164,62.5T210,795q0,119 56,181.5T430,1039q109,0 165-62.5T651,795q0-120-56-182.5T430,550Z" />
      <glyph unicode="&#x2039;" glyph-name="gid182" horiz-adv-x="606" d="M548,391L75,676V819l473,271V908L236,749L548,581V391Z" />
      <glyph unicode="&#x203a;" glyph-name="gid183" horiz-adv-x="727" d="M159,391V581L471,749L159,908v182L631,819V676L159,391Z" />
    </font>
</defs>
</svg>
