<?xml version="1.0" standalone="no"?>
<!DOCTYPE svg PUBLIC "-//W3C//DTD SVG 1.1//EN" "http://www.w3.org/Graphics/SVG/1.1/DTD/svg11.dtd">
<svg xmlns="http://www.w3.org/2000/svg">
  <defs>
    <font id="Antonio" horiz-adv-x="873">
      <font-face font-family="Antonio Medium" units-per-em="2048" panose-1="0 0 0 0 0 0 0 0 0 0" ascent="2365" descent="-285" alphabetic="0" />
      <glyph unicode=" " glyph-name="gid146" horiz-adv-x="468" />
      <glyph unicode="!" glyph-name="gid153" horiz-adv-x="525" d="M218,401L140,1760H385L308,401H218ZM146,0V234H376V0H146Z" />
      <glyph unicode="&quot;" glyph-name="gid184" horiz-adv-x="786" d="M437,1072l-15,688H622L514,1072H437Zm-183,0l-15,688H440L332,1072H254Z" />
      <glyph unicode="#" glyph-name="gid160" horiz-adv-x="944" d="M117,0l91,616H59V724H224l52,345H102v108H293l89,583H537l-90-583H618l91,583H863l-88-583H919V1069H758L706,724H877V616H690L597,0H443l91,616H362L271,0H117ZM377,723H551l51,342H429L377,723Z" />
      <glyph unicode="$" glyph-name="gid199" horiz-adv-x="824" d="M373-241V38H490V-241H373ZM359,1489v271H476V1489H359ZM429-7Q265-7 181,94T97,428V538H306V424q0-120 27-184t88-64t89.5,40T539,358q0,52-16,103.5T474.5,563T391,661L279,766q-94,90-143.5,191.5T86,1174q0,184 87,270t243,86q104,0 174-43.5t105.5-144T731,1069V995H527v103q0,121-24,184.5T418,1346q-59,0-88.5-34.5T297,1188q-1-47 12-93.5t42.5-92.5T428,913L543,806q106-98 159.5-209T756,361q0-174-79-271T429-7Z" />
      <glyph unicode="%" glyph-name="gid214" horiz-adv-x="2184" d="M654,0l703,1760h178L840,0H654ZM474,581q-115,0-184.5,42t-100,136T159,1008v356q0,154 29.5,245.5t99,132T474,1782q119,0 188-40.5t99-132T791,1364V1008q0-155-30.5-249t-100-136T474,581Zm0,166q72,0 97.5,43T597,937v496q0,102-25,142t-98,40q-71,0-96.5-40.5T352,1433V937q0-104 25.5-147T474,747ZM1701-20q-116,0-186,42T1414.5,157.5T1384,407V763q0,154 30,245.5t99.5,132T1701,1181t187-40.5t99-132T2017,763V407q0-156-31-249.5T1885.5,22T1701-20Zm0,166q70,0 96,43t26,147V832q0,102-25,142t-97,40t-97.5-40.5T1578,832V336q0-104 25.5-147t97.5-43Z" />
      <glyph unicode="&amp;" glyph-name="gid187" horiz-adv-x="978" d="M377-20Q246-20 158,71T70,346q0,123 38.5,225.5t99.5,192T337,936q-62,159-103.5,292.5T192,1433q0,170 81.5,259.5T491,1782q104,0 167.5-41.5T751,1621t29-189q0-97-33.5-188.5t-86-177T550,903L702,534q35,68 78,138.5T877,813l92-154q-59-74-103.5-157T785,337L939,0H743L667,162q-33-54-72.5-95t-92-64T377-20Zm32,189q39,0 67,22.5T529.5,255T583,352L415,757q-41-58-72.5-118.5t-51-123T268,389q-4-104 28-162t113-58Zm69,918q59,79 96.5,168T612,1436q0,94-21,136t-87,42q-42,0-65.5-17.5t-34-45t-13-58.5t-2.5-59q0-47 25-141.5T478,1087Z" />
      <glyph unicode="&apos;" glyph-name="gid185" horiz-adv-x="415" d="M170,1125l-60,635H315l-65-635H170Z" />
      <glyph unicode="(" glyph-name="gid168" horiz-adv-x="572" d="M490-220q-103,0-171.5,17T209-139.5T150.5-7.5T133,214V1357q0,136 17.5,221.5T209,1710t109.5,63.5T490,1791V1626q-45,0-72.5-8t-42-34T356,1504.5T351,1361V210q0-90 5-143.5T375.5-13t42-34.5T490-56V-220Z" />
      <glyph unicode=")" glyph-name="gid169" horiz-adv-x="572" d="M83-220V-56q45,0 72.5,8.5t42,34.5T217,66.5T222,210V1361q0,90-5,143.5T197.5,1584t-42,34T83,1626v165q102,0 171-17.5T363.5,1710t58-131.5T439,1357V214Q439,78 421.5-7.5t-58-132T254-203T83-220Z" />
      <glyph unicode="*" glyph-name="gid159" horiz-adv-x="892" d="M363,994l31,284L166,1101L83,1246l252,125L78,1489l83,145l232-169l-30,277H529l-25-274l226,172l84-144L556,1371l258-131l-84-145L504,1273l25-279H363Z" />
      <glyph unicode="+" glyph-name="gid202" horiz-adv-x="707" d="M274,484V731H51V879H274v242H430V879H655V731H430V484H274Z" />
      <glyph unicode="," glyph-name="gid149" horiz-adv-x="467" d="M170-343L243,0H119V242H383V9L282-343H170Z" />
      <glyph unicode="-" glyph-name="gid163" horiz-adv-x="696" d="M88,742V893H546V742H88Z" />
      <glyph unicode="." glyph-name="gid148" horiz-adv-x="532" d="M166,0V208H352V0H166Z" />
      <glyph unicode="/" glyph-name="gid161" horiz-adv-x="750" d="M61,0L497,1768H691L253,0H61Z" />
      <glyph unicode="0" glyph-name="gid129" horiz-adv-x="886" d="M446-21Q302-21 232.5,38t-91,170T120,475v841q0,152 23,255t92.5,155.5T446,1779t209.5-52.5t89-155.5T765,1316V475q0-117-10-209T714,110T618.5,12.5T446-21Zm-1,187q29,0 49.5,7.5t34,36.5T548,301t6,169v857q0,127-13,182.5t-37,70T445,1594q-34,0-60-14t-40.5-69.5T330,1328V470q0-108 6.5-169.5t20-90.5T392,173.5t53-7.5Z" />
      <glyph unicode="1" glyph-name="gid130" horiz-adv-x="817" d="M365,0V1472q-24-28-71-51.5t-98.5-37T107,1370v171q53,8 116.5,34.5T342,1648t83,112H584V0H365Z" />
      <glyph unicode="2" glyph-name="gid131" horiz-adv-x="874" d="M171,0V99q0,100 17.5,185T246,460T353,668L517,955q22,38 36,79.5t23,86t12.5,91.5t3.5,97q0,121-10.5,181.5T548,1572t-61,21q-40,0-65.5-21t-38-85.5T371,1293V1065H158v121q0,190 21,322.5T272.5,1710T500,1779q119,0 184-63t90.5-173T800,1293q0-86-11.5-160.5t-36-142T690,854L530,566q-51-91-81-153.5t-44.5-118T386,166H772V0H171Z" />
      <glyph unicode="3" glyph-name="gid132" horiz-adv-x="876" d="M437-20Q251-20 179,98T107,466v94H314V470q0-112 9-179t36.5-96T443,166q57,0 85,33.5T565.5,305T575,491q0,129-14.5,205T509,805T403,838H349v173h52q67,0 104.5,25.5T558,1129t15,189q0,115-15,173.5t-43.5,80T445,1593q-42,0-70-25t-40.5-85T322,1316v-45H111v55q0,232 73,342.5T443,1779q185,0 265-115.5T788,1318q0-144-42-248.5T609,930q67-31 107-95.5t58-153T792,489q0-254-80.5-381.5T437-20Z" />
      <glyph unicode="4" glyph-name="gid133" horiz-adv-x="874" d="M503,0V327H83V483L473,1760H701V502H844V327H701V0H503ZM261,502H503v906L261,502Z" />
      <glyph unicode="5" glyph-name="gid134" horiz-adv-x="874" d="M454-20Q336-20 267,25.5t-98.5,123T139,322V521H349V327q0-69 20.5-115.5T454,165q57,0 81.5,43T560,338V847q0,98-21,151t-83,53q-50,0-80.5-45T345,867L155,884v876H729V1563H356V1163q18,33 62.5,53t95.5,20q91,0 148-51t83.5-174.5T772,668V630q0-162-8.5-283.5T725,143T631,20.5T454-20Z" />
      <glyph unicode="6" glyph-name="gid135" horiz-adv-x="874" d="M468-21Q357-21 288,14.5t-105.5,103t-50,164T119,501v736q0,192 30.5,311.5t105,175T461,1779q111,0 178.5-43t98-142T768,1330v-84H570v49q0,129-9,192.5t-36,84T445,1592q-55,0-79-34.5T336.5,1448T331,1253V1038q27,25 72.5,42t98.5,17q122,1 185.5-58.5t86-177T796,568V502q0-159-22-276.5t-92-182T468-21Zm-4,189q56,0 84,27.5T584.5,284T593,447V586q0,123-8,196T550.5,887T468,919q-35,0-66.5-12T351,881.5T331,863V460q0-103 11-167t40-94.5T464,168Z" />
      <glyph unicode="7" glyph-name="gid136" horiz-adv-x="874" d="M207,0q18,240 58,452.5T356,849t101,338q52,175 91,276.5T589,1574H88v186H806V1602q-4-42-55-172.5T642,1099q-43-145-83.5-319.5T487.5,409T443,0H207Z" />
      <glyph unicode="8" glyph-name="gid137" horiz-adv-x="874" d="M442-20Q262-20 179,86T93,420v87q-1,95 16.5,183t52,156.5T243,947q-75,54-107,156.5T104,1343q0,230 75.5,333T443,1779q189,0 262.5-102.5T779,1343q0-139-29-240T643,949q46-33 76.5-102.5t46.5-158T782,507V426q0-231-80-338.5T442-20Zm1,185q56,0 81.5,26.5t32,87.5T563,440v83q0,173-30.5,256T443,862q-56,0-93.5-83T312,521V436q0-148 22.5-209.5T443,165Zm-2,847q36,0 64.5,26t45,95T567,1332q0,124-14,181.5T511.5,1588T441,1605q-42,0-69.5-19.5t-41-78T317,1328q0-128 15-196.5t43-94t66-25.5Z" />
      <glyph unicode="9" glyph-name="gid138" horiz-adv-x="874" d="M430-20Q321-20 253,23.5T153.5,165T122,428v85H320V464q0-130 9.5-193.5t37.5-84T447,166q56,0 78.5,35.5t26,111.5T555,508V712q-25-20-67.5-35T392,662q-122,0-186,60T119,900T96,1191v59q0,120 11,217t44.5,167t99,107.5T424,1779q111,0 179-35t103.5-102T755,1478t13-220V525q0-191-29.5-311T636,37T430-20Zm-7,858q35,0 64.5,10.5t48,21.5T555,883v416q0,153-23.5,222T429,1590q-56,0-84-28.5t-37.5-91T298,1306V1169q0-121 8-193.5t34.5-105T423,838Z" />
      <glyph unicode=":" glyph-name="gid150" horiz-adv-x="503" d="M133,1045v262H370V1045H133Zm0-775V532H370V270H133Z" />
      <glyph unicode=";" glyph-name="gid151" horiz-adv-x="561" d="M189-104l84,380H187V534H429V285L316-104H189Zm-9,1149v262H417V1045H180Z" />
      <glyph unicode="&lt;" glyph-name="gid208" horiz-adv-x="730" d="M640,259L64,640V868l576,378V1014L214,755L640,485V259Z" />
      <glyph unicode="=" glyph-name="gid206" horiz-adv-x="722" d="M88,570V736H658V570H88Zm0,322v163H658V892H88Z" />
      <glyph unicode="&gt;" glyph-name="gid207" horiz-adv-x="730" d="M88,259V490L513,749L88,1020v226L663,866V637L88,259Z" />
      <glyph unicode="?" glyph-name="gid155" horiz-adv-x="863" d="M257,494V810q101,30 157,71.5t81,103t31,152t6,219.5q0,126-9,181.5T454,1593q-65,0-76.5-53.5T366,1352V1160H151v211q0,70 9,142t38.5,133t89.5,98.5T450,1782q104,0 165-33.5t90.5-96.5t38-153t8.5-203q0-173-24-290T638,818T447,711V494H257ZM260,0V299H449V0H260Z" />
      <glyph unicode="@" glyph-name="gid186" horiz-adv-x="1518" d="M1255,28Q970-69 757.5-55.5t-354,124t-212,306T121,836q0,213 39,386t123,297.5T499.5,1711T820,1778q200,0 327.5-106T1336,1371.5T1397,910q0-154-27.5-282.5t-86-205T1132,346q-62,0-114.5,62T945,560q-19-106-71.5-168.5T745,329q-84,0-149,52T494,539.5T457,807q0,87 14,184.5t50.5,184t105,141t176.5,59t264-63.5V690q0-94 15.5-146.5T1141,491q37,0 59.5,48.5t33,148.5T1244,942q0,129-16.5,251.5t-62,221.5T1033,1572t-227,58q-188,0-300-99T344,1253T294,833q0-238 56-402.5T521.5,180t292-88.5T1231,173l24-145ZM758,464q45,0 81,36.5t57.5,97T918,731v498q-86,34-145.5,17.5t-96.5-75T623,1021T607,813q0-163 32.5-256T758,464Z" />
      <glyph unicode="A" glyph-name="gid1" horiz-adv-x="911" d="M45,0L309,1760H580L866,0H660L611,331H299L255,0H45ZM323,509H585L450,1430h-3L323,509Z" />
      <glyph unicode="B" glyph-name="gid10" horiz-adv-x="931" d="M142,0V1760H473q134,0 209-40t106.5-127T820,1364v-42q0-145-29-236.5T683,954q64-24 100.5-85.5T835,720t15-187V494q-1-173-35.5-282T703,51.5T495,0H142ZM361,176H482q57,0 89,27.5T616,300t13,191v78q0,155-25.5,224T494,862H361V176Zm0,854H474q41,0 66,9.5t39,37.5t19,82.5t5,144.5v61q0,94-14.5,140.5t-46,61.5T461,1582H361V1030Z" />
      <glyph unicode="C" glyph-name="gid11" horiz-adv-x="929" d="M475-21Q347-21 269,41T156,222.5T121,512v740q0,117 16,213.5t56,167T303,1741t179,38q102,0 168-35.5T754,1642t53-157.5T822,1282V1077H607v202q0,157-23,234.5T482,1591q-84,0-112.5-80T341,1280V506q0-121 11-196t40.5-109.5T476,166q80,0 105.5,80T607,507V714H824V509q0-174-32-292T683.5,39T475-21Z" />
      <glyph unicode="D" glyph-name="gid13" horiz-adv-x="965" d="M142,0V1760H486q137,0 215-56.5T811,1541t32-254l1-777q0-177-36-290T692,53.5T478,0H142ZM360,176H463q54,0 89.5,23T606,285.5T624,468v822q0,159-37.5,228T461,1587H360V176Z" />
      <glyph unicode="E" glyph-name="gid15" horiz-adv-x="764" d="M142,0V1760H681V1576H361V992H664V809H361V184H686V0H142Z" />
      <glyph unicode="F" glyph-name="gid20" horiz-adv-x="756" d="M142,0V1760H687V1575H360V1037H666V850H360V0H142Z" />
      <glyph unicode="G" glyph-name="gid21" horiz-adv-x="952" d="M446-17Q291-17 206,109T121,522v744q0,116 18,210.5T198.5,1639t112,104T488,1779q111,0 178-37t102-105t47-164t12-213V1127H617v219q0,127-25.5,186T488,1591q-82,0-114.5-70T341,1273V529q0-195 27-279t114-84q84,0 115,85t31,283V764H486V932H827V0H716L685,144Q658,66 595.5,24.5T446-17Z" />
      <glyph unicode="H" glyph-name="gid22" horiz-adv-x="996" d="M142,0V1760H361V1016H634v744H854V0H634V834H361V0H142Z" />
      <glyph unicode="I" glyph-name="gid23" horiz-adv-x="505" d="M143,0V1760H362V0H143Z" />
      <glyph unicode="J" glyph-name="gid28" horiz-adv-x="891" d="M420-21Q251-21 170,82T89,389V636H302V402q0-64 6-117.5t29.5-86T413,166q53,0 76,31.5T518,286t6,132V1760H743V427q0-221-81.5-334.5T420-21Z" />
      <glyph unicode="K" glyph-name="gid29" horiz-adv-x="924" d="M142,0V1760H361V927l304,833H887L567,891L910,0H680L363,838V0H142Z" />
      <glyph unicode="L" glyph-name="gid30" horiz-adv-x="707" d="M142,0V1760H361V183H689V0H142Z" />
      <glyph unicode="M" glyph-name="gid32" horiz-adv-x="1321" d="M142,0V1760H399L667,378L921,1760h259V0H990V664l15,646L746,2H585L315,1310l15-646V0H142Z" />
      <glyph unicode="N" glyph-name="gid33" horiz-adv-x="1025" d="M142,0V1760H309L709,592l-20,503v665H884V0H724L332,1184l12-448V0H142Z" />
      <glyph unicode="O" glyph-name="gid35" horiz-adv-x="955" d="M480-20Q347-20 268.5,38t-113,174.5T121,503v782q0,152 32,263t111,172.5T484,1782q106,0 174.5-35T765,1647t53.5-156.5T834,1285V503q0-174-33-290.5T690.5,38T480-20Zm0,189q55,0 84,32t39.5,105T614,501v796q0,149-24,222.5T484,1593q-84,0-113.5-72.5T341,1298V501q0-123 10.5-195.5T392,201t88-32Z" />
      <glyph unicode="P" glyph-name="gid43" horiz-adv-x="904" d="M142,0V1760H506q105,0 171.5-34.5t102.5-100t49.5-158T843,1258v-29q0-176-28-296T714.5,752.5T508,692H361V0H142ZM361,874H480q61,0 91.5,33.5T613,1019t11,210v34q0,165-25.5,244.5T484,1587H361V874Z" />
      <glyph unicode="Q" glyph-name="gid45" horiz-adv-x="955" d="M677-274L435-10L580,62L785-176L677-274ZM480-20Q347-20 268.5,38t-113,174.5T121,503v782q0,152 32,263t111,172.5T484,1782q106,0 174.5-35T765,1647t53.5-156.5T834,1285V503q0-174-33-290.5T690.5,38T480-20Zm0,189q55,0 84,32t39.5,105T614,501v796q0,149-24,222.5T484,1593q-84,0-113.5-72.5T341,1298V501q0-123 10.5-195.5T392,201t88-32Z" />
      <glyph unicode="R" glyph-name="gid46" horiz-adv-x="950" d="M142,0V1760H526q139,0 206.5-50.5t88-151T841,1307q0-161-32.5-255.5T681,929q47-8 78.5-40.5T809,789t26-178.5T843,331q0-15 0-50t1-78t2-85.5t4-74T857,0H639q-4,8-7,42.5T627.5,132T625,260.5T624,420t0,181q0,96-9,146t-40.5,69.5T476,839l-115,7V0H142ZM361,1010H488q56,0 85,22t40,88t11,196v12q0,108-10.5,164t-40,75.5T483,1587H361V1010Z" />
      <glyph unicode="S" glyph-name="gid47" horiz-adv-x="838" d="M433-20Q326-20 257.5,17.5T151.5,125t-52,166.5T85,506V674H297V496q0-176 26-252t111-76q58,0 85.5,27t36,87.5T564,441q0,114-41.5,198.5T401,804L283,923q-51,52-98,113t-77,138T78,1349q0,135 29,231.5t104.5,149T424,1782q107,0 172.5-36t99-103.5t45-160.5T752,1275V1170H544v119q0,102-8.5,169.5t-34,101.5T424,1594q-49,0-79-23t-43.5-71.5T288,1375q0-67 16.5-111.5t49.5-83t82-89.5L561,957q97-101 157-223.5T778,452q0-149-29.5-254.5T644.5,36T433-20Z" />
      <glyph unicode="T" glyph-name="gid48" horiz-adv-x="645" d="M219,0V1576H23v184H622V1576H438V0H219Z" />
      <glyph unicode="U" glyph-name="gid49" horiz-adv-x="966" d="M485-21Q354-21 275.5,30.5T162.5,187T128,452V1760H347V457q0-91 7-156.5T390,200t95-35t94.5,35t35,100T621,456V1760H840V452q0-160-34-265T694.5,30.5T485-21Z" />
      <glyph unicode="V" glyph-name="gid54" horiz-adv-x="893" d="M329,0L40,1760H249l117-755l94-636h5l81,636l100,755H853L589,0H329Z" />
      <glyph unicode="W" glyph-name="gid55" horiz-adv-x="1344" d="M281,0L52,1760H254L399,431L592,1760H770L967,431l124,1329h201L1085,0H867L686,1272L495,0H281Z" />
      <glyph unicode="X" glyph-name="gid56" horiz-adv-x="817" d="M44,0L300,934L51,1760H241l173-573l149,573H762L514,857L773,0H582L403,594L248,0H44Z" />
      <glyph unicode="Y" glyph-name="gid57" horiz-adv-x="838" d="M319,0V732L15,1760H231l198-703h4l172,703H822L539,732V0H319Z" />
      <glyph unicode="Z" glyph-name="gid59" horiz-adv-x="702" d="M68,0V191L431,1576H101v184H659V1590L296,184H651V0H68Z" />
      <glyph unicode="[" glyph-name="gid172" horiz-adv-x="656" d="M151-95V1760H578V1591H370V75H578V-95H151Z" />
      <glyph unicode="\" glyph-name="gid162" horiz-adv-x="763" d="M488,0L77,1760H271L681,0H488Z" />
      <glyph unicode="]" glyph-name="gid173" horiz-adv-x="656" d="M83-95V75H291V1591H83v169H509V-95H83Z" />
      <glyph unicode="^" glyph-name="gid212" horiz-adv-x="942" d="M93,837l241,923H607L848,837H636L471,1589L307,837H93Z" />
      <glyph unicode="_" glyph-name="gid167" horiz-adv-x="748" d="M48-201V-42H699V-201H48Z" />
      <glyph unicode="`" glyph-name="gid228" horiz-adv-x="416" d="M246,1640L50,2020H272l94-380H246Z" />
      <glyph unicode="a" glyph-name="gid60" horiz-adv-x="916" d="M371-13Q232-13 172,93.5T111,387V522q0,104 34,171.5t96.5,112t147.5,80T575,961v119q0,92-6,148.5t-29.5,83T464,1338q-51,0-76.5-26.5T354,1228t-8-147v-55H130v43q0,98 13,180t48.5,142T294,1484.5T469,1518q101,0 165-31.5t99-92.5t49-151.5T796,1033V0H577V134q-10-33-36.5-67T472,10T371-13Zm65,173q53,0 90.5,35T575,265V824q-73-32-120.5-59T380,708.5T342,638T331,535V390q0-122 21.5-176T436,160Z" />
      <glyph unicode="b" glyph-name="gid68" horiz-adv-x="952" d="M568-13q-62,0-117,32.5T364,129V0H146V1778H364V1383q18,63 74,99t116,36q113,0 172.5-61.5t82-169T831,1046V457q0-133-21.5-240t-78-168.5T568-13ZM496,163q74,1 95,73.5T612,462v606q0,81-6.5,141.5t-30.5,94T500,1337q-45,0-75-20.5t-45.5-78T364,1068V458q0-147 24.5-221T496,163Z" />
      <glyph unicode="c" glyph-name="gid69" horiz-adv-x="890" d="M466-18Q356-18 287.5,18.5T183,124T134,289.5T121,505v498q0,154 26.5,269.5T249,1453t222,65q99,0 162-32.5t97-93T777,1247t13-189V941H577v141q0,82-5.5,138T543,1304.5T468,1333q-54,0-81.5-30.5t-37-88.5T340,1077V431q0-88 8-147t34.5-88T462,167t77,31t31,89.5T577,427V579H790V471q0-110-12.5-199.5T731,117.5t-98.5-100T466-18Z" />
      <glyph unicode="d" glyph-name="gid71" horiz-adv-x="951" d="M380-13Q267-13 211.5,52t-73,176.5T121,480v576q0,131 25.5,235.5T235,1457t174,61q60,0 107.5-33.5T589,1401v377H807V0H589V129Q559,54 504.5,20.5T380-13Zm77,176q47,0 76.5,24.5t43,87.5T590,451v602q0,138-24,211t-104,73q-74-1-98-71.5T340,1048V440q0-85 8.5-147.5t34-96T457,163Z" />
      <glyph unicode="e" glyph-name="gid73" horiz-adv-x="894" d="M460-18Q351-18 284,19T181.5,125t-48,165.5T121,504v536q0,106 16.5,193.5t55,151t106,98.5T468,1518q104,0 168.5-35t98.5-99.5t46.5-154T794,1032V741H340V443q0-136 19-208.5T462,162q56,0 80,34.5t29.5,97T577,440V563H790V496q0-118-10.5-212.5t-43-162T637.5,18T460-18ZM339,883H577v191q0,87-6.5,146.5t-29,90T468,1341q-58,0-85.5-35T347,1209.5T339,1067V883Z" />
      <glyph unicode="f" glyph-name="gid78" horiz-adv-x="653" d="M198,0V1282H72v160H198v74q0,129 57.5,199.5T434,1786q60,0 103.5-9.5T586,1764V1616q-37,6-68,6q-64,0-83.5-27T415,1521v-79H586V1282H415V0H198Z" />
      <glyph unicode="g" glyph-name="gid79" horiz-adv-x="942" d="M451-228q-108-3-191,23T115-130L193,16q46-31 106.5-53.5T438-59q71,2 110,53t39,136V268q-29-74-80.5-99.5T388,143q-105,0-163.5,60T143,367T120,603v441q0,135 26.5,243t89,170.5T404,1518q67-1 114.5-33.5T587,1385v115H804V149q0-69-16.5-135T732-106T624.5-192.5T451-228Zm21,542q39,0 64.5,23.5t38,86T587,603v469q0,129-24.5,197.5T463,1338q-55,0-81.5-34T347,1211t-8-137V601q0-141 26-214t107-73Z" />
      <glyph unicode="h" glyph-name="gid80" horiz-adv-x="980" d="M143,0V1778H360V1338q20,72 84,126.5T598,1519q117,0 181.5-81.5T844,1193V0H627V1174q0,88-32.5,123.5T507,1333q-41,0-74.5-20t-53-61.5T360,1146V0H143Z" />
      <glyph unicode="i" glyph-name="gid81" horiz-adv-x="511" d="M146,0V1500H365V0H146Zm0,1638v197H365V1638H146Z" />
      <glyph unicode="j" glyph-name="gid87" horiz-adv-x="527" d="M204-208q-49,0-86.5,4T62-196V-43q10-2 24.5-3T117-47q30,0 41.5,20.5T170,22V1500H387V32q0-87-25.5-140t-67-76.5T204-208ZM170,1638v197H389V1638H170Z" />
      <glyph unicode="k" glyph-name="gid89" horiz-adv-x="910" d="M146,0V1778H364V793l286,707H870L560,760L887,0H664L364,726V0H146Z" />
      <glyph unicode="l" glyph-name="gid90" horiz-adv-x="509" d="M144,0V1778H361V0H144Z" />
      <glyph unicode="m" glyph-name="gid92" horiz-adv-x="1445" d="M141,0V1500H358V1343q20,72 80.5,124T593,1519q75,0 130.5-35.5T807,1367q38,68 102,110t153,42q124,0 186-87.5t62-254.5V0H1092V1182q0,84-31.5,117.5T976,1333q-73,0-107.5-35.5T834,1174V0H616V1183q0,78-29,114t-85,36q-72,0-108-48t-36-126V0H141Z" />
      <glyph unicode="n" glyph-name="gid93" horiz-adv-x="979" d="M141,0V1500H358V1338q20,72 85,126.5T600,1519q116,0 179.5-81.5T843,1193V0H626V1189q0,77-35,113t-90,36q-41,0-73.5-19t-51-57T358,1165V0H141Z" />
      <glyph unicode="o" glyph-name="gid95" horiz-adv-x="926" d="M465-18Q358-18 290.5,18T186,120.5T135,281T121,492v537q0,141 29,251.5t103.5,174T465,1518q102,0 168.5-36t104-102.5T790,1224t15-195V492q0-115-13.5-208.5T742,122.5T639,18.5T465-18Zm0,180q52,0 77.5,34T577,291.5T586,434v637q0,81-9,140.5t-35,93T465,1338q-54,0-81-33.5t-35.5-93T340,1071V434q0-81 8.5-142.5T384,196t81-34Z" />
      <glyph unicode="p" glyph-name="gid103" horiz-adv-x="951" d="M144-276V1500H361V1373q30,74 89.5,107T571,1513q109,0 165-63t75-171.5T830,1034V490q0-143-21-258T726,49.5T539-18q-58,0-105.5,35T361,98V-276H144ZM493,163q72,1 95,72.5T611,457v610q0,80-6.5,140.5t-31,95T496,1337q-42,0-72-19.5T377.5,1240T361,1067V449q0-142 25-214t107-72Z" />
      <glyph unicode="q" glyph-name="gid105" horiz-adv-x="949" d="M587-276V104q-20-49-68-85.5T412-18Q293-18 230,47.5t-86,178T121,480v554q0,136 21,244.5T219,1450t163,63q61,0 118-29.5t87-99.5v116H805V-276H587ZM452,163q44,0 74,21t45.5,79.5T587,434v619q0,145-26.5,214.5T456,1337q-74-1-95.5-72T339,1047V437q0-121 17.5-197.5T452,163Z" />
      <glyph unicode="r" glyph-name="gid106" horiz-adv-x="653" d="M144,0V1500H363V1333q26,87 90.5,136T618,1518q2,0 2.5-28t0.5-64t0-64t0-28q-48,0-97-11.5t-91.5-38T363,1213V0H144Z" />
      <glyph unicode="s" glyph-name="gid107" horiz-adv-x="816" d="M429-20Q265-20 181,81T97,415V525H306V411q0-120 27-183.5T421,164t89.5,39.5T539,345q0,52-16,103.5t-48.5,102T391,648L279,754q-94,89-143.5,190.5T86,1162q0,184 87,270t243,86q104,0 174-43.5t105.5-144T731,1057V983H527v103q0,120-24,183.5T418,1333q-59,0-88.5-34T297,1175q-1-46 12-93t42.5-92.5T428,900L543,793q106-97 159.5-208.5T756,348q0-174-79-271T429-20Z" />
      <glyph unicode="t" glyph-name="gid109" horiz-adv-x="605" d="M407-9Q311-9 261.5,14t-67,74.5T177,224V1324H43v160H177v276H395V1484H553V1324H395V248q0-37 10-55.5T449.5,168T556,162V-9H407Z" />
      <glyph unicode="u" glyph-name="gid110" horiz-adv-x="972" d="M387-20q-72,0-129.5,34.5T166,124T132,318V1500H350V345q0-87 29-132.5T475,167q73,0 106.5,52T615,348V1500H833V0H615V154Q592,82 535.5,31T387-20Z" />
      <glyph unicode="v" glyph-name="gid115" horiz-adv-x="790" d="M266,0L49,1500H248L361,660l39-356h10l33,357l100,839H743L524,0H266Z" />
      <glyph unicode="w" glyph-name="gid116" horiz-adv-x="1185" d="M234,0L54,1500H236l79-793l25-294h8l37,295l113,792h58h95h38L804,728l41-315h7l25,316l76,771h179L950,0H752L600,1164L424,0H234Z" />
      <glyph unicode="x" glyph-name="gid117" horiz-adv-x="770" d="M29,0L284,775L46,1500H239l157-469l138,469H730L486,764L741,0H539L376,497L228,0H29Z" />
      <glyph unicode="y" glyph-name="gid118" horiz-adv-x="801" d="M101-254V-93h74q44,0 76,5t39,22q11,16 8.5,50T290,56L46,1500H256L362,723l43-406h19l38,406l96,777H767L516-36q-12-79-30.5-127t-56-69.5T319-254H101Z" />
      <glyph unicode="z" glyph-name="gid121" horiz-adv-x="685" d="M72,0V163L402,1313H97v187H626V1349L296,185H610V0H72Z" />
      <glyph unicode="{" glyph-name="gid170" horiz-adv-x="686" d="M540-199q-109,0-174,30T273-65.5T245,139V461q0,94-8.5,142.5t-37.5,66T106,687V895q64,0 93,17.5T236.5,979t8.5,142v323q0,131 28,204.5T366,1752t174,30h60V1608q-60,0-90-12.5T470.5,1545T461,1431V1145q0-131-11.5-199.5T403,845T297,791q71-21 106-53.5t46.5-101T461,437V152q0-76 9.5-114T510-13t90-13V-199H540Z" />
      <glyph unicode="|" glyph-name="gid194" horiz-adv-x="537" d="M170-116V1842H376V-116H170Z" />
      <glyph unicode="}" glyph-name="gid171" horiz-adv-x="686" d="M88-199V-26q61,0 90.5,13t39,51T227,152V437q0,131 11.5,199.5t47,101T392,791q-71,22-106.5,54t-47,100.5T227,1145v286q0,76-9.5,114t-39,50.5T88,1608v174h60q110,0 174.5-30T415,1648.5T443,1444V1121q0-93 8.5-142t38-66.5T582,895V687q-63,0-92.5-17.5t-38-66T443,461V139Q443,8 415-65.5T322.5-169T148-199H88Z" />
      <glyph unicode="~" glyph-name="gid210" horiz-adv-x="1117" d="M262,829L109,908q38,113 96.5,173T342,1141q39,0 95.5-13.5t116-31T662,1065t73-14q24,3 49.5,30t43.5,85l168-42q-12-47-33.5-99t-52-96.5t-67.5-73T764,827q-43,0-96.5,14.5T558,874.5t-108.5,33T357,922q-31,0-53-23t-42-70Z" />
      <glyph unicode="&#xa0;" glyph-name="gid147" horiz-adv-x="468" />
      <glyph unicode="&#xa1;" glyph-name="gid154" horiz-adv-x="527" d="M309,1104L387-255H142l77,1359h90Zm72,401V1271H151v234H381Z" />
      <glyph unicode="&#xa2;" glyph-name="gid197" horiz-adv-x="859" d="M405,1512v255H518V1510l-113,2Zm0-1762V5H518V-250H405ZM466-18Q356-18 287.5,18.5T183,124T134,289.5T121,505v498q0,154 26.5,269.5T249,1453t222,65q99,0 162-32.5t97-93T777,1247t13-189V941H577v141q0,82-5.5,138T543,1304.5T468,1333q-54,0-81.5-30.5t-37-88.5T340,1077V431q0-88 8-147t34.5-88T462,167t77,31t31,89.5T577,427V579H790V471q0-110-12.5-199.5T731,117.5t-98.5-100T466-18Z" />
      <glyph unicode="&#xa3;" glyph-name="gid200" horiz-adv-x="900" d="M111,0V156q46,24 89.5,63t75,95.5t43,133T312,622q-8,45-17,91t-20,91H83V954H240l-44,188q-19,85-30,144t-11,114q0,199 87,290.5T503,1782q112,0 182.5-42.5t104-130T823,1387V1246H634v147q0,65-9.5,113T587,1580.5T503,1607q-43,0-75-14t-49-56.5T362,1408q0-51 9.5-104T400,1165l50-211H760V804H489q10-48 18-95t16-93q18-112 4.5-198.5T472,270.5T364,177H822V0H111Z" />
      <glyph unicode="&#xa4;" glyph-name="gid198" horiz-adv-x="1159" d="M274,509L125,659l91,91q-53,98-53,214q0,117 52,214l-90,90l149,150l87-88q97,55 218,55t218-54l87,87l150-149l-90-90q54-97 54-215T944,748l90-90L884,509l-89,88q-92-52-216-52T363,598l-89-89ZM579,711q72,0 125,35t82.5,92.5T816,966q0,108-63.5,179T579,1216q-71,0-124-34t-82.5-91T343,964t29-127.5T454,745t125-34Z" />
      <glyph unicode="&#xa5;" glyph-name="gid201" horiz-adv-x="835" d="M79,375V499H361V669H79V792H757V669H507V499H757V375H79ZM319,0V732L15,1760H231l198-703h4l172,703H822L539,732V0H319Z" />
      <glyph unicode="&#xa6;" glyph-name="gid195" horiz-adv-x="494" d="M139-135V697H355V-135H139Zm0,1065v830H355V930H139Z" />
      <glyph unicode="&#xa7;" glyph-name="gid189" horiz-adv-x="835" d="M439-20Q286-20 194,69T102,344v81H322V346q0-96 24.5-148.5T449,145q57,0 84,37.5T560,286q0,56-17.5,96.5t-49,73T419,522L249,661q-63,51-108.5,115.5T95,934q0,73 37.5,138T243,1174q-67,61-107,142T96,1476q0,94 40.5,162.5t115,106T427,1782q145,0 232-91t87-271v-80H536v77q0,115-36.5,157.5T417,1617q-38,0-65-17.5t-40.5-48T298,1484q0-36 13-68.5t45-68t89-83.5l179-148q62-50 97-98.5T769.5,921T780,824q-4-53-31.5-93T684,660.5T610,604q92-79 125-163.5T768,283q0-139-90-221T439-20Zm81,714q29,23 48.5,54T588,815q0,43-25,84.5T487,983t-131,88q-35-24-54-56.5T283,946q0-34 25-69t77-78T520,694Z" />
      <glyph unicode="&#xa8;" glyph-name="gid227" horiz-adv-x="825" d="M534,1640v188H775V1640H534Zm-484,0v188H291V1640H50Z" />
      <glyph unicode="&#xa9;" glyph-name="gid190" horiz-adv-x="1466" d="M739,205q-140,0-259.5,49.5t-209,139t-139,209T82,862t49.5,259.5t139,209t209,139T739,1519t259.5-49.5t209-139t139-209T1396,862t-49.5-259.5t-139-209t-209-139T739,205Zm0,129q125,0 220.5,44t161,119T1219,667t33,196q0,134-59,255t-173,196.5T739,1390q-124,0-219.5-44.5T359,1226t-98.5-169.5T227,861q0-135 59-255.5t173-196T739,334Zm-7,90q-104,0-157.5,57T521,632v448q0,103 45.5,164T736,1305q101,0 153-45t52-163V972H808v105q0,67-20,83.5T738,1177q-32,0-55-15.5T660,1090V624q0-45 24-61t54-16t50,14.5T808,624V773H945V627q0-97-45.5-150T732,424Z" />
      <glyph unicode="&#xaa;" glyph-name="gid127" horiz-adv-x="927" d="M402,556q-112,0-159.5,85.5T194,876V986q0,83 27,136.5t76.5,89.5T415,1276.5T566,1338v63q0,75-3.5,127.5t-22,81T476,1638q-61,0-78-47.5T381,1434v-47H209v35q0,79 10.5,144t39,113.5t82,75.5T480,1782q108,0 164-45t76.5-132T741,1392V568H567V670q-9-33-52-73.5T402,556Zm52,141q43,0 72.5,28T565,781v441q-79-35-121.5-62T385,1095.5T369,991V881q0-99 18-141.5T454,697Z" />
      <glyph unicode="&#xab;" glyph-name="gid180" horiz-adv-x="1304" d="M1105,363L625,648V849l480,271V900L793,749l312-160V363Zm-541,0L83,648V849l481,271V900L252,749L564,589V363Z" />
      <glyph unicode="&#xac;" glyph-name="gid211" horiz-adv-x="947" d="M602,439V785H97V979H800V439H602Z" />
      <glyph unicode="&#xad;" glyph-name="gid164" horiz-adv-x="696" d="M90,560V741H606V560H90Z" />
      <glyph unicode="&#xae;" glyph-name="gid191" horiz-adv-x="1502" d="M559,430v852H786q107,0 137.5-51T954,1075v-24q0-63-14.5-102T858,894q61-7 74.5-45.5T946,758V430H807V762q0,25-7,43t-29.5,27.5T703,842V430H559ZM704,949h54q46,0 54.5,30.5T821,1067q0,65-20,85t-97,20V949Zm47-615q125,0 220.5,44T1132,497t98,170t33,196q0,135-59,255.5t-173,196T751,1390q-125,0-220-44T371,1227t-98.5-170T239,861q0-134 59-255T471,409.5T751,334Zm0-129q-140,0-259.5,49.5t-209,139t-139,209T94,862t49.5,259.5t139,209t209,139T751,1519t259.5-49.5t209-139t139-209T1408,862t-49.5-259.5t-139-209t-209-139T751,205Z" />
      <glyph unicode="&#xaf;" glyph-name="gid233" horiz-adv-x="624" d="M50,1650v151H574V1650H50Z" />
      <glyph unicode="&#xb0;" glyph-name="gid193" horiz-adv-x="915" d="M457,1111q-92,0-172.5,37.5T154,1261t-50,185t50,184.5T285,1743t173,38t172.5-38T761,1630.5T811,1446t-50-185T630.5,1148.5T457,1111Zm2,133q49,0 91,23t68.5,68.5T645,1446t-26.5,110T549,1624t-92,23q-48,0-90.5-23t-69-68T271,1446t26.5-110.5T367,1267t92-23Z" />
      <glyph unicode="&#xb1;" glyph-name="gid209" horiz-adv-x="854" d="M349,507V754H127V902H349v243H505V902H731V754H505V507H349ZM163,172V328H679V172H163Z" />
      <glyph unicode="&#xb2;" glyph-name="gid140" horiz-adv-x="843" d="M217,506v66q0,33 16.5,87.5t42.5,120t56,132t60,125t52.5,99.5t32.5,53q24,43 39,115t15,138q0,85-10.5,128.5t-28,59.5T452,1646t-42-16t-30-62t-11-136V1269H214v77q0,138 15,234.5T297.5,1728T464,1779q64,0 106-29t67-78.5T672,1560t10-128q0-101-25-184.5T593,1090T511.5,944T434,795T382,627H667V506H217Z" />
      <glyph unicode="&#xb3;" glyph-name="gid141" horiz-adv-x="866" d="M431,577q-133,0-187.5,82.5T189,907v59H340V907q0-114 17-159t77-45q61,0 79.5,50.5T532,918q0,126-28,179t-103,53H372v118h27q48,2 77,17t42.5,58T532,1468q0,76-12.5,115.5T485,1637t-50,14q-30,0-50-16t-29.5-56.5T346,1465v-26H193v29q0,156 55.5,233.5T437,1779q130,0 190-79t60-232q0-96-27.5-164.5T567,1212q69-31 95.5-111T689,917q0-169-60.5-254.5T431,577Z" />
      <glyph unicode="&#xb4;" glyph-name="gid229" horiz-adv-x="416" d="M50,1640l94,380H366L170,1640H50Z" />
      <glyph unicode="&#xb5;" glyph-name="gid213" horiz-adv-x="972" d="M387-20q-72,0-129.5,34.5T166,124T132,318V1500H350V345q0-87 29-132.5T475,167q73,0 106.5,52T615,348V1500H833V0H615V154Q592,82 535.5,31T387-20ZM132,483H350V-265H132V483Z" />
      <glyph unicode="&#xb6;" glyph-name="gid188" horiz-adv-x="1075" d="M425,0V1125q-161,18-243,98t-82,229q0,93 30,153t92.5,93.5T384,1746t238,14H931V0H750V1565H607V0H425Z" />
      <glyph unicode="&#xb7;" glyph-name="gid157" horiz-adv-x="480" d="M145,765V981H351V765H145Z" />
      <glyph unicode="&#xb8;" glyph-name="gid234" horiz-adv-x="504" d="M174-621q-62,0-124,19v101q95,0 144.5,20t68,52.5T281-359q0,68-49,109T121-196L161,0h72l12-143q106-43 157.5-108.5T454-387q0-62-34.5-115.5t-97-86T174-621Z" />
      <glyph unicode="&#xb9;" glyph-name="gid139" horiz-adv-x="627" d="M250,503V1551q-30-27-76-41t-87-14v106q40,4 83.5,24t79.5,54.5t51,79.5H416V503H250Z" />
      <glyph unicode="&#xba;" glyph-name="gid128" horiz-adv-x="845" d="M427,553q-114,0-174,50T171,745T149,961v429q0,112 23,200.5t83,140T427,1782q113,0 172-51t80-139.5T700,1390V961q0-122-20.5-214T600,604T427,553Zm0,143q59-1 78,59t19,159v510q0,97-18,155.5T427,1638q-65,0-83.5-58.5T325,1424V914q0-98 19.5-157.5T427,696Z" />
      <glyph unicode="&#xbb;" glyph-name="gid181" horiz-adv-x="1304" d="M709,363V589l312,160L709,900v220l480-271V648L709,363Zm-541,0V589L480,749L168,900v220L648,849V648L168,363Z" />
      <glyph unicode="&#xbc;" glyph-name="gid144" horiz-adv-x="1535" d="M458,0L941,1761h145L602,0H458ZM246,522V1544q-27-27-70-41t-82-14v101q37,5 77,24t73.5,52t48.5,77H400V522H246ZM1190,0V213H908v96l245,821h170V325h86V213h-86V0H1190ZM1033,325h157V915L1033,325Z" />
      <glyph unicode="&#xbd;" glyph-name="gid143" horiz-adv-x="1620" d="M466,0L949,1761h145L610,0H466ZM246,522V1544q-27-27-70-41t-82-14v101q37,5 77,24t73.5,52t48.5,77H400V522H246ZM1088,0V64q0,41 13,121.5T1160,347l179,317q25,42 39,112.5T1392,911q0,84-10,127t-27.5,58.5T1314,1112q-22,0-40.5-15.5T1244,1036t-11-135V742H1084v76q0,133 15,227.5t66.5,144T1326,1239q84,0 129.5-49.5T1519,1063t18-162q0-84-17-156t-52-134L1312,332q-28-49-44-103t-23-115h277V0H1088Z" />
      <glyph unicode="&#xbe;" glyph-name="gid145" horiz-adv-x="1555" d="M468,0L952,1761h144L613,0H468ZM335,607q-122,0-172.5,78.5T112,924v55H249V924q0-112 16-156t74-44t76,49.5T433,934q0,123-27.5,174T308,1159H281v116h25q44,1 71.5,15t41,54.5T432,1466q0,75-12,113.5T387,1632t-48,14q-29,0-47.5-16.5t-27.5-56T255,1463v-25H116v28q0,150 51,223.5T340,1763q120,0 175-75t55-222q0-94-25.5-160T458,1217q64-29 89.5-106.5T573,932q0-162-56.5-243.5T335,607ZM1194,0V213H912v96l245,821h170V325h86V213h-86V0H1194ZM1037,325h157V915L1037,325Z" />
      <glyph unicode="&#xbf;" glyph-name="gid156" horiz-adv-x="894" d="M644,1006V690q-101-30-157-71.5t-81-103t-31-152T369,144q0-126 9-181.5T447-93q65,0 76.5,53.5T535,148V340H750V129q0-70-9-142T702.5-146T613-244.5T451-282q-104,0-165,33.5T195.5-152T157.5,1T149,204q0,173 24,290t90,188T454,789v217H644Zm-3,494V1201H452v299H641Z" />
      <glyph unicode="&#xc0;" glyph-name="gid6" horiz-adv-x="911" d="M45,0L309,1760H580L866,0H660L611,331H299L255,0H45ZM323,509H585L450,1430h-3L323,509ZM430,1900L234,2280H456l94-380H430Z" />
      <glyph unicode="&#xc1;" glyph-name="gid2" horiz-adv-x="911" d="M45,0L309,1760H580L866,0H660L611,331H299L255,0H45ZM323,509H585L450,1430h-3L323,509Zm-5,1391l94,380H634L438,1900H318Z" />
      <glyph unicode="&#xc2;" glyph-name="gid4" horiz-adv-x="911" d="M45,0L309,1760H580L866,0H660L611,331H299L255,0H45ZM323,509H585L450,1430h-3L323,509ZM162,1900l161,301H570l160-301H533l-86,211l-86-211H162Z" />
      <glyph unicode="&#xc3;" glyph-name="gid8" horiz-adv-x="911" d="M45,0L309,1760H580L866,0H660L611,331H299L255,0H45ZM323,509H585L450,1430h-3L323,509ZM595,1900q-44,0-92.5,20.5t-95.5,41T318,1982q-16,0-23-2q-16-4-26.5-18.5T244,1921l-115,50q20,68 47.5,102.5T238,2121t73,13q41,0 93.5-18.5t99.5-37t72-18.5h4q14,2 27,14t29,57l127-28l-9-40q-25-100-62.5-131.5T595,1900Z" />
      <glyph unicode="&#xc4;" glyph-name="gid5" horiz-adv-x="911" d="M45,0L309,1760H580L866,0H660L611,331H299L255,0H45ZM323,509H585L450,1430h-3L323,509ZM568,1900v188H809V1900H568Zm-484,0v188H325V1900H84Z" />
      <glyph unicode="&#xc5;" glyph-name="gid7" horiz-adv-x="911" d="M45,0L309,1760H580L866,0H660L611,331H299L255,0H45ZM323,509H585L450,1430h-3L323,509ZM446,1900q-100,0-153.5,58T239,2096q0,78 53.5,136T446,2290t153.5-58T653,2095t-53.5-137T446,1900Zm0,77q56,0 84,37t28,82t-28,82t-84,37q-54,0-81.5-37T337,2096q0-44 27.5-81.5T446,1977Z" />
      <glyph unicode="&#xc6;" glyph-name="gid9" horiz-adv-x="1198" d="M63,0L408,1760h707V1576H818V992h280V806H818V184h302V0H598V331H337L274,0H63ZM367,500H598V1578l-28-1L367,500Z" />
      <glyph unicode="&#xc7;" glyph-name="gid12" horiz-adv-x="929" d="M475-21Q347-21 269,41T156,222.5T121,512v740q0,117 16,213.5t56,167T303,1741t179,38q102,0 168-35.5T754,1642t53-157.5T822,1282V1077H607v202q0,157-23,234.5T482,1591q-84,0-112.5-80T341,1280V506q0-121 11-196t40.5-109.5T476,166q80,0 105.5,80T607,507V714H824V509q0-174-32-292T683.5,39T475-21ZM440-621q-62,0-124,19v101q95,0 144.5,20t68,52.5T547-359q0,68-49,109T387-196L427,0h72l12-143q106-43 157.5-108.5T720-387q0-62-34.5-115.5t-97-86T440-621Z" />
      <glyph unicode="&#xc8;" glyph-name="gid19" horiz-adv-x="764" d="M142,0V1760H681V1576H361V992H664V809H361V184H686V0H142ZM391,1900L195,2280H417l94-380H391Z" />
      <glyph unicode="&#xc9;" glyph-name="gid16" horiz-adv-x="764" d="M142,0V1760H681V1576H361V992H664V809H361V184H686V0H142ZM280,1900l94,380H596L400,1900H280Z" />
      <glyph unicode="&#xca;" glyph-name="gid17" horiz-adv-x="764" d="M142,0V1760H681V1576H361V992H664V809H361V184H686V0H142ZM123,1900l161,301H531l160-301H494l-86,211l-86-211H123Z" />
      <glyph unicode="&#xcb;" glyph-name="gid18" horiz-adv-x="764" d="M142,0V1760H681V1576H361V992H664V809H361V184H686V0H142ZM529,1900v188H770V1900H529Zm-484,0v188H286V1900H45Z" />
      <glyph unicode="&#xcc;" glyph-name="gid27" horiz-adv-x="505" d="M143,0V1760H362V0H143Zm94,1900L41,2280H263l94-380H237Z" />
      <glyph unicode="&#xcd;" glyph-name="gid24" horiz-adv-x="505" d="M143,0V1760H362V0H143ZM125,1900l94,380H441L245,1900H125Z" />
      <glyph unicode="&#xce;" glyph-name="gid25" horiz-adv-x="505" d="M143,0V1760H362V0H143ZM-32,1900l161,301H376l160-301H339l-86,211l-86-211H-32Z" />
      <glyph unicode="&#xcf;" glyph-name="gid26" horiz-adv-x="505" d="M143,0V1760H362V0H143ZM375,1900v188H616V1900H375Zm-484,0v188H132V1900H-109Z" />
      <glyph unicode="&#xd0;" glyph-name="gid14" horiz-adv-x="965" d="M142,0V1760H486q137,0 215-56.5T811,1541t32-254l1-777q0-177-36-290T692,53.5T478,0H142ZM360,176H463q54,0 89.5,23T606,285.5T624,468v822q0,159-37.5,228T461,1587H360V176ZM29,822V937H540V822H29Z" />
      <glyph unicode="&#xd1;" glyph-name="gid34" horiz-adv-x="1025" d="M142,0V1760H309L709,592l-20,503v665H884V0H724L332,1184l12-448V0H142ZM661,1900q-44,0-92.5,20.5t-95.5,41T384,1982q-16,0-23-2q-16-4-26.5-18.5T310,1921l-115,50q20,68 47.5,102.5T304,2121t73,13q41,0 93.5-18.5t99.5-37t72-18.5h4q14,2 27,14t29,57l127-28l-9-40q-25-100-62.5-131.5T661,1900Z" />
      <glyph unicode="&#xd2;" glyph-name="gid39" horiz-adv-x="955" d="M480-20Q347-20 268.5,38t-113,174.5T121,503v782q0,152 32,263t111,172.5T484,1782q106,0 174.5-35T765,1647t53.5-156.5T834,1285V503q0-174-33-290.5T690.5,38T480-20Zm0,189q55,0 84,32t39.5,105T614,501v796q0,149-24,222.5T484,1593q-84,0-113.5-72.5T341,1298V501q0-123 10.5-195.5T392,201t88-32ZM461,1900L265,2280H487l94-380H461Z" />
      <glyph unicode="&#xd3;" glyph-name="gid36" horiz-adv-x="955" d="M480-20Q347-20 268.5,38t-113,174.5T121,503v782q0,152 32,263t111,172.5T484,1782q106,0 174.5-35T765,1647t53.5-156.5T834,1285V503q0-174-33-290.5T690.5,38T480-20Zm0,189q55,0 84,32t39.5,105T614,501v796q0,149-24,222.5T484,1593q-84,0-113.5-72.5T341,1298V501q0-123 10.5-195.5T392,201t88-32ZM350,1900l94,380H666L470,1900H350Z" />
      <glyph unicode="&#xd4;" glyph-name="gid37" horiz-adv-x="955" d="M480-20Q347-20 268.5,38t-113,174.5T121,503v782q0,152 32,263t111,172.5T484,1782q106,0 174.5-35T765,1647t53.5-156.5T834,1285V503q0-174-33-290.5T690.5,38T480-20Zm0,189q55,0 84,32t39.5,105T614,501v796q0,149-24,222.5T484,1593q-84,0-113.5-72.5T341,1298V501q0-123 10.5-195.5T392,201t88-32ZM193,1900l161,301H601l160-301H564l-86,211l-86-211H193Z" />
      <glyph unicode="&#xd5;" glyph-name="gid41" horiz-adv-x="955" d="M480-20Q347-20 268.5,38t-113,174.5T121,503v782q0,152 32,263t111,172.5T484,1782q106,0 174.5-35T765,1647t53.5-156.5T834,1285V503q0-174-33-290.5T690.5,38T480-20Zm0,189q55,0 84,32t39.5,105T614,501v796q0,149-24,222.5T484,1593q-84,0-113.5-72.5T341,1298V501q0-123 10.5-195.5T392,201t88-32ZM626,1900q-44,0-92.5,20.5t-95.5,41T349,1982q-16,0-23-2q-16-4-26.5-18.5T275,1921l-115,50q20,68 47.5,102.5T269,2121t73,13q41,0 93.5-18.5t99.5-37t72-18.5h4q14,2 27,14t29,57l127-28l-9-40q-25-100-62.5-131.5T626,1900Z" />
      <glyph unicode="&#xd6;" glyph-name="gid38" horiz-adv-x="955" d="M480-20Q347-20 268.5,38t-113,174.5T121,503v782q0,152 32,263t111,172.5T484,1782q106,0 174.5-35T765,1647t53.5-156.5T834,1285V503q0-174-33-290.5T690.5,38T480-20Zm0,189q55,0 84,32t39.5,105T614,501v796q0,149-24,222.5T484,1593q-84,0-113.5-72.5T341,1298V501q0-123 10.5-195.5T392,201t88-32ZM599,1900v188H840V1900H599Zm-484,0v188H356V1900H115Z" />
      <glyph unicode="&#xd7;" glyph-name="gid204" horiz-adv-x="710" d="M183,362L69,478L239,649L69,820L183,936L355,764L527,936L641,820L471,649L641,478L527,362L355,533L183,362Z" />
      <glyph unicode="&#xd8;" glyph-name="gid40" horiz-adv-x="900" d="M178-206L79-166L807,1906l107-36L178-206ZM480-20Q347-20 268.5,38t-113,174.5T121,503v782q0,152 32,263t111,172.5T484,1782q106,0 174.5-35T765,1647t53.5-156.5T834,1285V503q0-174-33-290.5T690.5,38T480-20Zm0,189q55,0 84,32t39.5,105T614,501v796q0,149-24,222.5T484,1593q-84,0-113.5-72.5T341,1298V501q0-123 10.5-195.5T392,201t88-32Z" />
      <glyph unicode="&#xd9;" glyph-name="gid53" horiz-adv-x="966" d="M485-21Q354-21 275.5,30.5T162.5,187T128,452V1760H347V457q0-91 7-156.5T390,200t95-35t94.5,35t35,100T621,456V1760H840V452q0-160-34-265T694.5,30.5T485-21ZM467,1900L271,2280H493l94-380H467Z" />
      <glyph unicode="&#xda;" glyph-name="gid50" horiz-adv-x="966" d="M485-21Q354-21 275.5,30.5T162.5,187T128,452V1760H347V457q0-91 7-156.5T390,200t95-35t94.5,35t35,100T621,456V1760H840V452q0-160-34-265T694.5,30.5T485-21ZM356,1900l94,380H672L476,1900H356Z" />
      <glyph unicode="&#xdb;" glyph-name="gid51" horiz-adv-x="966" d="M485-21Q354-21 275.5,30.5T162.5,187T128,452V1760H347V457q0-91 7-156.5T390,200t95-35t94.5,35t35,100T621,456V1760H840V452q0-160-34-265T694.5,30.5T485-21ZM199,1900l161,301H607l160-301H570l-86,211l-86-211H199Z" />
      <glyph unicode="&#xdc;" glyph-name="gid52" horiz-adv-x="966" d="M485-21Q354-21 275.5,30.5T162.5,187T128,452V1760H347V457q0-91 7-156.5T390,200t95-35t94.5,35t35,100T621,456V1760H840V452q0-160-34-265T694.5,30.5T485-21ZM605,1900v188H846V1900H605Zm-484,0v188H362V1900H121Z" />
      <glyph unicode="&#xdd;" glyph-name="gid58" horiz-adv-x="838" d="M319,0V732L15,1760H231l198-703h4l172,703H822L539,732V0H319ZM292,1900l94,380H608L412,1900H292Z" />
      <glyph unicode="&#xde;" glyph-name="gid44" horiz-adv-x="938" d="M159,0V1760H378V1499H522q106,0 172.5-35.5t102-102.5T846,1199t14-213V961q0-176-28.5-296.5t-101-183T524,419H378V0H159ZM378,601H497q61,0 91.5,35T630,750t11,212v29q0,166-25.5,250.5T501,1326H378V601Z" />
      <glyph unicode="&#xdf;" glyph-name="gid108" horiz-adv-x="992" d="M142,0V1417q0,91 14,159t50,113t103,67.5T482,1779q132,0 211.5-33T809,1634t36-217V1220q0-81-15-134.5T779.5,999T682,945q86-20 134.5-66T885,754t20-201V476q0-112-12-200.5t-47-150T743,32T562,0H458V177q98,0 147.5,16t67,62.5T690,395V656q0,110-47,150.5T467,847v175q94,0 129.5,33.5T632,1170v293q0,86-30.5,118T491,1613q-70,0-101-32t-31-118V0H142Z" />
      <glyph unicode="&#xe0;" glyph-name="gid64" horiz-adv-x="916" d="M371-13Q232-13 172,93.5T111,387V522q0,104 34,171.5t96.5,112t147.5,80T575,961v119q0,92-6,148.5t-29.5,83T464,1338q-51,0-76.5-26.5T354,1228t-8-147v-55H130v43q0,98 13,180t48.5,142T294,1484.5T469,1518q101,0 165-31.5t99-92.5t49-151.5T796,1033V0H577V134q-10-33-36.5-67T472,10T371-13Zm65,173q53,0 90.5,35T575,265V824q-73-32-120.5-59T380,708.5T342,638T331,535V390q0-122 21.5-176T436,160Zm6,1480L246,2020H468l94-380H442Z" />
      <glyph unicode="&#xe1;" glyph-name="gid61" horiz-adv-x="916" d="M371-13Q232-13 172,93.5T111,387V522q0,104 34,171.5t96.5,112t147.5,80T575,961v119q0,92-6,148.5t-29.5,83T464,1338q-51,0-76.5-26.5T354,1228t-8-147v-55H130v43q0,98 13,180t48.5,142T294,1484.5T469,1518q101,0 165-31.5t99-92.5t49-151.5T796,1033V0H577V134q-10-33-36.5-67T472,10T371-13Zm65,173q53,0 90.5,35T575,265V824q-73-32-120.5-59T380,708.5T342,638T331,535V390q0-122 21.5-176T436,160ZM330,1640l94,380H646L450,1640H330Z" />
      <glyph unicode="&#xe2;" glyph-name="gid62" horiz-adv-x="916" d="M371-13Q232-13 172,93.5T111,387V522q0,104 34,171.5t96.5,112t147.5,80T575,961v119q0,92-6,148.5t-29.5,83T464,1338q-51,0-76.5-26.5T354,1228t-8-147v-55H130v43q0,98 13,180t48.5,142T294,1484.5T469,1518q101,0 165-31.5t99-92.5t49-151.5T796,1033V0H577V134q-10-33-36.5-67T472,10T371-13Zm65,173q53,0 90.5,35T575,265V824q-73-32-120.5-59T380,708.5T342,638T331,535V390q0-122 21.5-176T436,160ZM174,1640l161,301H582l160-301H545l-86,211l-86-211H174Z" />
      <glyph unicode="&#xe3;" glyph-name="gid66" horiz-adv-x="916" d="M371-13Q232-13 172,93.5T111,387V522q0,104 34,171.5t96.5,112t147.5,80T575,961v119q0,92-6,148.5t-29.5,83T464,1338q-51,0-76.5-26.5T354,1228t-8-147v-55H130v43q0,98 13,180t48.5,142T294,1484.5T469,1518q101,0 165-31.5t99-92.5t49-151.5T796,1033V0H577V134q-10-33-36.5-67T472,10T371-13Zm65,173q53,0 90.5,35T575,265V824q-73-32-120.5-59T380,708.5T342,638T331,535V390q0-122 21.5-176T436,160ZM606,1640q-44,0-92.5,20.5t-95.5,41T329,1722q-16,0-23-2q-16-4-26.5-18.5T255,1661l-115,50q20,68 47.5,102.5T249,1861t73,13q41,0 93.5-18.5t99.5-37t72-18.5h4q14,2 27,14t29,57l127-28l-9-40q-25-100-62.5-131.5T606,1640Z" />
      <glyph unicode="&#xe4;" glyph-name="gid63" horiz-adv-x="916" d="M371-13Q232-13 172,93.5T111,387V522q0,104 34,171.5t96.5,112t147.5,80T575,961v119q0,92-6,148.5t-29.5,83T464,1338q-51,0-76.5-26.5T354,1228t-8-147v-55H130v43q0,98 13,180t48.5,142T294,1484.5T469,1518q101,0 165-31.5t99-92.5t49-151.5T796,1033V0H577V134q-10-33-36.5-67T472,10T371-13Zm65,173q53,0 90.5,35T575,265V824q-73-32-120.5-59T380,708.5T342,638T331,535V390q0-122 21.5-176T436,160ZM580,1640v188H821V1640H580Zm-484,0v188H337V1640H96Z" />
      <glyph unicode="&#xe5;" glyph-name="gid65" horiz-adv-x="916" d="M371-13Q232-13 172,93.5T111,387V522q0,104 34,171.5t96.5,112t147.5,80T575,961v119q0,92-6,148.5t-29.5,83T464,1338q-51,0-76.5-26.5T354,1228t-8-147v-55H130v43q0,98 13,180t48.5,142T294,1484.5T469,1518q101,0 165-31.5t99-92.5t49-151.5T796,1033V0H577V134q-10-33-36.5-67T472,10T371-13Zm65,173q53,0 90.5,35T575,265V824q-73-32-120.5-59T380,708.5T342,638T331,535V390q0-122 21.5-176T436,160Zm22,1480q-100,0-153.5,58T251,1836q0,78 53.5,136T458,2030t153.5-58T665,1835t-53.5-137T458,1640Zm0,77q56,0 84,37t28,82t-28,82t-84,37q-54,0-81.5-37T349,1836q0-44 27.5-81.5T458,1717Z" />
      <glyph unicode="&#xe6;" glyph-name="gid67" horiz-adv-x="1374" d="M937-18q-98,0-161.5,36.5T680,118q-23-31-65-61.5t-95-50T411-13Q266-13 194,94T122,393V531q1,101 35.5,167T254,808t146.5,79.5T587,963v100q0,90-6.5,151t-30,92.5T475,1338q-50,0-75.5-26t-34-81.5T357,1084v-58H141v43q0,98 13.5,180t49,142T306,1484.5T480,1518q86,0 138-25.5t81-76.5q37,50 95,76t142,26q103,0 167.5-35t98.5-99.5t46.5-154T1261,1032V737H806V460q0-100 8.5-166t35-99T930,162q56,0 80,38t29,104t5,150V563h215V501q0-116-10-211.5t-41.5-164t-96-106T937-18ZM448,162q53,0 90,35.5T586,267V818q-74-33-121.5-59.5T390,703t-37.5-69.5T342,531V391q0-122 22-175.5T448,162ZM806,893h238v181q0,87-6.5,146.5t-29,90T935,1341q-58,0-85.5-35.5T814,1207t-8-148V893Z" />
      <glyph unicode="&#xe7;" glyph-name="gid70" horiz-adv-x="890" d="M466-18Q356-18 287.5,18.5T183,124T134,289.5T121,505v498q0,154 26.5,269.5T249,1453t222,65q99,0 162-32.5t97-93T777,1247t13-189V941H577v141q0,82-5.5,138T543,1304.5T468,1333q-54,0-81.5-30.5t-37-88.5T340,1077V431q0-88 8-147t34.5-88T462,167t77,31t31,89.5T577,427V579H790V471q0-110-12.5-199.5T731,117.5t-98.5-100T466-18ZM420-621q-62,0-124,19v101q95,0 144.5,20t68,52.5T527-359q0,68-49,109T367-196L407,0h72l12-143q106-43 157.5-108.5T700-387q0-62-34.5-115.5t-97-86T420-621Z" />
      <glyph unicode="&#xe8;" glyph-name="gid77" horiz-adv-x="894" d="M460-18Q351-18 284,19T181.5,125t-48,165.5T121,504v536q0,106 16.5,193.5t55,151t106,98.5T468,1518q104,0 168.5-35t98.5-99.5t46.5-154T794,1032V741H340V443q0-136 19-208.5T462,162q56,0 80,34.5t29.5,97T577,440V563H790V496q0-118-10.5-212.5t-43-162T637.5,18T460-18ZM339,883H577v191q0,87-6.5,146.5t-29,90T468,1341q-58,0-85.5-35T347,1209.5T339,1067V883Zm92,757L235,2020H457l94-380H431Z" />
      <glyph unicode="&#xe9;" glyph-name="gid74" horiz-adv-x="894" d="M460-18Q351-18 284,19T181.5,125t-48,165.5T121,504v536q0,106 16.5,193.5t55,151t106,98.5T468,1518q104,0 168.5-35t98.5-99.5t46.5-154T794,1032V741H340V443q0-136 19-208.5T462,162q56,0 80,34.5t29.5,97T577,440V563H790V496q0-118-10.5-212.5t-43-162T637.5,18T460-18ZM339,883H577v191q0,87-6.5,146.5t-29,90T468,1341q-58,0-85.5-35T347,1209.5T339,1067V883Zm-19,757l94,380H636L440,1640H320Z" />
      <glyph unicode="&#xea;" glyph-name="gid75" horiz-adv-x="894" d="M460-18Q351-18 284,19T181.5,125t-48,165.5T121,504v536q0,106 16.5,193.5t55,151t106,98.5T468,1518q104,0 168.5-35t98.5-99.5t46.5-154T794,1032V741H340V443q0-136 19-208.5T462,162q56,0 80,34.5t29.5,97T577,440V563H790V496q0-118-10.5-212.5t-43-162T637.5,18T460-18ZM339,883H577v191q0,87-6.5,146.5t-29,90T468,1341q-58,0-85.5-35T347,1209.5T339,1067V883ZM163,1640l161,301H571l160-301H534l-86,211l-86-211H163Z" />
      <glyph unicode="&#xeb;" glyph-name="gid76" horiz-adv-x="894" d="M460-18Q351-18 284,19T181.5,125t-48,165.5T121,504v536q0,106 16.5,193.5t55,151t106,98.5T468,1518q104,0 168.5-35t98.5-99.5t46.5-154T794,1032V741H340V443q0-136 19-208.5T462,162q56,0 80,34.5t29.5,97T577,440V563H790V496q0-118-10.5-212.5t-43-162T637.5,18T460-18ZM339,883H577v191q0,87-6.5,146.5t-29,90T468,1341q-58,0-85.5-35T347,1209.5T339,1067V883Zm230,757v188H810V1640H569Zm-484,0v188H326V1640H85Z" />
      <glyph unicode="&#xec;" glyph-name="gid86" horiz-adv-x="511" d="M146,0V1500H365V0H146Zm93,1640L43,2020H265l94-380H239Z" />
      <glyph unicode="&#xed;" glyph-name="gid83" horiz-adv-x="511" d="M146,0V1500H365V0H146ZM128,1640l94,380H444L248,1640H128Z" />
      <glyph unicode="&#xee;" glyph-name="gid84" horiz-adv-x="511" d="M146,0V1500H365V0H146ZM-29,1640l161,301H379l160-301H342l-86,211l-86-211H-29Z" />
      <glyph unicode="&#xef;" glyph-name="gid85" horiz-adv-x="511" d="M146,0V1500H365V0H146ZM377,1640v188H618V1640H377Zm-484,0v188H134V1640H-107Z" />
      <glyph unicode="&#xf0;" glyph-name="gid72" horiz-adv-x="977" d="M467-20Q326-20 246.5,35.5t-112,164T102,466V574q0,185 32,303t106,172.5T439,1100q52-1 97-19.5t75-51.5q0,6-2,40.5t-5.5,82.5t-8.5,98.5T584,1342t-14,59L355,1277l-61,122l204,118q-47,54-106.5,81T279,1634l82,145q94-5 178-43.5T684,1621l200,114l60-122L757,1506q14-28 26-90t21.5-139.5t16.5-155T831.5,984t3.5-86V518q0-164-28.5-285T699,46T467-20Zm-1,189q90,0 120,73t30,234V838q-9,25-51.5,51.5T460,916q-56,0-86-32T333,779.5T322,585V439q0-107 12.5-165.5t44-81.5T466,169Z" />
      <glyph unicode="&#xf1;" glyph-name="gid94" horiz-adv-x="979" d="M141,0V1500H358V1338q20,72 85,126.5T600,1519q116,0 179.5-81.5T843,1193V0H626V1189q0,77-35,113t-90,36q-41,0-73.5-19t-51-57T358,1165V0H141ZM638,1640q-44,0-92.5,20.5t-95.5,41T361,1722q-16,0-23-2q-16-4-26.5-18.5T287,1661l-115,50q20,68 47.5,102.5T281,1861t73,13q41,0 93.5-18.5t99.5-37t72-18.5h4q14,2 27,14t29,57l127-28l-9-40q-25-100-62.5-131.5T638,1640Z" />
      <glyph unicode="&#xf2;" glyph-name="gid99" horiz-adv-x="926" d="M465-18Q358-18 290.5,18T186,120.5T135,281T121,492v537q0,141 29,251.5t103.5,174T465,1518q102,0 168.5-36t104-102.5T790,1224t15-195V492q0-115-13.5-208.5T742,122.5T639,18.5T465-18Zm0,180q52,0 77.5,34T577,291.5T586,434v637q0,81-9,140.5t-35,93T465,1338q-54,0-81-33.5t-35.5-93T340,1071V434q0-81 8.5-142.5T384,196t81-34ZM446,1640L250,2020H472l94-380H446Z" />
      <glyph unicode="&#xf3;" glyph-name="gid96" horiz-adv-x="926" d="M465-18Q358-18 290.5,18T186,120.5T135,281T121,492v537q0,141 29,251.5t103.5,174T465,1518q102,0 168.5-36t104-102.5T790,1224t15-195V492q0-115-13.5-208.5T742,122.5T639,18.5T465-18Zm0,180q52,0 77.5,34T577,291.5T586,434v637q0,81-9,140.5t-35,93T465,1338q-54,0-81-33.5t-35.5-93T340,1071V434q0-81 8.5-142.5T384,196t81-34ZM335,1640l94,380H651L455,1640H335Z" />
      <glyph unicode="&#xf4;" glyph-name="gid97" horiz-adv-x="926" d="M465-18Q358-18 290.5,18T186,120.5T135,281T121,492v537q0,141 29,251.5t103.5,174T465,1518q102,0 168.5-36t104-102.5T790,1224t15-195V492q0-115-13.5-208.5T742,122.5T639,18.5T465-18Zm0,180q52,0 77.5,34T577,291.5T586,434v637q0,81-9,140.5t-35,93T465,1338q-54,0-81-33.5t-35.5-93T340,1071V434q0-81 8.5-142.5T384,196t81-34ZM178,1640l161,301H586l160-301H549l-86,211l-86-211H178Z" />
      <glyph unicode="&#xf5;" glyph-name="gid101" horiz-adv-x="926" d="M465-18Q358-18 290.5,18T186,120.5T135,281T121,492v537q0,141 29,251.5t103.5,174T465,1518q102,0 168.5-36t104-102.5T790,1224t15-195V492q0-115-13.5-208.5T742,122.5T639,18.5T465-18Zm0,180q52,0 77.5,34T577,291.5T586,434v637q0,81-9,140.5t-35,93T465,1338q-54,0-81-33.5t-35.5-93T340,1071V434q0-81 8.5-142.5T384,196t81-34ZM611,1640q-44,0-92.5,20.5t-95.5,41T334,1722q-16,0-23-2q-16-4-26.5-18.5T260,1661l-115,50q20,68 47.5,102.5T254,1861t73,13q41,0 93.5-18.5t99.5-37t72-18.5h4q14,2 27,14t29,57l127-28l-9-40q-25-100-62.5-131.5T611,1640Z" />
      <glyph unicode="&#xf6;" glyph-name="gid98" horiz-adv-x="926" d="M465-18Q358-18 290.5,18T186,120.5T135,281T121,492v537q0,141 29,251.5t103.5,174T465,1518q102,0 168.5-36t104-102.5T790,1224t15-195V492q0-115-13.5-208.5T742,122.5T639,18.5T465-18Zm0,180q52,0 77.5,34T577,291.5T586,434v637q0,81-9,140.5t-35,93T465,1338q-54,0-81-33.5t-35.5-93T340,1071V434q0-81 8.5-142.5T384,196t81-34ZM584,1640v188H825V1640H584Zm-484,0v188H341V1640H100Z" />
      <glyph unicode="&#xf7;" glyph-name="gid205" horiz-adv-x="804" d="M94,664V845H710V664H94ZM293,205V503H511V205H293Zm0,803v298H511V1008H293Z" />
      <glyph unicode="&#xf8;" glyph-name="gid100" horiz-adv-x="879" d="M263-173L163-145L672,1672l101-28L263-173ZM465-18Q358-18 290.5,18T186,120.5T135,281T121,492v537q0,141 29,251.5t103.5,174T465,1518q102,0 168.5-36t104-102.5T790,1224t15-195V492q0-115-13.5-208.5T742,122.5T639,18.5T465-18Zm0,180q52,0 77.5,34T577,291.5T586,434v637q0,81-9,140.5t-35,93T465,1338q-54,0-81-33.5t-35.5-93T340,1071V434q0-81 8.5-142.5T384,196t81-34Z" />
      <glyph unicode="&#xf9;" glyph-name="gid114" horiz-adv-x="972" d="M387-20q-72,0-129.5,34.5T166,124T132,318V1500H350V345q0-87 29-132.5T475,167q73,0 106.5,52T615,348V1500H833V0H615V154Q592,82 535.5,31T387-20Zm83,1660L274,2020H496l94-380H470Z" />
      <glyph unicode="&#xfa;" glyph-name="gid111" horiz-adv-x="972" d="M387-20q-72,0-129.5,34.5T166,124T132,318V1500H350V345q0-87 29-132.5T475,167q73,0 106.5,52T615,348V1500H833V0H615V154Q592,82 535.5,31T387-20ZM358,1640l94,380H674L478,1640H358Z" />
      <glyph unicode="&#xfb;" glyph-name="gid112" horiz-adv-x="972" d="M387-20q-72,0-129.5,34.5T166,124T132,318V1500H350V345q0-87 29-132.5T475,167q73,0 106.5,52T615,348V1500H833V0H615V154Q592,82 535.5,31T387-20ZM201,1640l161,301H609l160-301H572l-86,211l-86-211H201Z" />
      <glyph unicode="&#xfc;" glyph-name="gid113" horiz-adv-x="972" d="M387-20q-72,0-129.5,34.5T166,124T132,318V1500H350V345q0-87 29-132.5T475,167q73,0 106.5,52T615,348V1500H833V0H615V154Q592,82 535.5,31T387-20ZM608,1640v188H849V1640H608Zm-484,0v188H365V1640H124Z" />
      <glyph unicode="&#xfd;" glyph-name="gid119" horiz-adv-x="801" d="M101-254V-93h74q44,0 76,5t39,22q11,16 8.5,50T290,56L46,1500H256L362,723l43-406h19l38,406l96,777H767L516-36q-12-79-30.5-127t-56-69.5T319-254H101ZM273,1640l94,380H589L393,1640H273Z" />
      <glyph unicode="&#xfe;" glyph-name="gid104" horiz-adv-x="952" d="M144-276V1778H363V1373q29,74 87.5,107T570,1513q110,0 165.5-63T810,1278.5T829,1034V490q0-143-21-258T725,49.5T538-18q-57,0-103.5,35T363,98V-276H144ZM493,164q73,1 95,72.5T610,458v608q0,79-6.5,140T573,1301.5T497,1336q-42,0-72-20t-46-78t-16-172V450q0-142 24-214t106-72Z" />
      <glyph unicode="&#xff;" glyph-name="gid120" horiz-adv-x="801" d="M101-254V-93h74q44,0 76,5t39,22q11,16 8.5,50T290,56L46,1500H256L362,723l43-406h19l38,406l96,777H767L516-36q-12-79-30.5-127t-56-69.5T319-254H101ZM522,1640v188H763V1640H522Zm-484,0v188H279V1640H38Z" />
      <glyph unicode="&#x2013;" glyph-name="gid165" horiz-adv-x="756" d="M120,541V741H636V541H120Z" />
      <glyph unicode="&#x2014;" glyph-name="gid166" horiz-adv-x="1153" d="M60,557V741H1092V557H60Z" />
      <glyph unicode="&#x2018;" glyph-name="gid178" horiz-adv-x="590" d="M139,1090v240l126,433H399l-92-424H456V1090H139Z" />
      <glyph unicode="&#x2019;" glyph-name="gid179" horiz-adv-x="590" d="M209,1090l93,425H154v248H471V1524L344,1090H209Z" />
      <glyph unicode="&#x201a;" glyph-name="gid174" horiz-adv-x="484" d="M149-370L233,0H93V237H401V9L289-370H149Z" />
      <glyph unicode="&#x201c;" glyph-name="gid176" horiz-adv-x="1030" d="M613,1129v230l114,404H866l-85-395H921V1129H613Zm-458,0v230l113,404H408l-85-395H463V1129H155Z" />
      <glyph unicode="&#x201d;" glyph-name="gid177" horiz-adv-x="1077" d="M683,1129l84,395H628v239H936V1533L822,1129H683Zm-458,0l84,395H169v239H477V1533L364,1129H225Z" />
      <glyph unicode="&#x201e;" glyph-name="gid175" horiz-adv-x="1016" d="M676-395L761,0H621V239H929V9L816-395H676Zm-458,0L303,0H163V239H471V9L357-395H218Z" />
      <glyph unicode="&#x2022;" glyph-name="gid158" horiz-adv-x="861" d="M430,476q-117,0-178.5,69.5T190,741t61.5,195.5T430,1006q118,0 179.5-69.5T671,741T609.5,545.5T430,476Z" />
      <glyph unicode="&#x2039;" glyph-name="gid182" horiz-adv-x="606" d="M548,363L67,648V849l481,271V900L236,749L548,589V363Z" />
      <glyph unicode="&#x203a;" glyph-name="gid183" horiz-adv-x="727" d="M150,363V589L462,749L150,900v220L631,849V648L150,363Z" />
    </font>
</defs>
</svg>
