<?xml version="1.0" standalone="no"?>
<!DOCTYPE svg PUBLIC "-//W3C//DTD SVG 1.1//EN" "http://www.w3.org/Graphics/SVG/1.1/DTD/svg11.dtd">
<svg xmlns="http://www.w3.org/2000/svg">
  <defs>
    <font id="Antonio" horiz-adv-x="884">
      <font-face font-family="Antonio SemiBold" units-per-em="2048" panose-1="0 0 0 0 0 0 0 0 0 0" ascent="2365" descent="-285" alphabetic="0" />
      <glyph unicode=" " glyph-name="gid146" horiz-adv-x="441" />
      <glyph unicode="!" glyph-name="gid153" horiz-adv-x="522" d="M214,407L133,1760H389L309,407H214ZM141,0V240H378V0H141Z" />
      <glyph unicode="&quot;" glyph-name="gid184" horiz-adv-x="827" d="M385,1086l-30,674H568l-97-674H385Zm-39,0l-29,674H529l-97-674H346Z" />
      <glyph unicode="#" glyph-name="gid160" horiz-adv-x="1035" d="M126,0l97,606H81V732H244l53,327H129v125H318l96,576H584l-96-576H664l96,576H931l-94-576H976V1059H815L763,732H927V606H742L644,0H473l97,606H393L297,0H126ZM413,731H592l52,324H467L413,731Z" />
      <glyph unicode="$" glyph-name="gid199" horiz-adv-x="845" d="M381-235V42H505V-235H381ZM369,1493v267H493V1493H369ZM433-5Q264-5 179,97T94,432V538H314V422q0-114 26-174t85-60q58,0 86,38.5T539,362q0,52-15.5,102T476,563t-82,96L275,769q-94,88-142,188T85,1174q0,186 87.5,272.5T421,1533q106,0 177.5-43.5T706,1347t36-268v-76H530v102q0,114-24,174.5T423,1340q-58,0-86-33t-31-119q-1-44 11.5-89t40.5-88t72-84L553,814q108-99 161.5-210T768,368q0-178-81.5-275.5T433-5Z" />
      <glyph unicode="%" glyph-name="gid214" horiz-adv-x="2191" d="M656,0l699,1760h184L849,0H656ZM473,581q-117,0-187.5,42.5T183,760t-32,247v357q0,152 31,244t101.5,133T473,1782t189.5-41T764,1608t31-244V1007q0-153-32-247T660.5,623.5T473,581Zm0,172q69,0 94,42.5T592,938v494q0,99-24,138.5T473,1610t-95.5-40T353,1432V938q0-100 25-142.5T473,753ZM1711-20q-116,0-187,42.5T1421,159t-32,247V763q0,152 31,244t101.5,133t189.5,41q120,0 190.5-41t101-133T2033,763V406q0-153-31.5-247T1899,22.5T1711-20Zm0,172q69,0 94.5,42.5T1831,337V831q0,99-24,138.5t-96,39.5q-70,0-94.5-40T1592,831V337q0-100 25-142.5t94-42.5Z" />
      <glyph unicode="&amp;" glyph-name="gid187" horiz-adv-x="997" d="M382-20Q246-20 158.5,74T71,354q0,118 38.5,218.5T210,762T341,934q-62,159-103.5,293T196,1433q0,170 83.5,259.5T502,1782q104,0 169-41.5T766.5,1621T797,1432q0-95-33-185.5T678.5,1071T566,908L712,552q36,67 80,137.5T892,829l96-162q-60-72-105-155.5T799,345L954,0H745L674,153q-34-51-74.5-90T506,2T382-20Zm35,199q36,0 64,21t53,59.5T587,351L422,743q-40-56-72-114T299,512T277,393q-4-102 28.5-158T417,179Zm75,923q58,78 95.5,163T625,1437q0,91-21,132t-85,41q-40,0-63.5-16.5t-34-43t-13-56.5t-2.5-58q0-45 23.5-135.5T492,1102Z" />
      <glyph unicode="&apos;" glyph-name="gid185" horiz-adv-x="417" d="M167,1125l-60,635H321l-65-635H167Z" />
      <glyph unicode="(" glyph-name="gid168" horiz-adv-x="585" d="M501-198q-105,0-176,18T211.5-115t-61,133T132,240V1361q0,136 18.5,222t61,133.5t113.5,65T501,1799V1625q-45,0-72.5-8.5t-42-35t-19.5-78T362,1365V236q0-86 5-138t19.5-78.5t42-35T501-24V-198Z" />
      <glyph unicode=")" glyph-name="gid169" horiz-adv-x="585" d="M84-198V-24q45,0 72.5,8.5t42,35T218,98t5,138V1365q0,87-5,138.5t-19.5,78t-42,35T84,1625v174q105,0 176-17.5t113.5-65t61-133.5T453,1361V240q0-136-18.5-222t-61-133T260-180T84-198Z" />
      <glyph unicode="*" glyph-name="gid159" horiz-adv-x="910" d="M369,966l32,286L173,1074L86,1224l254,125L81,1466l87,149l232-170l-31,279H541l-26-275l227,172l87-149L569,1349l260-131l-87-150L515,1247l26-281H369Z" />
      <glyph unicode="+" glyph-name="gid202" horiz-adv-x="733" d="M284,468V711H63V866H284v240H447V866H670V711H447V468H284Z" />
      <glyph unicode="," glyph-name="gid149" horiz-adv-x="473" d="M171-341L243,0H118V249H389V9L287-341H171Z" />
      <glyph unicode="-" glyph-name="gid163" horiz-adv-x="696" d="M88,720V878H551V720H88Z" />
      <glyph unicode="." glyph-name="gid148" horiz-adv-x="532" d="M162,0V218H358V0H162Z" />
      <glyph unicode="/" glyph-name="gid161" horiz-adv-x="770" d="M67,0L501,1768H706L271,0H67Z" />
      <glyph unicode="0" glyph-name="gid129" horiz-adv-x="919" d="M461-21Q317-21 242.5,38t-101,170T115,475v841q0,152 28,255t102.5,156T461,1780t214-53t99-156t26-255V475q0-117-13-209T738.5,110T636,12.5T461-21Zm-2,198q29,0 51,8.5t36,37T567,310t7,160v857q0,119-14,172.5t-40,68T459,1582q-34,0-60.5-13.5t-42-67T341,1328V470q0-102 6.5-160.5t21.5-87t37-37t53-8.5Z" />
      <glyph unicode="1" glyph-name="gid130" horiz-adv-x="780" d="M337,0V1460q-24-28-68.5-50.5t-93-35T90,1362v179q53,8 113.5,34.5t113,72.5T397,1760H569V0H337Z" />
      <glyph unicode="2" glyph-name="gid131" horiz-adv-x="894" d="M168,0V101q0,98 18,185t59,179T351,671L519,959q20,36 34.5,74.5T577,1115t13,91t4,101q0,115-10.5,174t-33,79.5T491,1581t-62.5-20t-38-82T378,1291V1065H153v117q0,190 22.5,323.5t97,203.5T503,1779q120,0 188-64t95.5-173.5T814,1293q0-85-12.5-158.5T765,994T704,862L543,574q-46-83-76.5-144.5T419,310T394,178H785V0H168Z" />
      <glyph unicode="3" glyph-name="gid132" horiz-adv-x="898" d="M446-20Q255-20 181,99.5T107,468v99H325V469q0-106 8.5-170t36-92.5T452,178q56,0 83.5,33t37,103T582,494q0,126-14,201T517.5,803T413,836H353v181h58q66,0 103,26t52,92t15,183q0,109-14.5,165.5t-43,77T455,1581q-43,0-70-24.5T345.5,1474T333,1315v-46H110v55q0,232 75.5,343.5T452,1779q189,0 272.5-115.5T808,1318q0-143-42-246.5T629,933q67-31 107-95t58-152t18-193q0-255-83-384T446-20Z" />
      <glyph unicode="4" glyph-name="gid133" horiz-adv-x="894" d="M508,0V323H85V490L474,1760H718V509H859V323H718V0H508ZM270,509H508v896L270,509Z" />
      <glyph unicode="5" glyph-name="gid134" horiz-adv-x="894" d="M459-20Q339-20 267.5,25T165,148.5T134,327V533H356V338q0-69 19.5-115T459,177q57,0 80.5,42.5T563,349V843q0,95-20,147.5T461,1043q-50,0-79.5-44T352,863L149,881v879H743V1551H363V1163q17,35 63.5,55t99.5,20q94,0 151.5-53.5T761,1006t26-338V630q0-162-9-284.5T738,142T640.5,20.5T459-20Z" />
      <glyph unicode="6" glyph-name="gid135" horiz-adv-x="894" d="M476-21Q362-21 291,15T181.5,119.5T129,286T115,508v733q0,194 33.5,312.5t112,172.5T472,1780q113,0 182-43.5T755.5,1595T788,1332v-86H577v45q0,121-8.5,183.5t-34,84.5T457,1581q-55,0-79-33t-30.5-104T341,1257V1033q28,29 75.5,47.5T520,1099q121,1 185.5-58t89-177T819,571V497q0-160-25-276.5t-98.5-179T476-21Zm-3,201q54,0 81.5,25t37,83T601,444V590q0,116-8.5,185.5T557,876t-79,31q-36,0-67-12.5T361.5,866T341,840V460q0-98 11.5-160t40-91T473,180Z" />
      <glyph unicode="7" glyph-name="gid136" horiz-adv-x="894" d="M207,0q18,241 59.5,453.5t95,397T466,1191q50,164 87,261.5T593,1562H92v198H826V1592q-6-51-58-181.5T659,1085q-44-144-85-316T502.5,403.5T458,0H207Z" />
      <glyph unicode="8" glyph-name="gid137" horiz-adv-x="894" d="M452-20Q269-20 182.5,87.5T94,423l-1,97q0,93 17.5,179.5t51,153T243,951q-75,54-107.5,155.5T103,1343q0,229 79.5,333T452,1780q193,0 270-102.5T799,1343q0-137-30-237.5T662,952q46-32 77-99.5t47-154T802,520V429q0-231-83.5-340T452-20Zm1,197q54,0 79,25.5t31.5,84T570,441v99q0,161-29.5,240.5T453,860q-56,0-92-79T325,538V436q0-141 22-200t106-59Zm-2,841q36,0 63.5,25t43,92T573,1328q0,121-13,178t-40,74t-69,17q-41,0-68-19.5T343,1500t-13-175q0-125 14.5-191.5t41.5-91t65-24.5Z" />
      <glyph unicode="9" glyph-name="gid138" horiz-adv-x="894" d="M433-20Q323-20 252.5,23T148,164T114,426v89H327V469q0-124 9.5-186.5t36.5-84T450,177q55,0 76.5,34.5t25.5,107T556,505V709q-25-19-67.5-32.5T393,663q-123,0-189,60T113,900.5T88,1189v61q0,120 12.5,218t48,167.5t103.5,107T431,1780q114,0 183.5-35.5t106-103.5t49-166T782,1251V527q0-195-31.5-315T642.5,36T433-20Zm-5,870q35,0 62.5,9T535,878t21,15v408q0,145-23,211.5T434,1579q-54,0-81.5-28.5t-37-89T306,1304V1163q0-115 8.5-183T349,881t79-31Z" />
      <glyph unicode=":" glyph-name="gid150" horiz-adv-x="517" d="M134,1043v264H383V1043H134Zm0-773V534H383V270H134Z" />
      <glyph unicode=";" glyph-name="gid151" horiz-adv-x="561" d="M187-105l83,376H173V534H431V280L319-105H187ZM169,1043v264H418V1043H169Z" />
      <glyph unicode="&lt;" glyph-name="gid208" horiz-adv-x="730" d="M639,253L64,631V876l575,375V1008L222,754L639,491V253Z" />
      <glyph unicode="=" glyph-name="gid206" horiz-adv-x="722" d="M92,565V736H647V565H92Zm0,327v169H647V892H92Z" />
      <glyph unicode="&gt;" glyph-name="gid207" horiz-adv-x="730" d="M88,253V496L506,749L88,1012v239L663,874V629L88,253Z" />
      <glyph unicode="?" glyph-name="gid155" horiz-adv-x="872" d="M255,494V810q103,29 160,69.5T498,981t32,151.5t6,219.5q0,121-9,175t-69,54q-65,0-76.5-52.5T370,1348V1160H143v213q0,72 11,144.5T197,1650t93.5,96T454,1782q107,0 170-33.5t94-96.5t40.5-154t9.5-206q0-173-24-290T653,813T458,704V494H255ZM259,0V299H459V0H259Z" />
      <glyph unicode="@" glyph-name="gid186" horiz-adv-x="1514" d="M1231,23Q961-69 753.5-55T405,68.5T191,373T118,836q0,215 39.5,388T281,1520.5t217,190T817,1777q199,0 326.5-104.5t189.5-299T1395,910q0-156-28.5-282T1278,428t-155-74q-62,0-115.5,61T933,570q-19-107-67.5-170T741,337q-80,0-143.5,51.5T497,545T460,810q0,88 14,184.5T524.5,1175T628,1312t173,56t258-63V708q0-94 16-148.5t58-54.5q37,0 60,45t34,141.5T1238,942q0,129-16.5,251t-63,219.5t-132,155T804,1625q-185,0-296.5-97.5T346.5,1252T297,833q0-235 56-397T521.5,188.5T805,98.5T1207,175l24-152ZM758,482q43,0 76,35.5T886,613t19,130v473q-81,32-136.5,16t-89-72.5T631,1015T616,816q0-157 31.5-245.5T758,482Z" />
      <glyph unicode="A" glyph-name="gid1" horiz-adv-x="915" d="M41,0L301,1760H594L875,0H657L610,327H306L263,0H41ZM330,514H583L453,1425h-3L330,514Z" />
      <glyph unicode="B" glyph-name="gid10" horiz-adv-x="945" d="M139,0V1760H483q134,0 210.5-40T802,1592.5T835,1363v-45q0-142-31-233T693,956q66-25 103.5-86T850,723t16-187V496q-2-174-37.5-283.5T714,51.5T502,0H139ZM371,184H485q57,0 88.5,27t45,92T632,483v95q0,148-25.5,214T499,858H371V184Zm0,851H481q39,0 63.5,9.5t38,36.5t18,78.5T605,1296v73q0,87-14,131t-44,59t-79,15H371V1035Z" />
      <glyph unicode="C" glyph-name="gid11" horiz-adv-x="939" d="M480-21Q352-21 272,40T155,219T118,505v747q0,119 17,215.5T193.5,1634t113,107.5T487,1779q101,0 168.5-34.5t107-99.5t56-155T835,1290V1075H609v208q0,150-23,223t-99,73q-81,0-108.5-76T351,1284V497q0-113 11-183.5t39-103T481,178q77,0 102.5,75.5T609,499V718H838V502q0-173-34-289.5T691.5,37.5T480-21Z" />
      <glyph unicode="D" glyph-name="gid13" horiz-adv-x="977" d="M139,0V1760H497q136,0 214.5-56t112-160.5T857,1293l1-782q0-176-36.5-289T704,54.5T489,0H139ZM371,184h98q53,0 87.5,22.5t52,81.5T626,458l-1,835q0,153-36.5,219T466,1578H371V184Z" />
      <glyph unicode="E" glyph-name="gid15" horiz-adv-x="774" d="M139,0V1760H692V1563H371V999H675V804H371V197H699V0H139Z" />
      <glyph unicode="F" glyph-name="gid20" horiz-adv-x="765" d="M139,0V1760H700V1562H371V1043H678V843H371V0H139Z" />
      <glyph unicode="G" glyph-name="gid21" horiz-adv-x="964" d="M450-17Q295-17 206.5,108.5T118,520v750q0,116 19,210t62,161t115.5,102.5T493,1779q113,0 181.5-36t105-103.5t49-163T841,1263V1132H620v210q0,124-25,180.5T495,1579q-81,0-112.5-66.5T351,1276V526q0-187 26.5-267.5T489,178q82,0 113,81.5T633,532V765H493V939H841V0H727L694,151Q668,70 603,26.5T450-17Z" />
      <glyph unicode="H" glyph-name="gid22" horiz-adv-x="1007" d="M139,0V1760H371V1024H636v736H868V0H636V830H371V0H139Z" />
      <glyph unicode="I" glyph-name="gid23" horiz-adv-x="515" d="M141,0V1760H374V0H141Z" />
      <glyph unicode="J" glyph-name="gid28" horiz-adv-x="905" d="M427-21Q258-21 172.5,82T87,389V654H313V402q0-61 6-112t28.5-81.5T421,178q50,0 72.5,30T522,292t6,126V1760H761V428q0-220-85.5-334.5T427-21Z" />
      <glyph unicode="K" glyph-name="gid29" horiz-adv-x="939" d="M139,0V1760H371V933l295,827H902L589,891L925,0H682L373,834V0H139Z" />
      <glyph unicode="L" glyph-name="gid30" horiz-adv-x="719" d="M139,0V1760H371V195H702V0H139Z" />
      <glyph unicode="M" glyph-name="gid32" horiz-adv-x="1347" d="M139,0V1760H417L679,403L928,1760h279V0H1005V662l14,634L765,3H590L326,1296l14-634V0H139Z" />
      <glyph unicode="N" glyph-name="gid33" horiz-adv-x="1037" d="M139,0V1760H318L711,621l-20,497v642H898V0H730L340,1160l13-451V0H139Z" />
      <glyph unicode="O" glyph-name="gid35" horiz-adv-x="967" d="M486-20Q352-20 271,38T154,211.5T118,500v788q0,152 34.5,262.5t115.5,171T490,1782q106,0 175.5-34.5t109.5-99T831.5,1493T848,1288V500q0-173-34.5-288.5T699.5,38T486-20Zm0,201q54,0 82,31t38,101t10,185v802q0,140-24,210.5T490,1581q-81,0-110-69t-29-211V498q0-116 10-185.5T400.5,212T486,181Z" />
      <glyph unicode="P" glyph-name="gid43" horiz-adv-x="914" d="M139,0V1760H514q105,0 172-33.5T790,1628t51.5-158T856,1259v-31q0-174-28.5-293.5T726,753.5T518,692H371V0H139ZM371,885H483q60,0 90.5,32.5t41,108T625,1229v34q0,159-25.5,237T487,1578H371V885Z" />
      <glyph unicode="Q" glyph-name="gid45" horiz-adv-x="967" d="M687-279L439-8L591,69L802-176L687-279ZM486-20Q352-20 271,38T154,211.5T118,500v788q0,152 34.5,262.5t115.5,171T490,1782q106,0 175.5-34.5t109.5-99T831.5,1493T848,1288V500q0-173-34.5-288.5T699.5,38T486-20Zm0,201q54,0 82,31t38,101t10,185v802q0,140-24,210.5T490,1581q-81,0-110-69t-29-211V498q0-116 10-185.5T400.5,212T486,181Z" />
      <glyph unicode="R" glyph-name="gid46" horiz-adv-x="961" d="M139,0V1760H539q139,0 206.5-51.5t88.5-153T855,1304q0-160-32.5-252.5T694,930q47-8 78.5-39.5t50-96t26.5-170T857,362q0-14 0-52t0.5-86t2-95.5t4-82.5T870,0H638q-3,7-5.5,44.5T628,142t-2.5,135.5t-0.5,160T625,609q0,91-10,138.5t-41,66T479,836l-108,6V0H139ZM372,1017H493q54,0 82.5,22.5t39,86.5T625,1315v11q0,105-10,159t-39.5,73.5T486,1578H372V1017Z" />
      <glyph unicode="S" glyph-name="gid47" horiz-adv-x="848" d="M438-20Q330-20 260.5,17T152,123T98,288T83,503V668H306V490q0-167 25.5-239T438,179q55,0 82,26t35,83t8,151q0,110-41.5,193.5T400,799L278,921q-51,54-97.5,115.5T105,1175T76,1350q0,135 31,232t107.5,148.5T429,1782q107,0 173-35.5T703,1645t48-158t13-206V1175H546v121q0,96-8.5,159.5T504,1551t-75,32q-47,0-76-22t-42-67.5T298,1376q0-64 15.5-107t48-81.5T441,1099L571,960q99-105 158.5-227T789,455q0-151-31-257T651,36T438-20Z" />
      <glyph unicode="T" glyph-name="gid48" horiz-adv-x="662" d="M221,0V1563H21v197H640V1563H452V0H221Z" />
      <glyph unicode="U" glyph-name="gid49" horiz-adv-x="979" d="M491-21Q358-21 277.5,30.5T161,187T125,452V1760H358V457q0-86 6.5-149T399,211t92-34t91.5,33.5T616,307t6,149V1760H854V452q0-160-35-265T704.5,30.5T491-21Z" />
      <glyph unicode="V" glyph-name="gid54" horiz-adv-x="903" d="M324,0L40,1760H261L377,994l88-615h5l76,615l99,766H863L603,0H324Z" />
      <glyph unicode="W" glyph-name="gid55" horiz-adv-x="1348" d="M276,0L51,1760H262L403,451L588,1760H777L965,451l122,1309h211L1093,0H862L687,1245L504,0H276Z" />
      <glyph unicode="X" glyph-name="gid56" horiz-adv-x="838" d="M43,0L303,937L48,1760H248l173-560l147,560H781L528,858L795,0H593L414,580L262,0H43Z" />
      <glyph unicode="Y" glyph-name="gid57" horiz-adv-x="848" d="M317,0V724L16,1760H242l192-691h4l167,691H832L550,724V0H317Z" />
      <glyph unicode="Z" glyph-name="gid59" horiz-adv-x="714" d="M66,0V204L430,1563H99v197H672V1577L308,197H664V0H66Z" />
      <glyph unicode="[" glyph-name="gid172" horiz-adv-x="685" d="M159-70V1760H597V1581H390V110H597V-70H159Z" />
      <glyph unicode="\" glyph-name="gid162" horiz-adv-x="791" d="M493,0L82,1760H287L697,0H493Z" />
      <glyph unicode="]" glyph-name="gid173" horiz-adv-x="685" d="M97-70V110H304V1581H97v179H535V-70H97Z" />
      <glyph unicode="^" glyph-name="gid212" horiz-adv-x="965" d="M99,837l241,923H625L866,837H642L483,1578L324,837H99Z" />
      <glyph unicode="_" glyph-name="gid167" horiz-adv-x="748" d="M48-203V-38H699V-203H48Z" />
      <glyph unicode="`" glyph-name="gid228" horiz-adv-x="428" d="M248,1640L50,2029H284l94-389H248Z" />
      <glyph unicode="a" glyph-name="gid60" horiz-adv-x="930" d="M373-14Q229-14 169,94.5T108,389V514q0,108 34,177.5T239,806t149,80.5T578,962v122q0,88-6,141.5T543,1304t-73,25q-49,0-73.5-25.5t-32.5-79T356,1087v-59H127v44q0,99 14.5,181t52,141t106,91.5T476,1518q100,0 165-30.5t102.5-90t53-147.5T812,1046V0H580V138q-10-35-37-70.5T473,9T373-14Zm72,182q52,0 87.5,35T578,274V822q-70-32-116-57.5T389.5,710T352,640.5T341,540V388q0-116 22-168t82-52Z" />
      <glyph unicode="b" glyph-name="gid68" horiz-adv-x="964" d="M579-14q-64,0-119,33.5T373,132V0H143V1777H373V1386q20,62 75.5,97T563,1518q115,1 176-60t84-166.5T846,1052V451q0-132-22.5-237.5T743.5,47T579-14ZM502,172q73,1 93,71.5T615,461v609q0,77-7,135t-30,90.5T505,1328q-43,0-72.5-20T388,1232t-15-163V457q0-140 24-212.5T502,172Z" />
      <glyph unicode="c" glyph-name="gid69" horiz-adv-x="903" d="M474-18Q362-18 292,18.5t-108,105T132,288T118,503V999q0,156 27.5,273t105,181.5T478,1518q99,0 162.5-31.5T740,1395t50.5-143.5T805,1065V936H581v149q0,77-6,130.5T547,1297t-73,28q-52,0-78.5-29.5t-36-84.5T350,1080V426q0-82 8-138t33.5-84.5T469,175q50,0 74,30t31,86t7,132V582H805V462q0-107-14-195.5t-50-152t-101-98T474-18Z" />
      <glyph unicode="d" glyph-name="gid71" horiz-adv-x="964" d="M382-14Q266-14 210,51.5t-74,177T118,480v585q0,129 26.5,231t90,162T409,1518q61,0 109.5-32.5T592,1403v374H823V0H592V131Q562,57 507.5,21.5T382-14Zm82,186q48,0 76,25.5T580.5,285T593,454v601q0,131-23,202t-101,71q-72-1-95.5-69.5T350,1051V441q0-83 8.5-143.5t33.5-93T464,172Z" />
      <glyph unicode="e" glyph-name="gid73" horiz-adv-x="908" d="M465-18Q355-18 286.5,19t-105,105.5T131.5,289T118,502v543q0,105 18,192t58.5,150T304,1484t171,34q104,0 170-34.5t101.5-98t49.5-152T810,1037V738H350V441q0-128 18.5-199T469,171q54,0 77.5,33.5t28.5,94T580,439V565H807V494q0-118-12-213T748.5,119.5T646,17.5T465-18ZM349,884H580v192q0,83-6.5,140.5T545,1303t-71,29q-56,0-83-34t-34.5-93T349,1069V884Z" />
      <glyph unicode="f" glyph-name="gid78" horiz-adv-x="655" d="M194,0V1274H70v168H194v75q0,128 59.5,198T434,1785q60,0 104-9.5t52-12.5V1610q-36,5-67,5q-60,0-79.5-25T424,1518v-76H590V1274H424V0H194Z" />
      <glyph unicode="g" glyph-name="gid79" horiz-adv-x="954" d="M456-227q-112-3-196.5,23T111-127L193,25Q241-7 302-29.5T439-50q73,1 112,52.5T590,139V272q-28-74-80-100.5T389,145q-106,0-164.5,59t-82,161.5T119,597v452q0,135 26,241t88.5,168T404,1518q69-1 117.5-35T590,1380v120H820V159q0-75-17.5-143T744-106T632.5-192.5T456-227Zm23,551q38,0 62.5,23T578,430t12,171v475q0,121-24,187t-96,66q-53,0-79-32.5T357.5,1208T350,1078V599q0-133 24.5-204T479,324Z" />
      <glyph unicode="h" glyph-name="gid80" horiz-adv-x="990" d="M141,0V1777H371V1336q20,72 83,127.5T607,1519q121,0 186-83t65-246V0H628V1169q0,84-31,120t-85,36q-41,0-73-21t-50-62.5T371,1138V0H141Z" />
      <glyph unicode="i" glyph-name="gid81" horiz-adv-x="518" d="M144,0V1500H374V0H144Zm-1,1638v206H374V1638H143Z" />
      <glyph unicode="j" glyph-name="gid87" horiz-adv-x="535" d="M209-205q-52,0-89.5,4.5T61-192V-31q11-1 24-2t29-1q32,0 43.5,20.5T169,35V1500H399V45q0-89-25.5-144T305-179.5T209-205ZM168,1638v206H399V1638H168Z" />
      <glyph unicode="k" glyph-name="gid89" horiz-adv-x="923" d="M143,0V1777H373V800l279,700H885L580,760L902,0H666L373,723V0H143Z" />
      <glyph unicode="l" glyph-name="gid90" horiz-adv-x="515" d="M141,0V1777H370V0H141Z" />
      <glyph unicode="m" glyph-name="gid92" horiz-adv-x="1461" d="M138,0V1500H368V1341q21,75 80.5,126.5T605,1519q75,0 130.5-35.5T821,1367q37,69 101,110.5t153,41.5q130,0 192-90.5t62-259.5V0H1099V1174q0,83-30.5,117T987,1325q-70,0-104-37.5T849,1165V0H618V1176q0,74-27.5,111.5T509,1325q-72,0-106.5-49.5T368,1150V0H138Z" />
      <glyph unicode="n" glyph-name="gid93" horiz-adv-x="990" d="M138,0V1500H368V1336q20,72 85,127.5T610,1519q120,0 183.5-83T857,1190V0H627V1182q0,74-33,110.5T507,1329q-41,0-73-20t-49-58.5T368,1155V0H138Z" />
      <glyph unicode="o" glyph-name="gid95" horiz-adv-x="937" d="M470-18Q363-18 294.5,17t-107,101t-54,159.5T118,488v543q0,141 31,251t108,173t213,63q103,0 171-36t107-101.5T803,1226t16-195V488q0-115-14-208T753,120T647,17.5T470-18Zm0,189q51,0 76,32.5T579.5,294T588,428v647q0,77-9,134t-34.5,88.5T470,1329q-51,0-77-31.5T358.5,1209T350,1075V428q0-76 8.5-134T393,203.5T470,171Z" />
      <glyph unicode="p" glyph-name="gid103" horiz-adv-x="964" d="M141-279V1500H371V1371q29,74 89,108.5T582,1514q111,0 167.5-62.5t76-170.5T845,1038V493q0-143-20.5-259T741,50T552-18q-59,0-107,34.5T371,96V-279H141ZM498,172q71,1 93.5,71T614,455v614q0,75-7,133.5t-30.5,92T501,1328q-40,0-69-19.5t-45-75T371,1069V446q0-135 24-204.5T498,172Z" />
      <glyph unicode="q" glyph-name="gid105" horiz-adv-x="961" d="M590-279V103q-21-49-70-85T412-18Q291-18 227.5,47.5T141,225.5T118,480v558q0,134 22,242t79.5,171T384,1514q62,0 119-30t87-100v116H820V-279H590ZM459,172q44,0 73,21t43,77.5T589,432v623q0,140-25.5,206.5T463,1328q-73-1-93.5-70T349,1050V437q0-117 17-191t93-74Z" />
      <glyph unicode="r" glyph-name="gid106" horiz-adv-x="665" d="M141,0V1500H372V1333q26,87 90.5,136T627,1518q2,0 2.5-29.5T630,1421t0-68t0-30q-47,0-97.5-11t-93-36.5T372,1207V0H141Z" />
      <glyph unicode="s" glyph-name="gid107" horiz-adv-x="828" d="M433-20Q264-20 179,82T94,417V523H314V407q0-114 26-174t85-60q58,0 86,38.5T539,347q0,52-15.5,102T476,548t-82,96L275,754q-94,88-142,188T85,1159q0,185 87.5,272T421,1518q106,0 177.5-43.5T706,1332t36-268V988H530v102q0,114-24,174.5T423,1325q-58,0-86-33t-31-119q-1-44 11.5-89T358,996t72-84L553,799q108-99 161.5-210T768,353q0-178-81.5-275.5T433-20Z" />
      <glyph unicode="t" glyph-name="gid109" horiz-adv-x="614" d="M405-9Q309-9 259.5,14.5T192,90T174,226V1311H43v169H174v280H404V1480H560V1311H404V255q0-37 10.5-55T459,176t104-6V-9H405Z" />
      <glyph unicode="u" glyph-name="gid110" horiz-adv-x="982" d="M387-20q-76,0-134,36T162.5,128T130,324V1500H360V354q0-86 27-132.5T481,175q72,0 103.5,53T616,356V1500H846V0H616V154Q591,82 536,31T387-20Z" />
      <glyph unicode="v" glyph-name="gid115" horiz-adv-x="807" d="M265,0L48,1500H261L370,671l37-357h13l32,358l95,828H759L541,0H265Z" />
      <glyph unicode="w" glyph-name="gid116" horiz-adv-x="1204" d="M238,0L52,1500H246l78-751l27-301h8l36,302l106,750h63h97h43L814,768l42-320h7l26,320l73,732h191L968,0H761L610,1154L437,0H238Z" />
      <glyph unicode="x" glyph-name="gid117" horiz-adv-x="788" d="M29,0L287,777L46,1500H249l157-460l136,460H748L501,761L760,0H546L385,485L239,0H29Z" />
      <glyph unicode="y" glyph-name="gid118" horiz-adv-x="816" d="M98-257V-90h77q44,0 75.5,5.5T288-59q10,14 7.5,48T288,59L45,1500H266L369,725l43-405h19l38,405l94,775H783L530-44q-12-76-30.5-123.5t-57-68.5T333-257H98Z" />
      <glyph unicode="z" glyph-name="gid121" horiz-adv-x="698" d="M72,0V173L402,1302H97v198H638V1338L308,195H622V0H72Z" />
      <glyph unicode="{" glyph-name="gid170" horiz-adv-x="716" d="M560-179q-114,0-181.5,30t-97,104T252,159V469q0,92-8,140t-37.5,66T113,693V910q64,0 93.5,18T244,994.5t8,139.5v310q0,131 29.5,204.5t97,103.5T560,1782h60V1601q-61,0-90.5-12.5t-39-49T481,1431V1155q0-129-12-198T422.5,855.5T318,801q70-20 104.5-53T469,646t12-199V172q0-72 9.5-108.5t39-49T620,2V-179H560Z" />
      <glyph unicode="|" glyph-name="gid194" horiz-adv-x="537" d="M165-107V1848H381V-107H165Z" />
      <glyph unicode="}" glyph-name="gid171" horiz-adv-x="716" d="M100-179V2q61,0 90.5,12.5t39,49T239,172V447q0,130 11.5,199T297,748t105,53q-70,22-105,54.5T250.5,957T239,1155v276q0,72-9.5,108.5t-39,49T100,1601v181h60q113,0 180.5-30t97-103.5T467,1444V1134q0-91 8.5-139.5t38-66.5T606,910V693q-63,0-92.5-18t-38-66T467,469V159q0-130-29.5-204t-97-104T160-179H100Z" />
      <glyph unicode="~" glyph-name="gid210" horiz-adv-x="1117" d="M265,827L106,906q38,118 97,180.5T344,1149q39,0 95-14t115-32t108-32t73-14q21,2 47.5,28.5T826,1170l174-42q-11-42-33-94.5T914,933t-68.5-79T765,823t-96.5,14.5t-109,34T452,905.5T360,920q-32,0-53.5-23T265,827Z" />
      <glyph unicode="&#xa0;" glyph-name="gid147" horiz-adv-x="441" />
      <glyph unicode="&#xa1;" glyph-name="gid154" horiz-adv-x="527" d="M314,1103L395-250H139l80,1353h95Zm73,407V1270H150v240H387Z" />
      <glyph unicode="&#xa2;" glyph-name="gid197" horiz-adv-x="840" d="M408,1512v255H521V1510l-113,2Zm0-1762V5H521V-250H408ZM474-18Q362-18 292,18.5t-108,105T132,288T118,503V999q0,156 27.5,273t105,181.5T478,1518q99,0 162.5-31.5T740,1395t50.5-143.5T805,1065V936H581v149q0,77-6,130.5T547,1297t-73,28q-52,0-78.5-29.5t-36-84.5T350,1080V426q0-82 8-138t33.5-84.5T469,175q50,0 74,30t31,86t7,132V582H805V462q0-107-14-195.5t-50-152t-101-98T474-18Z" />
      <glyph unicode="&#xa3;" glyph-name="gid200" horiz-adv-x="947" d="M103,0V169q50,25 95,63.5T274.5,326T319,455.5T318,625q-5,42-13,86t-17,87H86V959H251l-46,179q-23,87-35,147t-12,112q0,196 91.5,290.5T526,1782q115,0 189-43t109.5-130.5T860,1385V1246H657v147q0,62-11,107.5t-39.5,71T525,1597q-45,0-78.5-14t-52-54.5T376,1409q0-49 11.5-105T420,1165l51-206H787V798H514q9-46 16-91.5T543,617q13-109-2.5-193.5T483.5,280T377,190H857V0H103Z" />
      <glyph unicode="&#xa4;" glyph-name="gid198" horiz-adv-x="1159" d="M274,509L125,659l91,91q-53,98-53,214q0,117 52,214l-90,90l149,150l87-88q97,55 218,55t218-54l87,87l150-149l-90-90q54-97 54-215T944,748l90-90L884,509l-89,88q-92-52-216-52T363,598l-89-89ZM579,719q70,0 121.5,33.5T780,842t28,124q0,104-61.5,173T579,1208q-69,0-120.5-33T379,1087T351,964t28-123.5T458,752t121-33Z" />
      <glyph unicode="&#xa5;" glyph-name="gid201" horiz-adv-x="843" d="M83,359V491H356V656H83V786H762V656H519V491H762V359H83ZM317,0V724L16,1760H242l192-691h3l168,691H832L550,724V0H317Z" />
      <glyph unicode="&#xa6;" glyph-name="gid195" horiz-adv-x="504" d="M135-122V704H369V-122H135Zm0,1052v830H369V930H135Z" />
      <glyph unicode="&#xa7;" glyph-name="gid189" horiz-adv-x="865" d="M452-20Q292-20 198.5,68.5T105,348v68H345V350q0-94 25-139.5T462,165q51,0 75.5,32.5T562,290q0,53-22,92.5t-59,74T397,527L254,643q-62,49-106.5,113.5T103,915q0,73 36,140.5T245,1166q-66,59-104,139t-38,159q0,100 43,170.5t120,109T443,1782q152,0 241-89.5T773,1417v-68H547v67q0,104-32,142.5T438,1597q-36,0-60.5-15.5t-37-43.5T328,1475q0-33 15-65t47.5-66t82.5-75l155-125q59-46 97.5-94.5t57-100.5T799,839q-3-52-28.5-95t-62-78T634,603q86-76 121.5-156T791,286q0-142-92.5-224T452-20Zm73,725q26,25 44,56.5T587,826q0,38-22,76t-69,76t-121,79q-32-27-49-58.5T309,935q0-36 24.5-70.5t73-72.5T525,705Z" />
      <glyph unicode="&#xa8;" glyph-name="gid227" horiz-adv-x="836" d="M534,1640v198H786V1640H534Zm-484,0v198H302V1640H50Z" />
      <glyph unicode="&#xa9;" glyph-name="gid190" horiz-adv-x="1466" d="M738,205q-140,0-259.5,49.5t-209,139t-139,209T81,862t49.5,259.5t139,209t209,139T738,1519t259.5-49.5t209-139t139-209T1395,862t-49.5-259.5t-139-209t-209-139T738,205Zm0,129q120,0 214.5,43t160,117.5T1212,664t34,198q0,138-60.5,258.5t-174,195T738,1390q-121,0-215-43.5t-159.5-118T263.5,1059T229,861q0-137 60.5-258t174-195T738,334Zm-6,90q-104,0-161,57.5T514,636v436q0,108 49,170.5T736,1305q101,0 154-46t53-160V966H801v105q0,59-18,76t-46,17q-30,0-49-16t-19-64V633q0-40 20.5-57T737,559q28,0 46,15t18,59V782H947V631q0-100-46.5-153.5T732,424Z" />
      <glyph unicode="&#xaa;" glyph-name="gid127" horiz-adv-x="927" d="M398,557q-115,0-162.5,86T186,877V979q0,87 27,142.5t77.5,92t119,65T562,1340v57q0,71-2.5,123.5t-20.5,81T475,1630q-57,0-74-44t-17-147v-49H202v35q0,79 11.5,144t41,113t84.5,73.5T480,1781q107,0 164.5-44T725,1608.5T748,1400V568H564V672q-10-34-53.5-74.5T398,557Zm58,147q42,0 70,28.5T562,789v430q-76-34-117-60t-57-62.5T372,995V881q0-94 18-135.5T456,704Z" />
      <glyph unicode="&#xab;" glyph-name="gid180" horiz-adv-x="1304" d="M1113,353L629,638V859l484,271V898L801,749l312-158V353Zm-545,0L85,638V859l483,271V898L256,749L568,591V353Z" />
      <glyph unicode="&#xac;" glyph-name="gid211" horiz-adv-x="947" d="M602,439V774H97V979H807V439H602Z" />
      <glyph unicode="&#xad;" glyph-name="gid164" horiz-adv-x="696" d="M90,546V741H606V546H90Z" />
      <glyph unicode="&#xae;" glyph-name="gid191" horiz-adv-x="1502" d="M551,430v852H795q105,0 136.5-52T963,1077v-28q0-65-15.5-104.5T868,888q56-7 71-43.5T954,756V430H803V762q0,25-7.5,41.5t-28,24T707,835V430H551ZM708,953h53q38,0 47,28t9,79q0,62-19,80.5T708,1159V953Zm43-619q120,0 214.5,43.5t160,118t99.5,169T1259,863q0,137-60,257.5t-173.5,195T751,1390q-120,0-214.5-43.5t-160-118t-99.5-169T243,861q0-137 60-257.5t174-195T751,334Zm0-129q-140,0-259.5,49.5t-209,139t-139,209T94,862t49.5,259.5t139,209t209,139T751,1519t259.5-49.5t209-139t139-209T1408,862t-49.5-259.5t-139-209t-209-139T751,205Z" />
      <glyph unicode="&#xaf;" glyph-name="gid233" horiz-adv-x="633" d="M50,1661v159H583V1661H50Z" />
      <glyph unicode="&#xb0;" glyph-name="gid193" horiz-adv-x="915" d="M457,1108q-96,0-176.5,38.5T152,1259.5T104,1443q0,110 48,184.5t129,113T458,1779t176-38.5t128.5-113T811,1443q0-108-48.5-183T634,1146.5T457,1108Zm2,146q47,0 86.5,22.5t63.5,65T633,1443q0,60-24,102.5t-64,65T457,1633q-46,0-86-22.5t-64-65T283,1443q0-59 24-101.5t64-65t88-22.5Z" />
      <glyph unicode="&#xb1;" glyph-name="gid209" horiz-adv-x="854" d="M346,499V742H124V897H346v240H508V897H733V742H508V499H346ZM161,156V319H677V156H161Z" />
      <glyph unicode="&#xb2;" glyph-name="gid140" horiz-adv-x="840" d="M209,521v65q0,36 15.5,90.5t41,118t55.5,128t60,122t54,98t36,56.5q25,42 40,111.5T526,1445q0,80-10,122t-27.5,57T449,1639q-23,0-41.5-15.5t-29-59T368,1436V1275H206l-1,77q0,136 16.5,231.5T292,1729t167,50q65,0 108.5-28t69-76.5t37-110T685,1437q0-100-25-182t-63.5-154.5T515.5,958t-78-145T384,650H670V521H209Z" />
      <glyph unicode="&#xb3;" glyph-name="gid141" horiz-adv-x="863" d="M429,584q-136,0-192,82T181,912v64H341V912q0-108 16.5-151.5T434,717t77.5,49.5T529,926q0,120-27.5,173T399,1152H370v124h27q48,1 76.5,16.5t41.5,57T528,1469q0,72-12,109.5T483,1630t-48,14q-31,0-50.5-16T356,1573.5T347,1466v-26H186l-1,30q1,155 58,232t193,77q134,0 195.5-78T693,1470q0-95-27-162t-93-91q71-30 97-108.5T696,925q0-169-62.5-255T429,584Z" />
      <glyph unicode="&#xb4;" glyph-name="gid229" horiz-adv-x="428" d="M50,1640l94,389H378L180,1640H50Z" />
      <glyph unicode="&#xb5;" glyph-name="gid213" horiz-adv-x="982" d="M387-20q-76,0-134,36T162.5,128T130,324V1500H360V354q0-86 27-132.5T481,175q72,0 103.5,53T616,356V1500H846V0H616V154Q591,82 536,31T387-20ZM130,483H360V-265H130V483Z" />
      <glyph unicode="&#xb6;" glyph-name="gid188" horiz-adv-x="1087" d="M430,0V1115q-164,18-245.5,99T103,1448q0,95 30.5,156t94.5,94.5T391,1746t236,14H942V0H757V1555H614V0H430Z" />
      <glyph unicode="&#xb7;" glyph-name="gid157" horiz-adv-x="480" d="M141,761V985H354V761H141Z" />
      <glyph unicode="&#xb8;" glyph-name="gid234" horiz-adv-x="512" d="M180-626q-65,0-130,22v103q95,0 144.5,20t68,52.5T281-359q0,68-49,109T121-196L161,0h74l14-143q107-41 160-107.5T462-390q0-61-34-115t-97-87.5T180-626Z" />
      <glyph unicode="&#xb9;" glyph-name="gid139" horiz-adv-x="627" d="M247,519V1545q-31-26-76-40t-87-14v113q40,4 84.5,24t81,54t49.5,78H424V519H247Z" />
      <glyph unicode="&#xba;" glyph-name="gid128" horiz-adv-x="862" d="M437,553q-114,0-176,49.5T175,743T151,958v433q0,113 24.5,201T262,1730.5T437,1781q114,0 174.5-50T695,1593t23-202V958q0-121-22.5-212.5T612,603.5T437,553Zm0,151q55-1 74.5,55T531,910v516q0,93-17.5,148.5T437,1630q-63,0-81-55.5T338,1426V910q0-93 19.5-149.5T437,704Z" />
      <glyph unicode="&#xbb;" glyph-name="gid181" horiz-adv-x="1304" d="M707,353V591l312,158L707,898v232l484-271V638L707,353Zm-544,0V591L475,749L163,898v232L646,859V638L163,353Z" />
      <glyph unicode="&#xbc;" glyph-name="gid144" horiz-adv-x="1535" d="M449,0L936,1763h157L605,0H449ZM242,529v995q-27-26-68.5-39.5T93,1471v105q36,5 76.5,24t73.5,51.5t47,75.5H403V529H242ZM1190,0V208H906V308l240,805h184V325h81V208h-81V0H1190ZM1037,325h153V901L1037,325Z" />
      <glyph unicode="&#xbd;" glyph-name="gid143" horiz-adv-x="1620" d="M454,0L942,1763h157L611,0H454ZM242,529v995q-27-26-68.5-39.5T93,1471v105q36,5 76.5,24t73.5,51.5t47,75.5H403V529H242ZM1080,0V62q0,44 13.5,122T1152,341l180,312q24,42 38.5,109.5T1385,893q0,78-10,119t-26.5,56t-39.5,15q-21,0-39-15t-28.5-58T1231,884V728H1077l-1,74q0,132 15.5,224t67.5,140.5t161,48.5q84,0 131-47.5t66-123T1536,884q0-82-16.5-152.5T1468,600L1314,330q-26-47-43-99t-26-110h277V0H1080Z" />
      <glyph unicode="&#xbe;" glyph-name="gid145" horiz-adv-x="1555" d="M470,0L958,1763h156L626,0H470ZM330,604q-122,0-174,78T104,918v58H248V918q0-106 15-148t72-42q55,0 72.5,47.5T425,929q0,118-26.5,168.5T303,1148H277v121h24q42,1 69.5,14t40.5,52t13,115q0,71-11.5,108T381,1608t-46,13q-29,0-47-15.5T261.5,1552T253,1447v-25H108v29q0,148 52.5,220.5T335,1744q121,0 176.5-74T567,1451q0-92-24.5-156.5T457,1208q65-29 89-104.5T570,928q0-161-56.5-242.5T330,604ZM1199,0V208H914V308l241,805h184V325h81V208h-81V0H1199ZM1046,325h153V901L1046,325Z" />
      <glyph unicode="&#xbf;" glyph-name="gid156" horiz-adv-x="933" d="M666,1006V690q-103-29-160-69.5T423,519T391,367.5T385,148q0-121 9-175t69-54q65,0 76.5,52.5T551,152V340H778V127q0-72-11-144.5T724-150t-93.5-96T467-282q-107,0-170,33.5T203-152T162.5,2T153,208q0,173 24,290t91,189T463,796v210H666Zm-4,494V1201H462v299H662Z" />
      <glyph unicode="&#xc0;" glyph-name="gid6" horiz-adv-x="915" d="M41,0L301,1760H594L875,0H657L610,327H306L263,0H41ZM330,514H583L453,1425h-3L330,514ZM434,1900L236,2289H470l94-389H434Z" />
      <glyph unicode="&#xc1;" glyph-name="gid2" horiz-adv-x="915" d="M41,0L301,1760H594L875,0H657L610,327H306L263,0H41ZM330,514H583L453,1425h-3L330,514ZM315,1900l94,389H643L445,1900H315Z" />
      <glyph unicode="&#xc2;" glyph-name="gid4" horiz-adv-x="915" d="M41,0L301,1760H594L875,0H657L610,327H306L263,0H41ZM330,514H583L453,1425h-3L330,514ZM149,1900l169,311H579l167-311H534l-86,218l-86-218H149Z" />
      <glyph unicode="&#xc3;" glyph-name="gid8" horiz-adv-x="915" d="M41,0L301,1760H594L875,0H657L610,327H306L263,0H41ZM330,514H583L453,1425h-3L330,514ZM598,1900q-44,0-93,20.5t-96.5,41T319,1982q-16,0-23-2q-16-4-26.5-18.5T245,1921l-119,50q20,68 47.5,104t62.5,50t75,14q41,0 94-18.5t100.5-37T578,2065h4q14,2 27,14t29,57l131-28l-9-41q-24-102-62.5-134.5T598,1900Z" />
      <glyph unicode="&#xc4;" glyph-name="gid5" horiz-adv-x="915" d="M41,0L301,1760H594L875,0H657L610,327H306L263,0H41ZM330,514H583L453,1425h-3L330,514ZM564,1900v198H816V1900H564Zm-484,0v198H332V1900H80Z" />
      <glyph unicode="&#xc5;" glyph-name="gid7" horiz-adv-x="915" d="M41,0L301,1760H594L875,0H657L610,327H306L263,0H41ZM330,514H583L453,1425h-3L330,514ZM448,1900q-102,0-158,59.5T234,2103q0,83 56,142.5T448,2305q103,0 158.5-59.5T662,2103t-55.5-143T448,1900Zm0,81q57,0 85.5,38.5T562,2103q0,47-28.5,84.5T448,2225q-55,0-83.5-37.5T336,2103q0-45 28.5-83.5T448,1981Z" />
      <glyph unicode="&#xc6;" glyph-name="gid9" horiz-adv-x="1207" d="M60,0L397,1760h728V1563H833V999h275V801H833V197h299V0H600V327H344L284,0H60ZM374,503H600V1565l-30-1L374,503Z" />
      <glyph unicode="&#xc7;" glyph-name="gid12" horiz-adv-x="939" d="M480-21Q352-21 272,40T155,219T118,505v747q0,119 17,215.5T193.5,1634t113,107.5T487,1779q101,0 168.5-34.5t107-99.5t56-155T835,1290V1075H609v208q0,150-23,223t-99,73q-81,0-108.5-76T351,1284V497q0-113 11-183.5t39-103T481,178q77,0 102.5,75.5T609,499V718H838V502q0-173-34-289.5T691.5,37.5T480-21ZM450-626q-65,0-130,22v103q95,0 144.5,20t68,52.5T551-359q0,68-49,109T391-196L431,0h74l14-143q107-41 160-107.5T732-390q0-61-34-115t-97-87.5T450-626Z" />
      <glyph unicode="&#xc8;" glyph-name="gid19" horiz-adv-x="774" d="M139,0V1760H692V1563H371V999H675V804H371V197H699V0H139ZM397,1900L199,2289H433l94-389H397Z" />
      <glyph unicode="&#xc9;" glyph-name="gid16" horiz-adv-x="774" d="M139,0V1760H692V1563H371V999H675V804H371V197H699V0H139ZM277,1900l94,389H605L407,1900H277Z" />
      <glyph unicode="&#xca;" glyph-name="gid17" horiz-adv-x="774" d="M139,0V1760H692V1563H371V999H675V804H371V197H699V0H139ZM111,1900l169,311H541l167-311H496l-86,218l-86-218H111Z" />
      <glyph unicode="&#xcb;" glyph-name="gid18" horiz-adv-x="774" d="M139,0V1760H692V1563H371V999H675V804H371V197H699V0H139ZM527,1900v198H779V1900H527Zm-484,0v198H295V1900H43Z" />
      <glyph unicode="&#xcc;" glyph-name="gid27" horiz-adv-x="515" d="M141,0V1760H374V0H141ZM244,1900L46,2289H280l94-389H244Z" />
      <glyph unicode="&#xcd;" glyph-name="gid24" horiz-adv-x="515" d="M141,0V1760H374V0H141ZM125,1900l94,389H453L255,1900H125Z" />
      <glyph unicode="&#xce;" glyph-name="gid25" horiz-adv-x="515" d="M141,0V1760H374V0H141ZM-41,1900l169,311H389l167-311H344l-86,218l-86-218H-41Z" />
      <glyph unicode="&#xcf;" glyph-name="gid26" horiz-adv-x="515" d="M141,0V1760H374V0H141ZM374,1900v198H626V1900H374Zm-484,0v198H142V1900H-110Z" />
      <glyph unicode="&#xd0;" glyph-name="gid14" horiz-adv-x="977" d="M139,0V1760H497q136,0 214.5-56t112-160.5T857,1293l1-782q0-176-36.5-289T704,54.5T489,0H139ZM371,184h98q53,0 87.5,22.5t52,81.5T626,458l-1,835q0,153-36.5,219T466,1578H371V184ZM24,823V936H545V823H24Z" />
      <glyph unicode="&#xd1;" glyph-name="gid34" horiz-adv-x="1037" d="M139,0V1760H318L711,621l-20,497v642H898V0H730L340,1160l13-451V0H139ZM669,1900q-44,0-93,20.5t-96.5,41T390,1982q-16,0-23-2q-16-4-26.5-18.5T316,1921l-119,50q20,68 47.5,104t62.5,50t75,14q41,0 94-18.5t100.5-37T649,2065h4q14,2 27,14t29,57l131-28l-9-41q-24-102-62.5-134.5T669,1900Z" />
      <glyph unicode="&#xd2;" glyph-name="gid39" horiz-adv-x="967" d="M486-20Q352-20 271,38T154,211.5T118,500v788q0,152 34.5,262.5t115.5,171T490,1782q106,0 175.5-34.5t109.5-99T831.5,1493T848,1288V500q0-173-34.5-288.5T699.5,38T486-20Zm0,201q54,0 82,31t38,101t10,185v802q0,140-24,210.5T490,1581q-81,0-110-69t-29-211V498q0-116 10-185.5T400.5,212T486,181ZM470,1900L272,2289H506l94-389H470Z" />
      <glyph unicode="&#xd3;" glyph-name="gid36" horiz-adv-x="967" d="M486-20Q352-20 271,38T154,211.5T118,500v788q0,152 34.5,262.5t115.5,171T490,1782q106,0 175.5-34.5t109.5-99T831.5,1493T848,1288V500q0-173-34.5-288.5T699.5,38T486-20Zm0,201q54,0 82,31t38,101t10,185v802q0,140-24,210.5T490,1581q-81,0-110-69t-29-211V498q0-116 10-185.5T400.5,212T486,181ZM350,1900l94,389H678L480,1900H350Z" />
      <glyph unicode="&#xd4;" glyph-name="gid37" horiz-adv-x="967" d="M486-20Q352-20 271,38T154,211.5T118,500v788q0,152 34.5,262.5t115.5,171T490,1782q106,0 175.5-34.5t109.5-99T831.5,1493T848,1288V500q0-173-34.5-288.5T699.5,38T486-20Zm0,201q54,0 82,31t38,101t10,185v802q0,140-24,210.5T490,1581q-81,0-110-69t-29-211V498q0-116 10-185.5T400.5,212T486,181ZM184,1900l169,311H614l167-311H569l-86,218l-86-218H184Z" />
      <glyph unicode="&#xd5;" glyph-name="gid41" horiz-adv-x="967" d="M486-20Q352-20 271,38T154,211.5T118,500v788q0,152 34.5,262.5t115.5,171T490,1782q106,0 175.5-34.5t109.5-99T831.5,1493T848,1288V500q0-173-34.5-288.5T699.5,38T486-20Zm0,201q54,0 82,31t38,101t10,185v802q0,140-24,210.5T490,1581q-81,0-110-69t-29-211V498q0-116 10-185.5T400.5,212T486,181ZM634,1900q-44,0-93,20.5t-96.5,41T355,1982q-16,0-23-2q-16-4-26.5-18.5T281,1921l-119,50q20,68 47.5,104t62.5,50t75,14q41,0 94-18.5t100.5-37T614,2065h4q14,2 27,14t29,57l131-28l-9-41q-24-102-62.5-134.5T634,1900Z" />
      <glyph unicode="&#xd6;" glyph-name="gid38" horiz-adv-x="967" d="M486-20Q352-20 271,38T154,211.5T118,500v788q0,152 34.5,262.5t115.5,171T490,1782q106,0 175.5-34.5t109.5-99T831.5,1493T848,1288V500q0-173-34.5-288.5T699.5,38T486-20Zm0,201q54,0 82,31t38,101t10,185v802q0,140-24,210.5T490,1581q-81,0-110-69t-29-211V498q0-116 10-185.5T400.5,212T486,181ZM600,1900v198H852V1900H600Zm-484,0v198H368V1900H116Z" />
      <glyph unicode="&#xd7;" glyph-name="gid204" horiz-adv-x="710" d="M189,349L63,478L227,642L63,807L189,936L355,771L521,936L647,807L483,642L647,478L521,349L355,514L189,349Z" />
      <glyph unicode="&#xd8;" glyph-name="gid40" horiz-adv-x="900" d="M182-206L83-166L811,1906l107-36L182-206ZM486-20Q352-20 271,38T154,211.5T118,500v788q0,152 34.5,262.5t115.5,171T490,1782q106,0 175.5-34.5t109.5-99T831.5,1493T848,1288V500q0-173-34.5-288.5T699.5,38T486-20Zm0,201q54,0 82,31t38,101t10,185v802q0,140-24,210.5T490,1581q-81,0-110-69t-29-211V498q0-116 10-185.5T400.5,212T486,181Z" />
      <glyph unicode="&#xd9;" glyph-name="gid53" horiz-adv-x="979" d="M491-21Q358-21 277.5,30.5T161,187T125,452V1760H358V457q0-86 6.5-149T399,211t92-34t91.5,33.5T616,307t6,149V1760H854V452q0-160-35-265T704.5,30.5T491-21ZM476,1900L278,2289H512l94-389H476Z" />
      <glyph unicode="&#xda;" glyph-name="gid50" horiz-adv-x="979" d="M491-21Q358-21 277.5,30.5T161,187T125,452V1760H358V457q0-86 6.5-149T399,211t92-34t91.5,33.5T616,307t6,149V1760H854V452q0-160-35-265T704.5,30.5T491-21ZM356,1900l94,389H684L486,1900H356Z" />
      <glyph unicode="&#xdb;" glyph-name="gid51" horiz-adv-x="979" d="M491-21Q358-21 277.5,30.5T161,187T125,452V1760H358V457q0-86 6.5-149T399,211t92-34t91.5,33.5T616,307t6,149V1760H854V452q0-160-35-265T704.5,30.5T491-21ZM190,1900l169,311H620l167-311H575l-86,218l-86-218H190Z" />
      <glyph unicode="&#xdc;" glyph-name="gid52" horiz-adv-x="979" d="M491-21Q358-21 277.5,30.5T161,187T125,452V1760H358V457q0-86 6.5-149T399,211t92-34t91.5,33.5T616,307t6,149V1760H854V452q0-160-35-265T704.5,30.5T491-21ZM606,1900v198H858V1900H606Zm-484,0v198H374V1900H122Z" />
      <glyph unicode="&#xdd;" glyph-name="gid58" horiz-adv-x="848" d="M317,0V724L16,1760H242l192-691h4l167,691H832L550,724V0H317ZM291,1900l94,389H619L421,1900H291Z" />
      <glyph unicode="&#xde;" glyph-name="gid44" horiz-adv-x="950" d="M155,0V1760H387V1499H530q106,0 173-35.5t103.5-102t51.5-162T873,984V959q0-174-28.5-295.5T742,479T533,416H387V0H155ZM387,609H500q60,0 90,34t40.5,111.5T641,960v28q0,162-24.5,245T503,1316H387V609Z" />
      <glyph unicode="&#xdf;" glyph-name="gid108" horiz-adv-x="1002" d="M140,0V1417q0,91 15.5,159T209,1689.5t106,68T489,1780q133,0 214-33.5T821,1634t37-217V1220q0-80-15-134t-50-87.5T697,945q85-20 133.5-66.5t68-126T918,553V476q0-112-12.5-200.5T857,125.5T752,32T570,0H466V186q93,0 141.5,15.5T674,262t18,133V656q0,108-46,147.5T475,843v181q91,0 124.5,34T633,1170v287q0,81-29.5,112T498,1600q-67,0-97.5-31T370,1457V0H140Z" />
      <glyph unicode="&#xe0;" glyph-name="gid64" horiz-adv-x="930" d="M373-14Q229-14 169,94.5T108,389V514q0,108 34,177.5T239,806t149,80.5T578,962v122q0,88-6,141.5T543,1304t-73,25q-49,0-73.5-25.5t-32.5-79T356,1087v-59H127v44q0,99 14.5,181t52,141t106,91.5T476,1518q100,0 165-30.5t102.5-90t53-147.5T812,1046V0H580V138q-10-35-37-70.5T473,9T373-14Zm72,182q52,0 87.5,35T578,274V822q-70-32-116-57.5T389.5,710T352,640.5T341,540V388q0-116 22-168t82-52Zm6,1472L253,2029H487l94-389H451Z" />
      <glyph unicode="&#xe1;" glyph-name="gid61" horiz-adv-x="930" d="M373-14Q229-14 169,94.5T108,389V514q0,108 34,177.5T239,806t149,80.5T578,962v122q0,88-6,141.5T543,1304t-73,25q-49,0-73.5-25.5t-32.5-79T356,1087v-59H127v44q0,99 14.5,181t52,141t106,91.5T476,1518q100,0 165-30.5t102.5-90t53-147.5T812,1046V0H580V138q-10-35-37-70.5T473,9T373-14Zm72,182q52,0 87.5,35T578,274V822q-70-32-116-57.5T389.5,710T352,640.5T341,540V388q0-116 22-168t82-52ZM332,1640l94,389H660L462,1640H332Z" />
      <glyph unicode="&#xe2;" glyph-name="gid62" horiz-adv-x="930" d="M373-14Q229-14 169,94.5T108,389V514q0,108 34,177.5T239,806t149,80.5T578,962v122q0,88-6,141.5T543,1304t-73,25q-49,0-73.5-25.5t-32.5-79T356,1087v-59H127v44q0,99 14.5,181t52,141t106,91.5T476,1518q100,0 165-30.5t102.5-90t53-147.5T812,1046V0H580V138q-10-35-37-70.5T473,9T373-14Zm72,182q52,0 87.5,35T578,274V822q-70-32-116-57.5T389.5,710T352,640.5T341,540V388q0-116 22-168t82-52ZM166,1640l169,311H596l167-311H551l-86,218l-86-218H166Z" />
      <glyph unicode="&#xe3;" glyph-name="gid66" horiz-adv-x="930" d="M373-14Q229-14 169,94.5T108,389V514q0,108 34,177.5T239,806t149,80.5T578,962v122q0,88-6,141.5T543,1304t-73,25q-49,0-73.5-25.5t-32.5-79T356,1087v-59H127v44q0,99 14.5,181t52,141t106,91.5T476,1518q100,0 165-30.5t102.5-90t53-147.5T812,1046V0H580V138q-10-35-37-70.5T473,9T373-14Zm72,182q52,0 87.5,35T578,274V822q-70-32-116-57.5T389.5,710T352,640.5T341,540V388q0-116 22-168t82-52ZM615,1640q-44,0-93,20.5t-96.5,41T336,1722q-16,0-23-2q-16-4-26.5-18.5T262,1661l-119,50q20,68 47.5,104t62.5,50t75,14q41,0 94-18.5t100.5-37T595,1805h4q14,2 27,14t29,57l131-28l-9-41q-24-102-62.5-134.5T615,1640Z" />
      <glyph unicode="&#xe4;" glyph-name="gid63" horiz-adv-x="930" d="M373-14Q229-14 169,94.5T108,389V514q0,108 34,177.5T239,806t149,80.5T578,962v122q0,88-6,141.5T543,1304t-73,25q-49,0-73.5-25.5t-32.5-79T356,1087v-59H127v44q0,99 14.5,181t52,141t106,91.5T476,1518q100,0 165-30.5t102.5-90t53-147.5T812,1046V0H580V138q-10-35-37-70.5T473,9T373-14Zm72,182q52,0 87.5,35T578,274V822q-70-32-116-57.5T389.5,710T352,640.5T341,540V388q0-116 22-168t82-52ZM581,1640v198H833V1640H581Zm-484,0v198H349V1640H97Z" />
      <glyph unicode="&#xe5;" glyph-name="gid65" horiz-adv-x="930" d="M373-14Q229-14 169,94.5T108,389V514q0,108 34,177.5T239,806t149,80.5T578,962v122q0,88-6,141.5T543,1304t-73,25q-49,0-73.5-25.5t-32.5-79T356,1087v-59H127v44q0,99 14.5,181t52,141t106,91.5T476,1518q100,0 165-30.5t102.5-90t53-147.5T812,1046V0H580V138q-10-35-37-70.5T473,9T373-14Zm72,182q52,0 87.5,35T578,274V822q-70-32-116-57.5T389.5,710T352,640.5T341,540V388q0-116 22-168t82-52Zm20,1472q-102,0-158,59.5T251,1843q0,83 56,142.5T465,2045q103,0 158.5-59.5T679,1843t-55.5-143T465,1640Zm0,81q57,0 85.5,38.5T579,1843q0,47-28.5,84.5T465,1965q-55,0-83.5-37.5T353,1843q0-45 28.5-83.5T465,1721Z" />
      <glyph unicode="&#xe6;" glyph-name="gid67" horiz-adv-x="1392" d="M950-18q-99,0-163.5,37.5T690,120q-23-32-65-63T529.5,6T418-14Q268-14 193,94.5T118,397V524q1,106 35.5,173t97,111.5T399,889t190,76v97q0,86-6.5,145.5T553,1298t-74,31q-47,0-71.5-24.5t-33-76.5T366,1090v-62H138v44q0,99 14,181t51.5,141t106,91.5T486,1518q85,0 138-26t83-78q37,51 96,77.5T947,1518q104,0 169.5-34.5t101.5-98t49.5-152T1281,1037V734H820V463q0-98 9-163t34.5-97T941,171q54,0 77.5,38t29,103t4.5,144V565h227V501q0-117-10.5-212.5t-43-164T1127,19T950-18ZM455,171q52,0 87.5,35.5T588,277V814q-71-32-117-57t-72.5-53.5t-37-68.5T351,534V392q0-117 22-169t82-52ZM820,896h232v180q0,83-6.5,140.5t-29,86.5T945,1332q-56,0-83-34t-34.5-95.5T820,1059V896Z" />
      <glyph unicode="&#xe7;" glyph-name="gid70" horiz-adv-x="903" d="M474-18Q362-18 292,18.5t-108,105T132,288T118,503V999q0,156 27.5,273t105,181.5T478,1518q99,0 162.5-31.5T740,1395t50.5-143.5T805,1065V936H581v149q0,77-6,130.5T547,1297t-73,28q-52,0-78.5-29.5t-36-84.5T350,1080V426q0-82 8-138t33.5-84.5T469,175q50,0 74,30t31,86t7,132V582H805V462q0-107-14-195.5t-50-152t-101-98T474-18ZM432-626q-65,0-130,22v103q95,0 144.5,20t68,52.5T533-359q0,68-49,109T373-196L413,0h74l14-143q107-41 160-107.5T714-390q0-61-34-115t-97-87.5T432-626Z" />
      <glyph unicode="&#xe8;" glyph-name="gid77" horiz-adv-x="908" d="M465-18Q355-18 286.5,19t-105,105.5T131.5,289T118,502v543q0,105 18,192t58.5,150T304,1484t171,34q104,0 170-34.5t101.5-98t49.5-152T810,1037V738H350V441q0-128 18.5-199T469,171q54,0 77.5,33.5t28.5,94T580,439V565H807V494q0-118-12-213T748.5,119.5T646,17.5T465-18ZM349,884H580v192q0,83-6.5,140.5T545,1303t-71,29q-56,0-83-34t-34.5-93T349,1069V884Zm92,756L243,2029H477l94-389H441Z" />
      <glyph unicode="&#xe9;" glyph-name="gid74" horiz-adv-x="908" d="M465-18Q355-18 286.5,19t-105,105.5T131.5,289T118,502v543q0,105 18,192t58.5,150T304,1484t171,34q104,0 170-34.5t101.5-98t49.5-152T810,1037V738H350V441q0-128 18.5-199T469,171q54,0 77.5,33.5t28.5,94T580,439V565H807V494q0-118-12-213T748.5,119.5T646,17.5T465-18ZM349,884H580v192q0,83-6.5,140.5T545,1303t-71,29q-56,0-83-34t-34.5-93T349,1069V884Zm-28,756l94,389H649L451,1640H321Z" />
      <glyph unicode="&#xea;" glyph-name="gid75" horiz-adv-x="908" d="M465-18Q355-18 286.5,19t-105,105.5T131.5,289T118,502v543q0,105 18,192t58.5,150T304,1484t171,34q104,0 170-34.5t101.5-98t49.5-152T810,1037V738H350V441q0-128 18.5-199T469,171q54,0 77.5,33.5t28.5,94T580,439V565H807V494q0-118-12-213T748.5,119.5T646,17.5T465-18ZM349,884H580v192q0,83-6.5,140.5T545,1303t-71,29q-56,0-83-34t-34.5-93T349,1069V884ZM155,1640l169,311H585l167-311H540l-86,218l-86-218H155Z" />
      <glyph unicode="&#xeb;" glyph-name="gid76" horiz-adv-x="908" d="M465-18Q355-18 286.5,19t-105,105.5T131.5,289T118,502v543q0,105 18,192t58.5,150T304,1484t171,34q104,0 170-34.5t101.5-98t49.5-152T810,1037V738H350V441q0-128 18.5-199T469,171q54,0 77.5,33.5t28.5,94T580,439V565H807V494q0-118-12-213T748.5,119.5T646,17.5T465-18ZM349,884H580v192q0,83-6.5,140.5T545,1303t-71,29q-56,0-83-34t-34.5-93T349,1069V884Zm222,756v198H823V1640H571Zm-484,0v198H339V1640H87Z" />
      <glyph unicode="&#xec;" glyph-name="gid86" horiz-adv-x="518" d="M144,0V1500H374V0H144ZM245,1640L47,2029H281l94-389H245Z" />
      <glyph unicode="&#xed;" glyph-name="gid83" horiz-adv-x="518" d="M144,0V1500H374V0H144ZM126,1640l94,389H454L256,1640H126Z" />
      <glyph unicode="&#xee;" glyph-name="gid84" horiz-adv-x="518" d="M144,0V1500H374V0H144ZM-40,1640l169,311H390l167-311H345l-86,218l-86-218H-40Z" />
      <glyph unicode="&#xef;" glyph-name="gid85" horiz-adv-x="518" d="M144,0V1500H374V0H144ZM375,1640v198H627V1640H375Zm-484,0v198H143V1640H-109Z" />
      <glyph unicode="&#xf0;" glyph-name="gid72" horiz-adv-x="987" d="M474-20Q330-20 248.5,35.5t-115,165T100,471V577q0,183 32.5,299.5t107,171.5T439,1100q54-1 97.5-18.5T609,1032q0,8-2,41.5t-5.5,80t-9,95t-12,88T565,1395L351,1273l-61,126l200,115q-46,52-103.5,80T277,1633l96,147q89-8 170-46t142-112l199,113l62-126L761,1504q16-30 29-91.5T813.5,1275T832,1121.5t11.5-140T847,887V521q0-168-28.5-289T709.5,45.5T474-20Zm-2,201q86,0 115,69t29,221V821q-9,30-49,56.5T466,904q-53,0-82-30t-40-98.5T333,593V437q0-100 12-156t42.5-78T472,181Z" />
      <glyph unicode="&#xf1;" glyph-name="gid94" horiz-adv-x="990" d="M138,0V1500H368V1336q20,72 85,127.5T610,1519q120,0 183.5-83T857,1190V0H627V1182q0,74-33,110.5T507,1329q-41,0-73-20t-49-58.5T368,1155V0H138ZM645,1640q-44,0-93,20.5t-96.5,41T366,1722q-16,0-23-2q-16-4-26.5-18.5T292,1661l-119,50q20,68 47.5,104t62.5,50t75,14q41,0 94-18.5t100.5-37T625,1805h4q14,2 27,14t29,57l131-28l-9-41q-24-102-62.5-134.5T645,1640Z" />
      <glyph unicode="&#xf2;" glyph-name="gid99" horiz-adv-x="937" d="M470-18Q363-18 294.5,17t-107,101t-54,159.5T118,488v543q0,141 31,251t108,173t213,63q103,0 171-36t107-101.5T803,1226t16-195V488q0-115-14-208T753,120T647,17.5T470-18Zm0,189q51,0 76,32.5T579.5,294T588,428v647q0,77-9,134t-34.5,88.5T470,1329q-51,0-77-31.5T358.5,1209T350,1075V428q0-76 8.5-134T393,203.5T470,171ZM455,1640L257,2029H491l94-389H455Z" />
      <glyph unicode="&#xf3;" glyph-name="gid96" horiz-adv-x="937" d="M470-18Q363-18 294.5,17t-107,101t-54,159.5T118,488v543q0,141 31,251t108,173t213,63q103,0 171-36t107-101.5T803,1226t16-195V488q0-115-14-208T753,120T647,17.5T470-18Zm0,189q51,0 76,32.5T579.5,294T588,428v647q0,77-9,134t-34.5,88.5T470,1329q-51,0-77-31.5T358.5,1209T350,1075V428q0-76 8.5-134T393,203.5T470,171ZM335,1640l94,389H663L465,1640H335Z" />
      <glyph unicode="&#xf4;" glyph-name="gid97" horiz-adv-x="937" d="M470-18Q363-18 294.5,17t-107,101t-54,159.5T118,488v543q0,141 31,251t108,173t213,63q103,0 171-36t107-101.5T803,1226t16-195V488q0-115-14-208T753,120T647,17.5T470-18Zm0,189q51,0 76,32.5T579.5,294T588,428v647q0,77-9,134t-34.5,88.5T470,1329q-51,0-77-31.5T358.5,1209T350,1075V428q0-76 8.5-134T393,203.5T470,171ZM169,1640l169,311H599l167-311H554l-86,218l-86-218H169Z" />
      <glyph unicode="&#xf5;" glyph-name="gid101" horiz-adv-x="937" d="M470-18Q363-18 294.5,17t-107,101t-54,159.5T118,488v543q0,141 31,251t108,173t213,63q103,0 171-36t107-101.5T803,1226t16-195V488q0-115-14-208T753,120T647,17.5T470-18Zm0,189q51,0 76,32.5T579.5,294T588,428v647q0,77-9,134t-34.5,88.5T470,1329q-51,0-77-31.5T358.5,1209T350,1075V428q0-76 8.5-134T393,203.5T470,171ZM619,1640q-44,0-93,20.5t-96.5,41T340,1722q-16,0-23-2q-16-4-26.5-18.5T266,1661l-119,50q20,68 47.5,104t62.5,50t75,14q41,0 94-18.5t100.5-37T599,1805h4q14,2 27,14t29,57l131-28l-9-41q-24-102-62.5-134.5T619,1640Z" />
      <glyph unicode="&#xf6;" glyph-name="gid98" horiz-adv-x="937" d="M470-18Q363-18 294.5,17t-107,101t-54,159.5T118,488v543q0,141 31,251t108,173t213,63q103,0 171-36t107-101.5T803,1226t16-195V488q0-115-14-208T753,120T647,17.5T470-18Zm0,189q51,0 76,32.5T579.5,294T588,428v647q0,77-9,134t-34.5,88.5T470,1329q-51,0-77-31.5T358.5,1209T350,1075V428q0-76 8.5-134T393,203.5T470,171ZM585,1640v198H837V1640H585Zm-484,0v198H353V1640H101Z" />
      <glyph unicode="&#xf7;" glyph-name="gid205" horiz-adv-x="804" d="M94,657V851H710V657H94ZM282,214V512H522V214H282Zm0,785v298H522V999H282Z" />
      <glyph unicode="&#xf8;" glyph-name="gid100" horiz-adv-x="879" d="M269-173L169-145L678,1672l101-28L269-173ZM470-18Q363-18 294.5,17t-107,101t-54,159.5T118,488v543q0,141 31,251t108,173t213,63q103,0 171-36t107-101.5T803,1226t16-195V488q0-115-14-208T753,120T647,17.5T470-18Zm0,189q51,0 76,32.5T579.5,294T588,428v647q0,77-9,134t-34.5,88.5T470,1329q-51,0-77-31.5T358.5,1209T350,1075V428q0-76 8.5-134T393,203.5T470,171Z" />
      <glyph unicode="&#xf9;" glyph-name="gid114" horiz-adv-x="982" d="M387-20q-76,0-134,36T162.5,128T130,324V1500H360V354q0-86 27-132.5T481,175q72,0 103.5,53T616,356V1500H846V0H616V154Q591,82 536,31T387-20Zm90,1660L279,2029H513l94-389H477Z" />
      <glyph unicode="&#xfa;" glyph-name="gid111" horiz-adv-x="982" d="M387-20q-76,0-134,36T162.5,128T130,324V1500H360V354q0-86 27-132.5T481,175q72,0 103.5,53T616,356V1500H846V0H616V154Q591,82 536,31T387-20ZM358,1640l94,389H686L488,1640H358Z" />
      <glyph unicode="&#xfb;" glyph-name="gid112" horiz-adv-x="982" d="M387-20q-76,0-134,36T162.5,128T130,324V1500H360V354q0-86 27-132.5T481,175q72,0 103.5,53T616,356V1500H846V0H616V154Q591,82 536,31T387-20ZM192,1640l169,311H622l167-311H577l-86,218l-86-218H192Z" />
      <glyph unicode="&#xfc;" glyph-name="gid113" horiz-adv-x="982" d="M387-20q-76,0-134,36T162.5,128T130,324V1500H360V354q0-86 27-132.5T481,175q72,0 103.5,53T616,356V1500H846V0H616V154Q591,82 536,31T387-20ZM607,1640v198H859V1640H607Zm-484,0v198H375V1640H123Z" />
      <glyph unicode="&#xfd;" glyph-name="gid119" horiz-adv-x="816" d="M98-257V-90h77q44,0 75.5,5.5T288-59q10,14 7.5,48T288,59L45,1500H266L369,725l43-405h19l38,405l94,775H783L530-44q-12-76-30.5-123.5t-57-68.5T333-257H98ZM275,1640l94,389H603L405,1640H275Z" />
      <glyph unicode="&#xfe;" glyph-name="gid104" horiz-adv-x="964" d="M141-279V1777H372V1371q30,74 88.5,108.5T581,1514q112,0 168-62.5T824.5,1281T844,1038V493q0-143-21-259T739.5,50T551-18q-59,0-106,34.5T372,96V-279H141ZM499,173q71,1 92.5,71T613,456v611q0,75-6.5,133.5t-30,92.5T502,1327q-40,0-69.5-20t-45-75.5T372,1067V447q0-135 23.5-204.5T499,173Z" />
      <glyph unicode="&#xff;" glyph-name="gid120" horiz-adv-x="816" d="M98-257V-90h77q44,0 75.5,5.5T288-59q10,14 7.5,48T288,59L45,1500H266L369,725l43-405h19l38,405l94,775H783L530-44q-12-76-30.5-123.5t-57-68.5T333-257H98ZM525,1640v198H777V1640H525Zm-484,0v198H293V1640H41Z" />
      <glyph unicode="&#x2013;" glyph-name="gid165" horiz-adv-x="756" d="M120,533V741H636V533H120Z" />
      <glyph unicode="&#x2014;" glyph-name="gid166" horiz-adv-x="1153" d="M60,545V741H1092V545H60Z" />
      <glyph unicode="&#x2018;" glyph-name="gid178" horiz-adv-x="589" d="M134,1084v247l129,435H402l-93-426H459V1084H134Z" />
      <glyph unicode="&#x2019;" glyph-name="gid179" horiz-adv-x="589" d="M204,1084l93,425H147v257H473V1518L343,1084H204Z" />
      <glyph unicode="&#x201a;" glyph-name="gid174" horiz-adv-x="484" d="M146-358L229,0H90V243H404V9L292-358H146Z" />
      <glyph unicode="&#x201c;" glyph-name="gid176" horiz-adv-x="1030" d="M611,1132v236l113,398H870l-83-389H925V1132H611Zm-460,0v236l112,398H409l-82-389H465V1132H151Z" />
      <glyph unicode="&#x201d;" glyph-name="gid177" horiz-adv-x="1077" d="M681,1132l83,389H626v245H940V1530L827,1132H681Zm-460,0l83,389H165v245H480V1530L367,1132H221Z" />
      <glyph unicode="&#x201e;" glyph-name="gid175" horiz-adv-x="1016" d="M676-389L758,0H620V245H934V9L822-389H676Zm-460,0L298,0H160V245H473V9L361-389H216Z" />
      <glyph unicode="&#x2022;" glyph-name="gid158" horiz-adv-x="861" d="M430,470q-120,0-183,71T184,741t63,200t183,71t183.5-71T677,741T613.5,541T430,470Z" />
      <glyph unicode="&#x2039;" glyph-name="gid182" horiz-adv-x="606" d="M548,353L65,638V859l483,271V898L236,749L548,591V353Z" />
      <glyph unicode="&#x203a;" glyph-name="gid183" horiz-adv-x="727" d="M147,353V591L459,749L147,898v232L631,859V638L147,353Z" />
    </font>
</defs>
</svg>
