<?xml version="1.0" standalone="no"?>
<!DOCTYPE svg PUBLIC "-//W3C//DTD SVG 1.1//EN" "http://www.w3.org/Graphics/SVG/1.1/DTD/svg11.dtd">
<svg xmlns="http://www.w3.org/2000/svg">
<defs >
<font id="Barlow" horiz-adv-x="506" ><font-face
    font-family="Barlow ExtraLight"
    units-per-em="1000"
    panose-1="0 0 3 0 0 0 0 0 0 0"
    ascent="1000"
    descent="-200"
    alphabetic="0" />
<glyph unicode=" " glyph-name="space" horiz-adv-x="200" />
<glyph unicode="!" glyph-name="exclam" horiz-adv-x="308" d="M138 223T138 233L136 690Q136 700 146 700H165Q175 700 175 690L173 233Q173 223 163 223H148Q138 223 138 233ZM134 4T121 17T108 50Q108 70 121 83T153 96Q173 96 186 83T199 50Q199 31 186 18T153
4Q134 4 121 17Z" />
<glyph unicode="&quot;" glyph-name="quotedbl" horiz-adv-x="219" d="M41 496T41 506L36 683Q36 693 46 693H68Q78 693 78 683L73 506Q73 496 63 496H51Q41 496 41 506ZM146 496T146 506L142 683Q142 693 152 693H173Q183 693 183 683L179 506Q179 496 169 496H156Q146
496 146 506Z" />
<glyph unicode="#" glyph-name="numbersign" horiz-adv-x="647" d="M562 441T552 441H477Q472 441 472 437L443 250Q443 246 446 246H517Q527 246 527 236L526 221Q526 211 516 211H441Q436 211 436 207L407 21Q406 12 397 12L378 13Q374 13 371 16T369 24L397
207Q397 211 394 211H208Q203 211 203 207L174 21Q173 12 164 12L145 13Q141 13 138 16T136 24L164 207Q164 211 161 211H94Q84 211 84 221L85 236Q85 246 95 246H166Q171 246 171 250L199 437Q199 441 196 441H130Q120 441 120 451L121 466Q121 476 131 476H202Q207
476 207 480L236 667Q237 676 246 676L265 675Q269 675 272 672T274 664L246 480Q246 476 249 476H435Q440 476 440 480L469 667Q470 676 479 676L498 675Q502 675 505 672T507 664L479 480Q479 476 482 476H553Q563 476 563 466L562 451Q562 441 552 441ZM404
246T404 250L432 437Q432 441 429 441H244Q239 441 239 437L210 250Q210 246 213 246H399Q404 246 404 250Z" />
<glyph unicode="$" glyph-name="dollar" horiz-adv-x="553" d="M491 92T442 45T302 -8Q298 -8 298 -12V-86Q298 -96 288 -96H271Q261 -96 261 -86L262 -12Q262 -8 258 -8Q165 -2 113 45T60 169V204Q60 214 70 214H85Q95 214 95 204V172Q95 107 145 67T284 27Q367
27 411 64T455 165Q455 205 437 234T378 288T265 347Q191 380 154 402T96 457T74 541Q74 618 120 660T252 708Q256 708 256 712V791Q256 801 266 801H282Q292 801 292 791L291 711Q291 707 295 707Q385 701 435 654T485 529V505Q485 495 475 495H458Q448 495 448
505V526Q448 593 401 633T268 673Q192 673 151 640T110 543Q110 502 128 476T181 430T287 379Q358 348 401 320T467 255T491 168Q491 92 442 45Z" />
<glyph unicode="%" glyph-name="percent" horiz-adv-x="858" d="M209 439T178 457T128 507T109 575Q109 612 127 643T177 692T246 710Q283 710 314 692T363 642T382 575Q382 538 364 507T314 458T246 439Q209 439 178 457ZM225 0T223 3T224 12L603 693Q608 700
615 700H626Q632 700 634 697T633 688L255 7Q252 0 243 0H231Q225 0 223 3ZM289 469T320 500T351 575Q351 619 321 649T246 680Q202 680 171 650T140 575Q140 531 171 500T246 469Q289 469 320 500ZM577 -10T546 8T496 58T478 126Q478 163 496 194T545 243T614
261Q651 261 682 243T732 194T750 126Q750 89 732 58T683 9T614 -10Q577 -10 546 8ZM658 20T688 51T719 126Q719 170 689 200T614 231Q570 231 540 201T509 126Q509 82 539 51T614 20Q658 20 688 51Z" />
<glyph unicode="&amp;" glyph-name="ampersand" horiz-adv-x="637" d="M568 9T568 6Q568 0 559 0H536Q529 0 524 6L455 89Q454 91 452 91T449 89Q400 37 354 15T247 -8Q161 -8 111 32T60 147Q60 218 100 268T216 372Q219 374 216 377Q155 454 135 491T115 565Q115
629 156 668T266 708Q336 708 379 670T423 569Q423 527 404 492T354 430T276 368Q273 366 276 363Q309 322 378 239L401 211L449 152Q452 148 455 152Q480 183 523 240Q529 248 537 243L551 234Q560 228 554 220Q504 153 478 123V121Q478 117 483 111L535 49Q546
35 553 27T565 12Q568 9 568 6ZM216 671T185 643T154 563Q154 535 171 504T246 399Q249 396 252 398Q318 446 351 483T384 569Q384 615 352 643T268 671Q216 671 185 643ZM301 27T341 48T425 118Q428 121 425 124L365 197Q348 219 344 223L325 246L245 341Q244
344 240 342Q171 292 135 249T99 148Q99 90 139 59T249 27Q301 27 341 48Z" />
<glyph unicode="&apos;" glyph-name="quotesingle" horiz-adv-x="115" d="M41 502T41 512L36 687Q36 697 46 697H69Q79 697 79 687L74 512Q74 502 64 502H51Q41 502 41 512Z" />
<glyph unicode="(" glyph-name="parenleft" horiz-adv-x="221" d="M96 -110T92 -103Q48 -29 21 86T-6 322Q-6 447 21 565T95 758Q99 765 107 765H123Q129 765 131 762T130 753Q89 677 64 561T39 324Q39 205 64 91T130 -98Q132 -102 132 -104Q132 -110 123 -110H104Q96
-110 92 -103Z" />
<glyph unicode=")" glyph-name="parenright" horiz-adv-x="221" d="M125 765T129 758Q173 684 200 569T227 333Q227 208 200 90T126 -103Q122 -110 114 -110H98Q92 -110 90 -107T91 -98Q132 -22 157 94T182 332Q182 450 157 564T91 753Q89 757 89 759Q89 765 98
765H117Q125 765 129 758Z" />
<glyph unicode="*" glyph-name="asterisk" horiz-adv-x="396" d="M183 393T183 403V539Q183 541 182 542T178 542L57 472Q55 471 52 471Q46 471 43 476L39 484Q38 486 38 489Q38 495 43 498L163 567Q165 568 165 570T163 573L43 642Q39 644 38 648T39 656L43 664Q45
668 49 669T57 668L178 598Q180 597 181 598T183 601V737Q183 747 193 747H203Q213 747 213 737V601Q213 599 214 598T218 598L340 668Q342 669 345 669Q351 669 354 664L358 656Q359 654 359 651Q359 645 354 642L233 573Q232 572 232 570T233 567L354 498Q358
496 359 492T358 484L354 476Q352 472 348 471T340 472L218 542Q216 543 215 542T213 539V403Q213 393 203 393H193Q183 393 183 403Z" />
<glyph unicode="+" glyph-name="plus" horiz-adv-x="507" d="M463 336T463 326V312Q463 302 453 302H274Q270 302 270 298V124Q270 114 260 114H246Q236 114 236 124V298Q236 302 232 302H54Q44 302 44 312V326Q44 336 54 336H232Q236 336 236 340V523Q236 533
246 533H260Q270 533 270 523V340Q270 336 274 336H453Q463 336 463 326Z" />
<glyph unicode="," glyph-name="comma" horiz-adv-x="264" d="M83 -71T81 -68T80 -60L128 145Q130 154 139 154H155Q160 154 162 151T164 143L111 -62Q110 -71 100 -71H88Q83 -71 81 -68Z" />
<glyph unicode="-" glyph-name="hyphen" horiz-adv-x="388" d="M44 300T44 310V325Q44 335 54 335H334Q344 335 344 325V310Q344 300 334 300H54Q44 300 44 310Z" />
<glyph unicode="." glyph-name="period" horiz-adv-x="282" d="M120 5T108 18T95 50Q95 70 107 83T140 96Q160 96 173 83T186 50Q186 30 173 18T140 5Q120 5 108 18Z" />
<glyph unicode="/" glyph-name="slash" horiz-adv-x="368" d="M41 0T39 3T37 11L242 692Q245 700 254 700H272Q277 700 279 697T281 689L76 8Q73 0 64 0H46Q41 0 39 3Z" />
<glyph unicode="0" glyph-name="zero" horiz-adv-x="562" d="M190 -9T136 42T82 180V520Q82 606 136 657T280 709Q370 709 425 657T480 520V180Q480 95 425 43T280 -9Q190 -9 136 42ZM353 26T397 67T441 178V522Q441 590 397 632T280 674Q209 674 165 632T121
522V178Q121 109 165 68T280 26Q353 26 397 67Z" />
<glyph unicode="1" glyph-name="one" horiz-adv-x="349" d="M198 700T206 700H228Q238 700 238 690V10Q238 0 228 0H209Q199 0 199 10V648Q199 650 198 651T194 651L85 598Q83 597 80 597Q77 597 75 599T72 604L68 617V619Q68 627 74 630L193 697Q198 700 206 700Z" />
<glyph unicode="2" glyph-name="two" horiz-adv-x="525" d="M113 35T118 35H450Q460 35 460 25V10Q460 0 450 0H76Q66 0 66 10V27Q66 34 70 39L170 170Q236 254 299 338Q395 465 395 539Q395 599 355 636T247 673Q182 673 143 636T104 538V505Q104 495 94 495H75Q65
495 65 505V542Q66 616 116 662T247 708Q331 708 382 661T434 539Q434 453 336 324Q285 257 239 198T152 85L116 40Q113 35 118 35Z" />
<glyph unicode="3" glyph-name="three" horiz-adv-x="504" d="M428 278T428 208Q428 154 416 113Q397 54 354 23T243 -8Q175 -8 129 28T66 124Q58 153 58 196Q58 206 68 206H87Q97 206 97 196Q97 165 102 140Q113 89 150 58T243 27Q294 27 328 51T377 121Q389
157 389 209Q389 272 372 317Q337 400 242 400Q230 400 214 396Q212 395 209 395Q204 395 201 399L192 410Q186 416 192 424L374 660Q376 662 375 663T372 665H70Q60 665 60 675V690Q60 700 70 700H416Q426 700 426 690V670Q426 662 422 657L251 433Q249 431 250
430T254 428Q368 427 408 329Q428 278 428 208Z" />
<glyph unicode="4" glyph-name="four" horiz-adv-x="526" d="M459 235T459 225V209Q459 199 449 199H408Q404 199 404 195V10Q404 0 394 0H375Q365 0 365 10V195Q365 199 361 199H66Q56 199 56 209V225Q56 230 59 237L274 693Q277 700 285 700H305Q310 700 312
697T312 688L100 240Q99 238 100 237T103 235H361Q365 235 365 239V415Q365 425 375 425H394Q404 425 404 415V239Q404 235 408 235H449Q459 235 459 225Z" />
<glyph unicode="5" glyph-name="five" horiz-adv-x="503" d="M445 259T445 212Q445 164 439 133Q425 68 377 30T259 -8Q192 -8 145 28T83 124Q78 141 76 161V163Q76 171 85 171H105Q115 171 115 161Q117 147 119 140Q130 89 167 59T259 28Q316 28 354 60T402 149Q406
170 406 212Q406 245 402 284Q395 339 357 367T260 396Q208 396 169 373T117 310Q115 302 106 302H86Q76 302 76 312V690Q76 700 86 700H405Q415 700 415 690V675Q415 665 405 665H119Q115 665 115 661L114 375Q114 373 115 372T119 373Q142 400 180 415T262 431Q332
431 379 398T439 300Q445 259 445 212Z" />
<glyph unicode="6" glyph-name="six" horiz-adv-x="504" d="M447 276T447 211Q447 150 437 121Q418 60 375 26T264 -8Q194 -8 147 27T84 123Q76 155 76 213V531Q76 612 126 660T257 708Q335 708 383 662T431 540V533Q431 523 421 523H402Q392 523 392 533V540Q392
599 355 636T257 673Q195 673 155 635T115 531V358Q115 355 116 355T120 356Q144 396 179 413T263 431Q396 431 435 307Q447 276 447 211ZM408 163T408 212Q408 262 400 288Q389 336 353 366T260 396Q205 396 168 366T121 287Q115 264 115 211Q115 159 121 137Q130
89 167 59T261 28Q313 28 351 55T400 137Q408 163 408 212Z" />
<glyph unicode="7" glyph-name="seven" horiz-adv-x="463" d="M155 0T158 11L394 660Q395 662 394 663T391 665H83Q79 665 79 661V617Q79 607 69 607H54Q44 607 44 617V690Q44 700 54 700H427Q437 700 437 690V671Q437 667 435 659L199 8Q196 0 187 0H166Q155 0 158 11Z" />
<glyph unicode="8" glyph-name="eight" horiz-adv-x="513" d="M442 246T442 192Q442 119 411 68Q388 32 349 12T257 -8Q203 -8 163 13T99 76Q71 124 71 193Q71 249 91 292Q115 348 173 374Q178 376 173 379Q135 399 111 431Q79 474 79 533Q79 585 104 626Q127
665 167 687T257 709Q310 709 348 687T410 626Q434 584 434 533Q434 475 402 430Q380 399 342 380Q337 377 342 375Q399 350 425 288Q442 246 442 192ZM160 424T190 409T256 393Q293 393 323 409T373 453Q395 489 395 534Q395 571 377 604Q360 636 329 654T255
673Q215 673 184 654T135 602Q118 570 118 533Q118 486 142 451Q160 424 190 409ZM403 130T403 194Q403 237 389 277Q373 317 339 338T256 360Q208 360 176 340T127 282Q110 243 110 193Q110 133 135 89Q174 27 257 27Q337 27 376 86Q403 130 403 194Z" />
<glyph unicode="9" glyph-name="nine" horiz-adv-x="517" d="M442 541T442 487V169Q442 88 392 40T261 -8Q182 -8 134 38T86 160V167Q86 177 96 177H115Q125 177 125 167V160Q125 101 162 64T261 27Q322 27 362 65T403 169V344Q403 347 401 347T398 345Q375 304
339 287T254 269Q123 269 82 393Q71 421 71 489Q71 549 80 579Q99 640 142 674T254 708Q323 708 370 673T433 577Q442 541 442 487ZM312 304T349 334T396 413Q403 440 403 489Q403 536 397 563Q387 611 350 641T256 672Q204 672 166 645T117 563Q110 540 110 488Q110
435 117 412Q128 364 164 334T257 304Q312 304 349 334Z" />
<glyph unicode=":" glyph-name="colon" horiz-adv-x="327" d="M143 358T131 371T118 403Q118 423 130 436T163 449Q183 449 196 436T209 403Q209 383 196 371T163 358Q143 358 131 371ZM143 17T131 30T118 62Q118 82 130 95T163 108Q183 108 196 95T209 62Q209
42 196 30T163 17Q143 17 131 30Z" />
<glyph unicode=";" glyph-name="semicolon" horiz-adv-x="308" d="M137 362T123 375T109 409Q109 428 123 442T157 456Q177 456 191 442T206 409Q206 390 192 376T157 362Q137 362 123 375ZM117 -65T114 -62T112 -54L141 139Q142 148 151 148H170Q175 148 177
145T179 137L143 -56Q142 -65 132 -65H121Q117 -65 114 -62Z" />
<glyph unicode="&lt;" glyph-name="less" horiz-adv-x="507" d="M463 58T460 56T451 56L51 245Q44 249 44 257V279Q44 287 51 291L451 480Q453 481 456 481Q463 481 463 473V454Q463 447 456 443L87 271Q83 268 87 265L456 93Q463 89 463 82V63Q463 58 460 56Z" />
<glyph unicode="=" glyph-name="equal" horiz-adv-x="507" d="M44 416T44 426V440Q44 450 54 450H453Q463 450 463 440V426Q463 416 453 416H54Q44 416 44 426ZM44 456T44 466V480Q44 490 54 490H453Q463 490 463 480V466Q463 456 453 456H54Q44 456 44 466Z" />
<glyph unicode="&gt;" glyph-name="greater" horiz-adv-x="507" d="M54 55T51 55Q44 55 44 63V82Q44 89 51 93L419 265Q423 268 419 271L51 443Q44 447 44 454V473Q44 478 47 480T56 480L456 291Q463 287 463 279V257Q463 249 456 245L56 56Q54 55 51 55Z" />
<glyph unicode="?" glyph-name="question" horiz-adv-x="433" d="M178 190T178 200V270Q178 311 197 336T257 395Q287 419 304 437T334 481T346 543Q346 602 310 637T216 673Q157 673 121 638T84 544V507Q84 497 74 497L55 498Q45 498 45 508V544Q45 617 92 663T216
709Q292 709 338 664T385 542Q385 498 371 466T337 413T286 367Q251 339 235 319T219 269V200Q219 190 209 190H188Q178 190 178 200ZM179 4T166 17T153 50Q153 70 166 82T199 95Q219 95 231 83T244 50Q244 30 232 17T199 4Q179 4 166 17Z" />
<glyph unicode="@" glyph-name="at" horiz-adv-x="832" d="M545 599T613 562T719 459T757 310Q757 295 753 259Q741 171 697 121T591 71Q556 71 530 87T493 131Q491 137 488 132Q471 103 443 87T376 71Q325 71 294 97T258 165Q257 172 257 185Q257 210 263 252Q271
317 280 341Q295 384 331 409T413 435Q443 435 467 424T505 392Q506 390 508 391T510 394L513 421Q514 430 523 430H535Q540 430 543 427T545 419L518 200Q517 195 517 184Q517 147 538 124T595 101Q642 101 675 142T720 258Q724 282 724 310Q724 387 689 445T592
536T452 568Q368 568 289 530T158 415T107 225Q107 142 137 77T228 -26T373 -63Q423 -63 471 -51T544 -21Q549 -18 552 -18T558 -23L564 -31Q567 -34 567 -38Q567 -42 562 -45Q531 -68 477 -81T369 -94Q276 -94 210 -53T109 62T75 229Q75 348 131 431T274 557T456
599Q545 599 613 562ZM415 101T442 122T479 177Q483 190 485 203T492 253Q496 286 497 302T498 330Q498 362 476 384T416 406Q379 406 351 385T309 331Q305 320 302 303T295 253Q289 211 289 192Q289 182 290 177Q291 143 315 122T378 101Q415 101 442 122Z" />
<glyph unicode="A" glyph-name="A" horiz-adv-x="578" d="M501 0T498 8L453 146Q452 149 449 149H127Q124 149 123 146L79 8Q76 0 67 0H48Q37 0 40 11L263 692Q266 700 275 700H301Q310 700 313 692L538 11L539 7Q539 0 530 0H510Q501 0 498 8ZM135 185T136 184T140
182H437Q439 182 440 183T441 187L291 644Q290 646 288 646T285 644L136 187Q135 185 136 184Z" />
<glyph unicode="B" glyph-name="B" horiz-adv-x="630" d="M431 363T431 362T434 360Q488 339 518 295T548 187Q548 101 494 51T352 0H119Q109 0 109 10V690Q109 700 119 700H345Q434 700 487 652T540 521Q540 465 513 425T434 364Q431 363 431 362ZM148 665T148
661V383Q148 379 152 379H345Q416 379 459 417T502 519Q502 585 459 625T345 665H152Q148 665 148 661ZM422 36T465 78T509 189Q509 260 465 302T346 344H152Q148 344 148 340V40Q148 36 152 36H352Q422 36 465 78Z" />
<glyph unicode="C" glyph-name="C" horiz-adv-x="606" d="M241 -9T191 17T112 92T84 203V498Q84 560 112 608T190 682T308 708Q374 708 424 682T503 609T531 499V498Q531 488 521 488L502 487Q492 487 492 496V499Q492 577 441 625T308 673Q224 673 174 625T123
499V201Q123 123 173 75T308 26Q390 26 441 74T492 201V203Q492 212 502 212L521 211Q531 211 531 202Q531 140 503 92T425 18T308 -9Q241 -9 191 17Z" />
<glyph unicode="D" glyph-name="D" horiz-adv-x="618" d="M109 0T109 10V690Q109 700 119 700H348Q440 700 494 651T548 515V185Q548 99 494 50T348 0H119Q109 0 109 10ZM148 35T152 35H350Q424 35 466 76T509 187V512Q509 583 467 624T350 665H152Q148 665 148
661V39Q148 35 152 35Z" />
<glyph unicode="E" glyph-name="E" horiz-adv-x="615" d="M548 665T538 665H152Q148 665 148 661V373Q148 369 152 369H428Q438 369 438 359V343Q438 333 428 333H152Q148 333 148 329V39Q148 35 152 35H538Q548 35 548 25V10Q548 0 538 0H119Q109 0 109 10V690Q109
700 119 700H538Q548 700 548 690V675Q548 665 538 665Z" />
<glyph unicode="F" glyph-name="F" horiz-adv-x="572" d="M547 665T537 665H152Q148 665 148 661V373Q148 369 152 369H427Q437 369 437 359V343Q437 333 427 333H152Q148 333 148 329V10Q148 0 138 0H119Q109 0 109 10V690Q109 700 119 700H537Q547 700 547 690V675Q547
665 537 665Z" />
<glyph unicode="G" glyph-name="G" horiz-adv-x="614" d="M241 -8T191 18T112 91T84 200V500Q84 562 112 609T190 682T308 708Q374 708 424 682T502 610T530 503V488Q530 478 520 478H501Q491 478 491 488V503Q491 579 441 626T308 673Q225 673 174 626T123 501V199Q123
122 174 75T309 27Q391 27 441 73T491 196V305Q491 309 487 309H324Q314 309 314 319V334Q314 344 324 344H520Q530 344 530 334V203Q530 106 469 49T308 -8Q241 -8 191 18Z" />
<glyph unicode="H" glyph-name="H" horiz-adv-x="666" d="M519 700T529 700H548Q558 700 558 690V10Q558 0 548 0H529Q519 0 519 10V329Q519 333 515 333H152Q148 333 148 329V10Q148 0 138 0H119Q109 0 109 10V690Q109 700 119 700H138Q148 700 148 690V373Q148
369 152 369H515Q519 369 519 373V690Q519 700 529 700Z" />
<glyph unicode="I" glyph-name="I" horiz-adv-x="257" d="M109 0T109 10V690Q109 700 119 700H138Q148 700 148 690V10Q148 0 138 0H119Q109 0 109 10Z" />
<glyph unicode="J" glyph-name="J" horiz-adv-x="574" d="M185 -8T137 17T61 87T34 193V273Q34 283 44 283H63Q73 283 73 273V192Q73 118 121 73T249 27Q329 27 378 72T427 192V690Q427 700 437 700H455Q465 700 465 690V193Q465 133 438 88T362 17T249 -8Q185
-8 137 17Z" />
<glyph unicode="K" glyph-name="K" horiz-adv-x="604" d="M109 0T109 10V690Q109 700 119 700H138Q148 700 148 690V326Q148 324 149 323T153 324L507 695Q512 700 519 700H540Q546 700 548 697T546 688L292 415Q290 413 292 409L570 12Q572 10 572 6Q572 4 570
2T564 0H540Q532 0 528 6L265 380Q264 382 262 382T259 381L150 271Q148 269 148 266V10Q148 0 138 0H119Q109 0 109 10Z" />
<glyph unicode="L" glyph-name="L" horiz-adv-x="567" d="M109 0T109 10V690Q109 700 119 700H138Q148 700 148 690V39Q148 35 152 35H515Q525 35 525 25V10Q525 0 515 0H119Q109 0 109 10Z" />
<glyph unicode="M" glyph-name="M" horiz-adv-x="716" d="M569 700T576 700H597Q607 700 607 690V10Q607 0 597 0H578Q568 0 568 10V622Q568 625 566 625T563 623L376 332Q371 325 364 325H354Q347 325 342 332L153 622Q152 625 150 624T148 620V10Q148 0 138
0H119Q109 0 109 10V690Q109 700 119 700H140Q147 700 152 693L356 379Q357 378 359 378T362 379L564 693Q569 700 576 700Z" />
<glyph unicode="N" glyph-name="N" horiz-adv-x="681" d="M533 700T543 700H562Q572 700 572 690V10Q572 0 562 0H542Q535 0 530 7L153 620Q152 623 150 623T148 619V10Q148 0 138 0H119Q109 0 109 10V690Q109 700 119 700H139Q146 700 151 693L528 82Q529 79
531 79T533 83V690Q533 700 543 700Z" />
<glyph unicode="O" glyph-name="O" horiz-adv-x="622" d="M243 -8T192 20T112 98T84 215V484Q84 550 112 601T191 680T310 708Q378 708 429 680T509 601T538 484V215Q538 149 510 99T430 20T310 -8Q243 -8 192 20ZM395 27T447 78T499 213V485Q499 570 447 621T310
673Q226 673 175 622T123 485V213Q123 129 174 78T310 27Q395 27 447 78Z" />
<glyph unicode="P" glyph-name="P" horiz-adv-x="589" d="M447 702T497 651T548 515Q548 431 497 381T363 330H144Q140 330 140 326V10Q140 0 130 0H111Q101 0 101 10V692Q101 702 111 702H364Q447 702 497 651ZM428 364T468 405T509 514Q509 583 469 624T362
666H144Q140 666 140 662V368Q140 364 144 364H362Q428 364 468 405Z" />
<glyph unicode="Q" glyph-name="Q" horiz-adv-x="568" d="M349 708T398 681T475 606T502 493V206Q502 116 450 59T308 -7Q304 -7 304 -11V-113Q304 -123 294 -123H275Q265 -123 265 -113V-11Q265 -7 261 -7Q172 1 119 58T66 206V493Q66 557 93 605T169 681T284
708Q349 708 398 681ZM463 495Q463 575 414 624T284 673Q204 673 155 624T105 495V205Q105 125 154 76T284 27Q365 27 414 76T463 205V495Z" />
<glyph unicode="R" glyph-name="R" horiz-adv-x="611" d="M520 0T517 7L360 332Q359 335 356 335H152Q148 335 148 331V10Q148 0 138 0H119Q109 0 109 10V690Q109 700 119 700H364Q446 700 496 649T547 516Q547 444 508 397T401 338Q396 336 398 333L554 12Q555
10 555 7Q555 0 547 0H529Q520 0 517 7ZM148 665T148 661V372Q148 368 152 368H363Q428 368 468 409T508 515Q508 582 468 623T363 665H152Q148 665 148 661Z" />
<glyph unicode="S" glyph-name="S" horiz-adv-x="580" d="M185 -8T123 40T60 169V204Q60 214 70 214H87Q97 214 97 204V172Q97 107 150 67T297 27Q385 27 432 64T479 165Q479 205 459 234T397 288T278 347Q200 380 161 402T98 457T75 541Q75 622 129 665T283 708Q391
708 451 660T511 529V505Q511 495 501 495H482Q472 495 472 505V526Q472 593 422 633T281 673Q200 673 157 640T113 543Q113 501 132 475T188 430T301 379Q376 348 422 320T493 255T518 168Q518 88 460 40T294 -8Q185 -8 123 40Z" />
<glyph unicode="T" glyph-name="T" horiz-adv-x="562" d="M511 700T511 690V675Q511 665 501 665H300Q296 665 296 661V10Q296 0 286 0H267Q257 0 257 10V661Q257 665 253 665H60Q50 665 50 675V690Q50 700 60 700H501Q511 700 511 690Z" />
<glyph unicode="U" glyph-name="U" horiz-adv-x="656" d="M261 -8T210 19T130 95T101 209V690Q101 700 111 700H130Q140 700 140 690V206Q140 126 191 77T328 27Q413 27 465 76T517 206V690Q517 700 527 700H546Q556 700 556 690V209Q556 145 528 96T448 19T328
-8Q261 -8 210 19Z" />
<glyph unicode="V" glyph-name="V" horiz-adv-x="573" d="M266 0T263 8L40 689L39 693Q39 700 48 700H67Q76 700 79 692L284 63Q285 61 287 61T290 63L495 692Q498 700 507 700H525Q536 700 533 689L309 8Q306 0 297 0H275Q266 0 263 8Z" />
<glyph unicode="W" glyph-name="W" horiz-adv-x="879" d="M231 0T228 8L30 689L29 692Q29 700 39 700H58Q66 700 69 692L246 82Q247 80 248 80T251 82L415 691Q417 700 426 700H447Q456 700 458 691L626 82Q627 80 628 80T631 82L810 692Q813 700 821 700H840Q845
700 847 697T849 689L649 8Q646 0 638 0H617Q608 0 606 9L440 627Q439 629 438 629T435 627L270 9Q268 0 259 0H239Q231 0 228 8Z" />
<glyph unicode="X" glyph-name="X" horiz-adv-x="569" d="M44 0T43 3T44 12L261 347Q263 350 261 353L44 688Q42 692 42 694Q42 700 50 700H71Q78 700 83 693L282 384Q283 383 285 383T288 384L486 693Q491 700 498 700H519Q525 700 526 697T525 688L308 352Q307
349 308 346L525 12Q527 8 527 6Q527 0 519 0H498Q491 0 486 7L288 315Q287 317 285 317T282 315L83 7Q78 0 71 0H50Q44 0 43 3Z" />
<glyph unicode="Y" glyph-name="Y" horiz-adv-x="544" d="M253 0T253 10V326Q253 330 252 331L43 688Q41 692 41 694Q41 700 50 700H69Q76 700 81 693L269 372Q270 371 272 371T275 372L463 693Q468 700 475 700H494Q500 700 502 697T501 688L292 331Q291 330
291 326V10Q291 0 281 0H263Q253 0 253 10Z" />
<glyph unicode="Z" glyph-name="Z" horiz-adv-x="545" d="M51 0T51 10V29Q51 34 55 42L440 660Q441 662 440 663T437 665H61Q51 665 51 675V690Q51 700 61 700H476Q486 700 486 690V671Q486 666 482 658L97 40Q96 38 97 37T100 35H476Q486 35 486 25V10Q486 0
476 0H61Q51 0 51 10Z" />
<glyph unicode="[" glyph-name="bracketleft" horiz-adv-x="363" d="M32 -109T32 -99V752Q32 762 42 762H211Q221 762 221 752V737Q221 727 211 727H75Q71 727 71 723V-70Q71 -74 75 -74H212Q222 -74 222 -84V-99Q222 -109 212 -109H42Q32 -109 32 -99Z" />
<glyph unicode="\" glyph-name="backslash" horiz-adv-x="368" d="M332 8Q332 0 322 0H304Q295 0 292 8L87 689L86 692Q86 700 96 700H114Q123 700 126 692L331 11L332 8Z" />
<glyph unicode="]" glyph-name="bracketright" horiz-adv-x="363" d="M331 -109T321 -109H151Q141 -109 141 -99V-84Q141 -74 151 -74H288Q292 -74 292 -70V723Q292 727 288 727H151Q141 727 141 737V752Q141 762 151 762H321Q331 762 331 752V-99Q331 -109 321 -109Z" />
<glyph unicode="^" glyph-name="asciicircum" horiz-adv-x="440" d="M52 312T50 315T49 324L198 692Q201 700 209 700H230Q238 700 241 692L391 324L392 320Q392 312 383 312H368Q360 312 357 320L223 655Q222 658 220 658T217 655L83 320Q80 312 72 312H57Q52
312 50 315Z" />
<glyph unicode="_" glyph-name="underscore" horiz-adv-x="466" d="M34 0T34 10V24Q34 34 44 34H423Q433 34 433 24V10Q433 0 423 0H44Q34 0 34 10Z" />
<glyph unicode="`" glyph-name="grave" horiz-adv-x="178" d="M140 578T140 576Q140 570 131 570H118Q111 570 106 577L41 688Q39 692 39 694Q39 700 48 700H65Q74 700 77 693L138 582Q140 578 140 576Z" />
<glyph unicode="a" glyph-name="a" horiz-adv-x="502" d="M339 510T382 466T426 343V10Q426 0 416 0H397Q387 0 387 10V60Q387 62 386 62T382 61Q357 27 314 10T219 -8Q150 -8 103 25T55 131Q55 205 109 246T260 288H383Q387 288 387 292V344Q387 404 354 439T251
475Q197 475 162 453T119 392Q116 382 107 383L86 386Q82 387 79 389T77 395Q87 447 134 478T253 510Q339 510 382 466ZM289 27T338 59T387 149V251Q387 255 383 255H262Q187 255 141 223T94 133Q94 81 130 54T223 27Q289 27 338 59Z" />
<glyph unicode="b" glyph-name="b" horiz-adv-x="537" d="M458 355T459 328T461 250Q461 199 460 173T453 124Q438 64 391 28T277 -8Q231 -8 195 11T137 65Q135 67 134 67T132 64V10Q132 0 122 0H103Q93 0 93 10V690Q93 700 103 700H122Q132 700 132 690V438Q132
435 133 435T137 437Q159 471 195 490T277 510Q345 510 392 474T453 377Q458 355 459 328ZM419 152T420 173T422 252Q422 308 420 330T412 370Q401 416 364 445T273 475Q220 475 185 445T141 369Q136 349 134 328T132 250Q132 193 133 172T140 134Q150 88 184 58T273
27Q327 27 366 57T413 134Q419 152 420 173Z" />
<glyph unicode="c" glyph-name="c" horiz-adv-x="512" d="M199 -8T151 28T87 126Q75 170 75 252Q75 329 87 377Q102 437 150 473T269 510Q338 510 388 475T452 386Q455 378 457 360V358Q457 351 448 349L430 347H428Q421 347 419 356L416 370Q407 415 367 445T268
475Q210 475 171 444T123 362Q114 322 114 251Q114 183 122 141Q133 90 171 59T268 27Q326 27 367 57T416 133L417 138Q418 148 429 146L446 143Q456 141 455 132Q454 130 454 126T452 116Q440 62 390 27T269 -8Q199 -8 151 28Z" />
<glyph unicode="d" glyph-name="d" horiz-adv-x="537" d="M405 700T415 700H434Q444 700 444 690V10Q444 0 434 0H415Q405 0 405 10V65Q405 68 404 68T400 66Q378 31 342 12T260 -8Q192 -8 146 28T84 124Q78 147 77 175T75 250Q75 296 76 325T84 377Q98 437 144
473T260 510Q306 510 342 491T400 437Q402 435 403 435T405 438V690Q405 700 415 700ZM401 152T403 173T405 250Q405 306 403 327T396 369Q387 415 352 445T264 475Q211 475 174 446T125 370Q119 352 117 330T115 252Q115 195 116 174T123 134Q132 87 171 57T264
27Q317 27 351 57T396 134Q401 152 403 173Z" />
<glyph unicode="e" glyph-name="e" horiz-adv-x="528" d="M319 27T356 50T410 115Q414 123 423 120L439 114Q448 111 444 102Q424 52 377 22T266 -8Q198 -8 151 27T86 121Q79 144 77 173T75 252Q75 298 76 325T83 375Q98 436 146 473T265 510Q341 510 389 470T450
363Q454 345 455 319T456 251Q456 240 446 240H118Q114 240 114 236Q114 205 115 179T119 141Q129 89 168 58T268 27Q319 27 356 50ZM207 475T168 444T119 363Q114 333 114 278Q114 274 118 274H413Q417 274 417 278Q417 334 412 361Q401 412 362 443T265 475Q207
475 168 444Z" />
<glyph unicode="f" glyph-name="f" horiz-adv-x="342" d="M200 665T178 635T156 537V506Q156 502 160 502H281Q291 502 291 492V476Q291 466 281 466H160Q156 466 156 462V10Q156 0 146 0H127Q117 0 117 10V462Q117 466 113 466H48Q38 466 38 476V492Q38 502 48
502H113Q117 502 117 506V538Q117 623 148 661T261 700H285Q295 700 295 690V675Q295 665 285 665H263Q200 665 178 635Z" />
<glyph unicode="g" glyph-name="g" horiz-adv-x="526" d="M404 502T414 502H433Q443 502 443 492V6Q443 -101 380 -152T196 -199Q186 -199 186 -189L187 -172Q187 -162 197 -162Q304 -165 354 -123T404 7V67Q404 70 403 70T399 68Q378 33 343 14T258 -6Q192 -6
145 29T82 126Q71 166 71 250Q71 334 82 379Q98 438 144 474T257 510Q305 510 341 491T399 437Q400 434 402 434T404 438V492Q404 502 414 502ZM402 157T403 179T404 251Q404 300 403 322T400 362Q392 411 356 443T263 475Q208 475 171 443T119 362Q111 330 111
252Q111 170 119 142Q131 92 169 60T263 28Q320 28 356 60T400 141Q402 157 403 179Z" />
<glyph unicode="h" glyph-name="h" horiz-adv-x="536" d="M357 509T404 463T451 340V10Q451 0 441 0H422Q412 0 412 10V333Q412 395 374 434T275 474Q210 474 171 436T131 335V10Q131 0 121 0H102Q92 0 92 10V690Q92 700 102 700H121Q131 700 131 690V438Q131
435 132 435T135 436Q157 471 194 490T282 509Q357 509 404 463Z" />
<glyph unicode="i" glyph-name="i" horiz-adv-x="256" d="M108 610T95 623T82 655Q82 675 95 688T128 701Q148 701 161 688T174 655Q174 636 161 623T128 610Q108 610 95 623ZM106 1T106 11V493Q106 503 116 503H135Q145 503 145 493V11Q145 1 135 1H116Q106 1 106 11Z" />
<glyph unicode="j" glyph-name="j" horiz-adv-x="241" d="M94 610T81 623T68 655Q68 675 80 688T113 701Q133 701 146 688T159 655Q159 635 146 623T113 610Q94 610 81 623ZM-24 -210T-24 -200V-185Q-24 -175 -14 -175Q38 -173 65 -144T93 -64V492Q93 502 103
502H122Q132 502 132 492V-63Q132 -133 95 -170T-14 -210Q-24 -210 -24 -200Z" />
<glyph unicode="k" glyph-name="k" horiz-adv-x="486" d="M92 0T92 10V690Q92 700 102 700H121Q131 700 131 690V250Q131 248 132 247T136 248L382 497Q387 502 394 502H419Q425 502 426 499T424 490L298 359Q296 357 297 354L450 12L451 8Q451 0 442 0H422Q414
0 411 8L270 326Q268 330 265 327L133 195Q131 193 131 190V10Q131 0 121 0H102Q92 0 92 10Z" />
<glyph unicode="l" glyph-name="l" horiz-adv-x="223" d="M92 0T92 10V690Q92 700 102 700H121Q131 700 131 690V10Q131 0 121 0H102Q92 0 92 10Z" />
<glyph unicode="m" glyph-name="m" horiz-adv-x="828" d="M656 509T700 466T744 346V10Q744 0 734 0H715Q705 0 705 10V339Q705 401 669 437T574 474Q511 474 474 439T437 341V10Q437 0 427 0H408Q398 0 398 10V339Q398 401 362 437T268 474Q205 474 168 439T131
341V10Q131 0 121 0H102Q92 0 92 10V492Q92 502 102 502H121Q131 502 131 492V442Q131 439 132 439T136 441Q157 474 193 491T277 509Q329 509 367 486T424 419Q425 417 426 417T428 419Q447 463 487 486T583 509Q656 509 700 466Z" />
<glyph unicode="n" glyph-name="n" horiz-adv-x="536" d="M357 509T404 463T451 340V10Q451 0 441 0H422Q412 0 412 10V333Q412 395 374 434T275 474Q210 474 171 436T131 335V10Q131 0 121 0H102Q92 0 92 10V492Q92 502 102 502H121Q131 502 131 492V438Q131
435 132 435T135 436Q157 471 194 490T282 509Q357 509 404 463Z" />
<glyph unicode="o" glyph-name="o" horiz-adv-x="533" d="M197 -8T149 28T84 126Q78 149 77 177T75 252Q75 299 76 327T84 377Q100 437 148 473T267 510Q337 510 386 474T450 377Q455 355 456 328T458 252Q458 201 457 175T450 126Q435 65 386 29T266 -8Q197 -8
149 28ZM324 27T363 58T414 141Q417 156 418 186T419 251Q419 288 418 317T414 361Q403 412 364 443T266 475Q209 475 170 444T120 361Q114 335 114 251Q114 166 120 141Q130 89 169 58T266 27Q324 27 363 58Z" />
<glyph unicode="p" glyph-name="p" horiz-adv-x="545" d="M467 355T468 327T470 252Q470 206 469 177T461 125Q447 65 400 29T285 -8Q239 -8 203 11T145 65Q143 67 142 67T140 64V-188Q140 -198 130 -198H111Q101 -198 101 -188V492Q101 502 111 502H130Q140 502
140 492V437Q140 434 141 434T145 436Q167 471 203 490T285 510Q353 510 399 474T461 378Q467 355 468 327ZM426 150T428 172T430 250Q430 307 429 328T422 368Q413 415 374 445T281 475Q228 475 194 445T149 368Q144 350 142 329T140 252Q140 196 142 175T149
133Q158 87 193 57T281 27Q334 27 371 56T420 132Q426 150 428 172Z" />
<glyph unicode="q" glyph-name="q" horiz-adv-x="545" d="M405 502T415 502H434Q444 502 444 492V-188Q444 -198 434 -198H415Q405 -198 405 -188V64Q405 67 404 67T400 65Q378 31 342 12T260 -8Q191 -8 145 28T84 125Q78 148 77 177T75 252Q75 299 76 327T84
378Q99 438 145 474T260 510Q305 510 341 491T400 436Q402 434 403 434T405 437V492Q405 502 415 502ZM401 153T403 174T405 252Q405 307 403 328T396 368Q386 414 352 444T264 475Q210 475 171 445T123 368Q118 350 117 329T115 250Q115 194 117 172T125 132Q136
86 173 57T264 27Q317 27 352 57T396 133Q401 153 403 174Z" />
<glyph unicode="r" glyph-name="r" horiz-adv-x="356" d="M307 506T331 495Q339 492 336 482L329 462Q326 452 317 457Q295 465 267 464Q228 464 197 443T149 387T131 310V10Q131 0 121 0H102Q92 0 92 10V492Q92 502 102 502H121Q131 502 131 492V417Q131 414
132 414T135 416Q156 458 191 482T272 506Q307 506 331 495Z" />
<glyph unicode="s" glyph-name="s" horiz-adv-x="474" d="M190 -4T150 13T87 59T65 124V138Q65 148 75 148H93Q103 148 103 138V125Q103 100 120 78T169 43T241 29Q301 29 338 57T376 131Q376 162 357 181T314 209T234 237Q179 254 146 269T90 310T67 376Q67 435
114 470T239 506Q316 506 364 470T412 377V374Q412 364 402 364H384Q374 364 374 374V377Q374 418 337 445T238 473Q178 473 142 447T106 378Q106 349 123 331T167 301T241 274Q300 256 333 243T391 203T415 133Q415 72 368 34T242 -4Q190 -4 150 13Z" />
<glyph unicode="t" glyph-name="t" horiz-adv-x="356" d="M290 468T280 468H159Q155 468 155 464V132Q155 78 180 57T258 35H280Q290 35 290 25V10Q290 0 280 0H255Q188 0 153 27T117 125V464Q117 468 113 468H52Q42 468 42 478V492Q42 502 52 502H113Q117 502
117 506V619Q117 629 127 629H145Q155 629 155 619V506Q155 502 159 502H280Q290 502 290 492V478Q290 468 280 468Z" />
<glyph unicode="u" glyph-name="u" horiz-adv-x="534" d="M403 502T413 502H432Q442 502 442 492V10Q442 0 432 0H413Q403 0 403 10V63Q403 66 402 66T398 64Q376 29 339 11T253 -7Q179 -7 132 37T84 158V492Q84 502 94 502H113Q123 502 123 492V167Q123 103 160
66T260 28Q325 28 364 66T403 167V492Q403 502 413 502Z" />
<glyph unicode="v" glyph-name="v" horiz-adv-x="455" d="M207 0T204 8L37 491L36 495Q36 502 45 502H68Q77 502 80 494L224 63Q225 61 227 61T230 63L375 494Q378 502 387 502H409Q420 502 417 491L251 8Q248 0 239 0H216Q207 0 204 8Z" />
<glyph unicode="w" glyph-name="w" horiz-adv-x="692" d="M180 0T177 8L36 491L35 494Q35 502 45 502H64Q73 502 75 494L196 59Q197 57 199 57T202 59L324 494Q326 502 335 502H354Q362 502 365 494L489 60Q490 58 491 58T494 60L617 494Q620 502 628 502H647Q652
502 654 499T656 491L514 8Q511 0 503 0H482Q474 0 471 8L348 428Q347 430 345 430T342 428L221 8Q218 0 210 0H188Q180 0 177 8Z" />
<glyph unicode="x" glyph-name="x" horiz-adv-x="450" d="M34 0T32 4T34 12L202 248Q204 251 202 254L34 490Q32 492 32 496Q32 498 34 500T40 502H60Q68 502 72 496L222 285Q223 284 225 284T228 285L375 496Q379 502 387 502H409Q415 502 417 498T415 490L248
254Q247 251 248 248L415 12Q417 10 417 6Q417 4 415 2T409 0H388Q380 0 376 6L229 217Q228 219 226 219T223 217L74 6Q70 0 62 0H40Q34 0 32 4Z" />
<glyph unicode="y" glyph-name="y" horiz-adv-x="441" d="M54 -200T54 -190V-175Q54 -165 64 -165H68Q106 -164 126 -152T162 -107T202 -3Q204 1 202 3L29 491L28 495Q28 502 37 502H56Q65 502 68 494L219 55Q220 53 222 53T225 55L373 494Q376 502 385 502H404Q415
502 412 491L220 -56Q198 -119 179 -149T136 -189T68 -200H61Q54 -200 54 -190Z" />
<glyph unicode="z" glyph-name="z" horiz-adv-x="439" d="M38 0T38 10V29Q38 37 42 42L351 461Q353 463 352 464T349 466H51Q41 466 41 476V492Q41 502 51 502H390Q400 502 400 492V473Q400 465 396 460L85 41Q83 39 84 38T87 36H388Q398 36 398 26V10Q398 0 388
0H48Q38 0 38 10Z" />
<glyph unicode="{" glyph-name="braceleft" horiz-adv-x="269" d="M130 -109T109 -84T88 0V222Q88 264 77 285T41 312Q32 314 32 322V338Q32 347 41 348Q65 354 76 375T88 438V653Q88 711 109 736T178 762H227Q237 762 237 752V737Q237 727 227 727H185Q155 727
141 709T127 648V440Q127 395 117 370T83 333Q78 331 83 328Q106 315 116 290T127 220V5Q127 -37 141 -55T185 -74H227Q237 -74 237 -84V-99Q237 -109 227 -109H178Q130 -109 109 -84Z" />
<glyph unicode="|" glyph-name="bar" horiz-adv-x="149" d="M55 -80T55 -70V750Q55 760 65 760H84Q94 760 94 750V-70Q94 -80 84 -80H65Q55 -80 55 -70Z" />
<glyph unicode="}" glyph-name="braceright" horiz-adv-x="269" d="M42 -109Q32 -109 32 -99V-84Q32 -74 42 -74H83Q114 -74 128 -56T142 5V220Q142 264 152 289T186 328Q191 331 186 333Q163 344 153 369T142 440V648Q142 690 128 708T83 727H42Q32 727 32 737V752Q32
762 42 762H91Q139 762 160 737T181 653V438Q181 396 192 375T228 348Q237 347 237 338V322Q237 314 228 312Q203 307 192 286T181 222V0Q181 -58 160 -83T91 -109H42Z" />
<glyph unicode="~" glyph-name="asciitilde" horiz-adv-x="485" d="M309 246T288 254T231 282Q210 293 193 299T154 306Q103 306 74 264Q69 254 61 261L52 267Q44 273 48 280Q63 309 90 325T153 342Q179 342 198 335T241 315Q246 312 264 303T301 288T340 282Q362
282 377 292T409 323Q415 330 423 325L434 318Q442 312 437 304Q419 276 396 261T340 246Q309 246 288 254Z" />
<glyph unicode="&#xa0;" glyph-name="uni00A0" horiz-adv-x="200" />
<glyph unicode="&#xa1;" glyph-name="exclamdown" horiz-adv-x="308" d="M173 708T186 695T199 662Q199 642 186 630T153 617Q134 617 121 630T108 662Q108 682 120 695T153 708Q173 708 186 695ZM138 490T148 490H163Q173 490 173 480L175 22Q175 12 165 12H146Q136
12 136 22L138 480Q138 490 148 490Z" />
<glyph unicode="&#xa2;" glyph-name="cent" horiz-adv-x="512" d="M417 228Q418 238 429 236L446 233Q456 231 455 222Q454 220 454 216T452 206Q440 154 393 120T278 82Q274 82 274 78V9Q274 -1 264 -1H247Q237 -1 237 9L238 80Q238 84 234 85Q178 94 140 128T87
216Q75 260 75 342Q75 419 87 467Q101 519 139 553T233 597Q237 598 237 602V672Q237 682 247 682H264Q274 682 274 672L273 604Q273 600 277 600Q344 597 391 563T452 476Q455 468 457 450V448Q457 441 448 439L430 437H428Q421 437 419 446L416 460Q407 505 367
535T268 565Q210 565 171 534T123 452Q114 412 114 341Q114 273 122 231Q133 180 171 149T268 117Q326 117 367 147T416 223L417 228Z" />
<glyph unicode="&#xa3;" glyph-name="sterling" horiz-adv-x="604" d="M190 34T195 34H557Q567 34 567 24V10Q567 0 557 0H148Q138 0 138 10V26Q138 34 145 38Q170 52 186 88T202 171V314Q202 318 198 318H119Q109 318 109 328V341Q109 351 119 351H198Q202 351
202 355V522Q202 610 253 659T394 708Q513 708 555 588L556 585Q556 579 548 576L529 571L526 570Q520 570 517 578Q487 674 390 674Q319 674 280 634T241 522V355Q241 351 245 351H440Q450 351 450 341V328Q450 318 440 318H245Q241 318 241 314V173Q241 131 228
96T193 39Q190 34 195 34Z" />
<glyph unicode="&#xa4;" glyph-name="currency" horiz-adv-x="497" d="M434 234T393 184Q391 181 394 178L458 114Q461 111 461 108Q461 104 457 100L445 90Q442 87 438 87Q435 87 431 91L368 153Q365 156 362 154Q312 113 245 113Q181 113 132 151Q129 153 126
150L66 91Q59 84 52 90L40 100Q33 108 39 114L100 174Q103 177 100 180Q55 233 55 301Q55 366 97 418Q99 421 96 424L32 488Q29 491 29 494Q29 498 33 502L45 512Q48 515 52 515Q55 515 59 511L121 449Q124 446 127 448Q177 489 245 489Q312 489 366 445Q369 442
372 445L438 511Q445 518 452 512L464 502Q472 495 465 488L396 420Q393 418 395 414Q434 366 434 301Q434 234 393 184ZM91 259T111 224T167 169T245 148Q286 148 321 168T377 224T398 301Q398 342 378 377T322 433T245 454Q203 454 168 434T112 378T91 301Q91
259 111 224Z" />
<glyph unicode="&#xa5;" glyph-name="yen" horiz-adv-x="689" d="M573 700T575 697T574 688L376 347Q375 345 376 344T379 342H507Q517 342 517 332V323Q517 313 507 313H369Q365 313 365 309V215Q365 211 369 211H507Q517 211 517 201V192Q517 182 507 182H369Q365
182 365 178V10Q365 0 355 0H336Q326 0 326 10V178Q326 182 322 182H178Q168 182 168 192V201Q168 211 178 211H322Q326 211 326 215V309Q326 313 322 313H178Q168 313 168 323V332Q168 342 178 342H312Q314 342 315 343T315 347L116 688Q114 692 114 694Q114 700
123 700H142Q149 700 154 693L342 372Q343 371 345 371T348 372L537 693Q542 700 549 700H567Q573 700 575 697Z" />
<glyph unicode="&#xa6;" glyph-name="brokenbar" horiz-adv-x="149" d="M55 396T55 406V750Q55 760 65 760H84Q94 760 94 750V406Q94 396 84 396H65Q55 396 55 406ZM55 -80T55 -70V274Q55 284 65 284H84Q94 284 94 274V-70Q94 -80 84 -80H65Q55 -80 55 -70Z" />
<glyph unicode="&#xa7;" glyph-name="section" horiz-adv-x="434" d="M151 -207T112 -164T72 -46V-31Q72 -21 82 -21H101Q111 -21 111 -31V-43Q112 -102 141 -137T218 -173Q266 -173 296 -138T327 -51Q327 -10 307 16T261 55T197 79Q156 92 127 109T81 158Q60
194 60 244Q60 301 86 341Q118 389 173 402Q176 403 176 404T173 406Q128 423 99 463T69 555Q69 595 87 630T140 686T218 707Q281 707 321 664T363 555V542Q363 532 353 532H334Q324 532 324 542V553Q324 605 294 639T218 673Q170 673 139 636T108 550Q108 500
141 470T237 419Q269 408 295 395T341 355Q372 315 372 254Q372 196 348 154Q319 103 267 94Q261 93 266 91Q312 73 339 36T367 -54Q367 -120 325 -163T216 -207Q151 -207 112 -164ZM284 118T315 170Q333 203 333 247Q333 304 308 333Q273 378 217 378Q186 378
160 361T117 316Q99 285 99 243Q99 198 116 171Q152 118 215 118Q284 118 315 170Z" />
<glyph unicode="&#xa8;" glyph-name="dieresis" horiz-adv-x="317" d="M217 611T205 624T192 656Q192 676 204 689T237 702Q257 702 270 689T283 656Q283 636 270 624T237 611Q217 611 205 624ZM58 611T46 624T33 656Q33 676 45 689T78 702Q98 702 111 689T124
656Q124 636 111 624T78 611Q58 611 46 624Z" />
<glyph unicode="&#xa9;" glyph-name="copyright" horiz-adv-x="892" d="M343 -8T260 38T131 166T84 348Q84 450 130 532T260 661T446 708Q549 708 632 661T762 532T809 348Q809 248 762 167T632 39T446 -8Q343 -8 260 38ZM540 23T615 65T732 182T775 348Q775 441
733 516T615 634T446 677Q352 677 277 634T159 516T117 348Q117 257 159 183T277 66T446 23Q540 23 615 65ZM399 169T371 196T343 267V433Q343 477 371 503T447 530Q494 530 522 504T551 434V432Q551 423 541 423L531 424Q521 424 521 434V436Q521 466 500 484T447
503Q413 503 393 485T372 436V262Q372 233 392 215T447 196Q479 196 500 214T521 262V265Q521 270 524 273T531 276H541Q551 276 551 267V266Q551 223 522 196T447 169Q399 169 371 196Z" />
<glyph unicode="&#xaa;" glyph-name="ordfeminine" horiz-adv-x="322" d="M241 562Q245 562 245 566V596Q245 634 223 657T157 681Q124 681 102 668T73 630Q70 621 61 622L51 624Q40 626 43 635Q50 668 81 688T159 708Q215 708 245 678T276 598V381Q276 371 266
371H255Q245 371 245 381V406Q245 408 244 408T240 407Q224 387 197 377T137 366Q90 366 59 388T28 457Q28 506 64 534T164 562H241ZM183 392T214 413T245 473V531Q245 535 241 535H165Q116 535 87 516T57 459Q57 425 80 409T140 392Q183 392 214 413ZM27 290T37
290H274Q284 290 284 280V267Q284 257 274 257H37Q27 257 27 267V280Q27 290 37 290Z" />
<glyph unicode="&#xab;" glyph-name="guillemotleft" horiz-adv-x="554" d="M286 116T286 113Q286 107 278 107H261Q254 107 249 113L111 274Q108 277 108 281T111 288L249 449Q254 455 261 455H278Q284 455 285 452T283 443L147 284Q146 281 147 278L283 119Q286
116 286 113ZM438 116T438 113Q438 107 430 107H413Q406 107 401 113L263 274Q260 277 260 281T263 288L401 449Q406 455 413 455H430Q436 455 437 452T435 443L299 284Q298 281 299 278L435 119Q438 116 438 113Z" />
<glyph unicode="&#xac;" glyph-name="logicalnot" horiz-adv-x="507" d="M44 336T54 336H453Q463 336 463 326V188Q463 178 453 178H437Q427 178 427 188V298Q427 302 423 302H54Q44 302 44 312V326Q44 336 54 336Z" />
<glyph unicode="&#xad;" glyph-name="uni00AD" horiz-adv-x="388" d="M44 300T44 310V325Q44 335 54 335H334Q344 335 344 325V310Q344 300 334 300H54Q44 300 44 310Z" />
<glyph unicode="&#xae;" glyph-name="registered" horiz-adv-x="454" d="M280 715T324 690T395 620T421 524Q421 471 395 427T325 358T227 332Q174 332 130 357T60 427T34 524Q34 576 60 620T130 689T227 715Q280 715 324 690ZM272 358T310 380T370 441T393 524Q393
569 371 607T310 667T227 689Q182 689 144 667T84 607T61 524Q61 479 83 441T144 381T227 358Q272 358 310 380ZM287 543T280 532T259 515Q256 514 257 510L285 446L286 442Q286 434 277 434H272Q264 434 261 442L233 508Q232 511 229 511H207Q203 511 203 507V444Q203
434 193 434H189Q179 434 179 444V601Q179 611 189 611H237Q259 611 273 597T287 559Q287 543 280 532ZM203 590T203 586V534Q203 530 207 530H235Q248 530 255 538T263 559Q263 573 256 581T235 590H207Q203 590 203 586Z" />
<glyph unicode="&#xaf;" glyph-name="overscore" horiz-adv-x="257" d="M0 601T0 611V623Q0 633 10 633H247Q257 633 257 623V611Q257 601 247 601H10Q0 601 0 611Z" />
<glyph unicode="&#xb0;" glyph-name="degree" horiz-adv-x="383" d="M148 494T112 515T55 572T34 651Q34 694 55 730T112 787T191 808Q235 808 271 787T328 730T349 651Q349 608 328 572T271 515T191 494Q148 494 112 515ZM244 525T280 561T317 651Q317 704 281
740T191 777Q138 777 102 741T65 651Q65 599 102 562T191 525Q244 525 280 561Z" />
<glyph unicode="&#xb1;" glyph-name="plusminus" horiz-adv-x="507" d="M463 350T463 340V326Q463 316 453 316H274Q270 316 270 312V138Q270 128 260 128H246Q236 128 236 138V312Q236 316 232 316H54Q44 316 44 326V340Q44 350 54 350H232Q236 350 236 354V537Q236
547 246 547H260Q270 547 270 537V354Q270 350 274 350H453Q463 350 463 340ZM44 0T44 10V24Q44 34 54 34H453Q463 34 463 24V10Q463 0 453 0H54Q44 0 44 10Z" />
<glyph unicode="&#xb2;" glyph-name="uni00B2" horiz-adv-x="318" d="M38 454T38 464V475Q38 482 42 487L67 519Q139 607 178 659Q235 733 235 775Q235 809 212 829T151 850Q114 850 92 829T70 774V758Q70 748 60 748H47Q37 748 37 758V778Q38 823 69 851T151
879Q203 879 235 850T267 775Q267 724 210 649Q162 585 83 487Q80 482 85 482H271Q281 482 281 472V464Q281 454 271 454H48Q38 454 38 464Z" />
<glyph unicode="&#xb3;" glyph-name="uni00B3" horiz-adv-x="321" d="M276 626T276 579Q276 535 261 505Q247 477 221 462T159 447Q118 447 91 469T51 528Q45 544 45 568Q45 578 55 578H68Q78 578 78 568Q78 555 80 539Q85 511 106 494T159 477Q209 477 230 517Q243
545 243 579Q243 621 228 648Q208 688 159 688Q149 688 144 686H140Q134 686 131 690L126 696Q123 699 123 703T126 710L230 839Q232 841 231 842T228 844H57Q47 844 47 854V862Q47 872 57 872H263Q273 872 273 862V851Q273 844 269 839L173 717Q171 715 172 714T176
712Q233 708 259 660Q276 626 276 579Z" />
<glyph unicode="&#xb4;" glyph-name="acute" horiz-adv-x="178" d="M41 570T39 573T40 582L101 693Q104 700 113 700H130Q136 700 138 697T137 688L72 577Q67 570 60 570H47Q41 570 39 573Z" />
<glyph unicode="&#xb5;" glyph-name="uni00B5" horiz-adv-x="543" d="M411 502T421 502H440Q450 502 450 492V10Q450 0 440 0H421Q411 0 411 10V61Q411 64 409 64T406 62Q384 29 347 11T262 -7Q183 -7 136 42Q131 45 131 40V-190Q131 -200 121 -200H102Q92 -200
92 -190V492Q92 502 102 502H121Q131 502 131 492V167Q131 104 168 66T268 28Q333 28 372 66T411 167V492Q411 502 421 502Z" />
<glyph unicode="&#xb6;" glyph-name="paragraph" horiz-adv-x="555" d="M437 700Q447 700 447 690V-190Q447 -200 437 -200H425Q415 -200 415 -190V664Q415 668 411 668H270Q266 668 266 664V-190Q266 -200 256 -200H242Q232 -200 232 -190V246Q232 250 228 250Q176
252 134 283T66 364T41 475Q41 537 68 588T142 670T246 700H437Z" />
<glyph unicode="&#xb7;" glyph-name="middot" horiz-adv-x="198" d="M79 228T67 241T54 273Q54 293 66 306T99 319Q119 319 132 306T145 273Q145 253 132 241T99 228Q79 228 67 241Z" />
<glyph unicode="&#xb8;" glyph-name="cedilla" horiz-adv-x="127" d="M0 -179T2 -168L4 -160Q7 -151 17 -152Q29 -155 40 -155Q64 -155 79 -142T94 -101Q94 -59 43 -12Q38 -7 38 -4Q38 0 45 0H54Q62 0 67 -4Q127 -50 127 -104Q127 -111 125 -125Q118 -156 96 -169T42
-183Q25 -183 10 -180Q0 -179 2 -168Z" />
<glyph unicode="&#xb9;" glyph-name="uni00B9" horiz-adv-x="180" d="M94 874T101 874H118Q128 874 128 864V464Q128 454 118 454H105Q95 454 95 464V836Q95 838 94 839T91 839L35 827L32 826Q24 826 24 836V842Q24 851 32 854L89 872Q94 874 101 874Z" />
<glyph unicode="&#xba;" glyph-name="ordmasculine" horiz-adv-x="337" d="M125 367T94 390T51 455Q44 482 44 538Q44 595 50 620Q61 660 93 684T170 708Q215 708 246 684T289 620Q293 605 294 584T295 538Q295 513 294 492T289 455Q278 415 246 391T170 367Q125
367 94 390ZM204 395T228 414T259 467Q263 482 263 538Q263 594 260 608Q252 641 228 660T169 680Q134 680 111 661T80 608Q76 588 76 538Q76 486 80 467Q88 433 111 414T170 395Q204 395 228 414ZM37 258T37 268V280Q37 290 47 290H290Q300 290 300 280V268Q300
258 290 258H47Q37 258 37 268Z" />
<glyph unicode="&#xbb;" glyph-name="guillemotright" horiz-adv-x="554" d="M119 107T118 110T120 119L256 278Q258 281 256 284L120 443Q117 446 117 449Q117 455 125 455H142Q149 455 154 449L292 288Q295 285 295 281T292 274L154 113Q150 107 142 107H125Q119
107 118 110ZM271 107T270 110T272 119L408 278Q410 281 408 284L272 443Q269 446 269 449Q269 455 277 455H294Q301 455 306 449L444 288Q447 285 447 281T444 274L306 113Q302 107 294 107H277Q271 107 270 110Z" />
<glyph unicode="&#xbc;" glyph-name="onequarter" horiz-adv-x="797" d="M94 700T101 700H118Q128 700 128 690V290Q128 280 118 280H105Q95 280 95 290V662Q95 664 94 665T91 665L35 653L32 652Q24 652 24 662V668Q24 677 32 680L89 698Q94 700 101 700ZM107
0T106 3T107 12L545 693Q550 700 557 700H571Q577 700 578 697T577 688L138 7Q133 0 126 0H113Q107 0 106 3ZM744 147T744 137V127Q744 117 734 117H715Q711 117 711 113V10Q711 0 701 0H688Q678 0 678 10V113Q678 117 674 117H502Q492 117 492 127V137Q492 142
495 149L619 413Q622 420 630 420H642Q647 420 649 417T649 408L529 152Q528 150 529 149T532 147H674Q678 147 678 151V247Q678 257 688 257H701Q711 257 711 247V151Q711 147 715 147H734Q744 147 744 137Z" />
<glyph unicode="&#xbd;" glyph-name="onehalf" horiz-adv-x="793" d="M94 700T101 700H118Q128 700 128 690V290Q128 280 118 280H105Q95 280 95 290V662Q95 664 94 665T91 665L35 653L32 652Q24 652 24 662V668Q24 677 32 680L89 698Q94 700 101 700ZM107 0T106
3T107 12L545 693Q550 700 557 700H571Q577 700 578 697T577 688L138 7Q133 0 126 0H113Q107 0 106 3ZM498 0T498 10V21Q498 28 502 33L527 65Q599 153 638 205Q695 279 695 321Q695 355 672 375T611 396Q574 396 552 375T530 320V304Q530 294 520 294H507Q497
294 497 304V324Q498 369 529 397T611 425Q663 425 695 396T727 321Q727 270 670 195Q622 131 543 33Q540 28 545 28H731Q741 28 741 18V10Q741 0 731 0H508Q498 0 498 10Z" />
<glyph unicode="&#xbe;" glyph-name="threequarters" horiz-adv-x="895" d="M276 462T276 415Q276 371 261 341Q247 313 221 298T159 283Q118 283 91 305T51 364Q45 380 45 404Q45 414 55 414H68Q78 414 78 404Q78 391 80 375Q85 347 106 330T159 313Q209 313
230 353Q243 381 243 415Q243 457 228 484Q208 524 159 524Q149 524 144 522H140Q134 522 131 526L126 532Q123 535 123 539T126 546L230 675Q232 677 231 678T228 680H57Q47 680 47 690V698Q47 708 57 708H263Q273 708 273 698V687Q273 680 269 675L173 553Q171
551 172 550T176 548Q233 544 259 496Q276 462 276 415ZM210 0T209 3T210 12L648 693Q653 700 660 700H674Q680 700 681 697T680 688L241 7Q236 0 229 0H216Q210 0 209 3ZM847 147T847 137V127Q847 117 837 117H818Q814 117 814 113V10Q814 0 804 0H791Q781 0 781
10V113Q781 117 777 117H605Q595 117 595 127V137Q595 142 598 149L722 413Q725 420 733 420H745Q750 420 752 417T752 408L632 152Q631 150 632 149T635 147H777Q781 147 781 151V247Q781 257 791 257H804Q814 257 814 247V151Q814 147 818 147H837Q847 147 847
137Z" />
<glyph unicode="&#xbf;" glyph-name="questiondown" horiz-adv-x="433" d="M254 496T267 483T280 450Q280 431 267 418T234 405Q215 405 202 418T189 450Q189 470 201 483T234 496Q254 496 267 483ZM255 310T255 300V230Q255 189 236 164T176 105Q146 81 129 63T99
19T87 -43Q87 -102 122 -137T217 -173Q276 -173 312 -138T349 -44V-7Q349 3 359 3L378 2Q388 2 388 -8V-44Q388 -117 341 -163T217 -209Q141 -209 95 -164T48 -42Q48 2 62 34T96 87T147 133Q182 161 198 181T214 231V300Q214 310 224 310H245Q255 310 255 300Z"
/>
<glyph unicode="&#xc0;" glyph-name="Agrave" horiz-adv-x="578" d="M501 0T498 8L453 146Q452 149 449 149H127Q124 149 123 146L79 8Q76 0 67 0H48Q37 0 40 11L263 692Q266 700 275 700H301Q310 700 313 692L538 11L539 7Q539 0 530 0H510Q501 0 498 8ZM135
185T136 184T140 182H437Q439 182 440 183T441 187L291 644Q290 646 288 646T285 644L136 187Q135 185 136 184ZM304 776T304 774Q304 768 295 768H282Q275 768 270 775L205 886Q203 890 203 892Q203 898 212 898H229Q238 898 241 891L302 780Q304 776 304 774Z"
/>
<glyph unicode="&#xc1;" glyph-name="Aacute" horiz-adv-x="578" d="M501 0T498 8L453 146Q452 149 449 149H127Q124 149 123 146L79 8Q76 0 67 0H48Q37 0 40 11L263 692Q266 700 275 700H301Q310 700 313 692L538 11L539 7Q539 0 530 0H510Q501 0 498 8ZM135
185T136 184T140 182H437Q439 182 440 183T441 187L291 644Q290 646 288 646T285 644L136 187Q135 185 136 184ZM260 768T258 771T259 780L320 891Q323 898 332 898H349Q355 898 357 895T356 886L291 775Q286 768 279 768H266Q260 768 258 771Z" />
<glyph unicode="&#xc2;" glyph-name="Acircumflex" horiz-adv-x="578" d="M501 0T498 8L453 146Q452 149 449 149H127Q124 149 123 146L79 8Q76 0 67 0H48Q37 0 40 11L263 692Q266 700 275 700H301Q310 700 313 692L538 11L539 7Q539 0 530 0H510Q501 0 498 8ZM135
185T136 184T140 182H437Q439 182 440 183T441 187L291 644Q290 646 288 646T285 644L136 187Q135 185 136 184ZM181 773T179 777T181 785L263 892Q267 898 276 898H299Q308 898 312 892L395 785Q397 783 397 779Q397 777 395 775T389 773H373Q364 773 360 779L292
869Q291 871 289 871T286 869L216 779Q212 773 203 773H187Q181 773 179 777Z" />
<glyph unicode="&#xc3;" glyph-name="Atilde" horiz-adv-x="578" d="M501 0T498 8L453 146Q452 149 449 149H127Q124 149 123 146L79 8Q76 0 67 0H48Q37 0 40 11L263 692Q266 700 275 700H301Q310 700 313 692L538 11L539 7Q539 0 530 0H510Q501 0 498 8ZM135
185T136 184T140 182H437Q439 182 440 183T441 187L291 644Q290 646 288 646T285 644L136 187Q135 185 136 184ZM323 815T292 838Q274 850 265 854T242 859Q224 859 212 853T187 831Q181 823 173 829L166 835Q160 841 164 849Q193 892 241 892Q257 892 270 887T302
869Q320 857 330 852T352 847Q368 847 381 853T406 878Q412 887 420 881L424 878Q427 875 427 875Q430 872 430 868Q430 864 427 858Q413 836 392 826T351 815Q323 815 292 838Z" />
<glyph unicode="&#xc4;" glyph-name="Adieresis" horiz-adv-x="578" d="M501 0T498 8L453 146Q452 149 449 149H127Q124 149 123 146L79 8Q76 0 67 0H48Q37 0 40 11L263 692Q266 700 275 700H301Q310 700 313 692L538 11L539 7Q539 0 530 0H510Q501 0 498 8ZM135
185T136 184T140 182H437Q439 182 440 183T441 187L291 644Q290 646 288 646T285 644L136 187Q135 185 136 184ZM347 809T335 822T322 854Q322 874 334 887T367 900Q387 900 400 887T413 854Q413 834 400 822T367 809Q347 809 335 822ZM188 809T176 822T163 854Q163
874 175 887T208 900Q228 900 241 887T254 854Q254 834 241 822T208 809Q188 809 176 822Z" />
<glyph unicode="&#xc5;" glyph-name="Aring" horiz-adv-x="578" d="M501 0T498 8L453 146Q452 149 449 149H127Q124 149 123 146L79 8Q76 0 67 0H48Q37 0 40 11L263 692Q266 700 275 700H301Q310 700 313 692L538 11L539 7Q539 0 530 0H510Q501 0 498 8ZM135 185T136
184T140 182H437Q439 182 440 183T441 187L291 644Q290 646 288 646T285 644L136 187Q135 185 136 184ZM245 784T216 813T186 885Q186 927 215 956T288 986Q331 986 361 957T391 885Q391 843 361 814T288 784Q245 784 216 813ZM318 813T339 833T361 885Q361 915
340 936T288 957Q258 957 237 936T215 885Q215 855 236 834T288 813Q318 813 339 833Z" />
<glyph unicode="&#xc6;" glyph-name="AE" horiz-adv-x="903" d="M836 665T826 665H476Q472 665 472 661V373Q472 369 476 369H717Q727 369 727 359V343Q727 333 717 333H476Q472 333 472 329V39Q472 35 476 35H826Q836 35 836 25V10Q836 0 826 0H443Q433 0 433
10V145Q433 149 429 149H162Q159 149 157 146L84 7Q81 0 72 0H50Q44 0 42 3T42 12L407 693Q410 700 419 700H826Q836 700 836 690V675Q836 665 826 665ZM178 182T182 182H429Q433 182 433 186V653Q433 656 432 656T428 654L180 187Q178 182 182 182Z" />
<glyph unicode="&#xc7;" glyph-name="Ccedilla" horiz-adv-x="606" d="M531 492T528 490T521 488L502 487Q492 487 492 496V499Q492 577 441 625T308 673Q224 673 174 625T123 499V201Q123 123 173 75T308 26Q390 26 441 74T492 201V203Q492 212 502 212L521 211Q531
211 531 202Q531 140 503 92T425 18T308 -9H296Q293 -9 293 -10T294 -13Q348 -57 348 -109Q348 -115 346 -129Q339 -160 317 -173T263 -187Q246 -187 231 -184Q221 -183 223 -172L225 -164Q227 -155 237 -156Q249 -159 261 -159Q285 -159 300 -146T315 -105Q315
-63 264 -16Q250 -4 251 -4L237 0Q166 18 125 72T84 203V498Q84 560 112 608T190 682T308 708Q374 708 424 682T503 609T531 499V494Q531 492 528 490Z" />
<glyph unicode="&#xc8;" glyph-name="Egrave" horiz-adv-x="615" d="M548 665T538 665H152Q148 665 148 661V373Q148 369 152 369H428Q438 369 438 359V343Q438 333 428 333H152Q148 333 148 329V39Q148 35 152 35H538Q548 35 548 25V10Q548 0 538 0H119Q109 0
109 10V690Q109 700 119 700H538Q548 700 548 690V675Q548 665 538 665ZM340 776T340 774Q340 768 331 768H318Q311 768 306 775L241 886Q239 890 239 892Q239 898 248 898H265Q274 898 277 891L338 780Q340 776 340 774Z" />
<glyph unicode="&#xc9;" glyph-name="Eacute" horiz-adv-x="615" d="M548 665T538 665H152Q148 665 148 661V373Q148 369 152 369H428Q438 369 438 359V343Q438 333 428 333H152Q148 333 148 329V39Q148 35 152 35H538Q548 35 548 25V10Q548 0 538 0H119Q109 0
109 10V690Q109 700 119 700H538Q548 700 548 690V675Q548 665 538 665ZM295 768T293 771T294 780L355 891Q358 898 367 898H384Q390 898 392 895T391 886L326 775Q321 768 314 768H301Q295 768 293 771Z" />
<glyph unicode="&#xca;" glyph-name="Ecircumflex" horiz-adv-x="615" d="M548 665T538 665H152Q148 665 148 661V373Q148 369 152 369H428Q438 369 438 359V343Q438 333 428 333H152Q148 333 148 329V39Q148 35 152 35H538Q548 35 548 25V10Q548 0 538 0H119Q109
0 109 10V690Q109 700 119 700H538Q548 700 548 690V675Q548 665 538 665ZM216 773T214 777T216 785L298 892Q302 898 311 898H334Q343 898 347 892L430 785Q432 783 432 779Q432 777 430 775T424 773H408Q399 773 395 779L327 869Q326 871 324 871T321 869L251
779Q247 773 238 773H222Q216 773 214 777Z" />
<glyph unicode="&#xcb;" glyph-name="Edieresis" horiz-adv-x="615" d="M548 665T538 665H152Q148 665 148 661V373Q148 369 152 369H428Q438 369 438 359V343Q438 333 428 333H152Q148 333 148 329V39Q148 35 152 35H538Q548 35 548 25V10Q548 0 538 0H119Q109
0 109 10V690Q109 700 119 700H538Q548 700 548 690V675Q548 665 538 665ZM382 809T370 822T357 854Q357 874 369 887T402 900Q422 900 435 887T448 854Q448 834 435 822T402 809Q382 809 370 822ZM223 809T211 822T198 854Q198 874 210 887T243 900Q263 900 276
887T289 854Q289 834 276 822T243 809Q223 809 211 822Z" />
<glyph unicode="&#xcc;" glyph-name="Igrave" horiz-adv-x="257" d="M109 0T109 10V690Q109 700 119 700H138Q148 700 148 690V10Q148 0 138 0H119Q109 0 109 10ZM145 776T145 774Q145 768 136 768H123Q116 768 111 775L46 886Q44 890 44 892Q44 898 53 898H70Q79
898 82 891L143 780Q145 776 145 774Z" />
<glyph unicode="&#xcd;" glyph-name="Iacute" horiz-adv-x="257" d="M109 0T109 10V690Q109 700 119 700H138Q148 700 148 690V10Q148 0 138 0H119Q109 0 109 10ZM101 768T99 771T100 780L161 891Q164 898 173 898H190Q196 898 198 895T197 886L132 775Q127 768
120 768H107Q101 768 99 771Z" />
<glyph unicode="&#xce;" glyph-name="Icircumflex" horiz-adv-x="257" d="M109 0T109 10V690Q109 700 119 700H138Q148 700 148 690V10Q148 0 138 0H119Q109 0 109 10ZM21 773T19 777T21 785L103 892Q107 898 116 898H139Q148 898 152 892L235 785Q237 783 237
779Q237 777 235 775T229 773H213Q204 773 200 779L132 869Q131 871 129 871T126 869L56 779Q52 773 43 773H27Q21 773 19 777Z" />
<glyph unicode="&#xcf;" glyph-name="Idieresis" horiz-adv-x="257" d="M109 0T109 10V690Q109 700 119 700H138Q148 700 148 690V10Q148 0 138 0H119Q109 0 109 10ZM187 809T175 822T162 854Q162 874 174 887T207 900Q227 900 240 887T253 854Q253 834 240 822T207
809Q187 809 175 822ZM28 809T16 822T3 854Q3 874 15 887T48 900Q68 900 81 887T94 854Q94 834 81 822T48 809Q28 809 16 822Z" />
<glyph unicode="&#xd0;" glyph-name="Eth" horiz-adv-x="690" d="M512 700T566 651T620 515V185Q620 99 566 50T419 0H191Q181 0 181 10V346Q181 350 177 350H119Q109 350 109 360V372Q109 382 119 382H177Q181 382 181 386V690Q181 700 191 700H419Q512 700 566
651ZM581 512Q581 583 539 624T422 665H224Q220 665 220 661V386Q220 382 224 382H359Q369 382 369 372V360Q369 350 359 350H224Q220 350 220 346V39Q220 35 224 35H422Q496 35 538 76T581 187V512Z" />
<glyph unicode="&#xd1;" glyph-name="Ntilde" horiz-adv-x="681" d="M533 700T543 700H562Q572 700 572 690V10Q572 0 562 0H542Q535 0 530 7L153 620Q152 623 150 623T148 619V10Q148 0 138 0H119Q109 0 109 10V690Q109 700 119 700H139Q146 700 151 693L528
82Q529 79 531 79T533 83V690Q533 700 543 700ZM376 815T345 838Q327 850 318 854T295 859Q277 859 265 853T240 831Q234 823 226 829L219 835Q213 841 217 849Q246 892 294 892Q310 892 323 887T355 869Q373 857 383 852T405 847Q421 847 434 853T459 878Q465
887 473 881L477 878Q480 875 480 875Q483 872 483 868Q483 864 480 858Q466 836 445 826T404 815Q376 815 345 838Z" />
<glyph unicode="&#xd2;" glyph-name="Ograve" horiz-adv-x="622" d="M243 -8T192 20T112 98T84 215V484Q84 550 112 601T191 680T310 708Q378 708 429 680T509 601T538 484V215Q538 149 510 99T430 20T310 -8Q243 -8 192 20ZM395 27T447 78T499 213V485Q499 570
447 621T310 673Q226 673 175 622T123 485V213Q123 129 174 78T310 27Q395 27 447 78ZM326 776T326 774Q326 768 317 768H304Q297 768 292 775L227 886Q225 890 225 892Q225 898 234 898H251Q260 898 263 891L324 780Q326 776 326 774Z" />
<glyph unicode="&#xd3;" glyph-name="Oacute" horiz-adv-x="622" d="M243 -8T192 20T112 98T84 215V484Q84 550 112 601T191 680T310 708Q378 708 429 680T509 601T538 484V215Q538 149 510 99T430 20T310 -8Q243 -8 192 20ZM395 27T447 78T499 213V485Q499 570
447 621T310 673Q226 673 175 622T123 485V213Q123 129 174 78T310 27Q395 27 447 78ZM282 768T280 771T281 780L342 891Q345 898 354 898H371Q377 898 379 895T378 886L313 775Q308 768 301 768H288Q282 768 280 771Z" />
<glyph unicode="&#xd4;" glyph-name="Ocircumflex" horiz-adv-x="622" d="M243 -8T192 20T112 98T84 215V484Q84 550 112 601T191 680T310 708Q378 708 429 680T509 601T538 484V215Q538 149 510 99T430 20T310 -8Q243 -8 192 20ZM395 27T447 78T499 213V485Q499
570 447 621T310 673Q226 673 175 622T123 485V213Q123 129 174 78T310 27Q395 27 447 78ZM203 773T201 777T203 785L285 892Q289 898 298 898H321Q330 898 334 892L417 785Q419 783 419 779Q419 777 417 775T411 773H395Q386 773 382 779L314 869Q313 871 311
871T308 869L238 779Q234 773 225 773H209Q203 773 201 777Z" />
<glyph unicode="&#xd5;" glyph-name="Otilde" horiz-adv-x="622" d="M243 -8T192 20T112 98T84 215V484Q84 550 112 601T191 680T310 708Q378 708 429 680T509 601T538 484V215Q538 149 510 99T430 20T310 -8Q243 -8 192 20ZM395 27T447 78T499 213V485Q499 570
447 621T310 673Q226 673 175 622T123 485V213Q123 129 174 78T310 27Q395 27 447 78ZM345 815T314 838Q296 850 287 854T264 859Q246 859 234 853T209 831Q203 823 195 829L188 835Q182 841 186 849Q215 892 263 892Q279 892 292 887T324 869Q342 857 352 852T374
847Q390 847 403 853T428 878Q434 887 442 881L446 878Q449 875 449 875Q452 872 452 868Q452 864 449 858Q435 836 414 826T373 815Q345 815 314 838Z" />
<glyph unicode="&#xd6;" glyph-name="Odieresis" horiz-adv-x="622" d="M243 -8T192 20T112 98T84 215V484Q84 550 112 601T191 680T310 708Q378 708 429 680T509 601T538 484V215Q538 149 510 99T430 20T310 -8Q243 -8 192 20ZM395 27T447 78T499 213V485Q499
570 447 621T310 673Q226 673 175 622T123 485V213Q123 129 174 78T310 27Q395 27 447 78ZM369 809T357 822T344 854Q344 874 356 887T389 900Q409 900 422 887T435 854Q435 834 422 822T389 809Q369 809 357 822ZM210 809T198 822T185 854Q185 874 197 887T230
900Q250 900 263 887T276 854Q276 834 263 822T230 809Q210 809 198 822Z" />
<glyph unicode="&#xd7;" glyph-name="multiply" horiz-adv-x="411" d="M364 461T364 457T361 450L235 324Q232 321 235 318L358 195Q361 192 361 188T358 181L347 171Q340 164 333 171L211 294Q208 297 205 294L78 167Q75 164 71 164T64 167L54 178Q48 186 54
192L180 318Q183 321 180 324L51 453Q48 456 48 460T51 467L61 477Q64 480 68 480T75 477L204 348Q207 345 210 348L336 474Q343 481 350 474L361 464Q364 461 364 457Z" />
<glyph unicode="&#xd8;" glyph-name="Oslash" horiz-adv-x="622" d="M555 696T550 688L504 617Q503 614 504 611Q538 557 538 484V215Q538 149 510 99T430 20T310 -8Q260 -8 219 7T147 52Q144 55 142 51L102 -10Q97 -19 89 -13L74 -3Q67 3 71 10L118 83Q120 86
118 89Q84 142 84 215V484Q84 550 112 601T191 680T310 708Q411 708 474 647Q477 644 479 648L519 709Q524 718 532 712L547 702Q555 696 550 688ZM123 165T141 127Q142 123 146 127L454 608Q456 611 454 614Q401 673 310 673Q226 673 175 622T123 485V213Q123
165 141 127ZM499 535T481 572Q480 576 476 572L167 91Q166 88 167 85Q219 27 310 27Q395 27 447 78T499 213V485Q499 535 481 572Z" />
<glyph unicode="&#xd9;" glyph-name="Ugrave" horiz-adv-x="656" d="M261 -8T210 19T130 95T101 209V690Q101 700 111 700H130Q140 700 140 690V206Q140 126 191 77T328 27Q413 27 465 76T517 206V690Q517 700 527 700H546Q556 700 556 690V209Q556 145 528 96T448
19T328 -8Q261 -8 210 19ZM344 776T344 774Q344 768 335 768H322Q315 768 310 775L245 886Q243 890 243 892Q243 898 252 898H269Q278 898 281 891L342 780Q344 776 344 774Z" />
<glyph unicode="&#xda;" glyph-name="Uacute" horiz-adv-x="656" d="M261 -8T210 19T130 95T101 209V690Q101 700 111 700H130Q140 700 140 690V206Q140 126 191 77T328 27Q413 27 465 76T517 206V690Q517 700 527 700H546Q556 700 556 690V209Q556 145 528 96T448
19T328 -8Q261 -8 210 19ZM300 768T298 771T299 780L360 891Q363 898 372 898H389Q395 898 397 895T396 886L331 775Q326 768 319 768H306Q300 768 298 771Z" />
<glyph unicode="&#xdb;" glyph-name="Ucircumflex" horiz-adv-x="656" d="M261 -8T210 19T130 95T101 209V690Q101 700 111 700H130Q140 700 140 690V206Q140 126 191 77T328 27Q413 27 465 76T517 206V690Q517 700 527 700H546Q556 700 556 690V209Q556 145 528
96T448 19T328 -8Q261 -8 210 19ZM221 773T219 777T221 785L303 892Q307 898 316 898H339Q348 898 352 892L435 785Q437 783 437 779Q437 777 435 775T429 773H413Q404 773 400 779L332 869Q331 871 329 871T326 869L256 779Q252 773 243 773H227Q221 773 219 777Z"
/>
<glyph unicode="&#xdc;" glyph-name="Udieresis" horiz-adv-x="656" d="M261 -8T210 19T130 95T101 209V690Q101 700 111 700H130Q140 700 140 690V206Q140 126 191 77T328 27Q413 27 465 76T517 206V690Q517 700 527 700H546Q556 700 556 690V209Q556 145 528
96T448 19T328 -8Q261 -8 210 19ZM387 809T375 822T362 854Q362 874 374 887T407 900Q427 900 440 887T453 854Q453 834 440 822T407 809Q387 809 375 822ZM228 809T216 822T203 854Q203 874 215 887T248 900Q268 900 281 887T294 854Q294 834 281 822T248 809Q228
809 216 822Z" />
<glyph unicode="&#xdd;" glyph-name="Yacute" horiz-adv-x="544" d="M253 0T253 10V326Q253 330 252 331L43 688Q41 692 41 694Q41 700 50 700H69Q76 700 81 693L269 372Q270 371 272 371T275 372L463 693Q468 700 475 700H494Q500 700 502 697T501 688L292 331Q291
330 291 326V10Q291 0 281 0H263Q253 0 253 10ZM244 767T242 770T243 779L304 890Q307 897 316 897H333Q339 897 341 894T340 885L275 774Q270 767 263 767H250Q244 767 242 770Z" />
<glyph unicode="&#xde;" glyph-name="Thorn" horiz-adv-x="561" d="M418 535T469 484T520 349Q520 265 469 215T335 165H144Q140 165 140 161V10Q140 0 130 0H111Q101 0 101 10V690Q101 700 111 700H130Q140 700 140 690V539Q140 535 144 535H336Q418 535 469
484ZM400 199T440 240T481 348Q481 417 441 458T334 500H144Q140 500 140 496V203Q140 199 144 199H334Q400 199 440 240Z" />
<glyph unicode="&#xdf;" glyph-name="germandbls" horiz-adv-x="549" d="M93 0T93 10V522Q93 609 144 659T281 709Q367 709 417 659T468 523Q468 467 444 428T374 373Q371 372 371 371T373 369Q420 350 447 304T474 192Q474 102 421 51T270 0H196Q186 0 186 10V24Q186
34 196 34H272Q351 34 393 75T435 195Q435 270 397 311T290 354H226Q216 354 216 364V377Q216 387 226 387H291Q357 387 393 422T429 521Q429 594 390 634T281 675Q214 675 173 635T132 524V10Q132 0 122 0H103Q93 0 93 10Z" />
<glyph unicode="&#xe0;" glyph-name="agrave" horiz-adv-x="502" d="M339 510T382 466T426 343V10Q426 0 416 0H397Q387 0 387 10V60Q387 62 386 62T382 61Q357 27 314 10T219 -8Q150 -8 103 25T55 131Q55 205 109 246T260 288H383Q387 288 387 292V344Q387 404
354 439T251 475Q197 475 162 453T119 392Q116 382 107 383L86 386Q82 387 79 389T77 395Q87 447 134 478T253 510Q339 510 382 466ZM289 27T338 59T387 149V251Q387 255 383 255H262Q187 255 141 223T94 133Q94 81 130 54T223 27Q289 27 338 59ZM267 578T267 576Q267
570 258 570H245Q238 570 233 577L168 688Q166 692 166 694Q166 700 175 700H192Q201 700 204 693L265 582Q267 578 267 576Z" />
<glyph unicode="&#xe1;" glyph-name="aacute" horiz-adv-x="502" d="M339 510T382 466T426 343V10Q426 0 416 0H397Q387 0 387 10V60Q387 62 386 62T382 61Q357 27 314 10T219 -8Q150 -8 103 25T55 131Q55 205 109 246T260 288H383Q387 288 387 292V344Q387 404
354 439T251 475Q197 475 162 453T119 392Q116 382 107 383L86 386Q82 387 79 389T77 395Q87 447 134 478T253 510Q339 510 382 466ZM289 27T338 59T387 149V251Q387 255 383 255H262Q187 255 141 223T94 133Q94 81 130 54T223 27Q289 27 338 59ZM223 570T221 573T222
582L283 693Q286 700 295 700H312Q318 700 320 697T319 688L254 577Q249 570 242 570H229Q223 570 221 573Z" />
<glyph unicode="&#xe2;" glyph-name="acircumflex" horiz-adv-x="502" d="M339 510T382 466T426 343V10Q426 0 416 0H397Q387 0 387 10V60Q387 62 386 62T382 61Q357 27 314 10T219 -8Q150 -8 103 25T55 131Q55 205 109 246T260 288H383Q387 288 387 292V344Q387
404 354 439T251 475Q197 475 162 453T119 392Q116 382 107 383L86 386Q82 387 79 389T77 395Q87 447 134 478T253 510Q339 510 382 466ZM289 27T338 59T387 149V251Q387 255 383 255H262Q187 255 141 223T94 133Q94 81 130 54T223 27Q289 27 338 59ZM144 575T142
579T144 587L226 694Q230 700 239 700H262Q271 700 275 694L358 587Q360 585 360 581Q360 579 358 577T352 575H336Q327 575 323 581L255 671Q254 673 252 673T249 671L179 581Q175 575 166 575H150Q144 575 142 579Z" />
<glyph unicode="&#xe3;" glyph-name="atilde" horiz-adv-x="502" d="M339 510T382 466T426 343V10Q426 0 416 0H397Q387 0 387 10V60Q387 62 386 62T382 61Q357 27 314 10T219 -8Q150 -8 103 25T55 131Q55 205 109 246T260 288H383Q387 288 387 292V344Q387 404
354 439T251 475Q197 475 162 453T119 392Q116 382 107 383L86 386Q82 387 79 389T77 395Q87 447 134 478T253 510Q339 510 382 466ZM289 27T338 59T387 149V251Q387 255 383 255H262Q187 255 141 223T94 133Q94 81 130 54T223 27Q289 27 338 59ZM286 617T255 640Q237
652 228 656T205 661Q187 661 175 655T150 633Q144 625 136 631L129 637Q123 643 127 651Q156 694 204 694Q220 694 233 689T265 671Q283 659 293 654T315 649Q331 649 344 655T369 680Q375 689 383 683L387 680Q390 677 390 677Q393 674 393 670Q393 666 390 660Q376
638 355 628T314 617Q286 617 255 640Z" />
<glyph unicode="&#xe4;" glyph-name="adieresis" horiz-adv-x="502" d="M339 510T382 466T426 343V10Q426 0 416 0H397Q387 0 387 10V60Q387 62 386 62T382 61Q357 27 314 10T219 -8Q150 -8 103 25T55 131Q55 205 109 246T260 288H383Q387 288 387 292V344Q387
404 354 439T251 475Q197 475 162 453T119 392Q116 382 107 383L86 386Q82 387 79 389T77 395Q87 447 134 478T253 510Q339 510 382 466ZM289 27T338 59T387 149V251Q387 255 383 255H262Q187 255 141 223T94 133Q94 81 130 54T223 27Q289 27 338 59ZM310 611T298
624T285 656Q285 676 297 689T330 702Q350 702 363 689T376 656Q376 636 363 624T330 611Q310 611 298 624ZM151 611T139 624T126 656Q126 676 138 689T171 702Q191 702 204 689T217 656Q217 636 204 624T171 611Q151 611 139 624Z" />
<glyph unicode="&#xe5;" glyph-name="aring" horiz-adv-x="502" d="M339 510T382 466T426 343V10Q426 0 416 0H397Q387 0 387 10V60Q387 62 386 62T382 61Q357 27 314 10T219 -8Q150 -8 103 25T55 131Q55 205 109 246T260 288H383Q387 288 387 292V344Q387 404
354 439T251 475Q197 475 162 453T119 392Q116 382 107 383L86 386Q82 387 79 389T77 395Q87 447 134 478T253 510Q339 510 382 466ZM289 27T338 59T387 149V251Q387 255 383 255H262Q187 255 141 223T94 133Q94 81 130 54T223 27Q289 27 338 59ZM208 586T179 615T149
687Q149 729 178 758T251 788Q294 788 324 759T354 687Q354 645 324 616T251 586Q208 586 179 615ZM281 615T302 635T324 687Q324 717 303 738T251 759Q221 759 200 738T178 687Q178 657 199 636T251 615Q281 615 302 635Z" />
<glyph unicode="&#xe6;" glyph-name="ae" horiz-adv-x="830" d="M151 -8T103 25T55 130Q55 202 109 241T260 281H383Q387 281 387 285V342Q387 402 354 438T250 475Q196 475 161 453T117 392Q114 382 105 384L86 387Q81 388 79 391T78 398Q89 449 136 479T252
510Q314 510 353 485T409 415Q411 410 414 415Q433 458 475 484T572 510Q639 510 688 474T751 377Q756 357 757 336T758 257Q758 246 748 246H431Q427 246 427 242V149Q428 92 470 61T576 29Q627 29 663 52T715 117Q718 126 727 123L740 119Q750 116 747 106Q729
55 683 24T573 -8Q513 -8 470 16T410 84Q409 86 408 86T406 85Q388 41 337 17T222 -8Q151 -8 103 25ZM426 281T430 281H715Q719 281 719 285Q719 341 715 361Q706 412 668 443T572 475Q516 475 478 443T431 361Q428 344 426 285Q426 281 430 281ZM290 26T338 57T387
148V242Q387 246 383 246H262Q186 246 140 217T94 132Q94 80 130 53T224 26Q290 26 338 57Z" />
<glyph unicode="&#xe7;" glyph-name="ccedilla" horiz-adv-x="512" d="M417 138Q418 148 429 146L446 143Q456 141 455 132Q454 130 454 126T452 116Q440 64 393 30T280 -8Q278 -8 278 -9T279 -13Q332 -57 332 -106Q332 -149 308 -167T247 -186Q230 -186 215 -183Q205
-182 207 -171L209 -164Q211 -155 221 -156Q235 -158 243 -158Q268 -158 283 -145T299 -104Q299 -59 239 -8Q238 -6 234 -6Q178 3 140 38T87 126Q75 170 75 252Q75 329 87 377Q102 437 150 473T269 510Q338 510 388 475T452 386Q455 378 457 360V358Q457 351 448
349L430 347H428Q421 347 419 356L416 370Q407 415 367 445T268 475Q210 475 171 444T123 362Q114 322 114 251Q114 183 122 141Q133 90 171 59T268 27Q326 27 367 57T416 133L417 138Z" />
<glyph unicode="&#xe8;" glyph-name="egrave" horiz-adv-x="528" d="M319 27T356 50T410 115Q414 123 423 120L439 114Q448 111 444 102Q424 52 377 22T266 -8Q198 -8 151 27T86 121Q79 144 77 173T75 252Q75 298 76 325T83 375Q98 436 146 473T265 510Q341 510
389 470T450 363Q454 345 455 319T456 251Q456 240 446 240H118Q114 240 114 236Q114 205 115 179T119 141Q129 89 168 58T268 27Q319 27 356 50ZM207 475T168 444T119 363Q114 333 114 278Q114 274 118 274H413Q417 274 417 278Q417 334 412 361Q401 412 362 443T265
475Q207 475 168 444ZM280 578T280 576Q280 570 271 570H258Q251 570 246 577L181 688Q179 692 179 694Q179 700 188 700H205Q214 700 217 693L278 582Q280 578 280 576Z" />
<glyph unicode="&#xe9;" glyph-name="eacute" horiz-adv-x="528" d="M319 27T356 50T410 115Q414 123 423 120L439 114Q448 111 444 102Q424 52 377 22T266 -8Q198 -8 151 27T86 121Q79 144 77 173T75 252Q75 298 76 325T83 375Q98 436 146 473T265 510Q341 510
389 470T450 363Q454 345 455 319T456 251Q456 240 446 240H118Q114 240 114 236Q114 205 115 179T119 141Q129 89 168 58T268 27Q319 27 356 50ZM207 475T168 444T119 363Q114 333 114 278Q114 274 118 274H413Q417 274 417 278Q417 334 412 361Q401 412 362 443T265
475Q207 475 168 444ZM235 570T233 573T234 582L295 693Q298 700 307 700H324Q330 700 332 697T331 688L266 577Q261 570 254 570H241Q235 570 233 573Z" />
<glyph unicode="&#xea;" glyph-name="ecircumflex" horiz-adv-x="528" d="M319 27T356 50T410 115Q414 123 423 120L439 114Q448 111 444 102Q424 52 377 22T266 -8Q198 -8 151 27T86 121Q79 144 77 173T75 252Q75 298 76 325T83 375Q98 436 146 473T265 510Q341
510 389 470T450 363Q454 345 455 319T456 251Q456 240 446 240H118Q114 240 114 236Q114 205 115 179T119 141Q129 89 168 58T268 27Q319 27 356 50ZM207 475T168 444T119 363Q114 333 114 278Q114 274 118 274H413Q417 274 417 278Q417 334 412 361Q401 412 362
443T265 475Q207 475 168 444ZM156 575T154 579T156 587L238 694Q242 700 251 700H274Q283 700 287 694L370 587Q372 585 372 581Q372 579 370 577T364 575H348Q339 575 335 581L267 671Q266 673 264 673T261 671L191 581Q187 575 178 575H162Q156 575 154 579Z"
/>
<glyph unicode="&#xeb;" glyph-name="edieresis" horiz-adv-x="528" d="M319 27T356 50T410 115Q414 123 423 120L439 114Q448 111 444 102Q424 52 377 22T266 -8Q198 -8 151 27T86 121Q79 144 77 173T75 252Q75 298 76 325T83 375Q98 436 146 473T265 510Q341
510 389 470T450 363Q454 345 455 319T456 251Q456 240 446 240H118Q114 240 114 236Q114 205 115 179T119 141Q129 89 168 58T268 27Q319 27 356 50ZM207 475T168 444T119 363Q114 333 114 278Q114 274 118 274H413Q417 274 417 278Q417 334 412 361Q401 412 362
443T265 475Q207 475 168 444ZM322 611T310 624T297 656Q297 676 309 689T342 702Q362 702 375 689T388 656Q388 636 375 624T342 611Q322 611 310 624ZM163 611T151 624T138 656Q138 676 150 689T183 702Q203 702 216 689T229 656Q229 636 216 624T183 611Q163
611 151 624Z" />
<glyph unicode="&#xec;" glyph-name="igrave" horiz-adv-x="200" d="M81 0T81 10V492Q81 502 91 502H110Q120 502 120 492V10Q120 0 110 0H91Q81 0 81 10ZM116 578T116 576Q116 570 107 570H94Q87 570 82 577L17 688Q15 692 15 694Q15 700 24 700H41Q50 700 53
693L114 582Q116 578 116 576Z" />
<glyph unicode="&#xed;" glyph-name="iacute" horiz-adv-x="200" d="M81 0T81 10V492Q81 502 91 502H110Q120 502 120 492V10Q120 0 110 0H91Q81 0 81 10ZM72 570T70 573T71 582L132 693Q135 700 144 700H161Q167 700 169 697T168 688L103 577Q98 570 91 570H78Q72
570 70 573Z" />
<glyph unicode="&#xee;" glyph-name="icircumflex" horiz-adv-x="200" d="M81 0T81 10V492Q81 502 91 502H110Q120 502 120 492V10Q120 0 110 0H91Q81 0 81 10ZM-7 575T-9 579T-7 587L75 694Q79 700 88 700H111Q120 700 124 694L207 587Q209 585 209 581Q209 579
207 577T201 575H185Q176 575 172 581L104 671Q103 673 101 673T98 671L28 581Q24 575 15 575H-1Q-7 575 -9 579Z" />
<glyph unicode="&#xef;" glyph-name="idieresis" horiz-adv-x="200" d="M81 0T81 10V492Q81 502 91 502H110Q120 502 120 492V10Q120 0 110 0H91Q81 0 81 10ZM159 611T147 624T134 656Q134 676 146 689T179 702Q199 702 212 689T225 656Q225 636 212 624T179 611Q159
611 147 624ZM0 611T-12 624T-25 656Q-25 676 -13 689T20 702Q40 702 53 689T66 656Q66 636 53 624T20 611Q0 611 -12 624Z" />
<glyph unicode="&#xf0;" glyph-name="eth" horiz-adv-x="522" d="M446 216Q446 153 439 124Q425 65 377 29T260 -8Q192 -8 145 28T83 124Q78 146 77 172T75 249Q75 300 76 325T83 372Q96 427 139 462T244 498Q285 500 322 488T384 452Q385 450 386 450T387 453Q367
519 306 589Q304 593 301 591L218 563L214 562Q208 562 205 570L203 578L202 583Q202 588 209 590L278 612Q280 613 280 615T279 618Q238 659 202 688Q198 691 198 694Q198 700 207 700H230Q237 700 242 695Q294 652 318 629Q320 627 323 628L393 651L397 652Q403
652 406 644L408 636Q409 634 409 631Q409 627 402 624L346 606Q342 604 344 600Q433 498 443 351Q446 322 446 248V216ZM406 154T406 208V247V288Q406 341 402 356Q393 406 355 437T260 469Q204 469 167 438T119 356Q114 329 114 247Q114 164 119 138Q129 87 166
56T260 25Q316 25 354 56T402 138Q406 154 406 208Z" />
<glyph unicode="&#xf1;" glyph-name="ntilde" horiz-adv-x="536" d="M357 509T404 463T451 340V10Q451 0 441 0H422Q412 0 412 10V333Q412 395 374 434T275 474Q210 474 171 436T131 335V10Q131 0 121 0H102Q92 0 92 10V492Q92 502 102 502H121Q131 502 131 492V438Q131
435 132 435T135 436Q157 471 194 490T282 509Q357 509 404 463ZM303 617T272 640Q254 652 245 656T222 661Q204 661 192 655T167 633Q161 625 153 631L146 637Q140 643 144 651Q173 694 221 694Q237 694 250 689T282 671Q300 659 310 654T332 649Q348 649 361
655T386 680Q392 689 400 683L404 680Q407 677 407 677Q410 674 410 670Q410 666 407 660Q393 638 372 628T331 617Q303 617 272 640Z" />
<glyph unicode="&#xf2;" glyph-name="ograve" horiz-adv-x="530" d="M197 -8T149 28T84 126Q78 149 77 177T75 252Q75 299 76 327T84 377Q100 437 148 473T267 510Q337 510 386 474T450 377Q455 355 456 328T458 252Q458 201 457 175T450 126Q435 65 386 29T266
-8Q197 -8 149 28ZM324 27T363 58T414 141Q417 156 418 186T419 251Q419 288 418 317T414 361Q403 412 364 443T266 475Q209 475 170 444T120 361Q114 335 114 251Q114 166 120 141Q130 89 169 58T266 27Q324 27 363 58ZM281 578T281 576Q281 570 272 570H259Q252
570 247 577L182 688Q180 692 180 694Q180 700 189 700H206Q215 700 218 693L279 582Q281 578 281 576Z" />
<glyph unicode="&#xf3;" glyph-name="oacute" horiz-adv-x="530" d="M197 -8T149 28T84 126Q78 149 77 177T75 252Q75 299 76 327T84 377Q100 437 148 473T267 510Q337 510 386 474T450 377Q455 355 456 328T458 252Q458 201 457 175T450 126Q435 65 386 29T266
-8Q197 -8 149 28ZM324 27T363 58T414 141Q417 156 418 186T419 251Q419 288 418 317T414 361Q403 412 364 443T266 475Q209 475 170 444T120 361Q114 335 114 251Q114 166 120 141Q130 89 169 58T266 27Q324 27 363 58ZM237 570T235 573T236 582L297 693Q300 700
309 700H326Q332 700 334 697T333 688L268 577Q263 570 256 570H243Q237 570 235 573Z" />
<glyph unicode="&#xf4;" glyph-name="ocircumflex" horiz-adv-x="530" d="M197 -8T149 28T84 126Q78 149 77 177T75 252Q75 299 76 327T84 377Q100 437 148 473T267 510Q337 510 386 474T450 377Q455 355 456 328T458 252Q458 201 457 175T450 126Q435 65 386
29T266 -8Q197 -8 149 28ZM324 27T363 58T414 141Q417 156 418 186T419 251Q419 288 418 317T414 361Q403 412 364 443T266 475Q209 475 170 444T120 361Q114 335 114 251Q114 166 120 141Q130 89 169 58T266 27Q324 27 363 58ZM157 575T155 579T157 587L239 694Q243
700 252 700H275Q284 700 288 694L371 587Q373 585 373 581Q373 579 371 577T365 575H349Q340 575 336 581L268 671Q267 673 265 673T262 671L192 581Q188 575 179 575H163Q157 575 155 579Z" />
<glyph unicode="&#xf5;" glyph-name="otilde" horiz-adv-x="530" d="M197 -8T149 28T84 126Q78 149 77 177T75 252Q75 299 76 327T84 377Q100 437 148 473T267 510Q337 510 386 474T450 377Q455 355 456 328T458 252Q458 201 457 175T450 126Q435 65 386 29T266
-8Q197 -8 149 28ZM324 27T363 58T414 141Q417 156 418 186T419 251Q419 288 418 317T414 361Q403 412 364 443T266 475Q209 475 170 444T120 361Q114 335 114 251Q114 166 120 141Q130 89 169 58T266 27Q324 27 363 58ZM299 617T268 640Q250 652 241 656T218 661Q200
661 188 655T163 633Q157 625 149 631L142 637Q136 643 140 651Q169 694 217 694Q233 694 246 689T278 671Q296 659 306 654T328 649Q344 649 357 655T382 680Q388 689 396 683L400 680Q403 677 403 677Q406 674 406 670Q406 666 403 660Q389 638 368 628T327 617Q299
617 268 640Z" />
<glyph unicode="&#xf6;" glyph-name="odieresis" horiz-adv-x="530" d="M197 -8T149 28T84 126Q78 149 77 177T75 252Q75 299 76 327T84 377Q100 437 148 473T267 510Q337 510 386 474T450 377Q455 355 456 328T458 252Q458 201 457 175T450 126Q435 65 386 29T266
-8Q197 -8 149 28ZM324 27T363 58T414 141Q417 156 418 186T419 251Q419 288 418 317T414 361Q403 412 364 443T266 475Q209 475 170 444T120 361Q114 335 114 251Q114 166 120 141Q130 89 169 58T266 27Q324 27 363 58ZM324 611T312 624T299 656Q299 676 311 689T344
702Q364 702 377 689T390 656Q390 636 377 624T344 611Q324 611 312 624ZM165 611T153 624T140 656Q140 676 152 689T185 702Q205 702 218 689T231 656Q231 636 218 624T185 611Q165 611 153 624Z" />
<glyph unicode="&#xf7;" glyph-name="divide" horiz-adv-x="507" d="M233 450T220 463T207 495Q207 513 220 526T252 539Q271 539 284 527T298 495Q298 476 285 463T252 450Q233 450 220 463ZM44 314T44 324V339Q44 349 54 349H453Q463 349 463 339V324Q463 314
453 314H54Q44 314 44 324ZM233 143T220 156T207 188Q207 206 220 219T252 232Q271 232 284 219T298 188Q298 169 285 156T252 143Q233 143 220 156Z" />
<glyph unicode="&#xf8;" glyph-name="oslash" horiz-adv-x="525" d="M453 355T454 328T456 252Q456 201 455 175T448 126Q433 65 384 29T264 -8Q191 -8 139 34Q136 37 134 33L104 -11Q102 -15 98 -16T90 -14L76 -4Q68 2 73 10L108 63Q110 66 108 69Q91 93 82 126Q76
149 75 177T73 252Q73 299 74 327T82 377Q98 437 146 473T265 510Q332 510 381 476Q385 474 386 477L415 521Q417 525 421 526T429 524L443 514Q450 508 445 500L413 452Q412 449 413 446Q437 418 448 377Q453 355 454 328ZM123 119T130 104Q132 100 136 104L361
440Q363 444 360 445Q319 475 264 475Q206 475 167 444T118 361Q112 335 112 251Q112 166 118 141Q123 119 130 104ZM415 156T416 186T417 251Q417 288 416 317T412 361Q406 387 392 411Q391 412 389 412T386 411L158 70Q156 67 159 64Q201 27 264 27Q322 27 361
58T412 141Q415 156 416 186Z" />
<glyph unicode="&#xf9;" glyph-name="ugrave" horiz-adv-x="535" d="M403 502T413 502H432Q442 502 442 492V10Q442 0 432 0H413Q403 0 403 10V63Q403 66 402 66T398 64Q376 29 339 11T253 -7Q179 -7 132 37T84 158V492Q84 502 94 502H113Q123 502 123 492V167Q123
103 160 66T260 28Q325 28 364 66T403 167V492Q403 502 413 502ZM284 578T284 576Q284 570 275 570H262Q255 570 250 577L185 688Q183 692 183 694Q183 700 192 700H209Q218 700 221 693L282 582Q284 578 284 576Z" />
<glyph unicode="&#xfa;" glyph-name="uacute" horiz-adv-x="535" d="M403 502T413 502H432Q442 502 442 492V10Q442 0 432 0H413Q403 0 403 10V63Q403 66 402 66T398 64Q376 29 339 11T253 -7Q179 -7 132 37T84 158V492Q84 502 94 502H113Q123 502 123 492V167Q123
103 160 66T260 28Q325 28 364 66T403 167V492Q403 502 413 502ZM240 570T238 573T239 582L300 693Q303 700 312 700H329Q335 700 337 697T336 688L271 577Q266 570 259 570H246Q240 570 238 573Z" />
<glyph unicode="&#xfb;" glyph-name="ucircumflex" horiz-adv-x="535" d="M403 502T413 502H432Q442 502 442 492V10Q442 0 432 0H413Q403 0 403 10V63Q403 66 402 66T398 64Q376 29 339 11T253 -7Q179 -7 132 37T84 158V492Q84 502 94 502H113Q123 502 123 492V167Q123
103 160 66T260 28Q325 28 364 66T403 167V492Q403 502 413 502ZM161 575T159 579T161 587L243 694Q247 700 256 700H279Q288 700 292 694L375 587Q377 585 377 581Q377 579 375 577T369 575H353Q344 575 340 581L272 671Q271 673 269 673T266 671L196 581Q192
575 183 575H167Q161 575 159 579Z" />
<glyph unicode="&#xfc;" glyph-name="udieresis" horiz-adv-x="535" d="M403 502T413 502H432Q442 502 442 492V10Q442 0 432 0H413Q403 0 403 10V63Q403 66 402 66T398 64Q376 29 339 11T253 -7Q179 -7 132 37T84 158V492Q84 502 94 502H113Q123 502 123 492V167Q123
103 160 66T260 28Q325 28 364 66T403 167V492Q403 502 413 502ZM327 611T315 624T302 656Q302 676 314 689T347 702Q367 702 380 689T393 656Q393 636 380 624T347 611Q327 611 315 624ZM168 611T156 624T143 656Q143 676 155 689T188 702Q208 702 221 689T234
656Q234 636 221 624T188 611Q168 611 156 624Z" />
<glyph unicode="&#xfd;" glyph-name="yacute" horiz-adv-x="441" d="M54 -200T54 -190V-175Q54 -165 64 -165H68Q106 -164 126 -152T162 -107T202 -3Q204 1 202 3L29 491L28 495Q28 502 37 502H56Q65 502 68 494L219 55Q220 53 222 53T225 55L373 494Q376 502
385 502H404Q415 502 412 491L220 -56Q198 -119 179 -149T136 -189T68 -200H61Q54 -200 54 -190ZM192 571T190 574T191 583L252 694Q255 701 264 701H281Q287 701 289 698T288 689L223 578Q218 571 211 571H198Q192 571 190 574Z" />
<glyph unicode="&#xfe;" glyph-name="thorn" horiz-adv-x="535" d="M457 356T458 329T460 249Q460 199 459 174T453 126Q439 66 392 29T278 -8Q229 -8 193 12T136 70Q135 73 133 73T131 69V-190Q131 -200 121 -200H102Q92 -200 92 -190V690Q92 700 102 700H121Q131
700 131 690V433Q131 430 133 430T136 432Q157 469 192 489T278 510Q345 510 392 474T452 378Q457 356 458 329ZM418 160T419 178T420 252Q420 307 419 325T415 362Q406 411 367 443T271 475Q215 475 179 443T135 362Q132 350 131 335V165Q132 151 135 140Q144
92 179 60T271 27Q327 27 367 59T415 140Q418 160 419 178Z" />
<glyph unicode="&#xff;" glyph-name="ydieresis" horiz-adv-x="441" d="M54 -200T54 -190V-175Q54 -165 64 -165H68Q106 -164 126 -152T162 -107T202 -3Q204 1 202 3L29 491L28 495Q28 502 37 502H56Q65 502 68 494L219 55Q220 53 222 53T225 55L373 494Q376 502
385 502H404Q415 502 412 491L220 -56Q198 -119 179 -149T136 -189T68 -200H61Q54 -200 54 -190ZM279 612T267 625T254 657Q254 677 266 690T299 703Q319 703 332 690T345 657Q345 637 332 625T299 612Q279 612 267 625ZM120 612T108 625T95 657Q95 677 107 690T140
703Q160 703 173 690T186 657Q186 637 173 625T140 612Q120 612 108 625Z" />
<glyph unicode="&#x2013;" glyph-name="endash" horiz-adv-x="438" d="M44 264T44 274V289Q44 299 54 299H385Q395 299 395 289V274Q395 264 385 264H54Q44 264 44 274Z" />
<glyph unicode="&#x2014;" glyph-name="emdash" horiz-adv-x="698" d="M44 264T44 274V289Q44 299 54 299H644Q654 299 654 289V274Q654 264 644 264H54Q44 264 44 274Z" />
<glyph unicode="&#x2018;" glyph-name="quoteleft" horiz-adv-x="111" d="M7 505T5 508T5 517L75 692Q78 700 86 700H99Q110 700 107 689L46 513Q43 505 34 505H12Q7 505 5 508Z" />
<glyph unicode="&#x2019;" glyph-name="quoteright" horiz-adv-x="111" d="M104 700T106 697T106 688L36 513Q33 505 25 505H12Q1 505 4 516L66 692Q69 700 78 700H99Q104 700 106 697Z" />
<glyph unicode="&#x201a;" glyph-name="quotesinglbase" horiz-adv-x="600" d="M83 -71T81 -68T80 -60L128 145Q130 154 139 154H155Q160 154 162 151T164 143L111 -62Q110 -71 100 -71H88Q83 -71 81 -68Z" />
<glyph unicode="&#x201c;" glyph-name="quotedblleft" horiz-adv-x="222" d="M7 505T5 508T5 517L74 692Q77 700 85 700H97Q108 700 105 689L45 513Q42 505 33 505H12Q7 505 5 508ZM121 505T119 508T119 517L187 692Q190 700 198 700H210Q221 700 218 689L158
513Q155 505 146 505H126Q121 505 119 508Z" />
<glyph unicode="&#x201d;" glyph-name="quotedblright" horiz-adv-x="222" d="M102 700T104 697T104 688L35 513Q32 505 24 505H12Q1 505 4 516L64 692Q67 700 76 700H97Q102 700 104 697ZM215 700T217 697T217 688L149 513Q146 505 138 505H125Q114 505 117 516L178
692Q181 700 190 700H210Q215 700 217 697Z" />
<glyph unicode="&#x201e;" glyph-name="quotedblbase" horiz-adv-x="225" d="M102 127T104 124T104 115L35 -60Q32 -68 24 -68H12Q1 -68 4 -57L64 119Q67 127 76 127H97Q102 127 104 124ZM215 127T217 124T217 115L149 -60Q146 -68 138 -68H125Q114 -68 117 -57L178
119Q181 127 190 127H210Q215 127 217 124Z" />
<glyph unicode="&#x2022;" glyph-name="bullet" horiz-adv-x="305" d="M108 154T76 186T44 263Q44 308 76 339T153 371Q197 371 229 340T261 263Q261 218 229 186T153 154Q108 154 76 186Z" />
<glyph unicode="&#x2039;" glyph-name="guilsinglleft" horiz-adv-x="376" d="M259 116T259 113Q259 107 251 107H234Q227 107 222 113L84 274Q81 277 81 281T84 288L222 449Q227 455 234 455H251Q257 455 258 452T256 443L120 284Q119 281 120 278L256 119Q259
116 259 113Z" />
<glyph unicode="&#x203a;" glyph-name="guilsinglright" horiz-adv-x="406" d="M119 107T118 110T120 119L256 278Q258 281 256 284L120 443Q117 446 117 449Q117 455 125 455H142Q149 455 154 449L292 288Q295 285 295 281T292 274L154 113Q150 107 142 107H125Q119
107 118 110Z" />
</font>
</defs>
</svg>
