<?xml version="1.0" standalone="no"?>
<!DOCTYPE svg PUBLIC "-//W3C//DTD SVG 1.1//EN" "http://www.w3.org/Graphics/SVG/1.1/DTD/svg11.dtd">
<svg xmlns="http://www.w3.org/2000/svg">
<defs >
<font id="Basic" horiz-adv-x="1085" ><font-face
    font-family="Basic"
    units-per-em="2048"
    panose-1="2 1 5 3 4 5 0 2 0 4"
    ascent="2066"
    descent="-511"
    alphabetic="0" />
<glyph unicode=" " glyph-name="space" horiz-adv-x="573" />
<glyph unicode="!" glyph-name="exclam" horiz-adv-x="492" d="M98 138Q98 166 109 191T141 235T188 264T246 275Q277 275 304 265T351 235T382 191T394 138Q394 109 383 84T351 40T304 10T246 -1Q215 -1 188 10T141 39T110 83T98 138ZM177 410Q163 578 152 750Q147
823 143 904T136 1068T130 1232T128 1388Q145 1390 164 1392Q181 1394 201 1395T243 1397Q266 1397 287 1396T326 1392Q345 1390 363 1388Q363 1308 361 1224T356 1055T349 891T341 739Q331 570 319 409Q313 406 298 402T249 397Q232 397 212 401T177 410Z" />
<glyph unicode="&quot;" glyph-name="quotedbl" horiz-adv-x="801" d="M433 1030Q413 1030 398 1034T372 1043Q360 1049 352 1057L316 1608Q329 1615 347 1621Q362 1626 384 1630T435 1634Q464 1634 486 1629T524 1618Q542 1611 554 1602L514 1049Q505 1043 493
1039Q482 1035 467 1033T433 1030ZM620 1030Q600 1030 585 1034T559 1043Q547 1049 539 1057L503 1608Q516 1615 534 1621Q549 1626 571 1630T622 1634Q651 1634 673 1629T711 1618Q729 1611 741 1602L701 1049Q692 1043 680 1039Q669 1035 654 1033T620 1030Z"
/>
<glyph unicode="#" glyph-name="numbersign" horiz-adv-x="1364" d="M753 350L512 351L479 0Q467 -4 454 -7Q443 -10 429 -12T399 -14Q381 -14 357 -10T302 8L335 351H129Q126 358 123 368Q118 386 118 413Q118 445 131 494H350L382 851H180Q177 861 174 872Q172
882 170 894T168 920Q168 934 171 954T182 1001H397L431 1355Q444 1358 459 1362Q472 1365 487 1367T518 1370Q538 1370 561 1365T608 1346L575 1001H811L842 1355Q856 1358 871 1362Q884 1365 899 1367T930 1370Q950 1370 973 1365T1020 1346L989 1001H1214Q1217
989 1221 975Q1223 963 1225 948T1228 919Q1228 903 1224 887T1210 850H975L946 494H1163Q1166 482 1170 468Q1173 456 1175 441T1178 412Q1178 397 1174 384T1159 350H932L901 0Q889 -4 876 -7Q865 -10 850 -12T821 -14Q802 -14 778 -10T723 8L753 350ZM527 494H767L797
850L560 851L527 494Z" />
<glyph unicode="$" glyph-name="dollar" horiz-adv-x="1078" d="M133 49Q135 72 140 101Q145 125 153 158T179 231Q225 213 276 199Q320 187 374 177T483 167Q636 167 701 214T767 356Q767 409 754 445T712 507T635 551T519 588Q404 618 327 656T204 743T139 848T120
973Q120 1068 145 1140T217 1261T334 1340T494 1379V1555Q507 1559 523 1563Q536 1566 553 1569T587 1572Q607 1572 629 1568T678 1551V1380Q742 1373 787 1361T863 1335Q897 1320 921 1302Q918 1279 909 1252Q901 1229 887 1198T848 1131Q825 1151 788 1167Q756
1181 707 1192T589 1204Q461 1204 394 1157T327 1010Q327 955 340 919T383 857T465 812T591 773Q701 744 775 709T895 629T960 525T980 389Q980 302 963 234T908 116T808 33T659 -14V-206Q645 -210 631 -213Q619 -215 604 -217T573 -219Q553 -219 529 -216T475
-202V-26Q396 -24 334 -13T226 13Q174 29 133 49Z" />
<glyph unicode="%" glyph-name="percent" horiz-adv-x="1787" d="M1204 1385Q1235 1377 1264 1366Q1289 1355 1314 1339T1354 1298L576 -21Q547 -14 520 -3Q497 7 471 23T423 66L1204 1385ZM454 604Q382 604 323 632T221 712T154 836T130 994Q130 1080 154 1152T222
1275T325 1355T454 1384Q526 1384 585 1357T686 1279T751 1159T774 1001Q774 915 750 843T684 717T583 634T454 604ZM454 744Q494 744 522 767T569 827T595 909T604 999Q604 1047 596 1091T569 1169T523 1223T454 1243Q415 1243 386 1221T337 1164T309 1085T299
994Q299 948 308 903T337 823T385 766T454 744ZM1013 371Q1013 457 1037 529T1105 652T1208 732T1337 761Q1409 761 1468 734T1569 656T1634 536T1657 378Q1657 292 1633 219T1567 93T1466 10T1337 -20Q1265 -20 1206 8T1104 89T1037 213T1013 371ZM1181 371Q1181
325 1189 280T1215 200T1264 143T1337 121Q1377 121 1405 144T1452 203T1478 285T1486 375Q1486 423 1478 467T1452 546T1406 600T1337 620Q1298 620 1269 598T1220 541T1191 462T1181 371Z" />
<glyph unicode="&amp;" glyph-name="ampersand" horiz-adv-x="1291" d="M752 602Q745 627 744 657T743 702Q743 719 748 747T760 798H1259Q1259 772 1256 742T1248 684T1237 634T1225 602H1138Q1134 555 1126 505T1106 405T1077 312T1039 233Q1081 205 1126 177T1223
120Q1215 90 1204 62Q1193 38 1177 12T1135 -33H1110Q1055 -3 1006 27T909 86Q832 26 731 -6T498 -39Q447 -39 392 -29T284 2T182 54T98 128T41 225T19 344Q19 404 36 457T87 555T170 632T282 682Q238 764 223 830T208 945Q208 1044 242 1114T334 1230T463 1296T612
1317Q688 1317 751 1301T859 1253T930 1171T956 1054Q928 1049 895 1045Q867 1041 831 1038T754 1034Q752 1059 740 1078T707 1111T658 1131T597 1138Q516 1138 476 1091T435 953Q435 920 440 882T463 799T511 703T593 594T718 470T896 330Q911 353 922 385T943
453T958 528T966 602H752ZM525 140Q584 140 641 153T750 194Q601 302 503 400T342 586Q297 551 272 496T246 372Q246 319 269 276T331 203T420 157T525 140Z" />
<glyph unicode="&apos;" glyph-name="quotesingle" horiz-adv-x="398" d="M197 1030Q177 1030 162 1034T136 1043Q124 1049 116 1057L80 1608Q93 1615 111 1621Q126 1626 148 1630T199 1634Q228 1634 250 1629T288 1618Q306 1611 318 1602L278 1049Q269 1043 257
1039Q246 1035 231 1033T197 1030Z" />
<glyph unicode="(" glyph-name="parenleft" horiz-adv-x="604" d="M465 -281Q364 -183 293 -70T176 164T109 411T88 662Q88 787 109 906T175 1136T292 1353T465 1557Q493 1547 518 1533Q539 1521 558 1504T584 1463Q500 1356 444 1258T354 1064T306 870T292 663Q292
555 306 451T353 241T443 30T584 -186Q577 -209 558 -227T518 -257Q493 -271 465 -281Z" />
<glyph unicode=")" glyph-name="parenright" horiz-adv-x="604" d="M139 1555Q240 1457 311 1344T428 1110T495 863T516 612Q516 487 495 368T429 138T312 -79T139 -283Q111 -273 86 -259Q65 -247 46 -230T20 -189Q104 -82 160 16T250 210T298 404T312 611Q312
719 298 823T251 1033T161 1244T20 1460Q27 1483 46 1501T86 1531Q111 1545 139 1555Z" />
<glyph unicode="*" glyph-name="asterisk" horiz-adv-x="942" d="M166 579Q148 588 133 601Q120 612 107 629T89 669Q123 699 157 733Q186 762 221 801T288 882Q228 914 182 949T104 1015Q66 1050 37 1084Q40 1097 49 1112Q57 1125 71 1140T110 1173Q145 1153
186 1132Q221 1114 266 1093T362 1054Q375 1117 394 1170T433 1264Q455 1311 478 1349Q498 1352 519 1349Q537 1347 559 1340T602 1317Q593 1275 586 1227Q580 1186 574 1135T566 1031Q592 1034 620 1035T673 1037Q719 1037 758 1033T826 1024Q859 1019 887 1012Q891
1003 895 993Q898 985 901 974T904 951Q904 956 885 903Q842 898 794 891Q753 884 703 874T602 849Q632 787 649 732T675 634Q686 584 689 541Q675 528 658 518Q644 510 624 503T580 498L560 506Q544 543 525 583Q508 618 485 660T432 747Q385 705 338 674T252
621Q207 596 166 579Z" />
<glyph unicode="+" glyph-name="plus" horiz-adv-x="1535" d="M660 1166H856V20H660V1166ZM203 685H1313V510H203V685Z" />
<glyph unicode="," glyph-name="comma" horiz-adv-x="432" d="M-23 -339Q14 -266 44 -181Q69 -108 90 -12T111 195Q116 196 133 198T175 200Q194 200 216 198T261 188T302 170T337 139Q337 86 327 35T301 -64T265 -157T223 -240Q173 -330 110 -408Q83 -406 58
-400Q37 -395 14 -385T-23 -354V-339V-339Z" />
<glyph unicode="-" glyph-name="hyphen" horiz-adv-x="952" d="M180 685H772V510H180V685Z" />
<glyph unicode="." glyph-name="period" horiz-adv-x="392" d="M48 138Q48 166 59 191T91 235T138 264T196 275Q227 275 254 265T301 235T332 191T344 138Q344 109 333 84T301 40T254 10T196 -1Q165 -1 138 10T91 39T60 83T48 138Z" />
<glyph unicode="/" glyph-name="slash" horiz-adv-x="861" d="M487 484L808 1309Q789 1332 760 1344T702 1365Q669 1373 633 1377L333 547L53 -153Q79 -176 109 -191T168 -215Q201 -226 233 -232L487 484Z" />
<glyph unicode="0" glyph-name="zero" horiz-adv-x="1146" d="M576 -20Q447 -20 354 28T201 166T112 387T83 680Q83 839 113 968T205 1189T359 1330T576 1380Q707 1380 799 1335T950 1202T1036 988T1063 698Q1063 539 1034 407T946 180T794 33T576 -20ZM575 141Q643
141 691 185T769 305T814 482T828 698Q828 821 814 918T770 1082T692 1184T576 1220Q506 1220 457 1180T376 1068T331 897T317 680Q317 562 331 463T376 293T456 181T575 141Z" />
<glyph unicode="1" glyph-name="one" horiz-adv-x="717" d="M300 1162Q276 1151 242 1139T173 1118L155 1120Q132 1133 119 1155T97 1200Q88 1226 85 1254Q142 1276 190 1296T273 1334Q314 1353 349 1371H515V0H300V1162Z" />
<glyph unicode="2" glyph-name="two" horiz-adv-x="961" d="M72 153Q205 263 301 354T463 522T570 661T633 776T662 871T670 953Q670 1013 651 1060T600 1141T524 1192T434 1210Q389 1210 348 1197T270 1163T203 1117T149 1068Q125 1105 109 1136T83 1190Q72 1216
66 1238Q81 1252 114 1276T198 1323T315 1363T464 1380Q557 1380 633 1352T762 1273T845 1148T874 985Q874 928 866 872T836 757T776 635T676 499T529 344T326 166Q374 166 424 167T525 171T623 176T713 182Q812 188 908 195Q908 186 909 175Q910 166 910 156T911
134Q911 104 905 68T881 0H72V153Z" />
<glyph unicode="3" glyph-name="three" horiz-adv-x="1011" d="M44 62Q48 85 57 112Q65 135 78 165T115 231Q159 209 207 191Q249 176 302 164T412 152Q472 152 523 172T611 228T670 314T691 427Q691 463 676 499T630 565T551 613T435 632H321Q315 659 312 682T308
725Q308 752 311 773Q313 784 315 796H435Q474 796 509 812T570 857T612 928T627 1021Q627 1066 612 1101T568 1160T500 1196T414 1209Q361 1209 314 1197T231 1169Q189 1151 154 1130Q131 1164 117 1194T95 1247Q86 1273 83 1297Q131 1320 187 1338Q235 1354 298
1367T433 1380Q637 1380 749 1295T862 1038Q862 978 846 927T801 836T731 766T640 720Q700 706 752 678T841 609T900 517T922 406Q922 305 886 226T784 92T625 9T415 -20Q340 -20 273 -8T154 21Q94 39 44 62Z" />
<glyph unicode="4" glyph-name="four" horiz-adv-x="1102" d="M92 366Q71 390 59 417T39 468Q31 495 28 522L497 1426Q545 1415 587 1402Q623 1391 657 1375T708 1340L709 1325Q649 1224 585 1112Q558 1064 527 1009T461 895T392 774T323 648L224 520H643V792Q678
818 717 832T791 855Q831 863 869 865V520H1034Q1035 513 1036 505Q1037 498 1037 491T1038 476Q1038 454 1033 428T1009 366H869V0H643V366H92V366Z" />
<glyph unicode="5" glyph-name="five" horiz-adv-x="993" d="M67 62Q71 85 80 112Q88 135 101 166T138 232Q170 210 210 192Q244 177 289 165T385 152Q473 152 531 176T625 240T674 329T688 428Q688 558 620 619T420 680Q380 680 344 672T280 655Q247 644 220
631Q197 651 182 671T158 707Q147 725 141 741Q148 848 155 956Q158 1002 161 1053T168 1156T174 1260T179 1360H868Q868 1353 869 1345Q870 1338 870 1329T871 1310Q871 1287 864 1248T833 1164Q769 1166 694 1169Q630 1171 547 1173T373 1175L348 803Q386 818
425 823T501 828Q596 828 672 801T802 725T885 605T914 448Q914 341 881 255T783 107T626 13T415 -20Q343 -20 281 -8T170 21Q115 39 67 62Z" />
<glyph unicode="6" glyph-name="six" horiz-adv-x="1169" d="M144 613Q144 805 179 949T282 1189T447 1332T669 1380Q746 1380 803 1370T901 1348Q947 1334 981 1317Q980 1296 972 1270Q965 1247 950 1216T906 1146Q879 1161 844 1172Q814 1182 770 1190T669 1199Q588
1199 532 1166T440 1077T387 951T365 805Q380 816 409 829T477 855T564 875T663 883Q747 883 819 858T943 778T1024 641T1054 440Q1054 335 1021 252T928 110T784 21T598 -10Q463 -10 376 39T237 172T165 370T144 613ZM365 638Q362 600 363 551T372 448T396 344T438
253T503 189T594 164Q657 164 701 186T774 248T816 339T829 450Q829 583 767 651T599 720Q566 720 532 714T468 698T411 672T365 638Z" />
<glyph unicode="7" glyph-name="seven" horiz-adv-x="985" d="M210 44Q261 156 310 264T403 471T487 659T560 824Q638 1002 704 1153Q590 1152 487 1151T303 1148Q210 1146 128 1145Q108 1173 102 1205T96 1265Q96 1277 96 1293T99 1324Q100 1341 102 1358H911L950
1283Q903 1191 848 1060T731 763T597 401T446 -18L422 -26Q379 -24 341 -14T273 10Q239 25 210 44Z" />
<glyph unicode="8" glyph-name="eight" horiz-adv-x="1157" d="M108 367Q108 425 127 479T179 579T259 658T358 708Q264 745 209 822T154 1012Q154 1093 183 1161T268 1277T402 1353T580 1380Q674 1380 751 1353T884 1278T971 1161T1002 1012Q1002 959 988 912T946
826T881 757T794 710Q848 694 894 663T975 587T1028 487T1048 367Q1048 277 1012 206T913 84T765 7T580 -20Q476 -20 390 7T241 85T143 207T108 367ZM341 369Q341 315 361 272T414 198T490 151T580 134Q623 134 665 150T741 198T794 272T815 369Q815 413 801 458T757
541T683 601T580 625Q515 625 470 603T396 545T354 463T341 369ZM580 782Q618 782 654 796T717 838T761 907T778 1003Q778 1057 762 1099T718 1169T654 1211T580 1226Q535 1226 498 1211T435 1167T394 1097T379 1003Q379 951 393 910T434 841T497 797T580 782Z"
/>
<glyph unicode="9" glyph-name="nine" horiz-adv-x="1161" d="M1036 767Q1036 382 901 186T501 -10Q426 -10 370 -1T276 21Q231 35 199 53Q199 82 205 114Q210 140 221 172T254 234Q284 216 323 202Q356 190 401 181T501 171Q590 171 647 206T739 300T789 432T808
585Q794 571 767 554T703 522T621 497T527 487Q445 487 375 512T254 592T175 729T146 930Q146 1035 177 1118T266 1260T404 1349T582 1380Q717 1380 804 1333T943 1203T1015 1008T1036 767ZM806 930Q801 982 788 1031T750 1120T684 1182T586 1206Q529 1206 488
1184T421 1122T383 1031T371 920Q371 786 430 718T591 650Q623 650 654 658T713 681T766 714T808 751Q811 789 811 834T806 930Z" />
<glyph unicode=":" glyph-name="colon" horiz-adv-x="432" d="M68 138Q68 166 79 191T111 235T158 264T216 275Q247 275 274 265T321 235T352 191T364 138Q364 109 353 84T321 40T274 10T216 -1Q185 -1 158 10T111 39T80 83T68 138ZM68 880Q68 908 79 933T111
977T158 1006T216 1017Q247 1017 274 1007T321 977T352 933T364 880Q364 851 353 826T321 782T274 752T216 741Q185 741 158 752T111 781T80 825T68 880Z" />
<glyph unicode=";" glyph-name="semicolon" horiz-adv-x="432" d="M68 880Q68 908 79 933T111 977T158 1006T216 1017Q247 1017 274 1007T321 977T352 933T364 880Q364 851 353 826T321 782T274 752T216 741Q185 741 158 752T111 781T80 825T68 880ZM-18 -339Q19
-266 49 -181Q74 -108 95 -12T116 195Q121 196 138 198T180 200Q199 200 221 198T266 188T307 170T342 139Q342 86 332 35T306 -64T270 -157T228 -240Q178 -330 115 -408Q88 -406 63 -400Q42 -395 19 -385T-18 -354V-339V-339Z" />
<glyph unicode="&lt;" glyph-name="less" horiz-adv-x="1435" d="M215 653L1090 1118L1163 959L530 604L468 585L533 564L1163 211L1090 52L215 518V653Z" />
<glyph unicode="=" glyph-name="equal" horiz-adv-x="1362" d="M235 515H1109V341H235V515ZM235 1020H1109V846H235V1020Z" />
<glyph unicode="&gt;" glyph-name="greater" horiz-adv-x="1435" d="M1220 683L345 1148L272 989L905 634L967 615L902 594L272 241L345 82L1220 548V683Z" />
<glyph unicode="?" glyph-name="question" horiz-adv-x="851" d="M271 416Q269 431 268 460T267 522T266 582T265 621Q265 666 273 699T300 759T346 805T413 844Q500 886 540 938T580 1047Q580 1146 522 1188T361 1231Q305 1231 259 1216T177 1182Q137 1161 104
1134Q79 1170 66 1199T45 1250Q37 1275 36 1294Q73 1325 125 1350Q170 1371 236 1388T391 1406Q482 1406 559 1385T692 1321T779 1218T811 1077Q811 1009 787 954T724 854T635 774T532 711Q497 693 478 671T448 616T436 533T433 409Q409 403 394 400T359 397Q321
397 289 405L271 416ZM206 138Q206 166 217 191T249 235T296 264T354 275Q385 275 412 265T459 235T490 191T502 138Q502 109 491 84T459 40T412 10T354 -1Q323 -1 296 10T249 39T218 83T206 138Z" />
<glyph unicode="@" glyph-name="at" horiz-adv-x="1853" d="M60 437Q60 604 101 739T214 980T381 1161T582 1287T801 1361T1019 1385Q1178 1385 1318 1349T1562 1237T1726 1047T1786 773Q1786 682 1766 599T1710 445T1623 315T1509 215T1375 152T1225 129Q1164
129 1125 141T1062 176T1030 229T1020 298Q1005 276 982 249T926 199T855 160T769 144Q713 144 663 165T576 228T517 333T495 483Q495 563 513 635T563 768T637 878T729 962T832 1015T937 1034Q959 1034 982 1031T1024 1022Q1046 1017 1067 1010L1070 1034H1273L1201
433Q1194 374 1193 337T1198 280T1224 252T1272 245Q1328 245 1388 273T1498 363T1580 520T1613 750Q1613 879 1567 974T1439 1132T1246 1226T1007 1257Q837 1257 695 1203T451 1051T293 814T236 506Q236 363 282 252T414 64T620 -53T889 -93Q948 -93 996 -86T1081
-71Q1122 -61 1157 -48Q1167 -64 1177 -82Q1185 -97 1193 -116T1205 -156Q1159 -177 1105 -193Q1058 -207 997 -218T867 -230Q673 -230 523 -183T270 -48T114 162T60 437ZM708 505Q708 288 843 288Q885 288 915 306T965 348Q988 374 1003 408L1054 900Q1041 904
1023 912T968 920Q908 920 860 885T779 793T727 660T708 505Z" />
<glyph unicode="A" glyph-name="A" horiz-adv-x="1121" d="M384 1358H725L1131 0H904L780 415H341L223 0H-10L384 1358ZM733 589L550 1255L385 589H733Z" />
<glyph unicode="B" glyph-name="B" horiz-adv-x="1167" d="M158 1358H658Q737 1358 806 1337T925 1272T1004 1164T1033 1014Q1033 969 1018 925T975 843T910 775T830 730Q875 722 920 696T1001 627T1059 527T1082 400Q1082 305 1054 231T968 106T827 27T632 0H158V1358ZM608
170Q663 170 707 182T784 221T833 291T851 396Q851 459 834 501T786 570T714 608T624 619H385V170H608ZM667 770Q737 791 769 850T802 1010Q802 1095 752 1142T614 1190H385V770H667Z" />
<glyph unicode="C" glyph-name="C" horiz-adv-x="1069" d="M51 667Q51 838 91 971T209 1196T401 1336T663 1384Q722 1384 779 1376T883 1356Q937 1344 987 1329Q984 1303 978 1274Q973 1248 963 1216T935 1148Q898 1163 854 1174Q816 1184 767 1192T663 1200Q574
1200 503 1164T381 1060T303 892T276 667Q276 542 303 447T380 288T502 192T663 159Q719 159 770 167T860 185Q906 196 945 212Q956 189 964 161Q971 137 976 104T980 28Q933 12 880 1Q835 -10 779 -18T663 -26Q359 -26 205 148T51 667Z" />
<glyph unicode="D" glyph-name="D" horiz-adv-x="1255" d="M158 1357Q209 1359 271 1362Q325 1364 397 1366T557 1368Q713 1368 833 1327T1035 1201T1160 990T1203 692Q1203 521 1157 392T1026 175T818 44T543 0H158V1357ZM577 175Q670 175 743 214T867 323T945
486T972 688Q972 813 945 907T867 1066T743 1162T577 1194Q526 1194 489 1193T429 1191Q402 1189 384 1188V175H577Z" />
<glyph unicode="E" glyph-name="E" horiz-adv-x="1019" d="M158 1358H937Q937 1351 938 1343Q939 1336 939 1328T940 1309Q940 1292 934 1258T905 1178Q822 1181 733 1184Q657 1186 565 1188T385 1191V781Q414 781 450 781T526 783T606 785T684 787Q772 790 865
792Q865 784 866 775Q867 767 867 757T868 735Q868 730 867 716T862 683T854 647T843 617Q750 617 664 618Q627 618 588 618T513 618T443 619T385 619V171Q473 171 570 174T752 180Q850 184 945 189Q945 180 946 170Q947 162 947 151T948 128Q948 107 945 73T932
0H158V1358Z" />
<glyph unicode="F" glyph-name="F" horiz-adv-x="991" d="M158 1358H937Q937 1351 938 1343Q939 1336 939 1328T940 1309Q940 1292 934 1258T905 1178Q823 1181 735 1184Q660 1186 568 1188T385 1191V748Q412 748 448 748T524 750T606 752T689 755Q783 758 885
761Q885 753 886 744Q887 736 887 726T888 704Q888 695 884 666T863 583Q757 583 663 584Q623 584 582 584T503 584T435 585T385 585V0H158V1358Z" />
<glyph unicode="G" glyph-name="G" horiz-adv-x="1151" d="M53 667Q53 838 94 971T216 1196T414 1336T685 1384Q743 1384 803 1376T914 1356Q972 1344 1026 1329Q1024 1304 1018 1276Q1013 1252 1003 1221T976 1154Q934 1169 886 1180Q845 1190 793 1198T685 1206Q592
1206 518 1168T392 1060T313 890T285 667Q285 545 311 449T388 287T513 186T685 151Q701 151 721 151T761 152T800 153T834 156Q834 188 833 225T831 300T829 377T826 450Q822 532 819 615Q855 625 884 628T935 631Q956 631 976 628T1014 622Q1033 618 1050 614Q1050
496 1049 388T1045 195Q1042 96 1040 11L1021 -2Q968 -9 912 -14Q864 -19 804 -22T685 -26Q532 -26 415 18T217 149T95 366T53 667Z" />
<glyph unicode="H" glyph-name="H" horiz-adv-x="1299" d="M158 1358H385V781H915V1358H1141V0H915V607H385V0H158V1358Z" />
<glyph unicode="I" glyph-name="I" horiz-adv-x="542" d="M158 1358H384V0H158V1358Z" />
<glyph unicode="J" glyph-name="J" horiz-adv-x="633" d="M223 1358H450V123Q450 42 432 -22T373 -134T269 -215T116 -268Q97 -239 83 -210T59 -156Q48 -128 40 -102Q84 -93 118 -75T175 -26T211 54T223 172V1358Z" />
<glyph unicode="K" glyph-name="K" horiz-adv-x="1128" d="M158 1358H385V763H405L832 1358H1104L590 695L1132 0H854L397 627H385V0H158V1358Z" />
<glyph unicode="L" glyph-name="L" horiz-adv-x="993" d="M158 1358H385V188Q427 188 472 189T563 191T652 193T735 197Q827 201 915 205Q915 188 911 154T900 86T889 26T880 0H158V1358Z" />
<glyph unicode="M" glyph-name="M" horiz-adv-x="1573" d="M179 1358H520L716 680L789 388L862 680L1053 1358H1394L1468 0H1251L1210 982L1215 1245Q1192 1176 1168 1093T1118 921T1067 739T1016 557T966 385T918 234H661L355 1248L359 978L325 0H108L179 1358Z" />
<glyph unicode="N" glyph-name="N" horiz-adv-x="1351" d="M158 1358H517L860 510L997 124L984 510L977 1358H1193V0H843L492 850L355 1242L368 850L375 0H158V1358Z" />
<glyph unicode="O" glyph-name="O" horiz-adv-x="1290" d="M649 -26Q499 -26 392 22T216 162T115 384T83 679Q83 843 116 974T219 1196T396 1335T649 1384Q802 1384 908 1339T1080 1205T1177 990T1207 698Q1207 533 1175 400T1075 172T902 26T649 -26ZM649 149Q744
149 807 189T909 301T964 475T981 698Q981 829 965 925T910 1085T808 1180T649 1211Q554 1211 489 1176T383 1072T326 904T308 679Q308 553 325 454T383 288T488 185T649 149Z" />
<glyph unicode="P" glyph-name="P" horiz-adv-x="1096" d="M158 1358H623Q723 1358 802 1331T936 1251T1019 1123T1048 951Q1048 864 1018 785T927 644T776 546T567 509Q529 509 496 510T438 513Q409 515 385 518V0H158V1358ZM385 687Q400 685 430 683T502 680Q570
680 627 694T727 738T792 818T816 937Q816 993 805 1038T769 1116T705 1166T611 1184H385V687Z" />
<glyph unicode="Q" glyph-name="Q" horiz-adv-x="1290" d="M659 -26Q505 -26 396 22T217 162T115 384T83 679Q83 843 117 974T221 1196T398 1335T652 1384Q805 1384 910 1339T1082 1205T1177 990T1207 698Q1207 467 1148 307T962 60V43Q1010 14 1060 -13T1152
-62Q1200 -88 1246 -110Q1233 -148 1210 -178T1164 -232Q1137 -258 1107 -280Q1048 -246 997 -211T899 -141T813 -77T736 -21Q729 -22 719 -23T697 -24T675 -25T659 -26ZM652 149Q747 149 809 189T909 301T961 475T976 698Q976 829 961 926T909 1086T810 1181T652
1212Q557 1212 492 1178T387 1076T330 909T313 679Q313 553 330 454T387 288T492 185T652 149Z" />
<glyph unicode="R" glyph-name="R" horiz-adv-x="1140" d="M158 1358H634Q734 1358 811 1331T939 1253T1017 1131T1044 971Q1044 907 1028 850T980 744T897 657T777 595Q815 522 858 447T944 297T1031 147T1112 0H868L571 561H557Q528 561 497 563T438 569Q406
573 376 578V0H158V1358ZM376 739Q385 738 405 737T451 734T506 733T563 732Q690 732 752 789T815 967Q815 1072 759 1128T598 1184H376V739Z" />
<glyph unicode="S" glyph-name="S" horiz-adv-x="1081" d="M107 49Q109 72 114 101Q119 125 127 158T153 231Q207 213 263 199Q311 187 368 177T477 167Q556 167 609 179T695 214T742 273T756 356Q756 409 742 446T698 510T622 556T513 593Q403 623 327 658T204
740T135 844T114 978Q114 1086 147 1163T242 1289T391 1361T587 1384Q670 1384 732 1371T838 1343Q888 1325 925 1302Q922 1279 913 1252Q905 1229 891 1198T852 1131Q822 1151 782 1167Q747 1181 698 1192T583 1204Q512 1204 464 1193T384 1159T340 1100T326 1015Q326
960 340 924T385 862T465 817T585 778Q690 749 764 716T884 639T952 535T974 389Q974 284 947 207T861 77T709 0T485 -26Q407 -26 338 -15T218 11Q157 28 107 49Z" />
<glyph unicode="T" glyph-name="T" horiz-adv-x="963" d="M362 1190Q287 1189 227 1188T123 1185Q73 1183 34 1181Q32 1193 31 1205Q28 1226 28 1257Q28 1275 30 1300T40 1358H930Q931 1348 932 1337Q933 1328 934 1317T935 1294Q935 1274 932 1242T919 1182Q911
1183 878 1184T797 1187T695 1189T588 1190V0H362V1190Z" />
<glyph unicode="U" glyph-name="U" horiz-adv-x="1241" d="M117 530Q117 561 117 613T117 730T118 865T119 1007Q120 1171 121 1358H343V497Q343 420 358 358T406 252T493 184T623 160Q699 160 753 184T841 252T890 358T906 497Q906 519 906 568T906 681T905 821T904
972Q903 1148 902 1358H1123V530Q1123 394 1098 291T1014 119T860 15T623 -20Q484 -20 388 15T231 120T144 293T117 530Z" />
<glyph unicode="V" glyph-name="V" horiz-adv-x="1078" d="M-30 1358H203L476 390L537 135L599 390L877 1358H1108L703 0H368L-30 1358Z" />
<glyph unicode="W" glyph-name="W" horiz-adv-x="1735" d="M-20 1358H214L468 192L734 1358H1014L1276 188L1531 1358H1755L1435 0H1125L904 981L868 1232L831 981L609 0H298L-20 1358Z" />
<glyph unicode="X" glyph-name="X" horiz-adv-x="1130" d="M423 695L11 1358H268L465 1020L555 832H562L653 1020L845 1358H1109L685 673L1125 0H856L624 390L553 532H549L481 390L265 0H5L423 695Z" />
<glyph unicode="Y" glyph-name="Y" horiz-adv-x="1001" d="M388 510L-20 1358H224L441 850L499 674L557 849L777 1358H1021L615 510V0H388V510Z" />
<glyph unicode="Z" glyph-name="Z" horiz-adv-x="1050" d="M42 163L634 1058L744 1184Q623 1183 513 1183T316 1183H129Q121 1216 118 1238T114 1277Q114 1293 116 1308T122 1334Q126 1347 131 1358H957L977 1196L383 302L261 177Q321 177 384 177T508 177T628
178T738 178H972Q973 170 975 162Q976 155 977 146T978 129Q978 108 972 76T949 0H82L42 163Z" />
<glyph unicode="[" glyph-name="bracketleft" horiz-adv-x="587" d="M90 1538H537V1403H294V-196H537V-331H90V1538Z" />
<glyph unicode="\" glyph-name="backslash" horiz-adv-x="861" d="M374 484L53 1309Q72 1332 101 1344T159 1365Q192 1373 228 1377L528 547L808 -153Q782 -176 752 -191T693 -215Q660 -226 628 -232L374 484Z" />
<glyph unicode="]" glyph-name="bracketright" horiz-adv-x="587" d="M497 1538H50V1403H293V-196H50V-331H497V1538Z" />
<glyph unicode="^" glyph-name="asciicircum" horiz-adv-x="1196" d="M512 1358H671L1056 220L885 142L601 1065L591 1117L580 1065L295 142L124 220L512 1358Z" />
<glyph unicode="_" glyph-name="underscore" horiz-adv-x="1364" d="M1373 -177V-332H-9V-177H1373Z" />
<glyph unicode="`" glyph-name="grave" horiz-adv-x="551" d="M-118 1468Q-111 1483 -90 1504T-41 1546T13 1583T59 1605L304 1259Q299 1247 288 1234T262 1208T231 1186T199 1169L-118 1468Z" />
<glyph unicode="a" glyph-name="a" horiz-adv-x="992" d="M64 292Q64 375 88 433T158 528T271 583T424 607L647 619V699Q647 753 638 788T606 844T548 873T457 882Q403 882 355 870T270 844Q227 827 191 806Q169 837 156 865T136 917Q127 943 124 967Q172 991
227 1009Q275 1025 337 1038T469 1051Q583 1051 658 1031T777 971T839 869T857 723V165L941 63V0H756L679 89H643Q638 84 617 67T562 30T486 -5T395 -20Q320 -20 259 2T155 66T88 165T64 292ZM282 310Q282 264 295 234T331 185T388 160T463 153Q501 153 534 162T593
184Q622 197 647 215V484L446 471Q399 468 368 455T317 421T290 372T282 310Z" />
<glyph unicode="b" glyph-name="b" horiz-adv-x="1089" d="M136 1439H348V962H354Q361 968 382 983T436 1013T514 1039T615 1051Q691 1051 762 1027T889 944T977 785T1010 531Q1010 393 970 290T862 118T704 15T512 -20Q421 -20 352 -13T234 3Q178 13 136 26V1439ZM348
157Q362 151 391 143T467 135Q622 135 703 238T785 531Q785 637 766 706T710 815T623 872T506 888Q479 888 451 880T400 860Q373 848 348 833V157Z" />
<glyph unicode="c" glyph-name="c" horiz-adv-x="858" d="M79 513Q79 645 111 745T204 914T355 1016T560 1051Q602 1051 645 1043T723 1026Q763 1015 801 1001Q798 973 792 943Q787 917 778 887T754 827Q727 838 696 848Q669 856 634 863T560 870Q493 870 444
846T361 775T312 662T296 514Q296 334 365 241T570 148Q610 148 646 154T711 169Q744 179 773 191Q783 169 791 143Q798 120 803 91T808 27Q771 14 731 3Q697 -6 655 -13T570 -20Q335 -20 207 114T79 513Z" />
<glyph unicode="d" glyph-name="d" horiz-adv-x="1089" d="M79 493Q79 636 119 741T227 915T386 1017T577 1051Q615 1051 645 1048T696 1039Q721 1034 740 1027V1439H953V165L1041 63V0H841L772 79H738Q733 74 718 58T674 25T604 -6T506 -20Q432 -20 356 10T219
103T118 262T79 493ZM303 493Q303 400 322 334T378 226T466 164T583 144Q608 144 636 152T687 171Q714 182 740 198V874Q727 882 702 890T631 898Q474 898 389 795T303 493Z" />
<glyph unicode="e" glyph-name="e" horiz-adv-x="1043" d="M77 501Q77 645 112 749T210 920T360 1018T553 1050Q650 1050 726 1018T856 926T937 785T965 604Q965 570 962 541T955 491Q951 466 946 446L290 449Q291 360 309 302T362 209T452 162T580 148Q643 148
693 156T778 175Q818 187 850 203Q865 168 873 138T886 86Q890 60 892 40Q859 23 812 10Q772 -1 714 -10T580 -20Q460 -20 367 7T209 95T111 256T77 501ZM751 595V629Q751 692 736 740T693 822T629 872T549 889Q486 889 438 873T358 821T309 729T293 595H751Z"
/>
<glyph unicode="f" glyph-name="f" horiz-adv-x="696" d="M206 867H58Q55 891 54 912T53 950Q53 981 56 1001Q57 1012 59 1022H206V1132Q206 1195 225 1254T285 1359T388 1432T536 1460Q578 1460 609 1456T662 1447Q688 1441 706 1434Q704 1409 699 1382Q694 1359
685 1330T659 1270Q644 1274 626 1278Q611 1281 591 1284T551 1287Q483 1287 450 1250T416 1126V1022H641Q642 1018 643 1012Q644 1007 645 1000T646 982Q646 962 641 933T617 867H416V0H206V867Z" />
<glyph unicode="g" glyph-name="g" horiz-adv-x="1107" d="M213 41Q190 69 178 107T166 188Q166 234 172 268T187 326Q196 353 208 372V418Q160 466 132 531T103 689Q103 773 132 839T214 952T344 1024T514 1049H515Q581 1049 624 1044T695 1033Q727 1026 745
1017L1027 1047V885H864Q877 872 891 851T916 804T935 749T943 689Q943 606 911 539T822 422T687 346T515 319H514Q493 319 469 320T420 324T372 330T330 339V201Q330 190 337 182T354 169T378 160T403 157H798Q869 157 917 137T996 82T1039 -4T1052 -114Q1052
-190 1019 -259T920 -380T759 -462T536 -493H535Q431 -493 349 -471T211 -409T124 -315T94 -198Q94 -156 112 -117T153 -48Q179 -13 213 18V41ZM515 468Q574 468 616 479T685 517T724 585T737 689Q737 802 685 851T515 900H514Q454 900 414 889T351 852T319 786T309
689Q309 633 318 592T350 523T413 482T514 468H515ZM290 -161Q290 -187 298 -216T332 -269T408 -308T540 -324H541Q620 -324 679 -306T776 -257T834 -190T853 -116Q853 -69 835 -44T780 -18H333Q321 -31 306 -69T290 -161Z" />
<glyph unicode="h" glyph-name="h" horiz-adv-x="1127" d="M136 1440H351V1104L341 951H347Q354 957 380 973T446 1007T535 1037T638 1050Q722 1050 786 1025T895 954T961 842T984 696V0H769V675Q769 784 726 835T582 887Q534 887 493 879T419 859Q382 847 351
831V0H136V1440Z" />
<glyph unicode="i" glyph-name="i" horiz-adv-x="521" d="M256 1195Q228 1195 204 1205T161 1232T131 1271T120 1320Q120 1347 131 1370T160 1410T203 1436T256 1446Q284 1446 309 1437T352 1410T382 1370T393 1320Q393 1294 382 1272T353 1232T309 1205T256 1195ZM141
1022H349V168L408 126V0H351L349 2V0Q250 0 196 40T141 172V1022Z" />
<glyph unicode="j" glyph-name="j" horiz-adv-x="521" d="M158 1020H374V-98Q374 -161 358 -210T307 -298T215 -364T77 -410Q58 -381 48 -356T32 -314Q26 -294 23 -278Q89 -263 123 -215T158 -80V1020ZM270 1195Q242 1195 218 1205T175 1232T146 1271T135 1320Q135
1347 145 1370T174 1410T217 1436T270 1446Q298 1446 323 1437T367 1410T397 1370T408 1320Q408 1294 397 1272T367 1232T323 1205T270 1195Z" />
<glyph unicode="k" glyph-name="k" horiz-adv-x="985" d="M136 1440H340V679L330 534L383 597L704 1022H946L621 610L538 531L603 472L964 0H721L377 462L330 522L340 340V0H136V1440Z" />
<glyph unicode="l" glyph-name="l" horiz-adv-x="483" d="M124 1439H331V168L390 126V0H333L331 2V0Q232 0 178 40T124 172V1439Z" />
<glyph unicode="m" glyph-name="m" horiz-adv-x="1707" d="M73 920V1033H257L343 946L370 962Q375 967 399 981T461 1011T544 1039T639 1051Q728 1051 785 1025T886 950Q902 963 933 980T1004 1014T1092 1040T1187 1051Q1271 1051 1340 1026T1459 955T1536 843T1564
697V0H1349V676Q1349 784 1291 836T1133 888Q1074 888 1023 879T946 858Q960 826 968 790T976 717V0H761V696Q761 793 721 840T584 888Q538 888 498 880T429 860Q395 848 366 833V0H152V839L73 920Z" />
<glyph unicode="n" glyph-name="n" horiz-adv-x="1148" d="M152 839L73 920V1033H257L343 955L372 961Q379 967 404 982T467 1012T553 1038T654 1050Q738 1050 803 1025T914 954T982 842T1005 696V0H790V675Q790 784 745 835T600 887Q551 887 509 879T435 859Q398
847 366 831V0H152V839Z" />
<glyph unicode="o" glyph-name="o" horiz-adv-x="1118" d="M76 511Q76 643 111 744T211 913T365 1016T563 1051Q674 1051 763 1019T914 920T1009 756T1042 525Q1042 393 1009 291T913 120T762 16T563 -20Q449 -20 359 13T206 113T110 279T76 511ZM563 145Q629
145 677 173T757 252T803 372T818 525Q818 704 757 798T563 892Q496 892 447 864T365 784T316 663T300 511Q300 330 364 238T563 145Z" />
<glyph unicode="p" glyph-name="p" horiz-adv-x="1089" d="M347 -405H133V889L54 970V1033H237L316 964L353 962Q359 968 379 982T434 1012T515 1039T620 1051Q694 1051 764 1027T889 944T977 785T1010 531Q1010 399 970 296T861 123T703 17T512 -20Q486 -20 457
-18T403 -13Q374 -10 347 -6V-405ZM347 148Q364 143 393 139T457 135Q532 135 593 163T696 243T762 368T786 531Q786 642 767 711T711 820T622 874T506 888Q478 888 450 880T399 860Q372 848 347 833V148Z" />
<glyph unicode="q" glyph-name="q" horiz-adv-x="1099" d="M79 497Q79 635 121 738T235 911T403 1016T608 1051Q654 1051 696 1049T779 1041T864 1027T956 1008V-405H741V69H736Q731 65 714 51T669 21T603 -7T517 -20Q428 -20 349 8T209 99T114 260T79 497ZM304
515Q304 416 323 346T379 231T466 165T583 144Q608 144 636 152T687 171Q714 182 741 198V868Q730 875 702 886T622 898Q551 898 493 873T392 798T327 678T304 515Z" />
<glyph unicode="r" glyph-name="r" horiz-adv-x="702" d="M264 1033L367 925Q378 950 395 972T436 1012T489 1039T554 1049Q583 1049 610 1045T669 1029Q670 1027 671 1013T673 978Q673 962 671 941T665 897T652 852T630 814L611 809Q591 819 567 826T516 833Q476
833 449 828T405 816Q385 809 373 800V0H159V839L80 920V1033H264Z" />
<glyph unicode="s" glyph-name="s" horiz-adv-x="911" d="M86 46Q86 69 90 96Q93 119 99 148T119 210Q163 193 211 180Q252 169 300 160T395 150Q437 150 473 153T535 169T577 210T592 287Q592 346 556 380T429 431Q336 449 273 479T170 548T113 637T95 742Q95
826 122 885T200 980T328 1033T504 1050Q573 1050 626 1041T716 1020Q758 1007 789 990Q786 968 778 942Q771 920 760 892T729 835Q702 851 667 863Q637 874 595 882T499 891Q457 891 422 887T361 869T321 827T307 749Q307 725 313 706T339 670T394 641T489 614Q581
594 642 568T740 505T792 419T808 301Q808 228 785 169T713 68T587 3T401 -20Q331 -20 274 -10T174 13Q125 27 86 46Z" />
<glyph unicode="t" glyph-name="t" horiz-adv-x="743" d="M182 867H51Q50 878 49 891Q48 902 48 917T47 950Q47 968 48 983T51 1022H182V1181L297 1311H386V1022H669Q671 1012 672 998T674 971Q674 948 670 929T660 896Q654 880 646 867H386V287Q386 214 410 181T489
148Q512 148 537 153T586 167Q612 176 639 187Q659 161 670 136T687 91Q693 68 694 48Q666 29 631 14Q600 1 557 -9T458 -20Q380 -20 328 -1T243 57T196 153T182 286V867Z" />
<glyph unicode="u" glyph-name="u" horiz-adv-x="1096" d="M112 1022H326V354Q326 247 368 196T509 144Q557 144 596 152T664 171Q697 183 723 199V1022H938V165L1027 63V0H834L755 79H717Q709 73 687 57T631 24T551 -7T453 -20Q369 -20 305 5T198 76T134 188T112
335V1022Z" />
<glyph unicode="v" glyph-name="v" horiz-adv-x="981" d="M28 1022H243L470 211L496 99L521 211L741 1022H953L649 0H335L28 1022Z" />
<glyph unicode="w" glyph-name="w" horiz-adv-x="1541" d="M17 1022H232L420 233L443 105L463 232L637 1022H908L1091 233L1115 105L1137 233L1315 1022H1523L1265 0H960L796 730L769 878L744 730L595 0H284L17 1022Z" />
<glyph unicode="x" glyph-name="x" horiz-adv-x="1000" d="M383 524Q342 582 301 645T219 773T137 901T55 1022H284L482 702L511 640L539 702Q591 780 639 862T738 1022H965L624 507L959 0H730L521 334L494 393L467 334L265 0H40L383 524Z" />
<glyph unicode="y" glyph-name="y" horiz-adv-x="978" d="M25 1022H250L445 275L488 75L532 275L733 1022H965L510 -466H293L460 0H332L25 1022Z" />
<glyph unicode="z" glyph-name="z" horiz-adv-x="884" d="M66 138L452 714L597 860L130 859Q123 885 118 907T113 959Q113 976 114 987T118 1007Q121 1016 124 1023H812L822 878L440 335L289 163H831Q831 155 832 147Q833 140 833 132T834 116Q834 95 830 66T809
0H76L66 138Z" />
<glyph unicode="{" glyph-name="braceleft" horiz-adv-x="627" d="M192 127Q192 166 198 204T212 281Q220 320 225 359T231 439Q231 496 217 527T180 574T128 592T69 596Q60 638 60 667Q60 695 63 715Q65 726 67 736L90 746Q115 746 140 749T185 766T217 810T230
890Q230 926 225 963T212 1038Q204 1075 199 1115T193 1197Q193 1286 219 1354T293 1470T406 1546T550 1583Q565 1569 576 1551Q586 1535 595 1512T607 1456Q559 1448 520 1430T454 1383T411 1311T396 1211Q396 1182 400 1152T409 1089Q414 1055 418 1020T423 943Q423
863 406 815T365 740T317 701T277 684L285 657Q312 643 337 623T381 573T412 501T424 399Q424 362 420 327T411 256Q406 220 402 184T397 109Q397 50 412 6T454 -69T520 -119T606 -146Q605 -176 597 -199T577 -238Q565 -256 549 -270Q471 -261 406 -233T293 -155T219
-36T192 127Z" />
<glyph unicode="|" glyph-name="bar" horiz-adv-x="518" d="M152 1517H366V-166H152V1517Z" />
<glyph unicode="}" glyph-name="braceright" horiz-adv-x="627" d="M435 127Q435 166 429 204T415 281Q407 320 402 359T396 439Q396 496 410 527T447 574T499 592T558 596Q567 638 567 667Q567 695 564 715Q562 726 560 736L537 746Q512 746 487 749T442 766T410
810T397 890Q397 926 402 963T415 1038Q423 1075 428 1115T434 1197Q434 1286 408 1354T334 1470T221 1546T77 1583Q62 1569 51 1551Q41 1535 32 1512T20 1456Q68 1448 107 1430T173 1383T216 1311T231 1211Q231 1182 227 1152T218 1089Q213 1055 209 1020T204
943Q204 863 221 815T262 740T310 701T350 684L342 657Q315 643 290 623T246 573T215 501T203 399Q203 362 207 327T216 256Q221 220 225 184T230 109Q230 50 215 6T173 -69T107 -119T21 -146Q22 -176 30 -199T50 -238Q62 -256 78 -270Q156 -261 221 -233T334 -155T408
-36T435 127Z" />
<glyph unicode="~" glyph-name="asciitilde" horiz-adv-x="1196" d="M230 452Q195 466 170 483T128 515Q109 532 95 549Q123 617 167 672Q186 695 210 717T264 757T331 785T410 796Q452 796 487 785T552 756T607 718T653 681Q691 651 723 627T789 602Q828 602
857 625T907 677Q930 710 947 752Q985 736 1011 719T1054 688Q1073 671 1085 654Q1060 588 1018 536Q1000 514 977 493T924 455T859 428T781 418Q740 418 705 429T641 457T587 493T542 529Q504 561 470 581T397 602Q358 602 327 579T274 527Q248 494 230 452Z"
/>
<glyph unicode="&#xa0;" glyph-name="nbspace" horiz-adv-x="685" />
<glyph unicode="&#xa1;" glyph-name="exclamdown" horiz-adv-x="492" d="M118 792Q118 764 129 739T161 695T208 666T266 655Q297 655 324 665T371 695T402 739T414 792Q414 821 403 846T371 890T324 920T266 931Q235 931 208 920T161 891T130 847T118 792ZM197
520Q183 352 172 180Q167 107 163 26T156 -138T150 -302T148 -458Q165 -460 184 -462Q201 -464 221 -465T263 -467Q286 -467 307 -466T346 -462Q365 -460 383 -458Q383 -378 381 -294T376 -125T369 39T361 191Q351 360 339 521Q333 524 318 528T269 533Q252 533
232 529T197 520Z" />
<glyph unicode="&#xa2;" glyph-name="cent" horiz-adv-x="970" d="M90 513Q90 746 183 884T457 1054V1240Q470 1244 486 1248Q499 1251 516 1254T550 1257Q569 1257 592 1253T641 1236V1057Q679 1052 715 1045T780 1030Q813 1022 842 1013Q839 991 833 965Q828
943 819 916T795 859Q760 870 721 880Q688 888 646 895T561 902Q494 902 447 872T371 790T328 667T314 513Q314 423 327 355T370 241T447 172T561 148Q605 148 649 154T730 169Q772 179 812 191Q822 169 830 143Q837 120 842 91T847 27Q815 18 779 10Q748 3 709
-4T630 -16V-196Q617 -200 602 -203Q589 -206 574 -208T543 -210Q524 -210 500 -207T446 -192V-10Q90 50 90 513Z" />
<glyph unicode="&#xa3;" glyph-name="sterling" horiz-adv-x="1058" d="M70 611Q62 639 59 658T56 693Q56 709 58 723T63 750Q66 763 70 776H222Q212 833 205 898T198 1048Q198 1117 225 1182T309 1298T449 1379T648 1410Q722 1410 777 1394T871 1357Q915 1333
947 1304Q942 1284 931 1263Q922 1245 906 1224T864 1183L836 1182Q791 1215 746 1231T637 1247Q532 1247 478 1193T423 1042Q423 963 430 898T446 776H750Q757 750 759 730T762 694Q762 678 760 664T756 637Q753 623 750 611H465V592Q465 508 449 437T410 311T365
220T333 170H334Q345 177 363 185T403 201T452 214T508 220Q531 220 546 220T573 220T597 216T626 207H625Q657 195 690 185T766 174Q792 174 822 192T879 233Q910 259 940 293Q978 278 1003 261T1045 230Q1063 213 1074 198Q1046 137 1003 89Q985 68 961 49T908
14T844 -10T769 -20Q709 -20 662 -8T574 18Q542 28 506 37T434 47Q383 47 331 28T231 -20Q208 -14 188 -3T150 21T121 48T104 72Q144 146 177 228Q190 263 203 302T227 384T243 471T250 559Q250 584 247 611H70V611Z" />
<glyph unicode="&#xa4;" glyph-name="currency" horiz-adv-x="1314" d="M257 377Q219 431 200 503T180 670Q180 756 198 824T251 946L90 1105Q102 1126 120 1146Q136 1163 161 1183T221 1220L375 1063Q434 1097 505 1113T661 1129Q747 1129 819 1115T948 1068L1097
1219Q1126 1204 1151 1186Q1172 1170 1192 1148T1223 1100L1072 951Q1104 900 1120 835T1136 684Q1136 589 1116 514T1056 382L1224 216Q1211 192 1193 171Q1177 153 1153 134T1093 102L929 268Q874 238 807 224T661 209Q580 209 511 222T386 265L219 95Q194 110
170 128Q150 144 129 166T94 216L257 377ZM661 370Q728 370 775 392T854 455T899 554T914 684Q914 760 900 815T854 905T776 956T661 973Q594 973 546 952T466 892T419 797T403 670Q403 514 465 442T661 370Z" />
<glyph unicode="&#xa5;" glyph-name="yen" horiz-adv-x="1175" d="M220 505Q212 532 210 552T207 587Q207 603 209 616T213 640Q216 651 220 661H492L50 1350H293L564 850L587 793L608 850L883 1350H1125L675 661H956Q963 635 965 619T968 588Q968 572 966 558T962
531Q959 517 956 505H692V351H956Q963 325 965 304T968 269Q968 253 966 240T962 216Q959 204 956 194H692V0H486V194H220Q212 221 210 236T207 268Q207 284 209 298T213 325Q216 338 220 351H486V505H220V505Z" />
<glyph unicode="&#xa6;" glyph-name="brokenbar" horiz-adv-x="518" d="M152 1517H366V829H152V1517ZM152 523H366V-166H152V523Z" />
<glyph unicode="&#xa7;" glyph-name="section" horiz-adv-x="1024" d="M177 20Q211 2 253 -12Q289 -24 337 -33T443 -43Q487 -43 526 -38T593 -19T638 22T655 93Q655 123 641 148T600 197T536 244T452 294Q355 349 294 392T199 475T153 555T140 643Q140 691 159
729T201 794Q227 826 262 850Q212 879 178 929T144 1049Q144 1132 173 1193T256 1294T388 1354T563 1374Q630 1374 683 1365T773 1345Q816 1332 848 1316Q845 1294 837 1269Q830 1248 819 1221T787 1164Q760 1179 726 1191Q697 1201 655 1209T558 1218Q518 1218
483 1213T422 1195T381 1158T366 1099Q366 1064 378 1039T416 990T480 944T569 891Q670 832 730 791T821 712T862 635T872 542Q872 494 855 456T817 391T778 349T757 333Q821 291 849 244T877 135Q877 50 847 -13T759 -117T621 -178T438 -199Q383 -199 330 -191T235
-172Q186 -161 141 -145Q140 -122 144 -95Q147 -72 154 -42T177 20ZM336 663Q336 646 338 631T349 600T378 566T430 526T514 474T638 406Q656 426 665 454T675 512Q675 546 669 571T634 625T546 689T380 779Q360 758 348 728T336 663Z" />
<glyph unicode="&#xa8;" glyph-name="dieresis" horiz-adv-x="1022" d="M287 1225Q259 1225 235 1235T192 1262T163 1301T152 1350Q152 1377 162 1400T191 1440T234 1466T287 1476Q315 1476 340 1467T384 1440T414 1400T425 1350Q425 1324 414 1302T384 1262T340
1235T287 1225ZM718 1225Q690 1225 666 1235T623 1262T594 1301T583 1350Q583 1377 593 1400T622 1440T665 1466T718 1476Q746 1476 771 1467T815 1440T845 1400T856 1350Q856 1324 845 1302T815 1262T771 1235T718 1225Z" />
<glyph unicode="&#xa9;" glyph-name="copyright" horiz-adv-x="1707" d="M505 682Q505 877 596 978T858 1079Q892 1079 926 1074T990 1062Q1023 1055 1054 1046Q1053 1026 1049 1004Q1045 985 1039 961T1021 911Q996 920 969 927Q946 933 917 938T858 943Q817
943 784 925T729 872T694 790T682 682Q682 564 728 503T858 441Q888 441 918 445T974 456Q1003 462 1030 471Q1040 456 1047 437Q1053 420 1058 396T1062 343Q1029 331 994 321Q964 313 928 306T858 299Q684 299 595 393T505 682ZM138 681Q138 777 163 865T234
1031T344 1171T487 1279T655 1349T842 1374Q939 1374 1029 1350T1197 1280T1340 1171T1451 1031T1522 866T1547 681Q1547 585 1522 497T1451 331T1341 190T1198 82T1029 12T842 -13Q745 -13 655 11T487 81T345 190T234 330T163 496T138 681ZM278 681Q278 561 322
456T442 273T622 150T842 105Q920 105 992 125T1127 183T1241 273T1330 390T1387 527T1407 681Q1407 800 1363 905T1242 1088T1062 1211T842 1256Q725 1256 622 1211T443 1088T322 905T278 681Z" />
<glyph unicode="&#xaa;" glyph-name="ordfeminine" horiz-adv-x="839" d="M319 561Q267 561 225 584T153 643T107 725T91 816Q91 868 109 910T161 983T239 1031T337 1054L536 1062V1131Q536 1164 525 1187T493 1226T447 1249T390 1256Q352 1256 314 1248T246 1229Q211
1218 178 1203Q162 1228 153 1252T138 1297Q132 1320 130 1342Q170 1358 215 1370Q253 1381 300 1389T397 1398Q555 1398 630 1340T706 1170V685L773 620V573H614L562 618H548Q545 615 524 606T472 587T401 569T319 561ZM363 686Q386 686 415 691T472 703Q504 711
536 721V951L372 941Q347 939 327 928T293 899T272 861T264 822Q264 797 271 773T291 729T322 698T363 686Z" />
<glyph unicode="&#xab;" glyph-name="guillemotleft" horiz-adv-x="1370" d="M704 428Q701 437 698 448Q693 468 693 495Q693 510 695 522T700 544Q704 555 708 564L1108 924Q1139 906 1165 886Q1187 868 1207 845T1233 794L889 514V480L1235 216Q1224 187 1203
162T1159 118Q1133 96 1105 78L704 428V428ZM141 428Q138 437 135 448Q130 468 130 495Q130 510 132 522T137 544Q141 555 145 564L545 924Q576 906 602 886Q624 868 644 845T670 794L326 514V480L672 216Q661 187 640 162T596 118Q570 96 542 78L141 428V428Z"
/>
<glyph unicode="&#xac;" glyph-name="logicalnot" horiz-adv-x="1535" d="M193 685H1303V177H1107V510H193V685Z" />
<glyph unicode="&#xad;" glyph-name="uni00AD" horiz-adv-x="1229" />
<glyph unicode="&#xae;" glyph-name="registered" horiz-adv-x="1707" d="M573 1063H880Q1008 1063 1072 1003T1137 843Q1137 771 1101 716T987 631Q1031 551 1078 473T1168 317H981L827 609Q803 609 787 609T761 610Q750 611 743 612V317H573V1063ZM743 731Q755
729 771 729T815 728Q881 728 918 755T956 840Q956 889 928 915T845 941H743V731ZM138 681Q138 777 163 865T234 1031T344 1171T487 1279T655 1349T842 1374Q939 1374 1029 1350T1197 1280T1340 1171T1451 1031T1522 866T1547 681Q1547 585 1522 497T1451 331T1341
190T1198 82T1029 12T842 -13Q745 -13 655 11T487 81T345 190T234 330T163 496T138 681ZM278 681Q278 561 322 456T442 273T622 150T842 105Q920 105 992 125T1127 183T1241 273T1330 390T1387 527T1407 681Q1407 800 1363 905T1242 1088T1062 1211T842 1256Q725
1256 622 1211T443 1088T322 905T278 681Z" />
<glyph unicode="&#xaf;" glyph-name="overscore" horiz-adv-x="1024" d="M185 1301Q172 1349 172 1380Q172 1398 175 1418T186 1459H831Q836 1439 838 1421T840 1389Q840 1369 837 1347T825 1301H185V1301Z" />
<glyph unicode="&#xb0;" glyph-name="degree" horiz-adv-x="771" d="M383 1158Q417 1158 446 1169T496 1204T529 1261T541 1340Q541 1384 529 1418T496 1476T446 1512T383 1524Q351 1524 324 1512T276 1477T244 1419T232 1340Q232 1295 243 1261T275 1204T323
1170T383 1158ZM383 1019Q316 1019 258 1039T156 1099T87 1200T62 1340Q62 1419 87 1479T155 1580T257 1641T383 1662Q454 1662 514 1642T617 1581T685 1480T709 1340Q709 1259 685 1199T618 1099T514 1039T383 1019Z" />
<glyph unicode="&#xb1;" glyph-name="plusminus" horiz-adv-x="1535" d="M203 848H661V1328H857V848H1313V674H857V328H661V674H203V848ZM203 175H1313V0H203V175Z" />
<glyph unicode="&#xb2;" glyph-name="two.superior" horiz-adv-x="1195" d="M336 998L444 1109Q506 1173 549 1219T620 1301T659 1365T671 1421Q671 1475 651 1502T595 1529Q553 1529 517 1518T454 1492Q422 1476 396 1456Q373 1477 360 1497T340 1534Q332 1552
329 1570Q364 1594 405 1612Q440 1628 487 1641T592 1654Q712 1654 777 1599T842 1432Q842 1387 824 1345T772 1258T687 1160T570 1042L547 1020Q601 1022 657 1026T760 1035Q815 1040 865 1047Q865 1039 866 1030Q866 1022 866 1014T867 998Q867 975 864 946T848
896H336V998Z" />
<glyph unicode="&#xb3;" glyph-name="three.superior" horiz-adv-x="1195" d="M318 927Q320 943 326 961Q331 977 340 998T364 1045Q391 1031 421 1020Q447 1011 479 1004T545 996Q575 996 600 1004T644 1029T674 1068T685 1121Q685 1139 677 1157T654 1189T617
1213T568 1222H489Q484 1239 482 1258T480 1288Q480 1296 480 1305T482 1322Q483 1332 485 1342H568Q586 1342 604 1348T635 1368T657 1403T666 1454Q666 1492 637 1512T559 1533Q527 1533 498 1527T445 1512Q419 1502 395 1491Q376 1512 366 1532T350 1568Q344
1586 342 1604Q373 1618 410 1629Q441 1638 481 1646T567 1654Q630 1654 680 1642T765 1605T818 1543T837 1454Q837 1387 804 1346T711 1285Q777 1269 818 1225T860 1114Q860 1055 838 1011T776 938T679 893T556 878Q509 878 466 885T390 902Q351 913 318 927Z"
/>
<glyph unicode="&#xb4;" glyph-name="acute" horiz-adv-x="567" d="M354 1169Q339 1175 323 1185T291 1208T265 1233T249 1259L494 1605Q512 1600 539 1584T594 1547T642 1505T671 1468L354 1169V1169Z" />
<glyph unicode="&#xb5;" glyph-name="mu" horiz-adv-x="1195" d="M387 -384L349 -425H172L173 335V1022H387V407Q387 354 397 306T431 222T496 165T600 144Q628 144 650 151T691 170T723 197T747 229Q770 267 781 315V1022H996V165L1055 63V0H852L813 69L797 127Q792
105 778 80T739 32T675 -5T584 -20Q541 -20 504 -11T438 15T388 54T358 102L387 -384Z" />
<glyph unicode="&#xb6;" glyph-name="paragraph" horiz-adv-x="1366" d="M599 514Q489 519 404 554T260 646T171 776T140 933Q140 1028 172 1106T264 1241T405 1327T587 1358H1192V-156H977V1185H805V-156H599V514Z" />
<glyph unicode="&#xb7;" glyph-name="middot" horiz-adv-x="452" d="M226 414Q195 414 168 425T121 455T90 499T78 553Q78 581 89 606T121 650T168 679T226 690Q257 690 284 680T331 650T362 606T374 553Q374 524 363 499T331 455T284 425T226 414Z" />
<glyph unicode="&#xb8;" glyph-name="cedilla" horiz-adv-x="512" d="M167 32H308Q317 -1 325 -34Q332 -63 337 -98T343 -166Q343 -220 325 -268T270 -354T182 -412T62 -434Q27 -434 2 -429Q-11 -426 -21 -423Q-25 -410 -28 -394Q-31 -380 -33 -363T-35 -324Q-35
-302 -32 -276T-19 -218Q4 -223 21 -227T47 -231Q75 -231 95 -222T129 -197T149 -160T156 -116Q156 -96 154 -73T150 -29Q147 -6 144 16L167 32Z" />
<glyph unicode="&#xb9;" glyph-name="one.superior" horiz-adv-x="856" d="M360 1464Q343 1457 320 1449T274 1435L257 1436Q234 1448 223 1467T206 1504Q200 1525 200 1547Q242 1563 278 1579T342 1608Q374 1623 401 1636H525V896H360V1464Z" />
<glyph unicode="&#xba;" glyph-name="ordmasculine" horiz-adv-x="911" d="M458 557Q380 557 319 583T216 662T152 796T129 987Q129 1097 152 1175T219 1303T323 1376T458 1399Q534 1399 594 1378T696 1308T760 1184T782 999Q782 889 760 806T695 668T593 585T458
557ZM458 683Q497 683 525 708T570 776T596 877T605 999Q605 1137 571 1207T458 1278Q419 1278 390 1257T342 1196T314 1104T305 987Q305 918 314 862T342 766T390 705T458 683Z" />
<glyph unicode="&#xbb;" glyph-name="guillemotright" horiz-adv-x="1361" d="M1220 574Q1223 565 1226 554Q1231 534 1231 507Q1231 492 1229 480T1224 458Q1220 447 1216 438L816 78Q785 96 759 116Q737 134 717 157T691 208L1035 488V522L689 786Q700 815 721
840T765 884Q791 906 819 924L1220 574V574ZM666 574Q669 565 672 554Q677 534 677 507Q677 492 675 480T670 458Q666 447 662 438L262 78Q231 96 205 116Q183 134 163 157T137 208L481 488V522L135 786Q146 815 167 840T211 884Q237 906 265 924L666 574V574Z"
/>
<glyph unicode="&#xbc;" glyph-name="onequarter" horiz-adv-x="1612" d="M1160 773Q1193 763 1222 752Q1247 743 1270 732T1303 710L1305 695Q1265 634 1223 566Q1187 507 1142 433T1053 281H1229V405Q1249 421 1277 434T1331 455Q1362 465 1394 472V281H1507Q1508
260 1507 240Q1506 223 1503 203T1490 165H1394V0H1229V165H927Q904 179 893 196T876 230Q870 248 870 267L1160 773ZM919 1405Q942 1404 966 1397Q986 1391 1009 1379T1052 1343L516 2Q496 3 474 10Q454 16 430 28T379 64L919 1405ZM261 1345Q244 1338 221 1330T175
1316L158 1317Q135 1329 124 1348T107 1385Q101 1406 101 1428Q143 1444 179 1460T243 1489Q275 1504 302 1517H426V777H261V1345Z" />
<glyph unicode="&#xbd;" glyph-name="onehalf" horiz-adv-x="1612" d="M981 115L1089 226Q1151 290 1194 336T1265 418T1304 482T1316 538Q1316 592 1296 619T1240 646Q1198 646 1162 635T1099 609Q1067 593 1041 573Q1018 594 1005 614T985 651Q977 669 974 687Q1009
711 1050 729Q1085 745 1132 758T1237 771Q1357 771 1422 716T1487 549Q1487 504 1469 462T1417 375T1332 277T1215 159L1192 137Q1246 139 1302 143T1405 152Q1460 157 1510 164Q1510 156 1511 147Q1511 139 1511 131T1512 115Q1512 92 1509 63T1493 13H981V115ZM919
1405Q942 1404 966 1397Q986 1391 1009 1379T1052 1343L516 2Q496 3 474 10Q454 16 430 28T379 64L919 1405ZM261 1345Q244 1338 221 1330T175 1316L158 1317Q135 1329 124 1348T107 1385Q101 1406 101 1428Q143 1444 179 1460T243 1489Q275 1504 302 1517H426V777H261V1345Z"
/>
<glyph unicode="&#xbe;" glyph-name="threequarters" horiz-adv-x="1688" d="M1236 773Q1269 763 1298 752Q1323 743 1346 732T1379 710L1381 695Q1341 634 1299 566Q1263 507 1218 433T1129 281H1305V395Q1325 411 1353 424T1407 445Q1438 455 1470 462V281H1583Q1584
260 1583 240Q1582 223 1579 203T1566 165H1470V0H1305V165H1003Q980 179 969 196T952 230Q946 248 946 267L1236 773ZM995 1405Q1018 1404 1042 1397Q1062 1391 1085 1379T1128 1343L592 2Q572 3 550 10Q530 16 506 28T455 64L995 1405ZM67 801Q69 817 75 835Q80
851 89 872T113 919Q140 905 170 894Q196 885 228 878T294 870Q324 870 349 878T393 903T423 942T434 995Q434 1013 426 1031T403 1063T366 1087T317 1096H238Q233 1113 231 1132T229 1162Q229 1170 229 1179T231 1196Q232 1206 234 1216H317Q335 1216 353 1222T384
1242T406 1277T415 1328Q415 1366 386 1386T308 1407Q276 1407 247 1401T194 1386Q168 1376 144 1365Q125 1386 115 1406T99 1442Q93 1460 91 1478Q122 1492 159 1503Q190 1512 230 1520T316 1528Q379 1528 429 1516T514 1479T567 1417T586 1328Q586 1261 553 1220T460
1159Q526 1143 567 1099T609 988Q609 929 587 885T525 812T428 767T305 752Q258 752 215 759T139 776Q100 787 67 801Z" />
<glyph unicode="&#xbf;" glyph-name="questiondown" horiz-adv-x="851" d="M580 515Q582 500 583 471T584 409T585 349T586 310Q586 265 578 232T551 172T505 126T438 87Q351 45 311 -7T271 -116Q271 -215 329 -257T490 -300Q546 -300 592 -285T674 -251Q714 -230
747 -203Q772 -239 785 -268T806 -319Q814 -344 815 -363Q778 -394 726 -419Q681 -440 615 -457T460 -475Q369 -475 292 -454T159 -390T72 -287T40 -146Q40 -78 64 -23T127 77T216 157T319 220Q354 238 373 260T403 315T415 398T418 522Q442 528 457 531T492 534Q530
534 562 526L580 515ZM645 793Q645 765 634 740T602 696T555 667T497 656Q466 656 439 666T392 696T361 740T349 793Q349 822 360 847T392 891T439 921T497 932Q528 932 555 921T602 892T633 848T645 793Z" />
<glyph unicode="&#xc0;" glyph-name="Agrave" horiz-adv-x="1121" d="M384 1358H725L1131 0H904L780 415H341L223 0H-10L384 1358ZM733 589L550 1255L385 589H733ZM247 1785Q254 1800 275 1821T323 1862T377 1899T422 1922L718 1577Q713 1565 702 1552T677 1526T646
1504T614 1487L247 1785Z" />
<glyph unicode="&#xc1;" glyph-name="Aacute" horiz-adv-x="1121" d="M384 1358H725L1131 0H904L780 415H341L223 0H-10L384 1358ZM733 589L550 1255L385 589H733ZM513 1487Q498 1493 482 1503T451 1526T425 1551T409 1577L705 1922Q723 1916 750 1900T803 1863T851
1821T880 1785L513 1487V1487Z" />
<glyph unicode="&#xc2;" glyph-name="Acircumflex" horiz-adv-x="1121" d="M384 1358H725L1131 0H904L780 415H341L223 0H-10L384 1358ZM733 589L550 1255L385 589H733ZM437 1849H702L930 1491H725L564 1710H563Q522 1656 480 1601T396 1491H199L437 1849Z" />
<glyph unicode="&#xc3;" glyph-name="Atilde" horiz-adv-x="1121" d="M384 1358H725L1131 0H904L780 415H341L223 0H-10L384 1358ZM733 589L550 1255L385 589H733ZM326 1537Q296 1554 275 1573T240 1610Q224 1629 214 1648Q244 1689 283 1722Q315 1750 360 1773T459
1796Q504 1796 537 1777T599 1736Q622 1718 644 1704T688 1690Q708 1690 728 1703T763 1732Q781 1750 797 1774Q829 1755 851 1736T887 1700Q903 1682 911 1664Q880 1623 841 1590Q808 1562 763 1540T664 1517Q619 1517 586 1536T524 1576Q501 1595 479 1608T436
1622Q415 1622 395 1609T360 1579Q342 1561 326 1537Z" />
<glyph unicode="&#xc4;" glyph-name="Adieresis" horiz-adv-x="1121" d="M384 1358H725L1131 0H904L780 415H341L223 0H-10L384 1358ZM733 589L550 1255L385 589H733ZM348 1490Q320 1490 296 1500T253 1527T224 1567T213 1616Q213 1642 223 1665T252 1705T295
1732T348 1742Q376 1742 401 1732T445 1705T475 1665T486 1616Q486 1590 475 1567T446 1527T402 1500T348 1490ZM776 1490Q748 1490 723 1500T680 1527T651 1567T640 1616Q640 1642 650 1665T679 1705T723 1732T776 1742Q804 1742 829 1732T872 1705T902 1665T913
1616Q913 1590 902 1567T873 1527T829 1500T776 1490Z" />
<glyph unicode="&#xc5;" glyph-name="Aring" horiz-adv-x="1121" d="M384 1358H725L1131 0H904L780 415H341L223 0H-10L384 1358ZM733 589L550 1255L385 589H733ZM562 1451Q413 1451 337 1518T261 1705Q261 1824 337 1892T562 1960Q634 1960 691 1943T787 1893T846
1815T867 1712Q867 1587 788 1519T562 1451ZM562 1585Q594 1585 617 1595T654 1623T675 1664T682 1713Q682 1767 655 1798T562 1829Q502 1829 470 1794T438 1705Q438 1649 470 1617T562 1585Z" />
<glyph unicode="&#xc6;" glyph-name="AE" horiz-adv-x="1423" d="M373 1358H1341Q1341 1351 1342 1343Q1343 1336 1343 1327T1344 1308Q1344 1291 1338 1256T1308 1176Q1237 1178 1161 1180Q1095 1182 1016 1183T859 1185V726Q884 726 916 726T983 727T1054 729T1125
731Q1205 733 1289 736Q1289 724 1290 713Q1291 702 1291 690T1292 666Q1292 659 1288 637T1268 558H1105Q1072 558 1037 558T970 558T909 559T859 559V171Q936 171 1022 173T1181 179Q1266 183 1349 186Q1349 178 1350 168Q1351 160 1351 149T1352 126Q1352 106
1349 72T1336 0H632V458H323L197 0H-27L373 1358ZM632 632V1193H526L374 632H632Z" />
<glyph unicode="&#xc7;" glyph-name="Ccedilla" horiz-adv-x="1069" d="M51 667Q51 838 91 971T209 1196T401 1336T663 1384Q722 1384 779 1376T883 1356Q937 1344 987 1329Q984 1303 978 1274Q973 1248 963 1216T935 1148Q898 1163 854 1174Q816 1184 767 1192T663
1200Q574 1200 503 1164T381 1060T303 892T276 667Q276 542 303 447T380 288T502 192T663 159Q719 159 770 167T860 185Q906 196 945 212Q956 189 964 161Q971 137 976 104T980 28Q941 16 898 5Q860 -4 813 -12T712 -24Q720 -54 726 -92T732 -166Q732 -220 714
-268T659 -354T571 -412T451 -434Q416 -434 391 -429Q378 -426 368 -423Q364 -410 361 -394Q358 -380 356 -363T354 -324Q354 -302 357 -276T370 -218Q393 -223 410 -227T436 -231Q464 -231 484 -222T518 -197T538 -160T545 -116Q545 -105 545 -91T543 -64T541
-38T537 -17Q296 17 174 189T51 667Z" />
<glyph unicode="&#xc8;" glyph-name="Egrave" horiz-adv-x="1019" d="M158 1358H937Q937 1351 938 1343Q939 1336 939 1328T940 1309Q940 1292 934 1258T905 1178Q822 1181 733 1184Q657 1186 565 1188T385 1191V781Q414 781 450 781T526 783T606 785T684 787Q772
790 865 792Q865 784 866 775Q867 767 867 757T868 735Q868 730 867 716T862 683T854 647T843 617Q750 617 664 618Q627 618 588 618T513 618T443 619T385 619V171Q473 171 570 174T752 180Q850 184 945 189Q945 180 946 170Q947 162 947 151T948 128Q948 107 945
73T932 0H158V1358ZM240 1785Q247 1800 268 1821T316 1862T370 1899T415 1922L711 1577Q706 1565 695 1552T670 1526T639 1504T607 1487L240 1785Z" />
<glyph unicode="&#xc9;" glyph-name="Eacute" horiz-adv-x="1019" d="M158 1358H937Q937 1351 938 1343Q939 1336 939 1328T940 1309Q940 1292 934 1258T905 1178Q822 1181 733 1184Q657 1186 565 1188T385 1191V781Q414 781 450 781T526 783T606 785T684 787Q772
790 865 792Q865 784 866 775Q867 767 867 757T868 735Q868 730 867 716T862 683T854 647T843 617Q750 617 664 618Q627 618 588 618T513 618T443 619T385 619V171Q473 171 570 174T752 180Q850 184 945 189Q945 180 946 170Q947 162 947 151T948 128Q948 107 945
73T932 0H158V1358ZM506 1487Q491 1493 475 1503T444 1526T418 1551T402 1577L698 1922Q716 1916 743 1900T796 1863T844 1821T873 1785L506 1487V1487Z" />
<glyph unicode="&#xca;" glyph-name="Ecircumflex" horiz-adv-x="1019" d="M158 1358H937Q937 1351 938 1343Q939 1336 939 1328T940 1309Q940 1292 934 1258T905 1178Q822 1181 733 1184Q657 1186 565 1188T385 1191V781Q414 781 450 781T526 783T606 785T684
787Q772 790 865 792Q865 784 866 775Q867 767 867 757T868 735Q868 730 867 716T862 683T854 647T843 617Q750 617 664 618Q627 618 588 618T513 618T443 619T385 619V171Q473 171 570 174T752 180Q850 184 945 189Q945 180 946 170Q947 162 947 151T948 128Q948
107 945 73T932 0H158V1358ZM430 1849H695L923 1491H718L557 1710H556Q515 1656 473 1601T389 1491H192L430 1849Z" />
<glyph unicode="&#xcb;" glyph-name="Edieresis" horiz-adv-x="1019" d="M158 1358H937Q937 1351 938 1343Q939 1336 939 1328T940 1309Q940 1292 934 1258T905 1178Q822 1181 733 1184Q657 1186 565 1188T385 1191V781Q414 781 450 781T526 783T606 785T684 787Q772
790 865 792Q865 784 866 775Q867 767 867 757T868 735Q868 730 867 716T862 683T854 647T843 617Q750 617 664 618Q627 618 588 618T513 618T443 619T385 619V171Q473 171 570 174T752 180Q850 184 945 189Q945 180 946 170Q947 162 947 151T948 128Q948 107 945
73T932 0H158V1358ZM341 1490Q313 1490 289 1500T246 1527T217 1567T206 1616Q206 1642 216 1665T245 1705T288 1732T341 1742Q369 1742 394 1732T438 1705T468 1665T479 1616Q479 1590 468 1567T439 1527T395 1500T341 1490ZM769 1490Q741 1490 716 1500T673 1527T644
1567T633 1616Q633 1642 643 1665T672 1705T716 1732T769 1742Q797 1742 822 1732T865 1705T895 1665T906 1616Q906 1590 895 1567T866 1527T822 1500T769 1490Z" />
<glyph unicode="&#xcc;" glyph-name="Igrave" horiz-adv-x="542" d="M158 1358H384V0H158V1358ZM-46 1785Q-39 1800 -18 1821T30 1862T84 1899T129 1922L425 1577Q420 1565 409 1552T384 1526T353 1504T321 1487L-46 1785Z" />
<glyph unicode="&#xcd;" glyph-name="Iacute" horiz-adv-x="542" d="M158 1358H384V0H158V1358ZM220 1487Q205 1493 189 1503T158 1526T132 1551T116 1577L412 1922Q430 1916 457 1900T510 1863T558 1821T587 1785L220 1487V1487Z" />
<glyph unicode="&#xce;" glyph-name="Icircumflex" horiz-adv-x="542" d="M158 1358H384V0H158V1358ZM400 1849H665L893 1491H688L527 1710H526Q485 1656 443 1601T359 1491H162L400 1849Z" />
<glyph unicode="&#xcf;" glyph-name="Idieresis" horiz-adv-x="542" d="M158 1358H384V0H158V1358ZM55 1490Q27 1490 3 1500T-40 1527T-69 1567T-80 1616Q-80 1642 -70 1665T-41 1705T2 1732T55 1742Q83 1742 108 1732T152 1705T182 1665T193 1616Q193 1590 182
1567T153 1527T109 1500T55 1490ZM483 1490Q455 1490 430 1500T387 1527T358 1567T347 1616Q347 1642 357 1665T386 1705T430 1732T483 1742Q511 1742 536 1732T579 1705T609 1665T620 1616Q620 1590 609 1567T580 1527T536 1500T483 1490Z" />
<glyph unicode="&#xd0;" glyph-name="Eth" horiz-adv-x="1265" d="M56 773Q83 773 111 773T168 775V1357Q219 1359 281 1362Q335 1364 407 1366T567 1368Q723 1368 843 1327T1045 1201T1170 990T1213 692Q1213 521 1167 392T1036 175T828 44T553 0H168V617H56V773ZM587
175Q680 175 753 214T877 323T955 486T982 688Q982 813 955 907T877 1066T753 1162T587 1194Q536 1194 499 1193T439 1191Q412 1189 394 1188V779Q460 780 518 781T620 783Q671 784 714 784Q714 776 715 767Q716 759 716 749T717 727Q717 707 714 678T700 613Q658
613 610 614Q568 615 513 615T394 616V175H587Z" />
<glyph unicode="&#xd1;" glyph-name="Ntilde" horiz-adv-x="1351" d="M158 1358H517L860 510L997 124L984 510L977 1358H1193V0H843L492 850L355 1242L368 850L375 0H158V1358ZM442 1537Q412 1554 391 1573T356 1610Q340 1629 330 1648Q360 1689 399 1722Q431
1750 476 1773T575 1796Q620 1796 653 1777T715 1736Q738 1718 760 1704T804 1690Q824 1690 844 1703T879 1732Q897 1750 913 1774Q945 1755 967 1736T1003 1700Q1019 1682 1027 1664Q996 1623 957 1590Q924 1562 879 1540T780 1517Q735 1517 702 1536T640 1576Q617
1595 595 1608T552 1622Q531 1622 511 1609T476 1579Q458 1561 442 1537Z" />
<glyph unicode="&#xd2;" glyph-name="Ograve" horiz-adv-x="1290" d="M649 -26Q499 -26 392 22T216 162T115 384T83 679Q83 843 116 974T219 1196T396 1335T649 1384Q802 1384 908 1339T1080 1205T1177 990T1207 698Q1207 533 1175 400T1075 172T902 26T649 -26ZM649
149Q744 149 807 189T909 301T964 475T981 698Q981 829 965 925T910 1085T808 1180T649 1211Q554 1211 489 1176T383 1072T326 904T308 679Q308 553 325 454T383 288T488 185T649 149ZM332 1785Q339 1800 360 1821T408 1862T462 1899T507 1922L803 1577Q798 1565
787 1552T762 1526T731 1504T699 1487L332 1785Z" />
<glyph unicode="&#xd3;" glyph-name="Oacute" horiz-adv-x="1290" d="M649 -26Q499 -26 392 22T216 162T115 384T83 679Q83 843 116 974T219 1196T396 1335T649 1384Q802 1384 908 1339T1080 1205T1177 990T1207 698Q1207 533 1175 400T1075 172T902 26T649 -26ZM649
149Q744 149 807 189T909 301T964 475T981 698Q981 829 965 925T910 1085T808 1180T649 1211Q554 1211 489 1176T383 1072T326 904T308 679Q308 553 325 454T383 288T488 185T649 149ZM598 1487Q583 1493 567 1503T536 1526T510 1551T494 1577L790 1922Q808 1916
835 1900T888 1863T936 1821T965 1785L598 1487V1487Z" />
<glyph unicode="&#xd4;" glyph-name="Ocircumflex" horiz-adv-x="1290" d="M649 -26Q499 -26 392 22T216 162T115 384T83 679Q83 843 116 974T219 1196T396 1335T649 1384Q802 1384 908 1339T1080 1205T1177 990T1207 698Q1207 533 1175 400T1075 172T902 26T649
-26ZM649 149Q744 149 807 189T909 301T964 475T981 698Q981 829 965 925T910 1085T808 1180T649 1211Q554 1211 489 1176T383 1072T326 904T308 679Q308 553 325 454T383 288T488 185T649 149ZM522 1849H787L1015 1491H810L649 1710H648Q607 1656 565 1601T481
1491H284L522 1849Z" />
<glyph unicode="&#xd5;" glyph-name="Otilde" horiz-adv-x="1290" d="M649 -26Q499 -26 392 22T216 162T115 384T83 679Q83 843 116 974T219 1196T396 1335T649 1384Q802 1384 908 1339T1080 1205T1177 990T1207 698Q1207 533 1175 400T1075 172T902 26T649 -26ZM649
149Q744 149 807 189T909 301T964 475T981 698Q981 829 965 925T910 1085T808 1180T649 1211Q554 1211 489 1176T383 1072T326 904T308 679Q308 553 325 454T383 288T488 185T649 149ZM411 1537Q381 1554 360 1573T325 1610Q309 1629 299 1648Q329 1689 368 1722Q400
1750 445 1773T544 1796Q589 1796 622 1777T684 1736Q707 1718 729 1704T773 1690Q793 1690 813 1703T848 1732Q866 1750 882 1774Q914 1755 936 1736T972 1700Q988 1682 996 1664Q965 1623 926 1590Q893 1562 848 1540T749 1517Q704 1517 671 1536T609 1576Q586
1595 564 1608T521 1622Q500 1622 480 1609T445 1579Q427 1561 411 1537Z" />
<glyph unicode="&#xd6;" glyph-name="Odieresis" horiz-adv-x="1290" d="M649 -26Q499 -26 392 22T216 162T115 384T83 679Q83 843 116 974T219 1196T396 1335T649 1384Q802 1384 908 1339T1080 1205T1177 990T1207 698Q1207 533 1175 400T1075 172T902 26T649
-26ZM649 149Q744 149 807 189T909 301T964 475T981 698Q981 829 965 925T910 1085T808 1180T649 1211Q554 1211 489 1176T383 1072T326 904T308 679Q308 553 325 454T383 288T488 185T649 149ZM433 1490Q405 1490 381 1500T338 1527T309 1567T298 1616Q298 1642
308 1665T337 1705T380 1732T433 1742Q461 1742 486 1732T530 1705T560 1665T571 1616Q571 1590 560 1567T531 1527T487 1500T433 1490ZM861 1490Q833 1490 808 1500T765 1527T736 1567T725 1616Q725 1642 735 1665T764 1705T808 1732T861 1742Q889 1742 914 1732T957
1705T987 1665T998 1616Q998 1590 987 1567T958 1527T914 1500T861 1490Z" />
<glyph unicode="&#xd7;" glyph-name="multiply" horiz-adv-x="1368" d="M553 612L182 988L307 1113L672 721L1037 1113L1172 978L800 592L1162 216L1037 92L682 483L317 92L182 226L553 612Z" />
<glyph unicode="&#xd8;" glyph-name="Oslash" horiz-adv-x="1290" d="M649 -26Q577 -26 516 -15T401 18L307 -180Q290 -176 272 -168Q256 -161 236 -149T196 -117L292 83Q183 171 133 322T83 679Q83 843 116 974T219 1196T396 1335T649 1384Q777 1384 877 1350L958
1520Q978 1517 997 1509Q1014 1502 1032 1490T1066 1458L988 1294Q1105 1213 1156 1062T1207 698Q1207 533 1175 400T1075 172T902 26T649 -26ZM649 149Q744 149 807 189T909 301T964 475T981 698Q981 844 961 946T892 1111L477 191Q546 149 649 149ZM308 679Q308
544 327 442T393 271L807 1180Q775 1195 736 1203T649 1211Q554 1211 489 1176T383 1072T326 904T308 679Z" />
<glyph unicode="&#xd9;" glyph-name="Ugrave" horiz-adv-x="1241" d="M117 530Q117 561 117 613T117 730T118 865T119 1007Q120 1171 121 1358H343V497Q343 420 358 358T406 252T493 184T623 160Q699 160 753 184T841 252T890 358T906 497Q906 519 906 568T906
681T905 821T904 972Q903 1148 902 1358H1123V530Q1123 394 1098 291T1014 119T860 15T623 -20Q484 -20 388 15T231 120T144 293T117 530ZM307 1785Q314 1800 335 1821T383 1862T437 1899T482 1922L778 1577Q773 1565 762 1552T737 1526T706 1504T674 1487L307
1785Z" />
<glyph unicode="&#xda;" glyph-name="Uacute" horiz-adv-x="1241" d="M117 530Q117 561 117 613T117 730T118 865T119 1007Q120 1171 121 1358H343V497Q343 420 358 358T406 252T493 184T623 160Q699 160 753 184T841 252T890 358T906 497Q906 519 906 568T906
681T905 821T904 972Q903 1148 902 1358H1123V530Q1123 394 1098 291T1014 119T860 15T623 -20Q484 -20 388 15T231 120T144 293T117 530ZM573 1487Q558 1493 542 1503T511 1526T485 1551T469 1577L765 1922Q783 1916 810 1900T863 1863T911 1821T940 1785L573
1487V1487Z" />
<glyph unicode="&#xdb;" glyph-name="Ucircumflex" horiz-adv-x="1241" d="M117 530Q117 561 117 613T117 730T118 865T119 1007Q120 1171 121 1358H343V497Q343 420 358 358T406 252T493 184T623 160Q699 160 753 184T841 252T890 358T906 497Q906 519 906 568T906
681T905 821T904 972Q903 1148 902 1358H1123V530Q1123 394 1098 291T1014 119T860 15T623 -20Q484 -20 388 15T231 120T144 293T117 530ZM497 1849H762L990 1491H785L624 1710H623Q582 1656 540 1601T456 1491H259L497 1849Z" />
<glyph unicode="&#xdc;" glyph-name="Udieresis" horiz-adv-x="1241" d="M117 530Q117 561 117 613T117 730T118 865T119 1007Q120 1171 121 1358H343V497Q343 420 358 358T406 252T493 184T623 160Q699 160 753 184T841 252T890 358T906 497Q906 519 906 568T906
681T905 821T904 972Q903 1148 902 1358H1123V530Q1123 394 1098 291T1014 119T860 15T623 -20Q484 -20 388 15T231 120T144 293T117 530ZM408 1490Q380 1490 356 1500T313 1527T284 1567T273 1616Q273 1642 283 1665T312 1705T355 1732T408 1742Q436 1742 461
1732T505 1705T535 1665T546 1616Q546 1590 535 1567T506 1527T462 1500T408 1490ZM836 1490Q808 1490 783 1500T740 1527T711 1567T700 1616Q700 1642 710 1665T739 1705T783 1732T836 1742Q864 1742 889 1732T932 1705T962 1665T973 1616Q973 1590 962 1567T933
1527T889 1500T836 1490Z" />
<glyph unicode="&#xdd;" glyph-name="Yacute" horiz-adv-x="1001" d="M388 510L-20 1358H224L441 850L499 674L557 849L777 1358H1021L615 510V0H388V510ZM452 1487Q437 1493 421 1503T390 1526T364 1551T348 1577L644 1922Q662 1916 689 1900T742 1863T790 1821T819
1785L452 1487V1487Z" />
<glyph unicode="&#xde;" glyph-name="Thorn" horiz-adv-x="1116" d="M153 1358H382V1114H658Q758 1114 835 1085T963 1001T1041 870T1068 697Q1068 610 1037 532T944 395T792 300T582 265Q539 265 503 267T439 272Q407 276 380 280V0H153V1358ZM380 443Q398 441
433 439T517 436Q585 436 642 449T742 494T807 573T831 693Q831 749 818 795T778 875T710 926T614 945H380V443Z" />
<glyph unicode="&#xdf;" glyph-name="germandbls" horiz-adv-x="1141" d="M149 926Q149 1011 175 1093T255 1240T390 1344T580 1384Q630 1384 690 1372T804 1330T892 1248T928 1117Q928 1064 916 1026T886 957T845 904T800 860Q786 846 772 832T746 801T727 766T719
729Q719 708 724 696T744 675T780 657T838 633Q916 599 966 564T1044 488T1082 396T1093 282Q1093 213 1065 158T987 63T870 2T725 -20Q668 -20 622 -12T542 8Q503 20 473 37Q473 63 478 92Q483 116 492 146T519 208Q551 195 585 184Q614 175 649 168T719 160Q746
160 772 164T820 181T854 216T868 277Q868 332 836 378T739 452Q677 479 633 502T561 554T520 619T507 708Q507 746 516 773T539 823T572 863T611 900Q628 916 646 935T678 977T702 1029T712 1095Q712 1150 676 1185T569 1221Q522 1221 483 1198T415 1136T370 1049T354
950V0H149V926Z" />
<glyph unicode="&#xe0;" glyph-name="agrave" horiz-adv-x="992" d="M64 292Q64 375 88 433T158 528T271 583T424 607L647 619V699Q647 753 638 788T606 844T548 873T457 882Q403 882 355 870T270 844Q227 827 191 806Q169 837 156 865T136 917Q127 943 124 967Q172
991 227 1009Q275 1025 337 1038T469 1051Q583 1051 658 1031T777 971T839 869T857 723V165L941 63V0H756L679 89H643Q638 84 617 67T562 30T486 -5T395 -20Q320 -20 259 2T155 66T88 165T64 292ZM282 310Q282 264 295 234T331 185T388 160T463 153Q501 153 534
162T593 184Q622 197 647 215V484L446 471Q399 468 368 455T317 421T290 372T282 310ZM274 1468Q281 1483 302 1504T351 1546T405 1583T451 1605L696 1259Q691 1247 680 1234T654 1208T623 1186T591 1169L274 1468Z" />
<glyph unicode="&#xe1;" glyph-name="aacute" horiz-adv-x="992" d="M64 292Q64 375 88 433T158 528T271 583T424 607L647 619V699Q647 753 638 788T606 844T548 873T457 882Q403 882 355 870T270 844Q227 827 191 806Q169 837 156 865T136 917Q127 943 124 967Q172
991 227 1009Q275 1025 337 1038T469 1051Q583 1051 658 1031T777 971T839 869T857 723V165L941 63V0H756L679 89H643Q638 84 617 67T562 30T486 -5T395 -20Q320 -20 259 2T155 66T88 165T64 292ZM282 310Q282 264 295 234T331 185T388 160T463 153Q501 153 534
162T593 184Q622 197 647 215V484L446 471Q399 468 368 455T317 421T290 372T282 310ZM456 1169Q441 1175 425 1185T393 1208T367 1233T351 1259L596 1605Q614 1600 641 1584T696 1547T744 1505T773 1468L456 1169V1169Z" />
<glyph unicode="&#xe2;" glyph-name="acircumflex" horiz-adv-x="992" d="M64 292Q64 375 88 433T158 528T271 583T424 607L647 619V699Q647 753 638 788T606 844T548 873T457 882Q403 882 355 870T270 844Q227 827 191 806Q169 837 156 865T136 917Q127 943 124
967Q172 991 227 1009Q275 1025 337 1038T469 1051Q583 1051 658 1031T777 971T839 869T857 723V165L941 63V0H756L679 89H643Q638 84 617 67T562 30T486 -5T395 -20Q320 -20 259 2T155 66T88 165T64 292ZM282 310Q282 264 295 234T331 185T388 160T463 153Q501
153 534 162T593 184Q622 197 647 215V484L446 471Q399 468 368 455T317 421T290 372T282 310ZM388 1615H646L869 1163H695L515 1504L327 1163H153L388 1615Z" />
<glyph unicode="&#xe3;" glyph-name="atilde" horiz-adv-x="992" d="M64 292Q64 375 88 433T158 528T271 583T424 607L647 619V699Q647 753 638 788T606 844T548 873T457 882Q403 882 355 870T270 844Q227 827 191 806Q169 837 156 865T136 917Q127 943 124 967Q172
991 227 1009Q275 1025 337 1038T469 1051Q583 1051 658 1031T777 971T839 869T857 723V165L941 63V0H756L679 89H643Q638 84 617 67T562 30T486 -5T395 -20Q320 -20 259 2T155 66T88 165T64 292ZM282 310Q282 264 295 234T331 185T388 160T463 153Q501 153 534
162T593 184Q622 197 647 215V484L446 471Q399 468 368 455T317 421T290 372T282 310ZM279 1239Q249 1256 228 1276T193 1313Q177 1332 167 1351Q198 1391 237 1424Q270 1452 314 1475T413 1498Q458 1498 490 1479T552 1438Q576 1420 598 1407T641 1393Q662 1393
681 1405T716 1434Q734 1452 750 1476Q782 1457 804 1438T840 1403Q856 1385 865 1366Q834 1325 795 1292Q762 1264 717 1242T618 1219Q572 1219 539 1238T477 1278Q454 1297 432 1310T390 1324Q369 1324 349 1311T313 1281Q295 1263 279 1239Z" />
<glyph unicode="&#xe4;" glyph-name="adieresis" horiz-adv-x="992" d="M64 292Q64 375 88 433T158 528T271 583T424 607L647 619V699Q647 753 638 788T606 844T548 873T457 882Q403 882 355 870T270 844Q227 827 191 806Q169 837 156 865T136 917Q127 943 124
967Q172 991 227 1009Q275 1025 337 1038T469 1051Q583 1051 658 1031T777 971T839 869T857 723V165L941 63V0H756L679 89H643Q638 84 617 67T562 30T486 -5T395 -20Q320 -20 259 2T155 66T88 165T64 292ZM282 310Q282 264 295 234T331 185T388 160T463 153Q501
153 534 162T593 184Q622 197 647 215V484L446 471Q399 468 368 455T317 421T290 372T282 310ZM298 1225Q270 1225 246 1235T203 1262T174 1301T163 1350Q163 1377 173 1400T202 1440T245 1466T298 1476Q326 1476 351 1467T395 1440T425 1400T436 1350Q436 1324
425 1302T395 1262T351 1235T298 1225ZM729 1225Q701 1225 677 1235T634 1262T605 1301T594 1350Q594 1377 604 1400T633 1440T676 1466T729 1476Q757 1476 782 1467T826 1440T856 1400T867 1350Q867 1324 856 1302T826 1262T782 1235T729 1225Z" />
<glyph unicode="&#xe5;" glyph-name="aring" horiz-adv-x="992" d="M64 292Q64 375 88 433T158 528T271 583T424 607L647 619V699Q647 753 638 788T606 844T548 873T457 882Q403 882 355 870T270 844Q227 827 191 806Q169 837 156 865T136 917Q127 943 124 967Q172
991 227 1009Q275 1025 337 1038T469 1051Q583 1051 658 1031T777 971T839 869T857 723V165L941 63V0H756L679 89H643Q638 84 617 67T562 30T486 -5T395 -20Q320 -20 259 2T155 66T88 165T64 292ZM282 310Q282 264 295 234T331 185T388 160T463 153Q501 153 534
162T593 184Q622 197 647 215V484L446 471Q399 468 368 455T317 421T290 372T282 310ZM516 1163Q444 1163 388 1181T292 1234T233 1315T213 1421Q213 1479 233 1526T292 1608T387 1661T516 1680Q586 1680 643 1662T741 1610T803 1530T825 1428Q825 1367 803 1318T741
1235T644 1182T516 1163ZM516 1291Q548 1291 572 1303T613 1334T638 1378T646 1429Q646 1483 614 1519T516 1555Q486 1555 462 1544T419 1515T392 1472T382 1421Q382 1393 391 1370T419 1329T461 1301T516 1291Z" />
<glyph unicode="&#xe6;" glyph-name="ae" horiz-adv-x="1577" d="M67 317Q67 390 96 443T172 530T281 583T407 607Q474 609 533 611T660 616V701Q660 752 651 788T620 846T561 879T466 889Q414 889 368 879T287 858Q247 844 212 827Q189 856 177 882T159 930Q152
955 150 976Q196 996 248 1013Q293 1027 349 1038T466 1050Q547 1050 604 1041T701 1015T766 975T810 922Q836 950 870 973T942 1014T1022 1040T1105 1050Q1198 1050 1271 1023T1394 946T1472 824T1499 663Q1499 631 1498 603T1494 554Q1492 529 1490 509L859 489Q861
320 932 234T1135 148Q1189 148 1237 157T1324 178Q1368 191 1406 209Q1422 172 1431 143T1446 91Q1452 65 1454 46Q1411 27 1361 13Q1317 0 1260 -10T1135 -20Q1011 -20 925 17T778 127H757Q751 119 729 96T665 46T561 0T412 -20Q337 -20 274 3T165 69T93 175T67
317ZM285 326Q285 279 300 245T343 189T406 155T483 144Q524 144 559 155T624 181T674 212T707 239Q688 286 675 346T660 472L428 462Q349 458 317 424T285 326ZM868 628Q925 630 979 632T1088 637T1197 642T1310 647Q1310 708 1297 753T1259 829T1202 874T1128
889Q1020 889 954 822T868 628Z" />
<glyph unicode="&#xe7;" glyph-name="ccedilla" horiz-adv-x="858" d="M79 513Q79 645 111 745T204 913T355 1015T560 1050Q602 1050 645 1042T723 1025Q763 1014 801 1000Q798 972 792 942Q787 916 778 886T754 826Q727 837 696 847Q669 855 634 862T560 869Q493
869 444 845T361 774T312 662T296 514Q296 334 365 241T570 148Q610 148 646 154T711 169Q744 179 773 191Q783 169 791 143Q798 120 803 91T808 27Q781 17 749 8Q722 0 688 -7T616 -17Q624 -48 630 -89T637 -166Q637 -220 619 -268T564 -354T476 -412T356 -434Q321
-434 296 -429Q283 -426 273 -423Q269 -410 266 -394Q263 -380 261 -363T259 -324Q259 -302 262 -276T275 -218Q298 -223 315 -227T341 -231Q369 -231 389 -222T423 -197T443 -160T450 -116Q450 -105 449 -91T447 -61T444 -31T440 -8Q265 25 172 155T79 513Z" />
<glyph unicode="&#xe8;" glyph-name="egrave" horiz-adv-x="1043" d="M77 501Q77 645 112 749T210 920T360 1018T553 1050Q650 1050 726 1018T856 926T937 785T965 604Q965 570 962 541T955 491Q951 466 946 446L290 449Q291 360 309 302T362 209T452 162T580
148Q643 148 693 156T778 175Q818 187 850 203Q865 168 873 138T886 86Q890 60 892 40Q859 23 812 10Q772 -1 714 -10T580 -20Q460 -20 367 7T209 95T111 256T77 501ZM751 595V629Q751 692 736 740T693 822T629 872T549 889Q486 889 438 873T358 821T309 729T293
595H751ZM281 1468Q288 1483 309 1504T358 1546T412 1583T458 1605L703 1259Q698 1247 687 1234T661 1208T630 1186T598 1169L281 1468Z" />
<glyph unicode="&#xe9;" glyph-name="eacute" horiz-adv-x="1043" d="M77 501Q77 645 112 749T210 920T360 1018T553 1050Q650 1050 726 1018T856 926T937 785T965 604Q965 570 962 541T955 491Q951 466 946 446L290 449Q291 360 309 302T362 209T452 162T580
148Q643 148 693 156T778 175Q818 187 850 203Q865 168 873 138T886 86Q890 60 892 40Q859 23 812 10Q772 -1 714 -10T580 -20Q460 -20 367 7T209 95T111 256T77 501ZM751 595V629Q751 692 736 740T693 822T629 872T549 889Q486 889 438 873T358 821T309 729T293
595H751ZM463 1169Q448 1175 432 1185T400 1208T374 1233T358 1259L603 1605Q621 1600 648 1584T703 1547T751 1505T780 1468L463 1169V1169Z" />
<glyph unicode="&#xea;" glyph-name="ecircumflex" horiz-adv-x="1043" d="M77 501Q77 645 112 749T210 920T360 1018T553 1050Q650 1050 726 1018T856 926T937 785T965 604Q965 570 962 541T955 491Q951 466 946 446L290 449Q291 360 309 302T362 209T452 162T580
148Q643 148 693 156T778 175Q818 187 850 203Q865 168 873 138T886 86Q890 60 892 40Q859 23 812 10Q772 -1 714 -10T580 -20Q460 -20 367 7T209 95T111 256T77 501ZM751 595V629Q751 692 736 740T693 822T629 872T549 889Q486 889 438 873T358 821T309 729T293
595H751ZM395 1615H653L876 1163H702L522 1504L334 1163H160L395 1615Z" />
<glyph unicode="&#xeb;" glyph-name="edieresis" horiz-adv-x="1043" d="M77 501Q77 645 112 749T210 920T360 1018T553 1050Q650 1050 726 1018T856 926T937 785T965 604Q965 570 962 541T955 491Q951 466 946 446L290 449Q291 360 309 302T362 209T452 162T580
148Q643 148 693 156T778 175Q818 187 850 203Q865 168 873 138T886 86Q890 60 892 40Q859 23 812 10Q772 -1 714 -10T580 -20Q460 -20 367 7T209 95T111 256T77 501ZM751 595V629Q751 692 736 740T693 822T629 872T549 889Q486 889 438 873T358 821T309 729T293
595H751ZM305 1225Q277 1225 253 1235T210 1262T181 1301T170 1350Q170 1377 180 1400T209 1440T252 1466T305 1476Q333 1476 358 1467T402 1440T432 1400T443 1350Q443 1324 432 1302T402 1262T358 1235T305 1225ZM736 1225Q708 1225 684 1235T641 1262T612 1301T601
1350Q601 1377 611 1400T640 1440T683 1466T736 1476Q764 1476 789 1467T833 1440T863 1400T874 1350Q874 1324 863 1302T833 1262T789 1235T736 1225Z" />
<glyph unicode="&#xec;" glyph-name="igrave" horiz-adv-x="521" d="M141 1022H349V168L408 126V0H351L349 2V0Q250 0 196 40T141 172V1022ZM14 1455Q21 1470 42 1491T91 1533T145 1570T191 1592L436 1246Q431 1234 420 1221T394 1195T363 1173T331 1156L14 1455Z" />
<glyph unicode="&#xed;" glyph-name="iacute" horiz-adv-x="521" d="M141 1022H349V168L408 126V0H351L349 2V0Q250 0 196 40T141 172V1022ZM196 1156Q181 1162 165 1172T133 1195T107 1220T91 1246L336 1592Q354 1587 381 1571T436 1534T484 1492T513 1455L196
1156V1156Z" />
<glyph unicode="&#xee;" glyph-name="icircumflex" horiz-adv-x="521" d="M141 1022H349V168L408 126V0H351L349 2V0Q250 0 196 40T141 172V1022ZM128 1602H386L609 1150H435L255 1491L67 1150H-107L128 1602Z" />
<glyph unicode="&#xef;" glyph-name="idieresis" horiz-adv-x="521" d="M141 1022H349V168L408 126V0H351L349 2V0Q250 0 196 40T141 172V1022ZM38 1212Q10 1212 -14 1222T-57 1249T-86 1288T-97 1337Q-97 1364 -87 1387T-58 1427T-15 1453T38 1463Q66 1463 91
1454T135 1427T165 1387T176 1337Q176 1311 165 1289T135 1249T91 1222T38 1212ZM469 1212Q441 1212 417 1222T374 1249T345 1288T334 1337Q334 1364 344 1387T373 1427T416 1453T469 1463Q497 1463 522 1454T566 1427T596 1387T607 1337Q607 1311 596 1289T566
1249T522 1222T469 1212Z" />
<glyph unicode="&#xf0;" glyph-name="eth" horiz-adv-x="1135" d="M439 1308L578 1423Q551 1449 518 1470T451 1507T388 1533T342 1546Q349 1584 357 1611T372 1658Q380 1680 387 1695Q420 1695 464 1678T552 1636T634 1581T693 1528L825 1681L935 1554L799 1425Q843
1372 889 1303T974 1139T1038 920T1064 631Q1064 543 1053 461T1015 305T949 171T853 67T724 -1T561 -26Q455 -26 368 18T218 136T121 306T86 508Q86 654 124 756T223 924T363 1019T523 1049Q587 1049 641 1037T737 1003T810 954T861 895Q865 921 859 958T838 1037T805
1123T763 1203T718 1269T676 1311L554 1190L439 1308ZM311 492Q311 432 325 370T370 256T450 171T569 138Q613 138 650 154T718 199T771 263T809 340T832 420T840 496Q840 505 840 530T840 582T839 634T837 668Q830 713 804 754T740 826T656 876T561 895Q502 895
456 867T377 786T328 659T311 492Z" />
<glyph unicode="&#xf1;" glyph-name="ntilde" horiz-adv-x="1148" d="M152 839L73 920V1033H257L343 955L372 961Q379 967 404 982T467 1012T553 1038T654 1050Q738 1050 803 1025T914 954T982 842T1005 696V0H790V675Q790 784 745 835T600 887Q551 887 509 879T435
859Q398 847 366 831V0H152V839ZM382 1239Q352 1256 331 1276T296 1313Q280 1332 270 1351Q301 1391 340 1424Q373 1452 417 1475T516 1498Q561 1498 593 1479T655 1438Q679 1420 701 1407T744 1393Q765 1393 784 1405T819 1434Q837 1452 853 1476Q885 1457 907
1438T943 1403Q959 1385 968 1366Q937 1325 898 1292Q865 1264 820 1242T721 1219Q675 1219 642 1238T580 1278Q557 1297 535 1310T493 1324Q472 1324 452 1311T416 1281Q398 1263 382 1239Z" />
<glyph unicode="&#xf2;" glyph-name="ograve" horiz-adv-x="1118" d="M76 511Q76 643 111 744T211 913T365 1016T563 1051Q674 1051 763 1019T914 920T1009 756T1042 525Q1042 393 1009 291T913 120T762 16T563 -20Q449 -20 359 13T206 113T110 279T76 511ZM563
145Q629 145 677 173T757 252T803 372T818 525Q818 704 757 798T563 892Q496 892 447 864T365 784T316 663T300 511Q300 330 364 238T563 145ZM320 1468Q327 1483 348 1504T397 1546T451 1583T497 1605L742 1259Q737 1247 726 1234T700 1208T669 1186T637 1169L320
1468Z" />
<glyph unicode="&#xf3;" glyph-name="oacute" horiz-adv-x="1118" d="M76 511Q76 643 111 744T211 913T365 1016T563 1051Q674 1051 763 1019T914 920T1009 756T1042 525Q1042 393 1009 291T913 120T762 16T563 -20Q449 -20 359 13T206 113T110 279T76 511ZM563
145Q629 145 677 173T757 252T803 372T818 525Q818 704 757 798T563 892Q496 892 447 864T365 784T316 663T300 511Q300 330 364 238T563 145ZM502 1169Q487 1175 471 1185T439 1208T413 1233T397 1259L642 1605Q660 1600 687 1584T742 1547T790 1505T819 1468L502
1169V1169Z" />
<glyph unicode="&#xf4;" glyph-name="ocircumflex" horiz-adv-x="1118" d="M76 511Q76 643 111 744T211 913T365 1016T563 1051Q674 1051 763 1019T914 920T1009 756T1042 525Q1042 393 1009 291T913 120T762 16T563 -20Q449 -20 359 13T206 113T110 279T76 511ZM563
145Q629 145 677 173T757 252T803 372T818 525Q818 704 757 798T563 892Q496 892 447 864T365 784T316 663T300 511Q300 330 364 238T563 145ZM434 1615H692L915 1163H741L561 1504L373 1163H199L434 1615Z" />
<glyph unicode="&#xf5;" glyph-name="otilde" horiz-adv-x="1118" d="M76 511Q76 643 111 744T211 913T365 1016T563 1051Q674 1051 763 1019T914 920T1009 756T1042 525Q1042 393 1009 291T913 120T762 16T563 -20Q449 -20 359 13T206 113T110 279T76 511ZM563
145Q629 145 677 173T757 252T803 372T818 525Q818 704 757 798T563 892Q496 892 447 864T365 784T316 663T300 511Q300 330 364 238T563 145ZM325 1239Q295 1256 274 1276T239 1313Q223 1332 213 1351Q244 1391 283 1424Q316 1452 360 1475T459 1498Q504 1498
536 1479T598 1438Q622 1420 644 1407T687 1393Q708 1393 727 1405T762 1434Q780 1452 796 1476Q828 1457 850 1438T886 1403Q902 1385 911 1366Q880 1325 841 1292Q808 1264 763 1242T664 1219Q618 1219 585 1238T523 1278Q500 1297 478 1310T436 1324Q415 1324
395 1311T359 1281Q341 1263 325 1239Z" />
<glyph unicode="&#xf6;" glyph-name="odieresis" horiz-adv-x="1118" d="M76 511Q76 643 111 744T211 913T365 1016T563 1051Q674 1051 763 1019T914 920T1009 756T1042 525Q1042 393 1009 291T913 120T762 16T563 -20Q449 -20 359 13T206 113T110 279T76 511ZM563
145Q629 145 677 173T757 252T803 372T818 525Q818 704 757 798T563 892Q496 892 447 864T365 784T316 663T300 511Q300 330 364 238T563 145ZM344 1225Q316 1225 292 1235T249 1262T220 1301T209 1350Q209 1377 219 1400T248 1440T291 1466T344 1476Q372 1476
397 1467T441 1440T471 1400T482 1350Q482 1324 471 1302T441 1262T397 1235T344 1225ZM775 1225Q747 1225 723 1235T680 1262T651 1301T640 1350Q640 1377 650 1400T679 1440T722 1466T775 1476Q803 1476 828 1467T872 1440T902 1400T913 1350Q913 1324 902 1302T872
1262T828 1235T775 1225Z" />
<glyph unicode="&#xf7;" glyph-name="divide" horiz-adv-x="1535" d="M203 685H1313V510H203V685ZM613 151Q613 179 624 204T656 248T703 277T761 288Q792 288 819 278T866 248T897 204T909 151Q909 122 898 97T866 53T819 23T761 12Q730 12 703 23T656 52T625
96T613 151ZM613 1064Q613 1092 624 1117T656 1161T703 1190T761 1201Q792 1201 819 1191T866 1161T897 1117T909 1064Q909 1035 898 1010T866 966T819 936T761 925Q730 925 703 936T656 965T625 1009T613 1064Z" />
<glyph unicode="&#xf8;" glyph-name="oslash" horiz-adv-x="1118" d="M76 523Q76 655 111 754T211 918T365 1017T563 1050Q609 1050 650 1045T729 1028L803 1172Q828 1177 852 1176Q872 1175 894 1168T932 1140L844 975Q889 944 926 903T988 807T1028 686T1042
537Q1042 405 1009 301T913 126T762 18T563 -20Q461 -20 382 7L297 -159Q275 -161 252 -157Q232 -154 209 -145T166 -116L267 67Q178 134 127 248T76 523ZM563 145Q629 145 677 175T757 258T803 382T818 537Q818 633 798 697T744 808L451 169Q497 145 563 145ZM300
523Q300 432 319 362T370 244L663 873Q619 891 563 891Q496 891 447 865T365 790T316 673T300 523Z" />
<glyph unicode="&#xf9;" glyph-name="ugrave" horiz-adv-x="1096" d="M112 1022H326V354Q326 247 368 196T509 144Q557 144 596 152T664 171Q697 183 723 199V1022H938V165L1027 63V0H834L755 79H717Q709 73 687 57T631 24T551 -7T453 -20Q369 -20 305 5T198 76T134
188T112 335V1022ZM316 1468Q323 1483 344 1504T393 1546T447 1583T493 1605L738 1259Q733 1247 722 1234T696 1208T665 1186T633 1169L316 1468Z" />
<glyph unicode="&#xfa;" glyph-name="uacute" horiz-adv-x="1096" d="M112 1022H326V354Q326 247 368 196T509 144Q557 144 596 152T664 171Q697 183 723 199V1022H938V165L1027 63V0H834L755 79H717Q709 73 687 57T631 24T551 -7T453 -20Q369 -20 305 5T198 76T134
188T112 335V1022ZM498 1169Q483 1175 467 1185T435 1208T409 1233T393 1259L638 1605Q656 1600 683 1584T738 1547T786 1505T815 1468L498 1169V1169Z" />
<glyph unicode="&#xfb;" glyph-name="ucircumflex" horiz-adv-x="1096" d="M112 1022H326V354Q326 247 368 196T509 144Q557 144 596 152T664 171Q697 183 723 199V1022H938V165L1027 63V0H834L755 79H717Q709 73 687 57T631 24T551 -7T453 -20Q369 -20 305 5T198
76T134 188T112 335V1022ZM430 1615H688L911 1163H737L557 1504L369 1163H195L430 1615Z" />
<glyph unicode="&#xfc;" glyph-name="udieresis" horiz-adv-x="1096" d="M112 1022H326V354Q326 247 368 196T509 144Q557 144 596 152T664 171Q697 183 723 199V1022H938V165L1027 63V0H834L755 79H717Q709 73 687 57T631 24T551 -7T453 -20Q369 -20 305 5T198
76T134 188T112 335V1022ZM340 1225Q312 1225 288 1235T245 1262T216 1301T205 1350Q205 1377 215 1400T244 1440T287 1466T340 1476Q368 1476 393 1467T437 1440T467 1400T478 1350Q478 1324 467 1302T437 1262T393 1235T340 1225ZM771 1225Q743 1225 719 1235T676
1262T647 1301T636 1350Q636 1377 646 1400T675 1440T718 1466T771 1476Q799 1476 824 1467T868 1440T898 1400T909 1350Q909 1324 898 1302T868 1262T824 1235T771 1225Z" />
<glyph unicode="&#xfd;" glyph-name="yacute" horiz-adv-x="978" d="M25 1022H250L445 275L488 75L532 275L733 1022H965L510 -466H293L460 0H332L25 1022ZM429 1169Q414 1175 398 1185T366 1208T340 1233T324 1259L569 1605Q587 1600 614 1584T669 1547T717 1505T746
1468L429 1169V1169Z" />
<glyph unicode="&#xfe;" glyph-name="thorn" horiz-adv-x="1089" d="M348 1439V962H354Q361 968 382 983T436 1013T514 1039T615 1051Q691 1051 762 1027T889 944T977 785T1010 531Q1010 393 970 290T862 118T704 15T512 -20Q466 -20 426 -18T350 -13L351 -405H136V1439H348ZM348
157Q362 151 391 143T467 135Q622 135 703 238T785 531Q785 637 766 706T710 815T623 872T506 888Q479 888 451 880T400 860Q373 848 348 833V157Z" />
<glyph unicode="&#xff;" glyph-name="ydieresis" horiz-adv-x="978" d="M25 1022H250L445 275L488 75L532 275L733 1022H965L510 -466H293L460 0H332L25 1022ZM527 1225Q499 1225 475 1235T432 1262T403 1301T392 1350Q392 1377 402 1400T431 1440T474 1466T527
1476Q555 1476 580 1467T624 1440T654 1400T665 1350Q665 1324 654 1302T624 1262T580 1235T527 1225ZM958 1225Q930 1225 906 1235T863 1262T834 1301T823 1350Q823 1377 833 1400T862 1440T905 1466T958 1476Q986 1476 1011 1467T1055 1440T1085 1400T1096 1350Q1096
1324 1085 1302T1055 1262T1011 1235T958 1225Z" />
<glyph unicode="&#x2013;" glyph-name="endash" horiz-adv-x="1255" d="M180 685H1075V510H180V685Z" />
<glyph unicode="&#x2014;" glyph-name="emdash" horiz-adv-x="2061" d="M180 685H1881V510H180V685Z" />
<glyph unicode="&#x2018;" glyph-name="quoteleft" horiz-adv-x="485" d="M288 999Q286 999 267 998T221 996Q200 996 176 998T131 1005T94 1020T70 1046Q70 1115 79 1172T104 1277T139 1363T180 1430Q228 1498 291 1538Q315 1533 338 1525Q358 1517 379 1506T414
1475L415 1459Q388 1435 365 1389T325 1280T298 1146T288 999Z" />
<glyph unicode="&#x2019;" glyph-name="quoteright" horiz-adv-x="485" d="M197 1535Q199 1535 218 1536T264 1538Q285 1538 309 1536T354 1529T391 1514T415 1488Q415 1419 406 1362T381 1257T346 1171T305 1104Q257 1036 194 996Q170 1001 147 1009Q127 1017
106 1028T71 1059L70 1075Q97 1099 120 1145T160 1254T187 1388T197 1535Z" />
<glyph unicode="&#x201a;" glyph-name="quotesinglbase" horiz-adv-x="445" d="M137 188Q139 188 158 189T204 191Q225 191 249 189T294 182T331 167T355 141Q355 72 346 15T321 -90T286 -176T245 -243Q197 -311 134 -351Q110 -346 87 -338Q67 -330 46 -319T11
-288L10 -272Q37 -248 60 -202T100 -93T127 41T137 188Z" />
<glyph unicode="&#x201c;" glyph-name="quotedblleft" horiz-adv-x="865" d="M668 999Q666 999 647 998T601 996Q580 996 556 998T511 1005T474 1020T450 1046Q450 1115 459 1172T484 1277T519 1363T560 1430Q608 1498 671 1538Q695 1533 718 1525Q738 1517 759
1506T794 1475L795 1459Q768 1435 745 1389T705 1280T678 1146T668 999ZM288 999Q286 999 267 998T221 996Q200 996 176 998T131 1005T94 1020T70 1046Q70 1115 79 1172T104 1277T139 1363T180 1430Q228 1498 291 1538Q315 1533 338 1525Q358 1517 379 1506T414
1475L415 1459Q388 1435 365 1389T325 1280T298 1146T288 999Z" />
<glyph unicode="&#x201d;" glyph-name="quotedblright" horiz-adv-x="885" d="M577 1534Q579 1534 598 1535T644 1537Q665 1537 689 1535T734 1528T771 1513T795 1487Q795 1418 786 1361T761 1256T726 1170T685 1103Q637 1035 574 995Q550 1000 527 1008Q507 1016
486 1027T451 1058L450 1074Q477 1098 500 1144T540 1253T567 1387T577 1534ZM197 1535Q199 1535 218 1536T264 1538Q285 1538 309 1536T354 1529T391 1514T415 1488Q415 1419 406 1362T381 1257T346 1171T305 1104Q257 1036 194 996Q170 1001 147 1009Q127 1017
106 1028T71 1059L70 1075Q97 1099 120 1145T160 1254T187 1388T197 1535Z" />
<glyph unicode="&#x201e;" glyph-name="quotedblbase" horiz-adv-x="862" d="M137 188Q139 188 158 189T204 191Q225 191 249 189T294 182T331 167T355 141Q355 72 346 15T321 -90T286 -176T245 -243Q197 -311 134 -351Q110 -346 87 -338Q67 -330 46 -319T11 -288L10
-272Q37 -248 60 -202T100 -93T127 41T137 188ZM554 188Q556 188 575 189T621 191Q642 191 666 189T711 182T748 167T772 141Q772 72 763 15T738 -90T703 -176T662 -243Q614 -311 551 -351Q527 -346 504 -338Q484 -330 463 -319T428 -288L427 -272Q454 -248 477
-202T517 -93T544 41T554 188Z" />
<glyph unicode="&#x2022;" glyph-name="bullet" horiz-adv-x="631" d="M316 362Q276 362 241 376T178 416T136 474T120 546Q120 584 135 618T178 677T240 716T316 731Q356 731 391 717T453 677T495 618T511 546Q511 508 496 475T454 416T392 377T316 362Z" />
<glyph unicode="&#x2039;" glyph-name="guilsinglleft" horiz-adv-x="807" d="M141 428Q138 437 135 448Q130 468 130 495Q130 510 132 522T137 544Q141 555 145 564L545 924Q576 906 602 886Q624 868 644 845T670 794L326 514V480L672 216Q661 187 640 162T596
118Q570 96 542 78L141 428V428Z" />
<glyph unicode="&#x203a;" glyph-name="guilsinglright" horiz-adv-x="807" d="M666 575Q669 566 672 555Q677 535 677 508Q677 493 675 481T670 459Q666 448 662 439L262 79Q231 97 205 117Q183 135 163 158T137 209L481 489V523L135 787Q146 816 167 841T211
885Q237 907 265 925L666 575V575Z" />
</font>
</defs>
</svg>
