<?xml version="1.0" standalone="no"?>
<!DOCTYPE svg PUBLIC "-//W3C//DTD SVG 1.1//EN" "http://www.w3.org/Graphics/SVG/1.1/DTD/svg11.dtd">
<svg xmlns="http://www.w3.org/2000/svg">
<defs >
<font id="Bitter" horiz-adv-x="568" ><font-face
    font-family="Bitter Thin Light"
    units-per-em="1000"
    panose-1="0 0 0 0 0 0 0 0 0 0"
    ascent="935"
    descent="-265"
    alphabetic="0" />
<glyph unicode=" " horiz-adv-x="202" />
<glyph unicode="!" horiz-adv-x="325" d="M136 211L206 695H256L172 214L136 211ZM122 -2Q107 -2 99 7T90 31Q90 51 102 62T131 73Q145 73 154 65T164 39Q164 21 152 10T122 -2Z" />
<glyph unicode="&quot;" horiz-adv-x="345" d="M133 542L158 765H208L164 542H133ZM270 542L295 765H345L301 542H270Z" />
<glyph unicode="#" horiz-adv-x="620" d="M102 506H585L580 472H97L102 506ZM23 238H506L501 204H18L23 238ZM267 695H306L101 0H62L267 695ZM496 695H536L332 0H292L496 695Z" />
<glyph unicode="$" horiz-adv-x="603" d="M237 0Q192 0 146 10T57 42L85 192H115L108 61L103 73Q137 56 173 48T245 40Q301 40 348 59T424 115T453 203Q453 242 436 266T392 305T331 330T265 352T205 380T160 425T143 499Q143 562 176 605T264 672T386 695Q429
695 473 685T557 655L528 509H499L509 635L518 625Q487 641 453 649T385 657Q333 657 289 639T217 588T190 506Q190 468 207 446T251 409T312 386T378 365T439 336T483 289T500 212Q500 143 463 96T366 24T237 0ZM219 -141L243 17H280L255 -141H219ZM348 677L371
825H408L385 678L348 677Z" />
<glyph unicode="%" horiz-adv-x="802" d="M113 -8L673 702H716L156 -8H113ZM232 351Q169 351 139 387T109 488Q109 547 131 595T195 673T299 702Q363 702 392 668T421 569Q421 512 399 462T335 382T232 351ZM236 383Q286 383 319 410T368 480T384 570Q384 621
364 645T296 670Q246 670 213 645T163 578T147 489Q147 437 168 410T236 383ZM531 -7Q467 -7 438 29T408 130Q408 188 430 237T494 315T598 344Q661 344 690 310T720 211Q720 154 698 104T634 24T531 -7ZM535 25Q585 25 618 52T666 122T682 211Q682 263 662 287T595
312Q545 312 512 286T462 219T445 131Q445 78 466 52T535 25Z" />
<glyph unicode="&amp;" horiz-adv-x="694" d="M288 -7Q198 -7 146 36T93 162Q93 220 119 266T191 341T297 375V370Q226 381 194 420T162 512Q162 571 194 613T282 679T413 702Q459 702 503 693T588 668L562 533H531L537 650L546 640Q479 663 410 663Q316 663 263
623T210 512Q210 451 253 421T376 391H653L648 363L557 347L568 358L545 210Q533 137 497 89T408 17T288 -7ZM296 32Q374 32 428 75T498 208L522 362L532 353H359Q296 353 247 331T170 267T142 169Q142 101 184 67T296 32Z" />
<glyph unicode="&apos;" horiz-adv-x="208" d="M133 542L158 765H208L164 542H133Z" />
<glyph unicode="(" horiz-adv-x="285" d="M324 836Q252 755 198 661T114 464T84 257Q84 169 107 80T176 -91L145 -110Q92 -26 66 69T40 262Q40 373 72 479T162 682T297 858L324 836Z" />
<glyph unicode=")" horiz-adv-x="285" d="M-4 -91Q68 -10 122 84T205 281T235 488Q235 576 213 665T143 836L174 855Q228 771 253 676T279 483Q279 373 247 267T158 64T22 -113L-4 -91Z" />
<glyph unicode="*" horiz-adv-x="457" d="M313 468L254 584L261 604L278 601L345 491L313 468ZM160 466L133 489L235 602L253 604L254 584L160 466ZM235 602L112 635L129 673L247 629L252 611L235 602ZM260 616L248 629L262 761L298 762L275 629L260 616ZM279
601L265 612L275 629L402 673L408 636L279 601Z" />
<glyph unicode="+" horiz-adv-x="555" d="M287 367L274 355L310 585H347L311 355L301 367H516L510 330H295L308 342L272 112H235L271 342L281 330H66L71 367H287Z" />
<glyph unicode="," horiz-adv-x="184" d="M18 32Q18 45 24 54T39 68T57 73Q71 73 80 64T90 38Q90 20 79 -6T44 -64T-16 -131L-34 -114Q-9 -83 4 -62T23 -28T28 -8Q28 -1 26 4T21 15T18 32Z" />
<glyph unicode="-" horiz-adv-x="409" d="M343 313L337 274H76L82 313H343Z" />
<glyph unicode="." horiz-adv-x="189" d="M54 -2Q39 -2 31 7T22 31Q22 51 34 62T63 73Q77 73 86 65T96 39Q96 21 84 10T54 -2Z" />
<glyph unicode="/" horiz-adv-x="278" d="M359 799L-14 -76H-50L324 799H359Z" />
<glyph unicode="0" horiz-adv-x="631" d="M267 -7Q208 -7 167 17T104 96T83 237Q83 296 93 360T125 486T184 595T272 673T396 702Q482 702 529 650T576 471Q576 412 566 347T534 219T476 105T389 24T267 -7ZM272 33Q329 33 372 62T445 139T493 246T519 365T528
476Q528 548 512 588T464 645T392 662Q332 662 289 635T215 561T166 459T139 345T130 235Q130 125 167 79T272 33Z" />
<glyph unicode="1" horiz-adv-x="384" d="M209 32L200 47L327 29L323 0H15L19 29L177 48L163 32L262 653L274 650L85 545L73 577L277 698H314L209 32Z" />
<glyph unicode="2" horiz-adv-x="521" d="M8 0L15 44Q72 93 132 144T248 247T346 350T416 452T442 550Q442 607 405 634T304 662Q271 662 232 655T151 635L161 647L129 520H99L114 664Q167 682 217 692T313 702Q365 702 405 687T468 641T491 559Q491 506 466 453T399
346T302 240T187 135T69 33V42H435L427 0H8Z" />
<glyph unicode="3" horiz-adv-x="546" d="M200 -7Q151 -7 104 7T16 51L36 88Q112 34 202 34Q263 34 310 58T383 125T410 222Q410 260 394 288T342 332T248 348H175L181 386H256Q347 386 397 433T447 553Q447 616 411 640T319 664Q284 664 245 657T167 637L176
648L146 522H116L130 664Q183 682 234 692T330 702Q378 702 415 688T474 644T495 559Q495 476 445 427T311 366L308 370Q386 364 421 327T457 224Q457 158 424 106T332 23T200 -7Z" />
<glyph unicode="4" horiz-adv-x="544" d="M342 199L353 187H12L11 222L415 705L466 695L391 216L380 227H517L511 187H373L388 199L357 0H311L342 199ZM361 227L345 216L417 672L430 669L47 211L42 227H361Z" />
<glyph unicode="5" horiz-adv-x="517" d="M195 -7Q154 -7 110 4T22 40L40 77Q79 55 118 45T192 35Q254 35 303 63T379 139T407 241Q407 290 387 316T332 353T258 367T180 369H113L179 695H500L494 654H203L219 665L166 396L154 408H209Q236 408 268 407T334 398T395
374T439 325T456 244Q456 176 423 119T330 27T195 -7Z" />
<glyph unicode="6" horiz-adv-x="571" d="M120 296L122 334Q178 375 234 393T341 411Q389 411 428 394T489 340T512 245Q512 175 480 118T391 27T261 -7Q218 -7 183 6T123 48T84 121T71 225Q71 290 86 357T133 486T210 596T314 673T448 702Q494 702 542 690L533
651Q510 657 489 659T448 662Q384 662 332 637T240 567T174 468T134 350T120 226Q120 158 136 115T185 53T263 33Q323 33 368 62T438 138T463 242Q463 313 426 343T330 374Q281 374 226 354T120 296Z" />
<glyph unicode="7" horiz-adv-x="470" d="M509 658L139 0H86L462 663L470 654H126L140 664L103 544H73L96 695H515L509 658Z" />
<glyph unicode="8" horiz-adv-x="588" d="M246 -7Q195 -7 153 11T86 64T60 154Q60 212 88 255T164 329T269 376L301 360Q252 344 208 318T135 253T107 161Q107 100 146 66T251 31Q305 31 350 53T423 114T451 200Q451 244 428 270T369 314T291 345T213 378T154
427T130 507Q130 551 149 587T202 649T278 688T369 702Q417 702 457 687T522 639T547 556Q547 499 518 460T441 397T342 359L305 374Q353 387 398 409T472 467T501 551Q501 592 482 617T432 653T364 664Q313 664 271 645T202 591T176 512Q176 469 199 443T259 401T337
370T415 337T475 287T498 206Q498 160 478 121T422 54T341 9T246 -7Z" />
<glyph unicode="9" horiz-adv-x="572" d="M478 403L476 367Q421 328 364 308T256 288Q208 288 169 305T108 359T85 452Q85 502 103 547T154 627T235 682T339 702Q382 702 416 689T475 649T513 578T527 472Q527 402 510 333T461 203T382 95T278 21T150 -6Q127 -6
104 -3T56 6L65 45Q88 40 109 38T148 35Q212 35 264 60T356 128T423 228T464 346T478 472Q478 541 462 582T414 643T336 662Q271 662 226 631T158 553T134 453Q134 384 172 355T269 325Q318 325 373 345T478 403Z" />
<glyph unicode=":" horiz-adv-x="189" d="M114 376Q99 376 91 385T82 409Q82 429 94 440T123 451Q137 451 146 443T156 417Q156 399 144 388T114 376ZM54 -2Q39 -2 31 7T22 31Q22 51 34 62T63 73Q77 73 86 65T96 39Q96 21 84 10T54 -2Z" />
<glyph unicode=";" horiz-adv-x="190" d="M23 32Q23 45 29 54T44 68T62 73Q76 73 85 64T95 38Q95 20 84 -6T49 -64T-11 -131L-29 -114Q-4 -83 9 -62T28 -28T33 -8Q33 -1 31 4T26 15T23 32ZM114 376Q99 376 91 385T82 409Q82 429 94 440T123 451Q137 451 146 443T156
417Q156 399 144 388T114 376Z" />
<glyph unicode="&lt;" horiz-adv-x="523" d="M446 160L71 330L77 370L500 550L512 513L107 342L106 354L462 195L446 160Z" />
<glyph unicode="=" horiz-adv-x="707" d="M596 456L590 419H167L173 456H596ZM823 532L817 495H394L400 532H823Z" />
<glyph unicode="&gt;" horiz-adv-x="523" d="M107 550L482 380L476 341L53 160L41 197L446 368L447 356L91 515L107 550Z" />
<glyph unicode="?" horiz-adv-x="382" d="M106 222Q108 232 109 242T111 262Q118 314 143 349T200 411T263 463T315 517T336 586Q336 629 309 646T241 664Q214 664 183 658T122 640L112 675Q148 688 183 695T251 703Q289 703 319 692T366 658T384 594Q384 554
369 525T329 471T276 424T221 378T176 325T150 257Q149 249 148 240T144 220L106 222ZM98 -2Q82 -2 74 7T65 31Q65 51 78 62T107 73Q120 73 129 65T139 39Q139 21 127 10T98 -2Z" />
<glyph unicode="@" horiz-adv-x="862" d="M347 -107Q265 -107 207 -72T118 29T86 188Q86 279 115 360T200 505T331 605T502 641Q591 641 655 607T754 508T789 354Q789 301 777 250T741 158T684 92T604 67Q555 67 533 100T519 200L541 243Q522 183 490 144T424
87T359 69Q316 69 286 103T256 214Q256 285 284 344T360 438T470 474Q495 474 523 467T583 438H561L576 467L596 466L553 197Q547 154 558 127T607 99Q641 99 667 121T711 180T739 261T748 350Q748 407 733 454T686 534T607 586T498 605Q411 605 343 571T226 479T152
345T127 190Q127 66 186 -2T354 -71Q390 -71 429 -63T509 -39L519 -71Q476 -89 432 -98T347 -107ZM370 102Q393 102 418 116T466 157T508 225T535 321L552 428L567 411Q541 426 517 434T468 442Q419 442 380 412T319 329T296 216Q296 157 317 130T370 102Z" />
<glyph unicode="A" horiz-adv-x="668" d="M551 32L539 45L623 28L619 0H389L394 28L507 44L501 34L471 212L479 202H166L179 211L90 34L86 44L193 28L188 0H-35L-30 28L59 45L43 33L384 694L432 696L551 32ZM187 230L183 239H475L469 229L396 662H406L187 230Z" />
<glyph unicode="B" horiz-adv-x="631" d="M371 352L375 360Q459 358 500 321T542 213Q542 148 510 100T420 26T281 0H17L21 28L122 44L111 34L210 660L218 649L121 662L125 690L262 695H390Q423 695 451 690T502 673T538 645T561 605T569 552Q569 498 545 456T475
388T371 352ZM377 657H246L258 666L210 361L202 374H305Q352 374 391 385T460 417T505 470T521 543Q521 581 507 606T460 644T377 657ZM282 38Q380 38 436 85T493 213Q493 253 478 280T431 322T351 337H196L208 351L157 29L146 38H282Z" />
<glyph unicode="C" horiz-adv-x="627" d="M309 -7Q246 -7 194 23T110 115T79 271Q79 352 103 429T173 568T283 666T427 702Q470 702 520 690T621 653L594 509H564L571 636L581 625Q543 642 500 652T421 662Q354 662 300 628T207 537T148 411T128 272Q128 191 154
138T223 60T320 34Q370 34 423 56T525 123L544 91Q488 42 427 18T309 -7Z" />
<glyph unicode="D" horiz-adv-x="715" d="M396 695Q479 695 539 668T631 582T663 429Q663 346 638 269T564 131T447 35T292 0H17L21 28L122 44L112 34L211 660L218 649L121 662L125 690L287 695H396ZM299 38Q358 38 407 60T494 121T559 210T600 317T614 429Q614
507 588 557T510 632T386 657H246L258 666L157 28L149 38H299Z" />
<glyph unicode="E" horiz-adv-x="612" d="M487 152H517L493 0H17L21 28L122 44L111 34L210 660L218 649L121 662L125 690L262 695H591L568 549H538L541 667L551 657H246L258 666L210 363L202 375H473L467 338H196L208 350L157 29L149 38H466L452 27L487 152Z" />
<glyph unicode="F" horiz-adv-x="551" d="M17 0L21 28L122 44L111 34L210 661L218 649L121 662L125 690L262 695H582L559 548H529L532 666L542 657H246L258 666L207 348L200 365H457L452 327H192L205 336L158 34L151 44L269 28L265 0H17Z" />
<glyph unicode="G" horiz-adv-x="729" d="M328 -7Q253 -7 197 21T110 110T79 271Q79 363 106 441T184 578T302 669T451 702Q501 702 553 690T661 653L634 509H604L610 636L618 624Q576 644 534 653T454 662Q383 662 324 633T220 550T152 426T128 272Q128 187 154
135T226 58T336 33Q381 33 430 44T535 75L526 61L561 291L570 281L472 291L476 319L697 324L693 296L596 280L605 291L567 46Q501 20 441 7T328 -7Z" />
<glyph unicode="H" horiz-adv-x="772" d="M17 0L21 28L123 44L112 34L211 660L219 649L121 662L125 690L354 695L349 667L248 649L258 660L210 361L203 372H605L592 361L640 660L647 649L550 662L554 690L783 695L779 667L676 649L687 660L587 34L581 44L677 28L673
0H446L450 28L551 44L541 34L590 344L598 334H196L208 344L158 34L153 44L248 28L244 0H17Z" />
<glyph unicode="I" horiz-adv-x="342" d="M349 667L248 649L258 660L158 34L153 44L248 28L244 0H17L21 28L123 44L112 34L211 660L219 649L121 662L125 690L354 695L349 667Z" />
<glyph unicode="J" horiz-adv-x="328" d="M114 690L349 695L345 667L244 649L254 660L153 24Q149 0 140 -27T114 -79T66 -118T-12 -133Q-33 -133 -58 -129L-50 -93Q-42 -94 -34 -94T-16 -95Q22 -95 44 -84T79 -55T97 -18T105 16L207 660L216 649L110 662L114 690Z" />
<glyph unicode="K" horiz-adv-x="681" d="M540 33L526 44L625 28L621 0H505L324 347L340 337H197L209 351L158 34L152 45L247 28L243 0H17L21 28L123 44L112 34L211 661L219 649L121 661L125 689L353 695L349 667L247 649L258 664L211 363L203 375H344L325 365L558
661L564 651L468 662L472 690L692 695L688 667L589 650L606 661L362 352V369L540 33Z" />
<glyph unicode="L" horiz-adv-x="528" d="M451 160H481L455 0H17L21 28L123 44L112 34L211 659L219 649L121 662L125 690L365 695L361 667L248 649L258 660L157 23L150 38H427L415 27L451 160Z" />
<glyph unicode="M" horiz-adv-x="876" d="M883 667L780 649L792 661L692 34L686 44L782 28L778 0H553L557 28L660 45L648 32L744 639L751 636L438 182L403 178L240 639L248 640L152 34L146 44L242 28L238 0H17L21 28L124 45L112 34L211 660L219 649L121 662L125
690L271 695L435 225H425L741 690L887 695L883 667Z" />
<glyph unicode="N" horiz-adv-x="773" d="M574 690L795 695L791 667L690 649L700 660L596 0H548L242 643L249 644L152 34L146 44L241 28L237 0H17L21 28L122 44L112 34L211 660L218 649L121 662L125 690L270 695L571 61L565 60L660 661L667 649L570 662L574 690Z" />
<glyph unicode="O" horiz-adv-x="732" d="M320 -7Q252 -7 197 21T110 111T78 266Q78 331 94 394T140 513T215 611T316 678T438 702Q508 702 563 673T649 584T681 431Q681 368 666 305T620 186T545 87T445 18T320 -7ZM325 33Q381 33 428 56T513 118T578 208T618
315T632 428Q632 509 606 560T534 637T433 662Q377 662 330 639T245 577T182 487T142 380T128 267Q128 187 154 135T225 58T325 33Z" />
<glyph unicode="P" horiz-adv-x="573" d="M286 277H185L199 288L158 34L153 44L271 28L267 0H17L21 28L123 44L112 34L211 660L219 649L121 662L125 690L264 695H383Q478 695 523 653T568 531Q568 458 533 400T435 310T286 277ZM372 657H248L259 668L202 304L193
315H288Q359 315 411 343T491 419T519 526Q519 591 483 624T372 657Z" />
<glyph unicode="Q" horiz-adv-x="734" d="M584 -164Q549 -164 512 -146T425 -91T302 -1L316 -7Q249 -6 196 22T110 111T78 265Q78 330 94 393T140 512T215 610T316 677T438 702Q508 702 563 673T649 584T681 430Q681 356 659 282T595 145T492 43T355 -5L357 3Q416
-38 456 -66T526 -108T584 -122Q608 -122 634 -112T696 -82L715 -115Q674 -140 643 -152T584 -164ZM325 33Q381 33 428 55T514 117T578 208T619 315T633 428Q633 509 607 560T535 637T433 662Q377 662 330 639T245 577T181 487T141 380T127 267Q127 186 153 134T224
58T325 33Z" />
<glyph unicode="R" horiz-adv-x="632" d="M17 0L21 28L122 44L112 34L211 660L218 649L121 662L125 690L265 695H381Q569 695 569 548Q569 487 540 439T460 361T342 327L336 334Q386 331 409 297T452 208L512 34L499 46L573 28L569 0H473L409 198Q391 254 373
279T330 311T264 318H194L206 328L158 34L153 44L268 28L264 0H17ZM208 342L201 355H290Q361 355 412 379T492 446T520 541Q520 585 503 608T462 642T412 654T371 657H248L259 668L208 342Z" />
<glyph unicode="S" horiz-adv-x="578" d="M224 -7Q180 -7 134 3T45 35L73 185H102L96 54L90 66Q124 49 160 41T232 33Q287 33 334 51T411 106T440 193Q440 239 418 266T361 310T286 341T211 374T153 424T130 508Q130 572 164 614T253 679T373 702Q416 702 460
692T545 662L516 517H487L496 642L505 632Q474 648 440 656T372 664Q322 664 278 647T205 597T177 516Q177 473 199 448T257 406T332 376T407 341T465 289T487 203Q487 134 450 87T354 17T224 -7Z" />
<glyph unicode="T" horiz-adv-x="552" d="M107 0L111 28L228 44L216 34L316 667L327 657H127L142 668L106 541H76L100 695H588L564 541H535L537 667L549 657H349L363 667L263 34L257 44L366 28L362 0H107Z" />
<glyph unicode="U" horiz-adv-x="733" d="M536 690L764 695L760 667L657 649L668 660L604 257Q591 171 559 112T470 23T323 -7Q216 -7 167 38T118 173Q118 191 120 210T125 251L191 660L198 649L101 662L105 690L332 695L328 667L227 649L238 660L172 247Q169
227 167 209T165 174Q165 101 201 67T324 32Q403 32 449 58T521 136T558 260L621 660L629 650L532 662L536 690Z" />
<glyph unicode="V" horiz-adv-x="668" d="M258 -2L154 660L166 649L70 662L75 690L316 695L312 667L196 650L204 663L296 43H288L599 661L602 650L492 662L496 690L730 695L726 667L627 650L643 661L306 -2H258Z" />
<glyph unicode="W" horiz-adv-x="991" d="M821 690L1051 695L1046 667L949 650L964 664L679 -2H633L549 633L558 632L267 -2H221L156 662L163 651L71 662L76 690L312 695L308 667L193 650L203 662L258 45L250 46L544 691L586 695L671 48H661L920 661L927 651L817
662L821 690Z" />
<glyph unicode="X" horiz-adv-x="667" d="M532 32L516 44L606 28L602 0H371L375 28L483 44L480 33L336 338H350L109 32L107 44L212 28L207 0H-16L-11 28L84 44L64 31L330 366L329 351L179 661L192 651L102 662L106 690L333 695L329 667L226 650L231 660L363 382L350
383L570 660L573 649L473 662L477 690L695 695L691 667L596 649L615 661L368 353L369 370L532 32Z" />
<glyph unicode="Y" horiz-adv-x="616" d="M153 0L157 28L259 44L249 34L286 270L289 246L149 660L160 650L68 662L73 690L309 695L305 667L189 651L196 662L319 286H309L552 660L556 650L447 662L451 690L679 695L675 667L580 651L595 661L323 246L331 270L294
34L289 44L385 28L381 0H153Z" />
<glyph unicode="Z" horiz-adv-x="582" d="M12 0L14 34L529 663L533 656H164L180 665L145 546H115L139 695H582L580 660L68 29L65 39H457L438 29L477 150H507L480 0H12Z" />
<glyph unicode="[" horiz-adv-x="319" d="M29 -98L179 843L369 838L364 806L213 803L77 -58L227 -61L221 -93L29 -98Z" />
<glyph unicode="\" horiz-adv-x="283" d="M87 799H123L227 -76H192L87 799Z" />
<glyph unicode="]" horiz-adv-x="319" d="M324 843L175 -98L-15 -93L-11 -61L141 -58L277 803L127 806L132 838L324 843Z" />
<glyph unicode="^" horiz-adv-x="503" d="M69 525L298 852H331L454 525H412L300 830H321L112 525H69Z" />
<glyph unicode="_" horiz-adv-x="477" d="M424 -76L419 -111H-60L-55 -76H424Z" />
<glyph unicode="`" horiz-adv-x="383" d="M194 787L355 653L336 627L164 746L194 787Z" />
<glyph unicode="a" horiz-adv-x="582" d="M187 -7Q150 -7 119 13T70 75T51 186Q51 257 72 319T132 430T222 505T336 532Q370 532 408 522T487 485L467 486L483 525H511L431 21L415 49L515 30L511 2L385 -3L419 209L432 226Q406 145 364 93T275 17T187 -7ZM201
32Q231 32 266 50T335 104T395 197T434 330L456 473L465 454Q431 475 399 484T334 494Q283 494 240 470T165 404T116 307T98 190Q98 107 128 70T201 32Z" />
<glyph unicode="b" horiz-adv-x="570" d="M60 15L175 742L191 715L91 735L96 763L226 768L152 312L137 299Q164 381 205 432T294 508T382 532Q419 532 449 512T498 449T517 333Q517 230 478 154T368 35T200 -7Q135 -7 60 15ZM108 28L97 50Q126 40 155 35T211 30Q289
30 347 67T437 172T470 329Q470 419 441 456T368 493Q338 493 302 475T233 421T173 328T134 195L108 28Z" />
<glyph unicode="c" horiz-adv-x="478" d="M226 -7Q176 -7 137 14T74 82T51 201Q51 270 72 330T130 435T217 506T323 532Q357 532 393 522T464 490L445 377H411L414 478L420 467Q367 495 319 495Q271 495 231 472T161 407T115 313T98 204Q98 113 137 72T236 31Q269
31 306 43T381 78L397 47Q353 20 309 7T226 -7Z" />
<glyph unicode="d" horiz-adv-x="583" d="M187 -7Q150 -7 119 13T70 75T51 186Q51 257 72 319T132 430T222 505T336 532Q370 532 408 522T487 485L459 488L499 740L514 715L411 736L415 763L549 768L431 21L415 49L515 30L511 2L385 -3L419 209L432 226Q406 145
364 93T275 17T187 -7ZM201 32Q231 32 266 50T335 104T395 197T434 330L456 472L465 454Q431 475 399 484T334 494Q283 494 240 470T165 404T116 307T98 190Q98 107 128 70T201 32Z" />
<glyph unicode="e" horiz-adv-x="494" d="M229 -7Q179 -7 139 15T75 82T52 199Q52 261 70 320T125 427T211 503T326 532Q394 532 432 500T470 419Q470 375 440 341T360 282T251 245T132 232Q120 232 110 232T90 234L94 270Q106 269 118 268T144 267Q190 267 239
277T331 307T398 354T424 416Q424 451 397 473T319 495Q267 495 226 470T156 401T112 306T97 199Q97 111 136 70T237 29Q272 29 312 41T393 78L407 49Q362 21 317 7T229 -7Z" />
<glyph unicode="f" horiz-adv-x="304" d="M-56 -237Q-68 -237 -79 -236T-100 -234L-93 -199Q-89 -199 -82 -199T-64 -200Q-27 -200 -4 -189T33 -158T52 -116T63 -68L152 493L159 485H66L70 513L165 521L154 511L169 605Q183 694 233 733T350 772Q367 772 386 770T423
761L411 726Q395 731 380 733T350 735Q299 735 263 704T215 606L200 510L193 521H344L338 485H188L198 493L110 -60Q105 -91 95 -122T67 -180T19 -221T-56 -237Z" />
<glyph unicode="g" horiz-adv-x="569" d="M201 -237Q163 -237 121 -229T32 -206L44 -168Q87 -183 127 -191T201 -200Q241 -200 271 -189T324 -156T360 -102T381 -27L418 210L432 226Q406 145 364 93T275 17T187 -7Q150 -7 119 13T70 75T51 186Q51 257 72 319T132
430T222 505T336 532Q370 532 408 522T487 485L468 487L483 525H511L424 -25Q415 -82 396 -122T347 -188T282 -225T201 -237ZM201 32Q231 32 266 50T335 104T395 197T434 330L456 473L465 454Q431 475 399 484T334 494Q283 494 240 470T165 404T116 307T98 190Q98
107 128 70T201 32Z" />
<glyph unicode="h" horiz-adv-x="585" d="M392 -3L449 354Q457 402 448 433T418 478T369 493Q338 493 303 476T234 422T174 330T135 196L104 0H58L175 732L183 719L93 734L97 762L226 768L152 317L136 299Q166 385 208 436T296 509T383 532Q422 532 450 514T492
457T496 360L444 34L427 49L526 30L522 2L392 -3Z" />
<glyph unicode="i" horiz-adv-x="273" d="M72 -3L152 502L169 475L68 495L72 522L202 528L122 23L107 48L206 29L201 2L72 -3ZM199 652Q184 652 175 662T165 689Q165 709 177 722T208 735Q224 735 233 726T242 698Q242 679 230 666T199 652Z" />
<glyph unicode="j" horiz-adv-x="259" d="M-101 -234L-94 -199Q-86 -200 -79 -200T-64 -200Q-5 -200 22 -171T61 -68L149 490L156 479L68 495L72 522L201 528L108 -59Q98 -123 78 -162T24 -219T-59 -237Q-71 -237 -80 -237T-101 -234ZM194 652Q179 652 170 662T160
689Q160 709 172 722T203 735Q219 735 228 726T237 698Q237 679 225 666T194 652Z" />
<glyph unicode="k" horiz-adv-x="528" d="M58 0L175 742L191 715L92 735L96 763L226 768L152 302L143 310H281L266 302L405 493L409 484L327 494L331 522L530 528L526 500L434 484L451 495L301 291V308L411 35L400 45L484 28L480 0H376L267 281L276 275H136L148
278L104 0H58Z" />
<glyph unicode="l" horiz-adv-x="259" d="M58 -3L176 742L192 716L93 734L97 762L226 768L108 24L93 49L192 30L188 2L58 -3Z" />
<glyph unicode="m" horiz-adv-x="909" d="M715 -3L772 354Q780 403 772 433T744 478T697 493Q667 493 633 475T567 421T509 328T471 196L440 0H394L451 354Q459 403 451 433T422 478T376 493Q347 493 313 475T245 421T187 328T149 196L118 0H72L150 492L167 475L68
495L72 522L200 528L163 317L150 299Q180 385 221 436T308 509T390 532Q426 532 453 514T494 458T497 363L488 308L472 299Q502 385 543 436T630 509T712 532Q748 532 775 514T816 457T819 360L766 31L748 49L849 30L845 2L715 -3Z" />
<glyph unicode="n" horiz-adv-x="599" d="M406 -3L463 354Q471 402 462 433T432 478T383 493Q352 493 317 476T247 422T188 330T149 196L118 0H72L152 502L167 475L68 495L72 522L200 528L163 317L150 299Q179 385 221 436T310 509T396 532Q435 532 464 514T507
457T510 360L457 31L438 49L540 30L535 2L406 -3Z" />
<glyph unicode="o" horiz-adv-x="554" d="M321 532Q375 532 415 510T477 441T500 320Q500 259 484 201T434 95T350 21T234 -7Q181 -7 141 15T78 84T55 205Q55 267 71 325T121 429T205 504T321 532ZM315 495Q262 495 223 470T156 403T116 310T102 208Q102 122 137
76T241 30Q292 30 331 55T398 122T439 215T453 318Q453 404 419 449T315 495Z" />
<glyph unicode="p" horiz-adv-x="584" d="M-47 -230L-43 -202L61 -182L40 -206L150 492L160 479L68 495L72 522L201 528L164 309L152 299Q179 381 220 432T308 508T396 532Q433 532 464 512T513 450T532 338Q532 241 499 168T407 51T267 -3T88 13L121 17L85 -206L68
-182L180 -202L176 -230H-47ZM123 28L111 50Q195 23 264 32T382 81T458 184T485 334Q485 419 455 456T382 493Q352 493 317 475T247 421T187 328T149 195L123 28Z" />
<glyph unicode="q" horiz-adv-x="569" d="M249 -230L253 -202L370 -182L349 -207L382 2L417 209L432 226Q406 145 364 93T275 17T187 -7Q150 -7 119 13T70 75T51 186Q51 257 72 319T132 430T222 505T336 532Q370 532 408 522T487 485L468 486L483 525H511L395
-208L379 -182L477 -202L473 -230H249ZM201 32Q231 32 266 50T335 104T395 197T434 330L456 473L465 454Q431 475 399 484T334 494Q283 494 240 470T165 404T116 307T98 190Q98 107 128 70T201 32Z" />
<glyph unicode="r" horiz-adv-x="389" d="M72 0L152 502L167 475L68 495L72 522L200 528L163 317L151 298Q173 370 212 422T298 503T390 532Q409 532 423 527L402 399H370L374 502L382 493Q352 495 317 478T248 424T188 331T149 196L118 0H72Z" />
<glyph unicode="s" horiz-adv-x="473" d="M171 -7Q137 -7 99 -2T24 14L48 138H80L73 32L65 46Q90 38 118 34T174 29Q220 29 260 42T326 81T351 144Q351 177 332 197T284 230T220 256T156 284T108 324T89 388Q89 432 115 464T186 514T285 532Q320 532 358 525T434
504L416 402H385L383 490L394 477Q366 488 338 492T286 496Q244 496 211 483T157 448T136 393Q136 361 154 342T203 309T267 284T331 255T379 215T398 150Q398 103 369 68T289 13T171 -7Z" />
<glyph unicode="t" horiz-adv-x="336" d="M283 25Q252 8 223 1T171 -7Q133 -7 110 14T87 79Q87 87 87 93T89 107L151 499L158 489H56L60 517L165 526L154 515L174 644L221 650L200 515L193 525H344L339 489H186L197 499L135 111Q134 107 134 101T133 87Q133 57
147 44T183 31Q202 31 224 38T270 57L283 25Z" />
<glyph unicode="u" horiz-adv-x="599" d="M204 -7Q165 -8 136 10T94 67T90 164L142 493L148 479L60 495L65 522L194 528L137 171Q130 122 138 92T168 47T217 32Q248 32 283 49T352 103T412 195T451 329L482 525H528L450 34L443 45L532 29L528 2L402 -3L436 209L450
226Q422 142 380 91T292 17T204 -7Z" />
<glyph unicode="v" horiz-adv-x="491" d="M187 -2L87 492L95 485L30 494L35 522L128 528L220 34L211 35L437 493L440 486L363 494L367 522L535 528L531 500L466 485L482 493L232 -2H187Z" />
<glyph unicode="w" horiz-adv-x="754" d="M152 -2L95 492L104 485L34 494L38 522L135 528L186 23H178L394 524L448 527L503 28H498L701 493L704 485L629 494L633 522L794 528L791 500L728 486L742 494L519 -2H468L410 492L422 493L202 -2H152Z" />
<glyph unicode="x" horiz-adv-x="526" d="M-31 0L-26 27L67 42L50 32L240 277L255 283L444 522L539 528L535 500L452 486L470 495L284 265L270 260L72 0H-31ZM370 0L243 256L124 495L135 485L65 494L69 522L156 529L276 285L403 32L391 42L479 28L474 0H370Z" />
<glyph unicode="y" horiz-adv-x="493" d="M-51 -233L-45 -197Q-37 -198 -29 -199T-13 -200Q38 -200 72 -175T136 -100T198 21L194 1L89 492L98 485L28 494L33 522L130 528L226 42L214 43L438 493L442 486L366 494L370 522L539 528L535 500L469 486L483 493L232
-3Q215 -37 199 -70T162 -133T118 -187T63 -224T-10 -237Q-28 -237 -51 -233Z" />
<glyph unicode="z" horiz-adv-x="456" d="M385 129L366 1L4 0L8 30L392 501L399 489H118L136 503L108 408H78L96 525H441L436 494L52 21L51 36H341L323 20L356 129H385Z" />
<glyph unicode="{" horiz-adv-x="307" d="M155 -98Q116 -98 92 -86T59 -44T58 38L92 250Q100 297 86 325T20 354L26 391Q60 391 81 405T114 444T131 499L164 711Q172 758 188 787T231 830T302 843H339L334 811Q288 811 263 803T225 770T205 701L172 490Q164 437
144 411T99 377T45 368L44 378Q71 378 94 369T130 333T134 252L101 41Q94 -4 98 -26T125 -57T195 -66L189 -98H155Z" />
<glyph unicode="|" horiz-adv-x="333" d="M233 799H272L130 -95H92L233 799Z" />
<glyph unicode="}" horiz-adv-x="307" d="M187 843Q227 843 251 831T283 790T283 707L250 496Q243 450 256 421T322 391L316 354Q282 354 261 340T227 302T210 246L177 35Q170 -13 154 -42T111 -84T39 -98H3L8 -66Q54 -66 79 -57T117 -24T136 44L170 256Q179 309
198 335T244 369T296 378L298 368Q272 368 248 377T211 413T208 493L241 705Q248 749 244 772T217 803T147 811L152 843H187Z" />
<glyph unicode="~" horiz-adv-x="686" d="M460 295Q429 295 403 307T352 334T303 362T252 374Q229 374 203 361T147 311L124 330Q156 370 188 390T255 411Q286 411 312 399T363 372T413 344T464 332Q488 332 513 346T569 395L590 376Q558 334 526 315T460 295Z" />
<glyph unicode="&#xa0;" horiz-adv-x="202" />
<glyph unicode="&#xa1;" horiz-adv-x="325" d="M180 254L111 -230H61L145 251L180 254ZM194 467Q210 467 218 458T226 433Q226 415 214 404T185 392Q171 392 162 400T152 425Q152 445 165 456T194 467Z" />
<glyph unicode="&#xa2;" horiz-adv-x="567" d="M238 -20L260 120L272 107Q190 106 142 158T94 300Q94 359 112 412T164 508T244 575T349 605L335 591L358 733H391L368 593L355 606Q403 606 443 595T513 564L494 454H463L468 546Q442 560 413 565T363 570Q312 570
271 548T200 488T154 402T138 303Q138 230 175 187T280 144Q319 144 363 160T455 209L470 180Q418 145 371 128T281 107L294 121L271 -20H238Z" />
<glyph unicode="&#xa3;" horiz-adv-x="664" d="M41 0L45 28L144 49L121 38Q164 70 181 120T203 232T210 361L218 350H96L100 378L220 384L211 376Q210 481 229 554T297 664T439 702Q477 702 520 696T613 677L586 537H557L563 659L572 646Q498 663 443 663Q364
663 324 629T271 530T257 374L246 384H445L439 350H244L256 360Q255 288 249 225T223 112T160 34L154 40L485 38L472 26L508 155H537L512 0H41Z" />
<glyph unicode="&#xa4;" horiz-adv-x="651" d="M511 128L484 102L410 185L429 183Q405 161 374 148T305 135Q267 135 240 148T197 184L219 185L118 100L97 126L197 210L192 189Q182 205 177 225T172 268Q172 311 187 348T229 412L227 392L152 479L181 506L256
418L237 420Q262 442 293 455T363 468Q400 468 426 456T468 424L447 423L544 505L564 481L468 399L471 419Q494 387 494 338Q494 299 479 259T437 191L436 213L511 128ZM308 168Q353 168 385 193T435 256T453 335Q453 381 430 407T359 434Q312 434 279 409T229
347T212 270Q212 222 238 195T308 168Z" />
<glyph unicode="&#xa5;" horiz-adv-x="698" d="M158 268L162 297H323L318 284L192 660L204 650L112 662L116 690L352 695L348 667L232 651L239 662L361 286H350L592 660L597 650L487 662L491 690L719 695L715 667L620 651L636 661L389 284L387 297H546L541 268H158ZM195
0L199 28L300 44L290 34L312 173L318 163H142L146 193H529L525 163H346L357 173L336 33L330 44L427 28L422 0H195Z" />
<glyph unicode="&#xa6;" horiz-adv-x="332" d="M175 438L232 799H271L213 438H175ZM91 -95L148 266H186L129 -95H91Z" />
<glyph unicode="&#xa7;" horiz-adv-x="556" d="M178 -177Q147 -177 114 -172T47 -155L72 -36H103L95 -139L89 -128Q136 -142 181 -142Q251 -142 295 -104T340 -5Q340 27 324 50T281 93T225 131T168 170T125 218T108 280Q108 322 127 354T179 410T245 450L263 431Q238
419 212 398T168 348T151 288Q151 257 167 233T211 190T268 152T324 112T368 63T385 -3Q385 -58 358 -96T285 -156T178 -177ZM321 87L308 107Q331 121 354 144T393 196T409 257Q409 288 393 312T349 355T293 394T237 434T193 482T176 546Q176 596 201 630T269 683T367
702Q397 702 431 695T500 674L482 576H451L452 663L460 651Q437 658 413 662T367 667Q303 667 262 636T220 547Q220 516 236 493T280 451T336 414T392 374T436 325T453 259Q453 219 434 186T384 128T321 87Z" />
<glyph unicode="&#xa8;" horiz-adv-x="426" d="M188 654Q174 654 166 664T158 690Q158 709 168 721T196 733Q210 733 218 724T227 698Q227 680 216 667T188 654ZM367 654Q352 654 344 664T336 690Q336 709 346 721T374 733Q388 733 396 724T405 698Q405 680 394
667T367 654Z" />
<glyph unicode="&#xa9;" horiz-adv-x="901" d="M463 161Q396 161 350 208T304 344Q304 405 326 448T388 514T476 537Q531 537 590 508L588 421H560L551 494L559 488Q538 497 517 501T478 505Q417 505 381 463T345 347Q345 271 380 232T469 193Q497 193 527 204T588
237L604 213Q569 187 533 174T463 161ZM453 -7Q376 -7 312 18T201 90T129 200T103 340Q103 418 130 484T206 600T323 675T469 702Q546 702 611 676T725 603T800 493T827 355Q827 278 799 212T719 97T600 20T453 -7ZM456 25Q527 25 588 49T694 118T764 222T789 352Q789
445 748 516T633 629T466 670Q370 670 297 628T182 512T140 343Q140 251 180 179T291 66T456 25Z" />
<glyph unicode="&#xaa;" horiz-adv-x="475" d="M66 190L72 226H420L414 190H66ZM188 316Q144 316 114 349T83 454Q83 522 111 578T188 669T299 703Q325 703 353 695T412 669H398L410 697H437L377 337L365 358L439 345L435 322L336 319L361 470L374 483Q354 425
322 388T255 334T188 316ZM198 349Q229 349 265 371T331 439T373 558L390 659L397 642Q371 657 347 664T298 671Q248 671 210 642T149 563T126 457Q126 401 147 375T198 349Z" />
<glyph unicode="&#xab;" horiz-adv-x="449" d="M167 73L55 254L59 286L228 467L250 448L88 259L91 282L194 93L167 73ZM333 73L221 254L225 286L394 467L416 448L254 259L257 282L360 93L333 73Z" />
<glyph unicode="&#xac;" horiz-adv-x="671" d="M502 330L494 342L457 112H497L538 367H83L77 330H502Z" />
<glyph unicode="&#xad;" horiz-adv-x="400" d="M595 313L589 274H328L334 313H595Z" />
<glyph unicode="&#xae;" horiz-adv-x="746" d="M265 290V307L320 319L311 309V610L321 600L265 607V625L344 627H407Q465 627 495 606T526 543Q526 509 499 484T416 454L417 461Q448 457 464 442T494 398L540 307L528 317L570 307V290H513L463 392Q451 419 438
430T410 444T374 447H335L343 456V309L336 319L402 307V290H265ZM343 464L335 473H385Q438 473 465 491T492 542Q492 569 470 584T403 600H335L343 613V464ZM395 170Q313 171 249 206T150 304T115 450Q115 533 153 598T256 702T405 740Q490 740 555 705T657 606T694
460Q694 399 672 347T609 254T513 192T395 170ZM397 198Q473 198 533 232T628 325T663 459Q663 534 630 591T539 680T404 712Q329 712 271 679T180 586T147 451Q147 376 178 319T265 230T397 198Z" />
<glyph unicode="&#xaf;" horiz-adv-x="415" d="M398 715L392 676H156L161 715H398Z" />
<glyph unicode="&#xb0;" horiz-adv-x="415" d="M217 449Q163 449 132 480T101 567Q101 614 122 651T179 709T260 731Q314 731 345 700T376 613Q376 568 356 531T300 471T217 449ZM220 480Q258 480 285 499T326 548T341 613Q341 655 319 677T257 700Q219 700 192
682T150 633T135 569Q135 527 157 504T220 480Z" />
<glyph unicode="&#xb1;" horiz-adv-x="577" d="M305 411L290 401L324 617H362L328 401L319 411H523L517 374H312L326 386L291 168H253L287 385L298 374H95L100 411H305ZM472 82L466 45H43L49 82H472Z" />
<glyph unicode="&#xb2;" horiz-adv-x="340" d="M48 346L52 380Q133 449 190 502T277 597T307 678Q307 711 285 724T229 738Q209 738 187 734T140 721L146 730L128 655H104L114 747Q146 758 177 764T236 771Q286 771 317 751T349 685Q349 650 332 617T282 548T203
469T97 375L96 381H312L306 346H48Z" />
<glyph unicode="&#xb3;" horiz-adv-x="357" d="M169 341Q137 341 108 349T53 375L70 404Q92 389 117 382T169 374Q224 374 257 405T290 481Q290 513 269 532T197 551H147L151 581H201Q235 581 260 592T299 625T313 676Q313 711 293 725T237 739Q217 739 195 736T148
724L156 732L137 658H113L123 747Q156 759 188 764T248 770Q295 770 324 751T354 682Q354 635 326 604T248 566L245 568Q289 564 309 543T330 481Q330 438 309 407T252 358T169 341Z" />
<glyph unicode="&#xb4;" horiz-adv-x="364" d="M137 628L118 654L286 786L315 743L137 628Z" />
<glyph unicode="&#xb5;" horiz-adv-x="692" d="M126 -232L81 -230L196 491L202 479L114 495L118 522L248 528L191 171Q183 122 192 92T222 47T271 32Q302 32 337 49T406 103T466 195T504 329L536 525H582L503 31L494 45L586 29L582 2L456 -3L490 209L504 226Q476
142 435 91T348 17T263 -7Q218 -8 187 18T151 102L162 88Q159 43 154 -8T143 -116T126 -232Z" />
<glyph unicode="&#xb6;" horiz-adv-x="548" d="M56 -170L61 -142L163 -125L152 -138L230 361L247 342Q179 342 140 380T101 485Q101 544 126 591T197 667T302 695H551L547 667L443 649L455 662L323 -170H283L416 670L423 657L307 656L320 670L187 -170H56Z" />
<glyph unicode="&#xb7;" horiz-adv-x="189" d="M100 294Q85 294 77 303T68 327Q68 347 80 358T109 369Q123 369 132 361T142 335Q142 317 130 306T100 294Z" />
<glyph unicode="&#xb8;" horiz-adv-x="357" d="M92 -221Q74 -221 55 -217T16 -204L31 -175Q62 -189 94 -189Q124 -189 145 -176T166 -137Q166 -113 144 -103T79 -92L97 0H129L119 -64Q166 -68 185 -85T204 -130Q204 -158 189 -178T149 -210T92 -221Z" />
<glyph unicode="&#xb9;" horiz-adv-x="261" d="M179 372L173 382L251 370L248 346H50L54 370L151 381L143 372L199 731L210 730L95 663L86 688L213 768H242L179 372Z" />
<glyph unicode="&#xba;" horiz-adv-x="443" d="M230 316Q166 316 125 352T83 471Q83 515 96 556T135 630T200 682T291 702Q356 702 396 666T436 548Q436 490 413 437T345 350T230 316ZM46 190L52 226H376L370 190H46ZM234 348Q273 348 303 365T353 412T383 476T394
547Q394 607 367 638T286 670Q246 670 216 653T166 607T136 544T126 473Q126 412 154 380T234 348Z" />
<glyph unicode="&#xbb;" horiz-adv-x="449" d="M284 467L397 286L392 254L223 73L202 93L364 281L361 258L258 448L284 467ZM118 467L231 286L226 254L57 73L36 93L198 281L195 258L92 448L118 467Z" />
<glyph unicode="&#xbc;" horiz-adv-x="762" d="M203 302L197 312L275 300L272 276H74L78 300L175 311L167 302L223 661L234 660L119 593L110 618L237 698H266L203 302ZM104 -5L640 700H682L144 -5H104ZM582 119L587 109H384L383 139L622 427L668 421L622 132L614
141H696L691 109H608L620 119L602 0H563L582 119ZM594 141L584 131L627 401L634 400L410 128L407 141H594Z" />
<glyph unicode="&#xbd;" horiz-adv-x="774" d="M204 302L198 312L276 300L273 276H75L79 300L176 311L168 302L224 661L235 660L120 593L111 618L238 698H267L204 302ZM104 -5L640 700H682L144 -5H104ZM414 0L418 34Q499 103 556 156T643 251T673 332Q673 365
651 378T595 392Q575 392 553 388T506 375L512 384L494 309H470L480 401Q512 412 543 418T602 425Q652 425 683 405T715 339Q715 304 698 271T648 202T569 123T463 29L462 35H678L672 0H414Z" />
<glyph unicode="&#xbe;" horiz-adv-x="823" d="M177 271Q145 271 116 279T61 305L78 334Q100 319 125 312T177 304Q232 304 265 335T298 411Q298 443 277 462T205 481H155L159 511H209Q243 511 268 522T307 555T321 606Q321 641 301 655T245 669Q225 669 203 666T156
654L164 662L145 588H121L131 677Q164 689 196 694T256 700Q303 700 332 681T362 612Q362 565 334 534T256 496L253 498Q297 494 317 473T338 411Q338 368 317 337T260 288T177 271ZM165 -5L701 700H743L205 -5H165ZM642 119L647 109H444L443 139L682 427L728 421L682
132L674 141H756L751 109H668L680 119L662 0H623L642 119ZM654 141L644 131L687 401L694 400L470 128L467 141H654Z" />
<glyph unicode="&#xbf;" horiz-adv-x="392" d="M288 279Q287 269 286 259T284 238Q277 188 252 153T195 90T131 38T80 -16T59 -85Q59 -128 85 -145T153 -163Q180 -163 211 -157T273 -140L282 -174Q248 -188 212 -195T144 -202Q106 -202 76 -192T28 -157T10 -93Q10
-54 25 -24T65 30T118 76T173 123T219 176T244 244Q246 251 247 261T250 281L288 279ZM297 503Q313 503 321 494T329 469Q329 451 317 440T288 428Q274 428 265 436T255 461Q255 481 268 492T297 503Z" />
<glyph unicode="&#xc0;" horiz-adv-x="668" d="M551 32L539 45L623 28L619 0H389L394 28L507 44L501 34L471 212L479 202H166L179 211L90 34L86 44L193 28L188 0H-35L-30 28L59 45L43 33L384 694L432 696L551 32ZM187 230L183 239H475L469 229L396 662H406L187
230ZM502 748L302 843L327 887L516 775L502 748Z" />
<glyph unicode="&#xc1;" horiz-adv-x="668" d="M551 32L539 45L623 28L619 0H389L394 28L507 44L501 34L471 212L479 202H166L179 211L90 34L86 44L193 28L188 0H-35L-30 28L59 45L43 33L384 694L432 696L551 32ZM187 230L183 239H475L469 229L396 662H406L187
230ZM333 748L320 774L514 888L534 843L333 748Z" />
<glyph unicode="&#xc2;" horiz-adv-x="668" d="M551 32L539 45L623 28L619 0H389L394 28L507 44L501 34L471 212L479 202H166L179 211L90 34L86 44L193 28L188 0H-35L-30 28L59 45L43 33L384 694L432 696L551 32ZM187 230L183 239H475L469 229L396 662H406L187
230ZM290 744L275 766L421 878L450 880L566 766L545 744L417 844H444L290 744Z" />
<glyph unicode="&#xc3;" horiz-adv-x="668" d="M551 32L539 45L623 28L619 0H389L394 28L507 44L501 34L471 212L479 202H166L179 211L90 34L86 44L193 28L188 0H-35L-30 28L59 45L43 33L384 694L432 696L551 32ZM187 230L183 239H475L469 229L396 662H406L187
230ZM301 773L280 787Q301 825 323 840T370 856Q394 856 414 846T454 825T492 814Q525 814 557 859L578 845Q556 807 533 792T487 776Q463 776 444 787T407 808T366 819Q350 819 335 809T301 773Z" />
<glyph unicode="&#xc4;" horiz-adv-x="668" d="M551 32L539 45L623 28L619 0H389L394 28L507 44L501 34L471 212L479 202H166L179 211L90 34L86 44L193 28L188 0H-35L-30 28L59 45L43 33L384 694L432 696L551 32ZM187 230L183 239H475L469 229L396 662H406L187
230ZM334 769Q320 769 312 779T304 805Q304 824 314 836T342 848Q356 848 364 839T373 813Q373 795 362 782T334 769ZM513 769Q498 769 490 779T482 805Q482 824 492 836T520 848Q534 848 542 839T551 813Q551 795 540 782T513 769Z" />
<glyph unicode="&#xc5;" horiz-adv-x="668" d="M551 32L539 45L623 28L619 0H389L394 28L507 44L501 34L471 212L479 202H166L179 211L90 34L86 44L193 28L188 0H-35L-30 28L59 45L43 33L384 694L432 696L551 32ZM187 230L183 239H475L469 229L396 662H406L187
230ZM415 733Q383 733 362 750T340 803Q340 832 354 853T391 887T441 899Q472 899 493 881T515 828Q515 801 502 779T466 745T415 733ZM418 761Q448 761 465 781T482 827Q482 847 471 859T437 871Q409 871 391 851T373 805Q373 785 385 773T418 761Z" />
<glyph unicode="&#xc6;" horiz-adv-x="920" d="M-35 0L-31 28L65 45L47 33L465 660L470 650L377 662L382 690L546 695H897L875 549H846L849 667L858 657H558L570 667L523 364L515 375H779L774 338H508L520 349L469 26L461 38H771L759 27L794 152H824L800 0H331L335
28L435 45L424 33L455 231L464 221H209L225 230L93 32L90 45L196 28L192 0H-35ZM236 249L231 258H470L458 248L524 666L533 657H498L513 665L236 249Z" />
<glyph unicode="&#xc7;" horiz-adv-x="627" d="M286 -221Q268 -221 249 -217T210 -204L225 -175Q256 -189 288 -189Q318 -189 339 -176T360 -137Q360 -113 338 -103T273 -92L297 26H328L313 -64Q361 -68 379 -85T398 -130Q398 -158 383 -178T343 -210T286 -221ZM79
271Q79 352 103 429T173 568T283 666T427 702Q470 702 520 690T621 653L594 509H564L571 636L581 625Q543 642 500 652T421 662Q354 662 300 628T207 537T148 411T128 272Q128 191 154 138T223 60T320 34Q370 34 423 56T525 123L544 91Q488 42 427 18T309 -7Q246
-7 194 23T110 115T79 271Z" />
<glyph unicode="&#xc8;" horiz-adv-x="612" d="M487 152H517L493 0H17L21 28L122 44L111 34L210 660L218 649L121 662L125 690L262 695H591L568 549H538L541 667L551 657H246L258 666L210 363L202 375H473L467 338H196L208 350L157 29L149 38H466L452 27L487 152ZM478
748L278 843L303 887L492 775L478 748Z" />
<glyph unicode="&#xc9;" horiz-adv-x="612" d="M487 152H517L493 0H17L21 28L122 44L111 34L210 660L218 649L121 662L125 690L262 695H591L568 549H538L541 667L551 657H246L258 666L210 363L202 375H473L467 338H196L208 350L157 29L149 38H466L452 27L487 152ZM308
748L295 774L489 888L509 843L308 748Z" />
<glyph unicode="&#xca;" horiz-adv-x="612" d="M487 152H517L493 0H17L21 28L122 44L111 34L210 660L218 649L121 662L125 690L262 695H591L568 549H538L541 667L551 657H246L258 666L210 363L202 375H473L467 338H196L208 350L157 29L149 38H466L452 27L487 152ZM266
744L251 766L397 878L426 880L542 766L521 744L393 844H420L266 744Z" />
<glyph unicode="&#xcb;" horiz-adv-x="612" d="M487 152H517L493 0H17L21 28L122 44L111 34L210 660L218 649L121 662L125 690L262 695H591L568 549H538L541 667L551 657H246L258 666L210 363L202 375H473L467 338H196L208 350L157 29L149 38H466L452 27L487 152ZM310
769Q296 769 288 779T280 805Q280 824 290 836T318 848Q332 848 340 839T349 813Q349 795 338 782T310 769ZM489 769Q474 769 466 779T458 805Q458 824 468 836T496 848Q510 848 518 839T527 813Q527 795 516 782T489 769Z" />
<glyph unicode="&#xcc;" horiz-adv-x="342" d="M349 667L248 649L258 660L158 34L153 44L248 28L244 0H17L21 28L123 44L112 34L211 660L219 649L121 662L125 690L354 695L349 667ZM589 748L389 843L414 887L603 775L589 748Z" />
<glyph unicode="&#xcd;" horiz-adv-x="342" d="M349 667L248 649L258 660L158 34L153 44L248 28L244 0H17L21 28L123 44L112 34L211 660L219 649L121 662L125 690L354 695L349 667ZM419 748L406 774L600 888L620 843L419 748Z" />
<glyph unicode="&#xce;" horiz-adv-x="342" d="M349 667L248 649L258 660L158 34L153 44L248 28L244 0H17L21 28L123 44L112 34L211 660L219 649L121 662L125 690L354 695L349 667ZM377 744L362 766L508 878L537 880L653 766L632 744L504 844H531L377 744Z" />
<glyph unicode="&#xcf;" horiz-adv-x="342" d="M349 667L248 649L258 660L158 34L153 44L248 28L244 0H17L21 28L123 44L112 34L211 660L219 649L121 662L125 690L354 695L349 667ZM421 769Q407 769 399 779T391 805Q391 824 401 836T429 848Q443 848 451 839T460
813Q460 795 449 782T421 769ZM600 769Q585 769 577 779T569 805Q569 824 579 836T607 848Q621 848 629 839T638 813Q638 795 627 782T600 769Z" />
<glyph unicode="&#xd0;" horiz-adv-x="715" d="M71 337L77 373H382L376 337H71ZM396 695Q479 695 539 668T631 582T663 429Q663 346 638 269T564 131T447 35T292 0H17L21 28L122 44L112 34L211 660L218 649L121 662L125 690L287 695H396ZM299 38Q358 38 407 60T494
121T559 210T600 317T614 429Q614 507 588 557T510 632T386 657H246L258 666L157 28L149 38H299Z" />
<glyph unicode="&#xd1;" horiz-adv-x="773" d="M574 690L795 695L791 667L690 649L700 660L596 0H548L242 643L249 644L152 34L146 44L241 28L237 0H17L21 28L122 44L112 34L211 660L218 649L121 662L125 690L270 695L571 61L565 60L660 661L667 649L570 662L574
690ZM354 773L333 787Q354 825 376 840T423 856Q447 856 467 846T507 825T545 814Q578 814 610 859L631 845Q609 807 586 792T540 776Q516 776 497 787T460 808T419 819Q403 819 388 809T354 773Z" />
<glyph unicode="&#xd2;" horiz-adv-x="732" d="M320 -7Q252 -7 197 21T110 111T78 266Q78 331 94 394T140 513T215 611T316 678T438 702Q508 702 563 673T649 584T681 431Q681 368 666 305T620 186T545 87T445 18T320 -7ZM325 33Q381 33 428 56T513 118T578 208T618
315T632 428Q632 509 606 560T534 637T433 662Q377 662 330 639T245 577T182 487T142 380T128 267Q128 187 154 135T225 58T325 33ZM549 748L349 843L374 887L563 775L549 748Z" />
<glyph unicode="&#xd3;" horiz-adv-x="732" d="M320 -7Q252 -7 197 21T110 111T78 266Q78 331 94 394T140 513T215 611T316 678T438 702Q508 702 563 673T649 584T681 431Q681 368 666 305T620 186T545 87T445 18T320 -7ZM325 33Q381 33 428 56T513 118T578 208T618
315T632 428Q632 509 606 560T534 637T433 662Q377 662 330 639T245 577T182 487T142 380T128 267Q128 187 154 135T225 58T325 33ZM379 748L366 774L560 888L580 843L379 748Z" />
<glyph unicode="&#xd4;" horiz-adv-x="732" d="M320 -7Q252 -7 197 21T110 111T78 266Q78 331 94 394T140 513T215 611T316 678T438 702Q508 702 563 673T649 584T681 431Q681 368 666 305T620 186T545 87T445 18T320 -7ZM325 33Q381 33 428 56T513 118T578 208T618
315T632 428Q632 509 606 560T534 637T433 662Q377 662 330 639T245 577T182 487T142 380T128 267Q128 187 154 135T225 58T325 33ZM337 744L322 766L468 878L497 880L613 766L592 744L464 844H491L337 744Z" />
<glyph unicode="&#xd5;" horiz-adv-x="732" d="M320 -7Q252 -7 197 21T110 111T78 266Q78 331 94 394T140 513T215 611T316 678T438 702Q508 702 563 673T649 584T681 431Q681 368 666 305T620 186T545 87T445 18T320 -7ZM325 33Q381 33 428 56T513 118T578 208T618
315T632 428Q632 509 606 560T534 637T433 662Q377 662 330 639T245 577T182 487T142 380T128 267Q128 187 154 135T225 58T325 33ZM347 773L326 787Q347 825 369 840T416 856Q440 856 460 846T500 825T538 814Q571 814 603 859L624 845Q602 807 579 792T533 776Q509
776 490 787T453 808T412 819Q396 819 381 809T347 773Z" />
<glyph unicode="&#xd6;" horiz-adv-x="732" d="M320 -7Q252 -7 197 21T110 111T78 266Q78 331 94 394T140 513T215 611T316 678T438 702Q508 702 563 673T649 584T681 431Q681 368 666 305T620 186T545 87T445 18T320 -7ZM325 33Q381 33 428 56T513 118T578 208T618
315T632 428Q632 509 606 560T534 637T433 662Q377 662 330 639T245 577T182 487T142 380T128 267Q128 187 154 135T225 58T325 33ZM381 769Q367 769 359 779T351 805Q351 824 361 836T389 848Q403 848 411 839T420 813Q420 795 409 782T381 769ZM560 769Q545 769
537 779T529 805Q529 824 539 836T567 848Q581 848 589 839T598 813Q598 795 587 782T560 769Z" />
<glyph unicode="&#xd7;" horiz-adv-x="531" d="M100 164L78 192L262 357L261 340L127 506L157 534L291 367L275 368L459 534L482 506L297 340L299 358L432 192L402 164L269 330H285L100 164Z" />
<glyph unicode="&#xd8;" horiz-adv-x="746" d="M691 766L717 749L617 618L611 612L194 65L191 60L90 -72L64 -53L169 85L174 91L586 629L590 635L691 766ZM326 -7Q258 -7 204 22T117 111T85 260Q85 327 101 392T147 513T222 611T322 678T445 702Q515 702 570 673T656
584T688 436Q688 370 672 306T626 186T552 86T452 18T326 -7ZM330 33Q387 33 435 55T520 117T584 208T625 317T639 433Q639 510 613 560T541 636T441 662Q384 662 336 640T251 578T188 487T148 378T134 262Q134 186 160 135T230 59T330 33Z" />
<glyph unicode="&#xd9;" horiz-adv-x="733" d="M536 690L764 695L760 667L657 649L668 660L604 257Q591 171 559 112T470 23T323 -7Q216 -7 167 38T118 173Q118 191 120 210T125 251L191 660L198 649L101 662L105 690L332 695L328 667L227 649L238 660L172 247Q169
227 167 209T165 174Q165 101 201 67T324 32Q403 32 449 58T521 136T558 260L621 660L629 650L532 662L536 690ZM525 748L325 843L350 887L539 775L525 748Z" />
<glyph unicode="&#xda;" horiz-adv-x="733" d="M536 690L764 695L760 667L657 649L668 660L604 257Q591 171 559 112T470 23T323 -7Q216 -7 167 38T118 173Q118 191 120 210T125 251L191 660L198 649L101 662L105 690L332 695L328 667L227 649L238 660L172 247Q169
227 167 209T165 174Q165 101 201 67T324 32Q403 32 449 58T521 136T558 260L621 660L629 650L532 662L536 690ZM356 748L343 774L537 888L557 843L356 748Z" />
<glyph unicode="&#xdb;" horiz-adv-x="733" d="M536 690L764 695L760 667L657 649L668 660L604 257Q591 171 559 112T470 23T323 -7Q216 -7 167 38T118 173Q118 191 120 210T125 251L191 660L198 649L101 662L105 690L332 695L328 667L227 649L238 660L172 247Q169
227 167 209T165 174Q165 101 201 67T324 32Q403 32 449 58T521 136T558 260L621 660L629 650L532 662L536 690ZM313 744L298 766L444 878L473 880L589 766L568 744L440 844H467L313 744Z" />
<glyph unicode="&#xdc;" horiz-adv-x="733" d="M536 690L764 695L760 667L657 649L668 660L604 257Q591 171 559 112T470 23T323 -7Q216 -7 167 38T118 173Q118 191 120 210T125 251L191 660L198 649L101 662L105 690L332 695L328 667L227 649L238 660L172 247Q169
227 167 209T165 174Q165 101 201 67T324 32Q403 32 449 58T521 136T558 260L621 660L629 650L532 662L536 690ZM357 769Q343 769 335 779T327 805Q327 824 337 836T365 848Q379 848 387 839T396 813Q396 795 385 782T357 769ZM536 769Q521 769 513 779T505 805Q505
824 515 836T543 848Q557 848 565 839T574 813Q574 795 563 782T536 769Z" />
<glyph unicode="&#xdd;" horiz-adv-x="616" d="M153 0L157 28L259 44L249 34L286 270L289 246L149 660L160 650L68 662L73 690L309 695L305 667L189 651L196 662L319 286H309L552 660L556 650L447 662L451 690L679 695L675 667L580 651L595 661L323 246L331 270L294
34L289 44L385 28L381 0H153ZM303 748L290 774L484 888L504 843L303 748Z" />
<glyph unicode="&#xde;" horiz-adv-x="563" d="M17 0L21 28L123 44L112 34L211 660L219 649L121 662L125 690L354 695L349 667L248 649L258 661L240 550L232 556H354Q417 556 457 538T517 485T537 397Q537 326 502 270T404 182T257 150H167L178 158L158 34L153
44L250 28L246 0H17ZM181 178L173 187H259Q330 187 381 214T461 287T490 392Q490 455 454 487T343 519H226L237 528L181 178Z" />
<glyph unicode="&#xdf;" horiz-adv-x="591" d="M-55 -238Q-68 -238 -78 -237T-99 -235L-91 -200Q-83 -201 -76 -201T-62 -201Q-4 -201 24 -172T64 -68L152 493L160 483H66L70 513L165 520L155 511L166 578Q177 646 210 688T293 751T397 772Q443 772 479 758T538
716T560 646Q560 611 546 587T509 547T460 517T412 489T375 456T360 407Q360 379 373 361T409 328T455 301T500 270T536 227T550 163Q550 108 522 71T448 13T347 -7Q320 -7 292 -2T235 14L259 135L289 134L283 31L276 43Q295 35 314 32T351 28Q391 28 425 43T481
87T503 156Q503 187 490 208T454 244T408 272T362 302T327 342T313 400Q313 436 327 459T365 498T413 528T462 556T499 591T514 643Q514 692 479 714T392 737Q324 737 274 698T211 577L111 -59Q103 -108 90 -142T56 -197T8 -228T-55 -238Z" />
<glyph unicode="&#xe0;" horiz-adv-x="582" d="M187 -7Q150 -7 119 13T70 75T51 186Q51 257 72 319T132 430T222 505T336 532Q370 532 408 522T487 485L467 486L483 525H511L431 21L415 49L515 30L511 2L385 -3L419 209L432 226Q406 145 364 93T275 17T187 -7ZM201
32Q231 32 266 50T335 104T395 197T434 330L456 473L465 454Q431 475 399 484T334 494Q283 494 240 470T165 404T116 307T98 190Q98 107 128 70T201 32ZM293 787L454 653L435 627L263 746L293 787Z" />
<glyph unicode="&#xe1;" horiz-adv-x="582" d="M187 -7Q150 -7 119 13T70 75T51 186Q51 257 72 319T132 430T222 505T336 532Q370 532 408 522T487 485L467 486L483 525H511L431 21L415 49L515 30L511 2L385 -3L419 209L432 226Q406 145 364 93T275 17T187 -7ZM201
32Q231 32 266 50T335 104T395 197T434 330L456 473L465 454Q431 475 399 484T334 494Q283 494 240 470T165 404T116 307T98 190Q98 107 128 70T201 32ZM299 628L280 654L448 786L477 743L299 628Z" />
<glyph unicode="&#xe2;" horiz-adv-x="582" d="M187 -7Q150 -7 119 13T70 75T51 186Q51 257 72 319T132 430T222 505T336 532Q370 532 408 522T487 485L467 486L483 525H511L431 21L415 49L515 30L511 2L385 -3L419 209L432 226Q406 145 364 93T275 17T187 -7ZM201
32Q231 32 266 50T335 104T395 197T434 330L456 473L465 454Q431 475 399 484T334 494Q283 494 240 470T165 404T116 307T98 190Q98 107 128 70T201 32ZM228 633L213 655L355 775L385 777L496 655L473 633L352 743H380L228 633Z" />
<glyph unicode="&#xe3;" horiz-adv-x="582" d="M187 -7Q150 -7 119 13T70 75T51 186Q51 257 72 319T132 430T222 505T336 532Q370 532 408 522T487 485L467 486L483 525H511L431 21L415 49L515 30L511 2L385 -3L419 209L432 226Q406 145 364 93T275 17T187 -7ZM201
32Q231 32 266 50T335 104T395 197T434 330L456 473L465 454Q431 475 399 484T334 494Q283 494 240 470T165 404T116 307T98 190Q98 107 128 70T201 32ZM417 653Q391 653 372 666T335 691T296 704Q277 704 261 693T227 655L205 669Q227 709 250 726T299 744Q325
744 344 731T382 706T422 693Q439 693 455 705T489 743L512 729Q490 689 467 671T417 653Z" />
<glyph unicode="&#xe4;" horiz-adv-x="582" d="M187 -7Q150 -7 119 13T70 75T51 186Q51 257 72 319T132 430T222 505T336 532Q370 532 408 522T487 485L467 486L483 525H511L431 21L415 49L515 30L511 2L385 -3L419 209L432 226Q406 145 364 93T275 17T187 -7ZM201
32Q231 32 266 50T335 104T395 197T434 330L456 473L465 454Q431 475 399 484T334 494Q283 494 240 470T165 404T116 307T98 190Q98 107 128 70T201 32ZM265 654Q251 654 243 664T235 690Q235 709 245 721T273 733Q287 733 295 724T304 698Q304 680 293 667T265
654ZM444 654Q429 654 421 664T413 690Q413 709 423 721T451 733Q465 733 473 724T482 698Q482 680 471 667T444 654Z" />
<glyph unicode="&#xe5;" horiz-adv-x="582" d="M187 -7Q150 -7 119 13T70 75T51 186Q51 257 72 319T132 430T222 505T336 532Q370 532 408 522T487 485L467 486L483 525H511L431 21L415 49L515 30L511 2L385 -3L419 209L432 226Q406 145 364 93T275 17T187 -7ZM201
32Q231 32 266 50T335 104T395 197T434 330L456 473L465 454Q431 475 399 484T334 494Q283 494 240 470T165 404T116 307T98 190Q98 107 128 70T201 32ZM348 626Q316 626 295 643T273 696Q273 725 287 746T324 780T374 792Q405 792 426 774T448 721Q448 694 435
672T399 638T348 626ZM351 654Q381 654 398 674T415 720Q415 740 404 752T370 764Q342 764 324 744T306 698Q306 678 318 666T351 654Z" />
<glyph unicode="&#xe6;" horiz-adv-x="794" d="M369 160Q367 134 347 105T295 50T229 9T162 -7Q104 -7 70 24T36 115Q36 165 63 195T134 241T233 260T344 265H368L356 258Q362 303 370 344T378 414Q378 453 354 474T285 495Q252 495 216 487T141 466L162 491L139
386H108L115 495Q165 511 212 521T299 532Q351 532 383 507T416 435Q416 422 414 410T409 378L400 382Q435 446 493 489T628 532Q695 532 733 500T771 413Q771 370 748 339T684 288T595 257T493 241T391 236L402 247Q400 235 399 224T398 199Q398 112 437 71T538
30Q573 30 612 42T693 79L709 48Q663 21 617 7T530 -7Q447 -7 399 47T351 194Q351 205 352 220T355 248L368 233H348Q300 233 254 230T168 215T106 182T83 120Q83 78 107 54T178 30Q204 30 233 45T290 85T334 139T351 194L369 160ZM403 254L394 269Q432 269 476
272T564 283T644 307T702 348T724 409Q724 450 697 472T621 495Q576 495 539 476T474 422T428 344T403 254Z" />
<glyph unicode="&#xe7;" horiz-adv-x="478" d="M226 -7Q176 -7 137 14T74 82T51 201Q51 270 72 330T130 435T217 506T323 532Q357 532 393 522T464 490L445 377H411L414 478L420 467Q367 495 319 495Q271 495 231 472T161 407T115 313T98 204Q98 113 137 72T236
31Q269 31 306 43T381 78L397 47Q353 20 309 7T226 -7ZM201 -221Q183 -221 164 -217T125 -204L140 -175Q171 -189 203 -189Q233 -189 254 -176T275 -137Q275 -113 253 -103T188 -92L206 0H238L228 -64Q275 -68 294 -85T313 -130Q313 -158 298 -178T258 -210T201
-221Z" />
<glyph unicode="&#xe8;" horiz-adv-x="493" d="M229 -7Q179 -7 139 15T75 82T52 199Q52 261 70 320T125 427T211 503T326 532Q394 532 432 500T470 419Q470 375 440 341T360 282T251 245T132 232Q120 232 110 232T90 234L94 270Q106 269 118 268T144 267Q190 267
239 277T331 307T398 354T424 416Q424 451 397 473T319 495Q267 495 226 470T156 401T112 306T97 199Q97 111 136 70T237 29Q272 29 312 41T393 78L407 49Q362 21 317 7T229 -7ZM278 787L439 653L420 627L248 746L278 787Z" />
<glyph unicode="&#xe9;" horiz-adv-x="493" d="M229 -7Q179 -7 139 15T75 82T52 199Q52 261 70 320T125 427T211 503T326 532Q394 532 432 500T470 419Q470 375 440 341T360 282T251 245T132 232Q120 232 110 232T90 234L94 270Q106 269 118 268T144 267Q190 267
239 277T331 307T398 354T424 416Q424 451 397 473T319 495Q267 495 226 470T156 401T112 306T97 199Q97 111 136 70T237 29Q272 29 312 41T393 78L407 49Q362 21 317 7T229 -7ZM284 628L265 654L433 786L462 743L284 628Z" />
<glyph unicode="&#xea;" horiz-adv-x="493" d="M229 -7Q179 -7 139 15T75 82T52 199Q52 261 70 320T125 427T211 503T326 532Q394 532 432 500T470 419Q470 375 440 341T360 282T251 245T132 232Q120 232 110 232T90 234L94 270Q106 269 118 268T144 267Q190 267
239 277T331 307T398 354T424 416Q424 451 397 473T319 495Q267 495 226 470T156 401T112 306T97 199Q97 111 136 70T237 29Q272 29 312 41T393 78L407 49Q362 21 317 7T229 -7ZM213 633L198 655L340 775L370 777L481 655L458 633L337 743H365L213 633Z" />
<glyph unicode="&#xeb;" horiz-adv-x="493" d="M229 -7Q179 -7 139 15T75 82T52 199Q52 261 70 320T125 427T211 503T326 532Q394 532 432 500T470 419Q470 375 440 341T360 282T251 245T132 232Q120 232 110 232T90 234L94 270Q106 269 118 268T144 267Q190 267
239 277T331 307T398 354T424 416Q424 451 397 473T319 495Q267 495 226 470T156 401T112 306T97 199Q97 111 136 70T237 29Q272 29 312 41T393 78L407 49Q362 21 317 7T229 -7ZM250 654Q236 654 228 664T220 690Q220 709 230 721T258 733Q272 733 280 724T289
698Q289 680 278 667T250 654ZM429 654Q414 654 406 664T398 690Q398 709 408 721T436 733Q450 733 458 724T467 698Q467 680 456 667T429 654Z" />
<glyph unicode="&#xec;" horiz-adv-x="273" d="M72 -3L152 502L169 475L68 495L72 522L202 528L122 23L107 48L206 29L201 2L72 -3ZM395 787L556 653L537 627L365 746L395 787Z" />
<glyph unicode="&#xed;" horiz-adv-x="273" d="M72 -3L152 502L169 475L68 495L72 522L202 528L122 23L107 48L206 29L201 2L72 -3ZM145 628L126 654L294 786L323 743L145 628Z" />
<glyph unicode="&#xee;" horiz-adv-x="273" d="M85 633L67 653L189 775L218 777L301 650L278 633L188 744L215 743L85 633ZM72 -3L152 502L169 475L68 495L72 522L202 528L122 23L107 48L206 29L201 2L72 -3Z" />
<glyph unicode="&#xef;" horiz-adv-x="273" d="M72 -3L152 502L169 475L68 495L72 522L202 528L122 23L107 48L206 29L201 2L72 -3ZM114 654Q99 654 91 664T83 690Q83 709 93 721T121 733Q135 733 143 724T152 698Q152 680 141 667T114 654ZM278 654Q264 654 256
664T247 690Q247 709 258 721T285 733Q300 733 308 724T316 698Q316 680 306 667T278 654Z" />
<glyph unicode="&#xf0;" horiz-adv-x="571" d="M226 -7Q143 -7 97 43T50 192Q50 254 68 313T121 419T206 493T321 521Q371 521 403 504T455 458T481 393L471 392Q473 494 448 570T368 690T221 735L228 772Q304 771 358 744T447 669T497 554T513 408Q513 318 495
243T439 111T349 24T226 -7ZM232 30Q287 30 329 56T399 125T442 219T457 323Q457 403 423 444T322 485Q267 485 225 460T155 392T112 298T97 193Q97 111 132 71T232 30ZM271 598L258 623L516 773L530 747L271 598Z" />
<glyph unicode="&#xf1;" horiz-adv-x="599" d="M406 -3L463 354Q471 402 462 433T432 478T383 493Q352 493 317 476T247 422T188 330T149 196L118 0H72L152 502L167 475L68 495L72 522L200 528L163 317L150 299Q179 385 221 436T310 509T396 532Q435 532 464 514T507
457T510 360L457 31L438 49L540 30L535 2L406 -3ZM427 653Q401 653 382 666T345 691T306 704Q287 704 271 693T237 655L215 669Q237 709 260 726T309 744Q335 744 354 731T392 706T432 693Q449 693 465 705T499 743L522 729Q500 689 477 671T427 653Z" />
<glyph unicode="&#xf2;" horiz-adv-x="554" d="M321 532Q375 532 415 510T477 441T500 320Q500 259 484 201T434 95T350 21T234 -7Q181 -7 141 15T78 84T55 205Q55 267 71 325T121 429T205 504T321 532ZM315 495Q262 495 223 470T156 403T116 310T102 208Q102
122 137 76T241 30Q292 30 331 55T398 122T439 215T453 318Q453 404 419 449T315 495ZM288 787L449 653L430 627L258 746L288 787Z" />
<glyph unicode="&#xf3;" horiz-adv-x="554" d="M321 532Q375 532 415 510T477 441T500 320Q500 259 484 201T434 95T350 21T234 -7Q181 -7 141 15T78 84T55 205Q55 267 71 325T121 429T205 504T321 532ZM315 495Q262 495 223 470T156 403T116 310T102 208Q102
122 137 76T241 30Q292 30 331 55T398 122T439 215T453 318Q453 404 419 449T315 495ZM294 628L275 654L443 786L472 743L294 628Z" />
<glyph unicode="&#xf4;" horiz-adv-x="554" d="M321 532Q375 532 415 510T477 441T500 320Q500 259 484 201T434 95T350 21T234 -7Q181 -7 141 15T78 84T55 205Q55 267 71 325T121 429T205 504T321 532ZM315 495Q262 495 223 470T156 403T116 310T102 208Q102
122 137 76T241 30Q292 30 331 55T398 122T439 215T453 318Q453 404 419 449T315 495ZM223 633L208 655L350 775L380 777L491 655L468 633L347 743H375L223 633Z" />
<glyph unicode="&#xf5;" horiz-adv-x="554" d="M321 532Q375 532 415 510T477 441T500 320Q500 259 484 201T434 95T350 21T234 -7Q181 -7 141 15T78 84T55 205Q55 267 71 325T121 429T205 504T321 532ZM315 495Q262 495 223 470T156 403T116 310T102 208Q102
122 137 76T241 30Q292 30 331 55T398 122T439 215T453 318Q453 404 419 449T315 495ZM412 653Q386 653 367 666T330 691T291 704Q272 704 256 693T222 655L200 669Q222 709 245 726T294 744Q320 744 339 731T377 706T417 693Q434 693 450 705T484 743L507 729Q485
689 462 671T412 653Z" />
<glyph unicode="&#xf6;" horiz-adv-x="554" d="M321 532Q375 532 415 510T477 441T500 320Q500 259 484 201T434 95T350 21T234 -7Q181 -7 141 15T78 84T55 205Q55 267 71 325T121 429T205 504T321 532ZM315 495Q262 495 223 470T156 403T116 310T102 208Q102
122 137 76T241 30Q292 30 331 55T398 122T439 215T453 318Q453 404 419 449T315 495ZM259 654Q245 654 237 664T229 690Q229 709 239 721T267 733Q281 733 289 724T298 698Q298 680 287 667T259 654ZM438 654Q423 654 415 664T407 690Q407 709 417 721T445 733Q459
733 467 724T476 698Q476 680 465 667T438 654Z" />
<glyph unicode="&#xf7;" horiz-adv-x="706" d="M581 367L575 330H152L158 367H581ZM338 151Q323 151 315 160T306 184Q306 204 318 215T347 226Q361 226 370 218T380 192Q380 174 368 163T338 151ZM389 477Q374 477 366 486T357 510Q357 530 369 541T398 552Q412
552 421 544T431 518Q431 500 419 489T389 477Z" />
<glyph unicode="&#xf8;" horiz-adv-x="581" d="M523 599L546 583L448 454L444 449L150 54L145 47L54 -76L31 -60L129 71L136 79L427 470L431 477L523 599ZM335 532Q388 532 428 510T491 441T514 320Q514 260 497 201T447 95T363 21T247 -7Q195 -7 155 15T91 84T68
205Q68 267 85 325T135 429T218 504T335 532ZM328 495Q276 495 236 470T170 403T129 310T115 207Q115 121 150 76T254 30Q305 30 344 55T411 122T452 215T466 318Q466 405 432 450T328 495Z" />
<glyph unicode="&#xf9;" horiz-adv-x="599" d="M204 -7Q165 -8 136 10T94 67T90 164L142 493L148 479L60 495L65 522L194 528L137 171Q130 122 138 92T168 47T217 32Q248 32 283 49T352 103T412 195T451 329L482 525H528L450 34L443 45L532 29L528 2L402 -3L436
209L450 226Q422 142 380 91T292 17T204 -7ZM296 787L457 653L438 627L266 746L296 787Z" />
<glyph unicode="&#xfa;" horiz-adv-x="599" d="M204 -7Q165 -8 136 10T94 67T90 164L142 493L148 479L60 495L65 522L194 528L137 171Q130 122 138 92T168 47T217 32Q248 32 283 49T352 103T412 195T451 329L482 525H528L450 34L443 45L532 29L528 2L402 -3L436
209L450 226Q422 142 380 91T292 17T204 -7ZM302 628L283 654L451 786L480 743L302 628Z" />
<glyph unicode="&#xfb;" horiz-adv-x="599" d="M204 -7Q165 -8 136 10T94 67T90 164L142 493L148 479L60 495L65 522L194 528L137 171Q130 122 138 92T168 47T217 32Q248 32 283 49T352 103T412 195T451 329L482 525H528L450 34L443 45L532 29L528 2L402 -3L436
209L450 226Q422 142 380 91T292 17T204 -7ZM231 633L216 655L358 775L388 777L499 655L476 633L355 743H383L231 633Z" />
<glyph unicode="&#xfc;" horiz-adv-x="599" d="M204 -7Q165 -8 136 10T94 67T90 164L142 493L148 479L60 495L65 522L194 528L137 171Q130 122 138 92T168 47T217 32Q248 32 283 49T352 103T412 195T451 329L482 525H528L450 34L443 45L532 29L528 2L402 -3L436
209L450 226Q422 142 380 91T292 17T204 -7ZM267 654Q253 654 245 664T237 690Q237 709 247 721T275 733Q289 733 297 724T306 698Q306 680 295 667T267 654ZM446 654Q431 654 423 664T415 690Q415 709 425 721T453 733Q467 733 475 724T484 698Q484 680 473 667T446
654Z" />
<glyph unicode="&#xfd;" horiz-adv-x="493" d="M-51 -233L-45 -197Q-37 -198 -29 -199T-13 -200Q38 -200 72 -175T136 -100T198 21L194 1L89 492L98 485L28 494L33 522L130 528L226 42L214 43L438 493L442 486L366 494L370 522L539 528L535 500L469 486L483 493L232
-3Q215 -37 199 -70T162 -133T118 -187T63 -224T-10 -237Q-28 -237 -51 -233ZM226 628L207 654L375 786L404 743L226 628Z" />
<glyph unicode="&#xfe;" horiz-adv-x="571" d="M-60 -230L-56 -202L48 -182L27 -206L175 732L184 719L93 735L97 763L227 768L154 309L139 299Q166 381 207 432T295 508T382 532Q420 532 451 512T500 450T519 338Q519 241 486 168T394 51T254 -3T75 13L108 17L72
-206L55 -182L167 -202L162 -230H-60ZM110 28L98 50Q182 23 251 32T369 81T445 184T472 334Q472 419 442 456T369 493Q339 493 304 475T234 421T174 328T136 195L110 28Z" />
<glyph unicode="&#xff;" horiz-adv-x="493" d="M-51 -233L-45 -197Q-37 -198 -29 -199T-13 -200Q38 -200 72 -175T136 -100T198 21L194 1L89 492L98 485L28 494L33 522L130 528L226 42L214 43L438 493L442 486L366 494L370 522L539 528L535 500L469 486L483 493L232
-3Q215 -37 199 -70T162 -133T118 -187T63 -224T-10 -237Q-28 -237 -51 -233ZM191 654Q177 654 169 664T161 690Q161 709 171 721T199 733Q213 733 221 724T230 698Q230 680 219 667T191 654ZM370 654Q355 654 347 664T339 690Q339 709 349 721T377 733Q391 733
399 724T408 698Q408 680 397 667T370 654Z" />
<glyph unicode="&#x2013;" horiz-adv-x="588" d="M523 313L516 274H77L83 313H523Z" />
<glyph unicode="&#x2014;" horiz-adv-x="827" d="M761 310L754 272H75L81 310H761Z" />
<glyph unicode="&#x2018;" horiz-adv-x="170" d="M168 618Q168 600 157 590T131 579Q119 579 110 587T100 614Q100 633 112 660T144 718T189 778L208 762Q178 718 168 694T158 659Q158 648 163 640T168 618Z" />
<glyph unicode="&#x2019;" horiz-adv-x="170" d="M136 736Q136 755 147 765T172 775Q184 775 194 767T204 740Q204 722 192 695T160 637T114 576L96 593Q126 636 136 660T146 695Q146 706 141 714T136 736Z" />
<glyph unicode="&#x201a;" horiz-adv-x="170" d="M21 26Q21 45 32 55T57 65Q69 65 79 57T89 30Q89 12 77 -15T45 -73T-1 -134L-19 -117Q11 -74 21 -50T31 -15Q31 -4 26 4T21 26Z" />
<glyph unicode="&#x201c;" horiz-adv-x="303" d="M171 634Q171 616 160 606T134 595Q122 595 113 603T103 630Q103 648 115 675T147 734T192 794L210 778Q181 734 171 710T160 675Q160 664 165 656T171 634ZM303 634Q303 616 292 606T267 595Q255 595 246 603T236
630Q236 648 247 675T279 734T325 794L343 778Q313 734 303 710T293 675Q293 664 298 656T303 634Z" />
<glyph unicode="&#x201d;" horiz-adv-x="303" d="M266 736Q266 755 277 765T302 775Q314 775 324 767T334 740Q334 722 322 695T290 637T244 576L226 593Q256 636 266 660T276 695Q276 706 271 714T266 736ZM134 736Q134 755 145 765T170 775Q182 775 192 767T202
740Q202 722 190 695T158 637T112 576L94 593Q124 636 134 660T144 695Q144 706 139 714T134 736Z" />
<glyph unicode="&#x201e;" horiz-adv-x="303" d="M154 26Q154 45 165 55T190 65Q202 65 212 57T222 30Q222 12 210 -15T178 -73T132 -134L114 -117Q144 -74 154 -50T164 -15Q164 -4 159 4T154 26ZM21 26Q21 45 32 55T57 65Q69 65 79 57T89 30Q89 12 77 -15T45
-73T-1 -134L-19 -117Q11 -74 21 -50T31 -15Q31 -4 26 4T21 26Z" />
<glyph unicode="&#x2022;" horiz-adv-x="336" d="M91 315Q91 344 103 364T135 396T179 408Q203 408 221 397T251 366T262 318Q262 290 251 270T220 238T175 226Q151 226 132 237T102 268T91 315Z" />
<glyph unicode="&#x2039;" horiz-adv-x="283" d="M167 73L55 254L59 286L228 467L250 448L88 259L91 282L194 93L167 73Z" />
<glyph unicode="&#x203a;" horiz-adv-x="283" d="M118 467L231 286L226 254L57 73L36 93L198 281L195 258L92 448L118 467Z" />
</font>
</defs>
</svg>
