<?xml version="1.0" standalone="no"?>
<!DOCTYPE svg PUBLIC "-//W3C//DTD SVG 1.1//EN" "http://www.w3.org/Graphics/SVG/1.1/DTD/svg11.dtd">
<svg xmlns="http://www.w3.org/2000/svg">
<defs >
<font id="Bitter" horiz-adv-x="568" ><font-face
    font-family="Bitter Thin Medium"
    units-per-em="1000"
    panose-1="0 0 0 0 0 0 0 0 0 0"
    ascent="935"
    descent="-265"
    alphabetic="0" />
<glyph unicode=" " horiz-adv-x="187" />
<glyph unicode="!" horiz-adv-x="318" d="M117 230L175 700H279L189 235L117 230ZM119 -7Q93 -7 79 8T64 48Q64 78 83 97T132 116Q157 116 172 101T188 60Q188 30 168 12T119 -7Z" />
<glyph unicode="&quot;" horiz-adv-x="388" d="M123 519L147 770H238L183 519H123ZM287 519L311 770H402L347 519H287Z" />
<glyph unicode="#" horiz-adv-x="635" d="M103 521H620L611 457H93L103 521ZM23 253H541L531 189H13L23 253ZM260 700H340L134 0H54L260 700ZM496 700H577L371 0H291L496 700Z" />
<glyph unicode="$" horiz-adv-x="604" d="M239 0Q191 0 140 10T42 42L72 215H132L131 89L121 108Q152 93 185 86T252 78Q298 78 337 93T399 136T422 206Q422 239 406 259T363 292T304 313T240 334T181 364T138 412T121 489Q121 558 156 605T251 676T382 700Q429
700 478 690T574 658L541 496H482L484 611L497 599Q469 611 439 617T379 624Q336 624 300 611T242 571T220 508Q220 476 236 458T280 428T339 407T403 387T463 356T506 306T522 227Q522 152 483 102T380 26T239 0ZM204 -135L228 22H298L274 -135H204ZM332 676L356
828H426L402 677L332 676Z" />
<glyph unicode="%" horiz-adv-x="822" d="M99 -11L665 710H748L183 -11H99ZM226 349Q160 349 126 387T92 494Q92 555 116 604T184 681T290 710Q356 710 389 674T423 568Q423 509 400 459T332 379T226 349ZM233 407Q273 407 299 430T338 491T351 570Q351 612 336
632T284 652Q244 652 217 630T177 571T164 494Q164 451 180 429T233 407ZM560 -10Q494 -10 460 28T426 135Q426 195 449 244T517 322T623 351Q689 351 723 315T757 209Q757 150 733 100T666 20T560 -10ZM567 48Q607 48 633 71T672 131T685 210Q685 253 670 273T618
293Q578 293 551 270T511 211T498 135Q498 91 514 70T567 48Z" />
<glyph unicode="&amp;" horiz-adv-x="683" d="M275 -10Q179 -10 124 35T68 165Q68 224 95 270T170 345T281 378L282 367Q209 376 174 416T139 513Q139 574 173 618T267 686T405 710Q453 710 500 701T593 673L563 524H500V627L517 612Q457 633 399 633Q325 633
283 601T240 509Q240 458 274 433T372 408H658L649 352L562 332L577 351L556 214Q544 140 504 90T405 15T275 -10ZM297 71Q359 71 402 105T458 213L479 347L495 333H346Q296 333 257 314T196 261T174 182Q174 127 208 99T297 71Z" />
<glyph unicode="&apos;" horiz-adv-x="225" d="M123 519L147 770H238L183 519H123Z" />
<glyph unicode="(" horiz-adv-x="300" d="M357 833Q287 751 235 655T155 455T126 246Q126 160 146 74T209 -90L144 -125Q88 -39 61 59T34 258Q34 373 67 484T159 695T299 878L357 833Z" />
<glyph unicode=")" horiz-adv-x="300" d="M-23 -86Q47 -4 99 92T179 292T208 501Q208 587 188 673T125 837L190 873Q247 786 273 688T300 489Q300 375 267 264T175 53T35 -131L-23 -86Z" />
<glyph unicode="*" horiz-adv-x="438" d="M304 445L250 559L261 591L290 587L356 484L304 445ZM165 444L118 482L216 588L247 591L250 559L165 444ZM217 588L97 616L126 678L237 634L246 604L217 588ZM259 613L239 634L249 760L310 761L286 634L259 613ZM292 587L269
606L284 634L406 680L416 617L292 587Z" />
<glyph unicode="+" horiz-adv-x="546" d="M273 386L253 368L287 590H362L328 368L313 386H518L507 313H300L320 331L286 109H211L246 331L260 313H55L66 386H273Z" />
<glyph unicode="," horiz-adv-x="225" d="M20 47Q20 70 29 85T54 108T84 116Q106 116 122 102T139 59Q139 29 122 -6T73 -79T-1 -158L-36 -128Q-8 -93 7 -71T28 -35T34 -12Q34 -2 31 5T24 23T20 47Z" />
<glyph unicode="-" horiz-adv-x="408" d="M357 332L345 254H61L73 332H357Z" />
<glyph unicode="." horiz-adv-x="229" d="M74 -7Q48 -7 34 8T19 48Q19 78 39 97T87 116Q112 116 127 101T143 60Q143 30 123 12T74 -7Z" />
<glyph unicode="/" horiz-adv-x="305" d="M394 804L13 -81H-58L323 804H394Z" />
<glyph unicode="0" horiz-adv-x="628" d="M266 -10Q202 -10 157 15T89 97T66 246Q66 301 75 364T107 489T166 600T260 680T393 710Q489 710 539 654T589 463Q589 406 580 342T548 215T489 102T397 21T266 -10ZM278 70Q326 70 361 98T421 174T460 275T481 383T488
476Q488 535 475 568T438 616T381 630Q331 630 295 603T234 532T195 435T174 331T167 238Q167 145 196 108T278 70Z" />
<glyph unicode="1" horiz-adv-x="409" d="M252 51L237 78L360 54L351 0H13L22 54L178 81L153 51L243 614L270 612L90 514L66 578L274 704H356L252 51Z" />
<glyph unicode="2" horiz-adv-x="540" d="M3 0L16 90Q70 133 126 177T234 267T326 358T391 448T415 536Q415 585 384 608T301 631Q273 631 240 625T172 607L188 626L155 508H94L109 673Q165 691 219 700T322 710Q380 710 425 694T495 644T521 554Q521 502 498
451T436 350T347 252T240 158T130 68L132 83H468L454 0H3Z" />
<glyph unicode="3" horiz-adv-x="555" d="M206 -10Q150 -10 99 5T5 48L40 121Q117 73 203 73Q256 73 297 92T361 145T385 226Q385 261 369 283T323 317T249 328H169L181 403H260Q338 403 379 443T421 542Q421 595 391 614T313 634Q281 634 246 627T178 610L192
626L164 513H104L118 671Q176 690 232 700T336 710Q390 710 432 696T499 649T524 559Q524 477 472 427T334 365L326 374Q409 367 447 330T485 226Q485 157 449 104T350 20T206 -10Z" />
<glyph unicode="4" horiz-adv-x="565" d="M327 190L348 168H10V241L398 712L507 700L433 229L411 249H545L532 168H398L427 190L397 0H297L327 190ZM364 249L333 229L400 651L432 645L78 213L66 249H364Z" />
<glyph unicode="5" horiz-adv-x="530" d="M206 -10Q159 -10 109 3T9 42L44 114Q82 94 120 84T193 74Q245 74 286 96T350 156T374 241Q374 281 358 302T313 333T250 344T179 346H96L166 700H523L509 619H222L253 638L206 400L183 423H237Q262 423 294 421T359 412T420
386T464 334T481 249Q481 176 446 117T349 24T206 -10Z" />
<glyph unicode="6" horiz-adv-x="580" d="M155 289L158 361Q208 394 259 409T356 424Q406 424 447 406T512 349T536 248Q536 174 501 116T406 24T271 -10Q225 -10 186 4T118 48T72 126T56 241Q56 311 73 378T125 506T208 612T319 684T457 711Q507 711 557 698L542
619Q520 624 500 626T460 629Q402 629 354 608T270 548T209 461T173 354T160 238Q160 176 173 139T213 87T273 71Q320 71 355 94T411 157T431 242Q431 302 401 326T323 351Q282 351 238 335T155 289Z" />
<glyph unicode="7" horiz-adv-x="502" d="M540 626L185 0H73L437 633L450 617H140L165 634L125 513H64L93 700H551L540 626Z" />
<glyph unicode="8" horiz-adv-x="589" d="M246 -10Q191 -10 145 8T70 63T41 156Q41 209 67 252T139 327T246 373L306 342Q261 329 223 306T162 249T139 172Q139 120 172 93T258 65Q302 65 339 83T400 133T423 204Q423 243 401 266T343 305T268 335T193 369T136
421T113 504Q113 552 134 590T192 656T274 696T368 710Q420 710 464 694T535 643T562 555Q562 502 536 464T465 400T369 363L296 394Q338 402 377 421T441 472T466 544Q466 577 451 597T412 626T358 635Q319 635 285 620T230 577T209 513Q209 476 231 453T289 414T365
385T440 351T498 299T520 215Q520 165 498 124T436 52T348 6T246 -10Z" />
<glyph unicode="9" horiz-adv-x="581" d="M453 414L450 344Q400 312 349 296T251 279Q202 279 161 297T96 354T72 453Q72 507 92 554T148 636T234 690T339 710Q384 710 422 697T490 654T535 577T552 460Q552 387 533 318T479 190T394 87T284 17T151 -9Q127 -9
102 -6T50 4L65 84Q87 79 107 77T145 75Q205 75 253 96T338 156T399 245T435 351T448 466Q448 528 435 563T396 614T335 629Q284 629 249 604T195 540T176 458Q176 399 208 376T286 352Q326 352 370 368T453 414Z" />
<glyph unicode=":" horiz-adv-x="229" d="M130 346Q104 346 90 361T75 401Q75 431 95 450T143 469Q168 469 183 454T199 413Q199 383 179 365T130 346ZM74 -7Q48 -7 34 8T19 48Q19 78 39 97T87 116Q112 116 127 101T143 60Q143 30 123 12T74 -7Z" />
<glyph unicode=";" horiz-adv-x="229" d="M22 47Q22 70 31 85T56 108T86 116Q108 116 124 102T141 59Q141 29 124 -6T75 -79T1 -158L-34 -128Q-6 -93 9 -71T30 -35T36 -12Q36 -2 33 5T26 23T22 47ZM130 346Q104 346 90 361T75 401Q75 431 95 450T143 469Q168 469
183 454T199 413Q199 383 179 365T130 346Z" />
<glyph unicode="&lt;" horiz-adv-x="520" d="M437 144L58 314L69 391L490 569L515 494L136 339L137 359L469 216L437 144Z" />
<glyph unicode="=" horiz-adv-x="672" d="M587 479L575 406H141L153 479H587ZM813 543L801 470H367L379 543H813Z" />
<glyph unicode="&gt;" horiz-adv-x="520" d="M112 569L491 399L480 322L59 144L35 219L413 374L412 354L80 497L112 569Z" />
<glyph unicode="?" horiz-adv-x="411" d="M107 237Q108 246 108 255T109 277Q113 325 136 357T190 415T251 462T302 509T322 569Q322 605 299 619T241 634Q213 634 180 627T116 607L97 676Q140 693 184 702T269 712Q312 712 347 700T404 661T425 588Q425 547 409
517T367 462T312 416T255 373T210 325T187 264Q186 258 185 251T183 236L107 237ZM121 -7Q95 -7 81 8T66 48Q66 78 86 97T134 116Q159 116 174 101T190 60Q190 30 170 12T121 -7Z" />
<glyph unicode="@" horiz-adv-x="868" d="M342 -110Q258 -110 197 -75T101 28T67 193Q67 287 98 370T187 516T324 616T503 652Q596 652 665 618T773 517T812 353Q812 295 798 244T759 152T696 88T611 64Q557 64 531 96T506 189L536 251Q521 191 491 151T426 90T358
70Q315 70 284 105T252 217Q252 289 281 348T360 442T473 478Q501 478 532 469T595 437L559 442L577 470L615 467L572 200Q568 169 576 147T614 124Q642 124 664 143T701 195T725 268T733 349Q733 399 720 442T678 517T606 567T499 585Q414 585 349 553T238 465T169
339T146 194Q146 79 199 18T353 -43Q389 -43 427 -35T506 -12L523 -74Q477 -92 431 -101T342 -110ZM387 133Q408 133 428 146T466 184T497 242T517 315L533 419L552 392Q531 406 511 413T471 421Q430 421 398 394T348 321T329 224Q329 178 345 156T387 133Z" />
<glyph unicode="A" horiz-adv-x="679" d="M582 52L560 77L638 53L630 0H380L389 53L482 75L476 59L452 209L461 194H183L200 208L127 59L124 73L212 53L203 0H-36L-27 53L59 76L30 54L361 699L465 702L582 52ZM220 251L214 268H456L448 249L387 642L411 641L220 251Z" />
<glyph unicode="B" horiz-adv-x="634" d="M373 349L378 364Q472 363 518 328T565 218Q565 151 531 102T435 27T287 0H7L15 53L109 75L93 59L185 639L197 622L108 642L116 695L291 700H399Q427 700 455 696T508 683T551 656T581 614T592 552Q592 494 564 451T487
382T373 349ZM373 626H265L285 643L243 374L230 394H311Q346 394 378 401T435 425T475 468T490 532Q490 566 477 586T437 616T373 626ZM285 75Q369 75 415 114T461 219Q461 256 447 277T407 309T346 320H218L239 344L192 56L173 75H285Z" />
<glyph unicode="C" horiz-adv-x="620" d="M307 -10Q241 -10 186 21T97 117T64 279Q64 361 89 438T161 577T274 674T422 710Q469 710 520 697T626 659L594 496H534V616L552 599Q518 614 483 621T418 629Q359 629 313 599T235 517T186 405T169 283Q169 210 191 164T249
96T331 74Q375 74 422 94T515 152L549 88Q491 39 429 15T307 -10Z" />
<glyph unicode="D" horiz-adv-x="708" d="M402 700Q488 700 548 672T640 583T671 429Q671 345 646 268T571 130T450 35T287 0H7L15 53L109 75L93 59L186 639L197 622L108 642L116 695L311 700H402ZM304 76Q357 76 399 98T472 158T524 243T555 340T566 436Q566
498 547 540T487 603T385 624H265L285 643L192 55L180 76H304Z" />
<glyph unicode="E" horiz-adv-x="603" d="M464 173H524L496 0H7L15 53L109 75L93 59L185 639L197 622L108 642L116 695L293 700H596L570 534H511L509 640L526 624H265L285 641L243 376L231 394H476L464 321H218L238 341L192 56L180 76H452L428 58L464 173Z" />
<glyph unicode="F" horiz-adv-x="551" d="M7 0L15 53L109 75L93 59L185 640L197 622L108 642L116 695L293 700H589L563 533H504L502 637L519 624H265L285 641L241 365L229 388H466L455 312H215L236 330L193 59L183 75L290 53L282 0H7Z" />
<glyph unicode="G" horiz-adv-x="712" d="M322 -10Q244 -10 186 19T96 112T64 276Q64 366 90 445T167 583T286 676T440 710Q493 710 548 697T659 658L628 494H568L567 615L583 599Q547 615 513 622T447 629Q384 629 333 602T245 527T189 414T169 276Q169 202 189
158T247 93T336 72Q373 72 413 81T498 106L483 81L514 286L528 268L436 283L444 338L693 343L684 287L593 267L607 286L572 48Q502 19 439 5T322 -10Z" />
<glyph unicode="H" horiz-adv-x="768" d="M7 0L15 53L109 75L93 59L186 639L198 622L108 642L116 695L375 700L366 647L271 622L285 639L244 379L232 394H579L559 379L600 639L611 622L523 642L531 695L789 700L781 647L685 622L700 639L608 59L600 75L686 53L678
0H421L429 53L523 75L508 59L552 335L565 319H218L237 335L193 59L186 75L272 53L264 0H7Z" />
<glyph unicode="I" horiz-adv-x="352" d="M366 647L271 622L285 638L193 59L186 75L272 53L264 0H7L15 53L109 75L93 59L185 638L198 622L108 642L116 695L375 700L366 647Z" />
<glyph unicode="J" horiz-adv-x="335" d="M105 695L368 700L360 647L265 622L279 639L186 54Q180 12 166 -25T128 -90T68 -135T-21 -152Q-50 -152 -82 -146L-65 -72Q-57 -73 -49 -74T-31 -75Q5 -75 26 -64T59 -36T76 -1T83 33L179 639L191 622L97 642L105 695Z" />
<glyph unicode="K" horiz-adv-x="691" d="M575 54L551 75L640 53L632 0H489L322 341L347 320H219L239 343L193 59L184 76L270 53L262 0H7L15 53L110 75L93 59L186 640L198 622L108 641L116 695L373 700L364 648L270 622L287 647L244 378L232 396H364L332 379L533
642L543 626L459 642L466 695L710 700L702 647L608 623L635 642L408 349V378L575 54Z" />
<glyph unicode="L" horiz-adv-x="537" d="M438 190H498L468 0H7L15 53L109 75L93 59L186 638L198 622L108 642L116 695L382 700L374 647L271 622L285 639L192 52L181 76H418L399 58L438 190Z" />
<glyph unicode="M" horiz-adv-x="860" d="M874 647L777 622L793 641L701 59L693 75L779 53L771 0H522L530 53L629 77L608 54L692 588L708 586L442 182L377 178L241 588L260 589L175 59L168 75L254 53L246 0H7L15 53L113 76L93 59L186 639L198 622L108 642L116
695L311 700L442 281H425L690 695L882 700L874 647Z" />
<glyph unicode="N" horiz-adv-x="758" d="M551 695L789 700L781 647L688 622L703 639L601 0H495L248 591H261L176 59L169 75L253 53L245 0H7L15 53L109 75L93 59L186 639L197 622L108 642L116 695L310 700L550 120L538 119L620 640L631 622L543 642L551 695Z" />
<glyph unicode="O" horiz-adv-x="723" d="M317 -10Q239 -10 182 21T94 114T63 270Q63 332 78 395T122 515T196 616T300 685T433 710Q512 710 569 679T657 586T688 432Q688 371 674 308T630 188T556 87T452 16T317 -10ZM327 71Q377 71 417 93T489 154T541 239T572
336T583 433Q583 502 562 545T506 608T424 629Q374 629 333 607T262 547T210 462T179 365T169 269Q169 200 189 156T246 92T327 71Z" />
<glyph unicode="P" horiz-adv-x="587" d="M293 261H204L229 280L193 59L186 75L292 53L284 0H7L15 53L109 75L93 59L186 639L198 622L108 642L116 695L297 700H395Q497 700 543 655T590 526Q590 449 554 389T451 295T293 261ZM367 625H270L286 643L235 318L220
336H297Q358 336 400 360T464 426T486 517Q486 569 458 597T367 625Z" />
<glyph unicode="Q" horiz-adv-x="725" d="M579 -181Q540 -181 500 -160T409 -98T284 1L305 -10Q232 -7 178 24T93 117T63 270Q63 332 78 395T122 514T196 615T300 684T433 710Q511 710 568 679T657 586T688 431Q688 361 669 289T610 155T513 51T378 -4L377 12Q428
-24 464 -48T527 -85T581 -97Q605 -97 631 -88T691 -59L726 -124Q681 -153 646 -167T579 -181ZM326 70Q377 70 418 92T490 153T542 238T573 336T584 432Q584 502 564 545T507 608T424 629Q373 629 332 607T260 547T209 462T178 364T167 268Q167 199 187 155T244
91T326 70Z" />
<glyph unicode="R" horiz-adv-x="641" d="M7 0L15 53L109 75L93 59L186 639L197 622L108 642L116 695L300 700H398Q597 700 597 541Q597 478 568 429T486 350T366 314L363 330Q415 329 440 298T481 220L537 59L511 79L588 53L580 0H451L392 199Q377 247 363 268T329
294T275 300L215 299L235 316L193 59L186 75L285 53L277 0H7ZM241 349L228 373H305Q364 373 406 394T470 452T493 531Q493 566 480 585T448 613T409 623T376 625H270L286 644L241 349Z" />
<glyph unicode="S" horiz-adv-x="583" d="M229 -10Q181 -10 130 0T32 32L62 205H122L121 79L111 98Q142 83 175 76T242 68Q287 68 326 82T389 125T413 194Q413 233 391 256T335 294T262 323T189 357T133 411T111 499Q111 569 147 615T242 686T372 710Q419 710
468 699T564 667L531 506H472L474 621L487 608Q459 621 429 627T369 633Q327 633 291 621T232 583T210 519Q210 483 232 462T288 426T361 397T434 361T490 306T512 215Q512 141 473 91T370 15T229 -10Z" />
<glyph unicode="T" horiz-adv-x="579" d="M107 0L116 53L223 75L207 59L299 642L317 624H142L168 645L127 518H67L96 700H621L591 518H532L530 642L550 624H374L399 642L307 59L300 75L398 53L389 0H107Z" />
<glyph unicode="U" horiz-adv-x="727" d="M509 695L767 700L759 647L663 622L677 639L619 265Q604 172 569 111T472 20T320 -10Q207 -10 153 38T99 182Q99 200 101 219T106 260L167 639L177 622L89 642L98 695L353 700L345 647L252 622L267 639L205 253Q202 234
201 217T199 185Q199 126 228 98T325 70Q390 70 428 93T488 161T519 271L578 639L589 622L501 642L509 695Z" />
<glyph unicode="V" horiz-adv-x="685" d="M241 -1L136 641L158 622L66 642L75 695L343 700L336 647L231 623L247 649L323 90H309L580 643L586 623L491 642L499 695L748 700L740 647L645 624L672 643L347 -1H241Z" />
<glyph unicode="W" horiz-adv-x="990" d="M807 695L1051 700L1043 647L949 624L977 652L699 -1H604L531 574L551 573L294 -1H200L137 644L145 626L67 642L76 695L329 700L321 647L222 623L238 644L279 94H259L522 696L613 700L683 96H662L885 643L894 624L799
642L807 695Z" />
<glyph unicode="X" horiz-adv-x="682" d="M574 53L546 75L627 53L619 0H361L369 53L462 75L459 57L328 316H354L138 53L136 76L226 53L217 0H-19L-10 53L78 76L44 52L311 369L309 348L153 643L173 626L94 642L103 695L358 700L350 647L260 624L267 640L386 405L365
408L556 640L560 622L473 642L481 695L714 700L706 647L618 622L651 643L401 348L404 376L574 53Z" />
<glyph unicode="Y" horiz-adv-x="628" d="M144 0L151 53L247 75L232 59L266 274L272 235L129 640L145 624L65 642L73 695L328 700L320 647L220 626L229 645L338 308H318L533 641L539 622L446 642L454 695L691 700L683 647L599 627L622 642L351 235L365 274L331
59L324 75L412 53L404 0H144Z" />
<glyph unicode="Z" horiz-adv-x="595" d="M3 0L11 70L486 633L495 623H172L199 636L162 526H101L129 700H603L595 628L121 60L118 77H460L433 61L470 175H532L501 0H3Z" />
<glyph unicode="[" horiz-adv-x="328" d="M18 -105L170 853L390 848L381 785L242 780L114 -31L251 -37L240 -100L18 -105Z" />
<glyph unicode="\" horiz-adv-x="308" d="M81 804H152L257 -81H188L81 804Z" />
<glyph unicode="]" horiz-adv-x="328" d="M345 853L193 -105L-28 -100L-18 -37L120 -31L249 780L112 785L122 848L345 853Z" />
<glyph unicode="^" horiz-adv-x="502" d="M44 530L279 869H350L477 530H389L285 829H332L133 530H44Z" />
<glyph unicode="_" horiz-adv-x="474" d="M422 -67L412 -134H-64L-54 -67H422Z" />
<glyph unicode="`" horiz-adv-x="384" d="M191 817L376 665L340 614L139 742L191 817Z" />
<glyph unicode="a" horiz-adv-x="587" d="M178 -10Q140 -10 108 10T56 74T36 188Q36 260 58 324T121 436T215 513T333 541Q372 541 414 528T499 486L456 493L478 530H532L452 25L418 88L534 56L525 1L360 -4L392 186L421 235Q400 153 359 99T270 17T178 -10ZM216
70Q241 70 269 85T324 132T370 211T401 321L423 461L440 427Q411 447 384 456T331 465Q288 465 253 443T191 384T151 299T136 199Q136 132 159 101T216 70Z" />
<glyph unicode="b" horiz-adv-x="573" d="M42 14L158 743L192 682L76 714L85 768L261 774L190 351L155 296Q176 379 215 433T302 514T395 541Q433 541 465 521T516 456T536 337Q536 231 494 153T376 33T199 -10Q126 -10 42 14ZM146 55L126 85Q151 76 176 72T223
67Q288 67 335 99T409 191T436 327Q436 400 414 430T356 461Q331 461 303 446T249 399T202 320T171 210L146 55Z" />
<glyph unicode="c" horiz-adv-x="482" d="M229 -10Q175 -10 132 13T63 85T37 210Q37 280 59 340T121 445T213 515T326 540Q362 540 400 530T477 499L456 367H390L389 457L399 444Q356 467 316 467Q276 467 243 447T187 390T150 309T137 215Q137 136 169 101T251
66Q280 66 314 77T384 109L412 48Q366 19 319 5T229 -10Z" />
<glyph unicode="d" horiz-adv-x="588" d="M178 -10Q140 -10 108 10T56 74T36 188Q36 260 58 324T121 436T215 513T333 541Q372 541 414 528T499 486L430 503L468 742L502 682L385 715L393 768L570 774L452 25L418 88L534 56L525 1L360 -4L392 186L421 235Q400
153 360 99T271 17T178 -10ZM216 70Q241 70 269 85T323 132T370 211T401 321L423 458L440 427Q411 447 384 456T331 465Q288 465 253 443T191 384T151 299T136 199Q136 132 159 101T216 70Z" />
<glyph unicode="e" horiz-adv-x="508" d="M232 -10Q178 -10 134 12T64 81T38 204Q38 268 57 328T114 436T205 512T327 540Q404 540 447 505T490 412Q490 366 462 331T387 272T280 236T159 224Q150 224 141 224T123 225L129 295Q141 294 153 293T179 292Q217 292
255 299T325 320T376 354T395 402Q395 432 374 450T313 468Q271 468 238 445T181 384T146 299T134 206Q134 130 166 96T252 62Q287 62 326 74T406 108L430 52Q381 21 331 6T232 -10Z" />
<glyph unicode="f" horiz-adv-x="337" d="M-53 -240Q-71 -240 -86 -238T-113 -234L-98 -164Q-92 -165 -84 -166T-65 -167Q-35 -167 -15 -158T19 -133T39 -96T51 -51L133 470L142 457H51L59 512L155 528L139 510L152 589Q168 689 225 734T362 780Q385 780 409 777T458
764L434 695Q418 701 402 703T369 706Q325 706 292 680T250 595L237 510L226 526H375L363 457H218L231 470L152 -28Q144 -79 127 -118T84 -185T24 -226T-53 -240Z" />
<glyph unicode="g" horiz-adv-x="573" d="M189 -240Q145 -240 99 -231T9 -207L30 -136Q72 -150 112 -158T186 -166Q231 -166 261 -154T311 -119T342 -68T359 -7L389 187L421 235Q400 153 360 99T271 17T178 -10Q140 -10 108 10T56 74T36 188Q36 260 58 324T121
436T215 512T333 540Q372 540 414 528T499 486L457 495L478 530H532L448 -5Q437 -71 414 -116T356 -188T279 -228T189 -240ZM216 70Q241 70 269 85T323 132T370 211T401 321L423 461L440 427Q411 447 384 456T331 465Q288 465 253 443T191 384T151 299T136 199Q136
132 159 101T216 70Z" />
<glyph unicode="h" horiz-adv-x="594" d="M362 -4L418 340Q424 379 419 406T398 447T357 461Q332 461 304 446T250 401T203 324T172 214L139 0H41L154 712L167 693L78 712L87 767L261 774L187 346L151 295Q175 383 216 437T306 515T398 540Q441 540 471 519T514
458T518 361L470 57L429 88L546 56L537 1L362 -4Z" />
<glyph unicode="i" horiz-adv-x="293" d="M55 -4L136 503L171 442L55 474L63 527L238 534L158 26L124 87L239 54L230 1L55 -4ZM207 631Q181 631 166 647T151 689Q151 721 170 741T220 761Q246 761 261 746T276 703Q276 672 257 652T207 631Z" />
<glyph unicode="j" horiz-adv-x="278" d="M-116 -234L-100 -164Q-91 -165 -83 -166T-67 -167Q-12 -167 13 -139T48 -50L129 469L139 454L56 474L64 527L238 534L149 -28Q137 -106 109 -152T38 -219T-59 -240Q-75 -240 -88 -239T-116 -234ZM202 631Q176 631 161
647T146 689Q146 721 165 741T215 761Q241 761 256 746T271 703Q271 672 252 652T202 631Z" />
<glyph unicode="k" horiz-adv-x="551" d="M40 0L158 743L192 682L77 714L86 768L261 774L187 311L173 327H302L275 314L396 474L402 461L330 473L338 527L558 534L550 481L463 463L493 480L345 288L349 317L446 58L431 72L509 53L501 0H365L272 266L286 258H161L180
264L138 0H40Z" />
<glyph unicode="l" horiz-adv-x="278" d="M40 -4L158 743L193 683L78 712L86 767L261 774L143 27L107 88L224 56L215 1L40 -4Z" />
<glyph unicode="m" horiz-adv-x="906" d="M674 -4L729 340Q735 380 731 406T712 447T674 461Q650 461 624 446T572 401T526 324T496 214L463 0H365L420 340Q426 380 422 406T403 447T365 461Q342 461 315 446T263 401T217 324T187 214L154 0H56L131 472L170 442L55
474L63 527L233 534L196 346L166 295Q191 383 232 437T320 515T407 540Q446 540 474 520T515 462T519 369L513 328L477 295Q502 383 542 437T629 515T716 540Q756 540 784 519T826 458T829 361L781 55L739 88L858 56L849 1L674 -4Z" />
<glyph unicode="n" horiz-adv-x="609" d="M377 -4L432 340Q439 379 434 406T413 447T372 461Q347 461 319 446T264 401T218 324T187 214L154 0H56L136 503L170 442L55 474L63 527L233 534L196 346L165 295Q190 383 231 436T321 515T412 540Q456 540 486 519T530
458T533 361L484 55L442 88L561 56L552 1L377 -4Z" />
<glyph unicode="o" horiz-adv-x="558" d="M325 540Q383 540 426 518T494 449T519 324Q519 262 502 203T449 95T360 19T233 -10Q176 -10 133 12T65 81T40 206Q40 268 57 327T110 435T199 511T325 540ZM312 467Q267 467 235 442T181 378T150 293T140 207Q140 139
166 101T247 63Q291 63 323 88T377 152T408 237T419 324Q419 392 393 429T312 467Z" />
<glyph unicode="p" horiz-adv-x="589" d="M-56 -230L-48 -177L76 -145L25 -199L131 472L145 453L55 474L63 527L234 534L197 341L171 296Q192 378 231 432T318 513T411 540Q449 540 481 520T532 456T552 340Q552 244 519 171T425 53T281 -4T99 9L157 18L122 -201L87
-143L211 -177L203 -230H-56ZM163 55L142 85Q212 60 269 68T367 110T430 201T452 330Q452 400 429 430T372 461Q347 461 319 446T265 399T218 320T187 210L163 55Z" />
<glyph unicode="q" horiz-adv-x="573" d="M228 -230L236 -177L367 -145L318 -203L351 0L386 186L421 235Q400 153 360 99T271 17T178 -10Q140 -10 108 10T56 74T36 188Q36 260 58 324T121 436T215 512T333 540Q372 540 414 528T499 486L457 494L478 530H532L416
-205L382 -143L496 -177L488 -230H228ZM216 70Q241 70 269 85T323 132T370 211T401 321L423 461L440 427Q411 447 384 456T331 465Q288 465 253 443T191 384T151 299T136 199Q136 132 159 101T216 70Z" />
<glyph unicode="r" horiz-adv-x="416" d="M56 0L136 503L170 442L55 474L63 527L233 534L196 346L166 295Q186 373 225 428T313 511T409 540Q433 540 450 533L423 376H362L363 473L376 462Q348 464 319 449T264 401T217 322T187 214L154 0H56Z" />
<glyph unicode="s" horiz-adv-x="476" d="M172 -10Q134 -10 92 -4T9 13L34 160H96L92 57L79 79Q101 71 125 66T177 61Q215 61 246 70T295 99T314 146Q315 173 298 189T253 218T194 242T135 271T90 314T74 381Q74 431 102 467T179 521T289 540Q327 540 368 533T451
511L429 385H368L364 470L382 453Q359 463 335 467T291 471Q257 471 231 461T189 435T172 394Q172 368 189 352T234 323T293 299T352 269T397 225T414 158Q413 106 382 68T296 10T172 -10Z" />
<glyph unicode="t" horiz-adv-x="369" d="M320 25Q283 7 249 -1T186 -10Q136 -10 106 17T75 101Q75 110 75 118T77 136L131 476L142 461H45L54 516L156 534L137 515L159 648L259 665L235 515L226 530H375L364 461H213L229 476L176 142Q175 138 175 132T174 118Q174
90 186 78T220 66Q236 66 256 72T298 89L320 25Z" />
<glyph unicode="u" horiz-adv-x="608" d="M196 -10Q153 -11 123 10T80 72T76 168L124 474L133 454L49 474L58 527L232 534L177 190Q171 151 176 124T196 83T237 69Q262 69 290 83T345 128T391 205T422 317L455 530H553L479 57L466 76L555 54L547 1L381 -4L413
186L444 235Q420 149 379 95T289 16T196 -10Z" />
<glyph unicode="v" horiz-adv-x="520" d="M176 -2L77 471L86 461L28 473L37 527L169 534L247 55L224 60L420 472L424 461L358 473L366 527L563 534L556 481L493 462L514 473L275 -2H176Z" />
<glyph unicode="w" horiz-adv-x="791" d="M137 -2L83 471L95 461L31 473L39 527L173 534L209 56H195L391 528L495 533L536 57H525L700 472L705 458L636 473L644 527L831 534L824 481L767 464L783 476L570 -2H464L414 457L441 455L243 -2H137Z" />
<glyph unicode="x" horiz-adv-x="540" d="M-30 0L-21 53L66 69L40 55L217 284L248 288L433 527L554 534L546 481L464 464L493 479L317 264L288 260L95 0H-30ZM355 0L227 249L107 478L125 460L58 473L66 527L183 536L301 304L432 55L415 71L496 53L487 0H355Z" />
<glyph unicode="y" horiz-adv-x="520" d="M-54 -234L-41 -161Q-30 -163 -20 -164T0 -165Q47 -165 79 -144T139 -81T197 24L191 -12L78 471L88 461L27 473L36 527L169 534L257 67L231 72L421 472L425 461L360 473L367 527L565 534L557 481L495 463L513 473L278
0Q263 -30 246 -62T207 -126T156 -184T89 -225T2 -240Q-24 -240 -54 -234Z" />
<glyph unicode="z" horiz-adv-x="477" d="M417 156L394 1L-1 0L7 60L365 481L377 459H123L155 484L127 386H67L89 530H468L459 469L99 42V71H350L319 41L357 156H417Z" />
<glyph unicode="{" horiz-adv-x="331" d="M179 -105Q130 -105 100 -88T60 -34T59 61L87 237Q95 285 82 312T16 339L27 409Q62 409 83 423T116 463T132 518L159 694Q168 747 187 782T241 835T329 853H380L371 790Q325 790 300 781T263 747T244 680L216 501Q208
448 186 419T132 379T62 368L58 381Q95 381 124 369T168 326T174 241L146 62Q140 19 144 -3T170 -33T238 -42L228 -105H179Z" />
<glyph unicode="|" horiz-adv-x="317" d="M207 806H283L139 -102H63L207 806Z" />
<glyph unicode="}" horiz-adv-x="331" d="M186 853Q236 853 265 836T305 783T306 687L278 512Q270 465 283 437T349 409L338 339Q303 339 282 325T249 286T233 230L206 55Q197 1 178 -34T125 -87T36 -105H-15L-5 -42Q40 -42 65 -32T102 2T121 69L149 247Q158 301
180 330T234 370T303 381L307 368Q271 368 241 380T197 422T191 508L219 686Q226 729 222 751T195 782T127 790L137 853H186Z" />
<glyph unicode="~" horiz-adv-x="645" d="M433 282Q403 282 377 293T328 318T282 343T235 354Q212 354 188 341T135 295L95 329Q133 383 168 406T240 429Q270 429 296 418T345 393T392 368T439 357Q463 357 487 370T538 415L577 381Q539 326 504 304T433 282Z" />
<glyph unicode="&#xa0;" horiz-adv-x="187" />
<glyph unicode="&#xa1;" horiz-adv-x="318" d="M192 240L134 -230H30L120 235L192 240ZM190 477Q216 477 230 462T245 422Q245 393 226 374T177 355Q152 355 137 369T121 410Q121 441 141 459T190 477Z" />
<glyph unicode="&#xa2;" horiz-adv-x="548" d="M213 -21L235 125L263 104Q178 103 128 156T78 303Q78 365 95 418T147 514T228 581T337 610L310 588L333 736H398L375 591L352 611Q400 611 441 600T510 571L489 448H432L435 527Q416 536 394 539T356 543Q312 543
278 523T220 469T183 392T170 304Q170 243 200 209T284 175Q319 175 359 189T442 233L470 179Q417 142 369 125T274 104L301 127L278 -21H213Z" />
<glyph unicode="&#xa3;" horiz-adv-x="649" d="M26 0L35 53L138 81L100 59Q139 89 154 135T173 238T179 356L191 335H79L88 391L194 400L183 386Q181 494 204 566T280 674T423 710Q465 710 513 703T616 680L585 524H526V636L538 619Q478 633 434 633Q369 633 336
604T292 519T282 383L265 400H452L442 335H259L279 355Q279 290 273 235T247 137T189 65L178 77L467 76L447 57L486 182H546L517 0H26Z" />
<glyph unicode="&#xa4;" horiz-adv-x="646" d="M536 123L482 70L399 163L437 162Q410 138 376 126T302 113Q258 113 227 128T178 167H219L105 70L66 119L178 214L172 174Q159 192 152 216T145 267Q145 313 162 353T210 425L202 387L120 480L176 533L259 437L224
436Q252 459 285 471T358 483Q401 483 430 470T477 437L444 440L551 532L589 484L482 392L484 430Q514 392 514 333Q514 289 497 246T449 174L451 218L536 123ZM307 175Q348 175 376 198T419 257T434 330Q434 374 414 397T353 420Q311 420 282 397T239 338T225
267Q225 223 246 199T307 175Z" />
<glyph unicode="&#xa5;" horiz-adv-x="689" d="M137 281L145 332H286L276 313L165 640L181 625L101 642L109 695L364 700L356 647L255 626L264 645L370 308H349L559 641L566 622L472 642L480 695L717 700L709 647L625 627L649 642L432 311L428 332H567L558 281H137ZM175
0L183 53L278 75L263 59L283 184L295 168H119L127 219H548L540 168H359L382 185L363 58L355 75L444 53L435 0H175Z" />
<glyph unicode="&#xa6;" horiz-adv-x="317" d="M148 437L206 806H282L223 437H148ZM63 -102L121 267H197L138 -102H63Z" />
<glyph unicode="&#xa7;" horiz-adv-x="547" d="M176 -180Q140 -180 103 -174T28 -155L53 -23H114L110 -116L100 -101Q139 -114 177 -114Q235 -114 272 -84T309 -4Q309 24 293 45T251 83T197 119T142 157T100 206T84 271Q84 319 108 353T172 410T259 443L277 410Q252
402 227 384T186 341T170 287Q170 258 186 236T229 195T285 158T341 117T383 67T400 -1Q400 -58 371 -97T292 -158T176 -180ZM287 94L277 128Q300 137 324 157T364 204T380 260Q380 288 364 309T321 349T266 386T211 427T169 477T152 546Q152 599 178 635T252 691T358
710Q392 710 431 703T509 681L489 567H429L427 648L441 631Q422 637 402 640T364 644Q311 644 276 619T241 547Q241 519 257 498T300 459T355 423T410 383T452 334T469 268Q469 220 443 185T376 127T287 94Z" />
<glyph unicode="&#xa8;" horiz-adv-x="441" d="M185 636Q163 636 150 651T137 691Q137 720 153 738T196 756Q218 756 231 742T245 702Q245 674 228 655T185 636ZM382 636Q359 636 346 651T333 691Q333 720 349 738T392 756Q415 756 428 742T441 702Q441 674 425
655T382 636Z" />
<glyph unicode="&#xa9;" horiz-adv-x="876" d="M449 155Q375 155 327 205T278 347Q278 411 302 455T369 523T463 546Q524 546 588 516L585 419H535L526 483L533 477Q518 483 501 486T469 489Q415 489 387 452T359 352Q359 282 388 248T465 213Q490 213 518 223T576
254L603 212Q565 183 525 169T449 155ZM441 -10Q363 -10 298 16T185 89T111 200T84 343Q84 422 112 489T190 606T308 683T456 710Q534 710 600 684T716 611T793 499T821 358Q821 279 792 212T711 95T590 18T441 -10ZM446 48Q512 48 568 70T664 134T727 231T750
353Q750 441 712 508T606 614T451 652Q362 652 296 613T192 506T155 348Q155 261 191 194T292 87T446 48Z" />
<glyph unicode="&#xaa;" horiz-adv-x="484" d="M47 167L59 238H444L432 167H47ZM184 314Q135 314 102 347T69 456Q69 526 98 583T180 675T299 710Q328 710 359 701T423 671L391 676L407 702L463 703L403 340L382 387L465 366L457 322L321 318L343 455L365 490Q349
431 319 392T254 333T184 314ZM212 375Q238 375 266 394T317 453T350 552L367 652L380 625Q358 640 338 646T298 652Q257 652 226 626T176 557T157 464Q157 418 173 397T212 375Z" />
<glyph unicode="&#xab;" horiz-adv-x="482" d="M166 58L44 243L51 297L231 482L273 445L113 250L118 291L217 96L166 58ZM358 58L236 243L243 297L423 482L465 445L305 250L310 291L409 96L358 58Z" />
<glyph unicode="&#xac;" horiz-adv-x="644" d="M461 313L451 327L416 113H496L540 386H78L66 313H461Z" />
<glyph unicode="&#xad;" horiz-adv-x="403" d="M610 332L598 254H314L326 332H610Z" />
<glyph unicode="&#xae;" horiz-adv-x="726" d="M251 297V326L300 339L290 326V592L303 578L251 588V618L352 621H402Q459 621 489 599T520 535Q520 501 495 477T414 447L417 456Q447 454 462 442T490 404L530 326L511 338L554 326V297H482L438 393Q429 414 419
423T396 435T367 437H336L346 448V326L337 339L394 326V297H251ZM346 465L336 476H377Q418 476 439 490T461 531Q461 554 444 566T391 579H336L346 592V465ZM384 163Q300 164 235 200T133 300T96 449Q96 535 135 602T242 708T396 747Q481 747 547 711T652 610T691
461Q691 398 668 344T603 249T505 186T384 163ZM386 210Q458 210 515 242T605 331T638 460Q638 531 607 585T520 669T395 700Q323 700 268 668T181 580T150 451Q150 379 179 325T262 240T386 210Z" />
<glyph unicode="&#xaf;" horiz-adv-x="404" d="M411 740L399 667H133L144 740H411Z" />
<glyph unicode="&#xb0;" horiz-adv-x="416" d="M220 433Q161 433 126 466T91 562Q91 613 113 652T175 714T263 737Q322 737 357 703T393 607Q393 559 371 520T311 457T220 433ZM226 490Q259 490 281 507T314 551T326 606Q326 643 308 661T258 679Q225 679 203
663T169 620T157 565Q157 529 175 510T226 490Z" />
<glyph unicode="&#xb1;" d="M294 447L271 430L303 634H379L347 430L333 447H530L518 374H320L341 392L308 187H233L265 391L280 374H84L95 447H294ZM477 113L466 39H31L43 113H477Z" />
<glyph unicode="&#xb2;" horiz-adv-x="351" d="M44 346L53 410Q121 464 173 509T256 593T286 667Q286 694 269 704T226 715Q209 715 191 712T155 701L167 716L147 644H98L109 756Q144 766 179 772T245 779Q301 779 336 756T372 683Q372 645 353 610T302 542T228
473T140 402V413H337L326 346H44Z" />
<glyph unicode="&#xb3;" horiz-adv-x="361" d="M172 338Q137 338 104 346T41 372L72 427Q95 414 120 408T171 401Q215 401 242 424T269 483Q269 510 251 523T195 537H141L149 592H200Q223 592 244 600T278 625T292 667Q292 696 275 708T229 720Q212 720 194 717T155
707L169 720L151 653H102L113 753Q149 766 184 772T251 778Q306 778 341 757T377 682Q377 634 346 604T262 567L257 571Q307 566 329 543T351 480Q351 435 327 404T262 355T172 338Z" />
<glyph unicode="&#xb4;" horiz-adv-x="371" d="M136 615L99 666L293 815L344 740L136 615Z" />
<glyph unicode="&#xb5;" horiz-adv-x="685" d="M153 -233L56 -230L167 470L177 454L93 474L101 527L275 534L220 190Q214 151 219 124T240 83T280 69Q306 69 334 83T388 128T435 205T465 317L499 530H597L522 56L508 76L599 54L591 1L425 -4L457 186L487 235Q465
148 426 95T341 16T256 -10Q212 -11 183 16T146 99L165 69Q165 32 166 -13T166 -113T153 -233Z" />
<glyph unicode="&#xb6;" horiz-adv-x="594" d="M65 -170L74 -117L172 -94L154 -116L224 340L244 320Q171 320 127 362T83 476Q83 541 111 591T188 671T301 700H612L604 647L506 621L524 644L394 -170H313L443 649L454 624H335L357 649L227 -170H65Z" />
<glyph unicode="&#xb7;" horiz-adv-x="229" d="M117 266Q91 266 77 281T62 321Q62 351 82 370T130 389Q155 389 170 374T186 333Q186 303 166 285T117 266Z" />
<glyph unicode="&#xb8;" horiz-adv-x="354" d="M85 -240Q62 -240 39 -235T-8 -219L18 -168Q53 -183 88 -183Q113 -183 131 -173T149 -142Q149 -120 124 -111T60 -101L80 0H139L131 -55Q179 -60 200 -80T221 -132Q221 -165 203 -189T154 -227T85 -240Z" />
<glyph unicode="&#xb9;" horiz-adv-x="276" d="M214 391L204 409L280 390L274 346H45L51 390L152 406L138 391L186 701H208L94 638L77 689L212 773H274L214 391Z" />
<glyph unicode="&#xba;" horiz-adv-x="442" d="M227 314Q157 314 113 351T68 473Q68 518 82 560T124 636T194 690T293 710Q363 710 407 674T451 552Q451 493 427 439T353 349T227 314ZM32 167L44 238H389L377 167H32ZM237 372Q269 372 293 389T332 433T355 491T363
552Q363 602 343 627T282 652Q249 652 225 636T186 593T164 535T156 474Q156 424 176 398T237 372Z" />
<glyph unicode="&#xbb;" horiz-adv-x="483" d="M318 482L440 297L433 243L254 58L211 95L371 290L366 249L267 443L318 482ZM126 482L248 297L241 243L61 58L19 95L179 290L174 249L75 443L126 482Z" />
<glyph unicode="&#xbc;" horiz-adv-x="825" d="M231 321L221 339L297 320L291 276H62L68 320L169 336L155 321L203 631H225L111 568L94 619L229 703H291L231 321ZM120 -8L644 708H725L200 -8H120ZM623 114L629 97H432L431 156L652 432L751 424L706 143L690 156H770L761
97H679L702 114L684 0H604L623 114ZM642 156L626 138L665 384L678 383L480 133L473 156H642Z" />
<glyph unicode="&#xbd;" horiz-adv-x="836" d="M232 321L222 339L298 320L292 276H63L69 320L170 336L156 321L204 631H226L112 568L95 619L230 703H292L232 321ZM120 -8L644 708H725L200 -8H120ZM463 0L472 64Q540 118 592 163T675 247T705 321Q705 348 688 358T645
369Q628 369 610 366T574 355L586 370L566 298H517L528 410Q563 420 598 426T664 433Q720 433 755 410T791 337Q791 299 772 264T721 196T647 127T559 56V67H756L745 0H463Z" />
<glyph unicode="&#xbe;" horiz-adv-x="877" d="M173 268Q138 268 105 276T42 302L73 357Q96 344 121 338T172 331Q216 331 243 354T270 413Q270 440 252 453T196 467H142L150 522H201Q224 522 245 530T279 555T293 597Q293 626 276 638T230 650Q213 650 195 647T156
637L170 650L152 583H103L114 683Q150 696 185 702T252 708Q307 708 342 687T378 612Q378 564 347 534T263 497L258 501Q308 496 330 473T352 410Q352 365 328 334T263 285T173 268ZM173 -8L697 708H778L253 -8H173ZM674 114L680 97H483L482 156L703 432L802 424L757
143L741 156H821L812 97H730L753 114L735 0H655L674 114ZM693 156L677 138L716 384L729 383L531 133L524 156H693Z" />
<glyph unicode="&#xbf;" horiz-adv-x="405" d="M313 269Q312 261 312 251T311 229Q307 182 284 149T230 91T169 44T118 -3T98 -63Q98 -99 120 -113T178 -128Q207 -128 240 -120T304 -101L322 -170Q281 -187 237 -196T151 -205Q108 -205 73 -194T16 -155T-5 -82Q-5
-41 11 -11T53 44T108 90T165 134T210 182T233 242Q234 248 235 255T237 270L313 269ZM299 513Q325 513 339 498T354 458Q354 429 335 410T286 391Q261 391 246 405T230 446Q230 477 250 495T299 513Z" />
<glyph unicode="&#xc0;" horiz-adv-x="679" d="M582 52L560 77L638 53L630 0H380L389 53L482 75L476 59L452 209L461 194H183L200 208L127 59L124 73L212 53L203 0H-36L-27 53L59 76L30 54L361 699L465 702L582 52ZM220 251L214 268H456L448 249L387 642L411 641L220
251ZM518 751L292 848L333 926L546 802L518 751Z" />
<glyph unicode="&#xc1;" horiz-adv-x="679" d="M582 52L560 77L638 53L630 0H380L389 53L482 75L476 59L452 209L461 194H183L200 208L127 59L124 73L212 53L203 0H-36L-27 53L59 76L30 54L361 699L465 702L582 52ZM220 251L214 268H456L448 249L387 642L411 641L220
251ZM330 751L306 800L529 928L562 848L330 751Z" />
<glyph unicode="&#xc2;" horiz-adv-x="679" d="M582 52L560 77L638 53L630 0H380L389 53L482 75L476 59L452 209L461 194H183L200 208L127 59L124 73L212 53L203 0H-36L-27 53L59 76L30 54L361 699L465 702L582 52ZM220 251L214 268H456L448 249L387 642L411 641L220
251ZM290 747L262 788L415 911L473 916L596 788L557 747L405 858L470 857L290 747Z" />
<glyph unicode="&#xc3;" horiz-adv-x="679" d="M582 52L560 77L638 53L630 0H380L389 53L482 75L476 59L452 209L461 194H183L200 208L127 59L124 73L212 53L203 0H-36L-27 53L59 76L30 54L361 699L465 702L582 52ZM220 251L214 268H456L448 249L387 642L411 641L220
251ZM305 774L266 799Q291 849 317 870T372 891Q398 891 420 881T463 859T502 848Q535 848 567 894L607 870Q581 820 553 799T496 777Q471 777 450 788T410 809T368 820Q352 820 338 810T305 774Z" />
<glyph unicode="&#xc4;" horiz-adv-x="679" d="M582 52L560 77L638 53L630 0H380L389 53L482 75L476 59L452 209L461 194H183L200 208L127 59L124 73L212 53L203 0H-36L-27 53L59 76L30 54L361 699L465 702L582 52ZM220 251L214 268H456L448 249L387 642L411 641L220
251ZM332 764Q310 764 297 779T284 819Q284 848 300 866T343 884Q365 884 378 870T392 830Q392 802 375 783T332 764ZM529 764Q506 764 493 779T480 819Q480 848 496 866T539 884Q562 884 575 870T588 830Q588 802 572 783T529 764Z" />
<glyph unicode="&#xc5;" horiz-adv-x="679" d="M582 52L560 77L638 53L630 0H380L389 53L482 75L476 59L452 209L461 194H183L200 208L127 59L124 73L212 53L203 0H-36L-27 53L59 76L30 54L361 699L465 702L582 52ZM220 251L214 268H456L448 249L387 642L411 641L220
251ZM421 732Q375 732 350 757T324 822Q324 856 340 883T385 927T452 943Q497 943 522 918T548 852Q548 820 532 793T488 749T421 732ZM426 781Q456 781 472 803T488 850Q488 870 478 882T446 894Q417 894 401 873T384 825Q384 805 394 793T426 781Z" />
<glyph unicode="&#xc6;" horiz-adv-x="917" d="M-36 0L-28 53L64 76L32 54L404 638L413 621L322 642L330 695L526 700H910L884 534H825L824 641L839 624H584L604 642L563 377L550 394H790L779 321H536L557 340L511 54L499 76H761L742 57L779 173H839L811 0H330L338
53L430 77L412 58L439 228L454 210H211L237 227L126 53L123 76L214 53L206 0H-36ZM260 269L250 283H465L446 268L504 637L519 624H469L493 636L260 269Z" />
<glyph unicode="&#xc7;" horiz-adv-x="620" d="M275 -240Q253 -240 229 -235T182 -219L208 -168Q243 -183 278 -183Q303 -183 321 -173T339 -142Q339 -120 314 -111T250 -101L282 56H341L321 -55Q370 -60 390 -80T411 -132Q411 -165 393 -189T344 -227T275 -240ZM64
279Q64 361 89 438T161 577T274 674T422 710Q469 710 520 697T626 659L594 496H534V616L552 599Q518 614 483 621T418 629Q359 629 313 599T235 517T186 405T169 283Q169 210 191 164T249 96T331 74Q375 74 422 94T515 152L549 88Q491 39 429 15T307 -10Q241 -10
186 21T97 117T64 279Z" />
<glyph unicode="&#xc8;" horiz-adv-x="603" d="M464 173H524L496 0H7L15 53L109 75L93 59L185 639L197 622L108 642L116 695L293 700H596L570 534H511L509 640L526 624H265L285 641L243 376L231 394H476L464 321H218L238 341L192 56L180 76H452L428 58L464 173ZM481
751L255 848L296 926L509 802L481 751Z" />
<glyph unicode="&#xc9;" horiz-adv-x="603" d="M464 173H524L496 0H7L15 53L109 75L93 59L185 639L197 622L108 642L116 695L293 700H596L570 534H511L509 640L526 624H265L285 641L243 376L231 394H476L464 321H218L238 341L192 56L180 76H452L428 58L464 173ZM293
751L269 800L492 928L525 848L293 751Z" />
<glyph unicode="&#xca;" horiz-adv-x="603" d="M464 173H524L496 0H7L15 53L109 75L93 59L185 639L197 622L108 642L116 695L293 700H596L570 534H511L509 640L526 624H265L285 641L243 376L231 394H476L464 321H218L238 341L192 56L180 76H452L428 58L464 173ZM253
747L225 788L378 911L436 916L559 788L520 747L368 858L433 857L253 747Z" />
<glyph unicode="&#xcb;" horiz-adv-x="603" d="M464 173H524L496 0H7L15 53L109 75L93 59L185 639L197 622L108 642L116 695L293 700H596L570 534H511L509 640L526 624H265L285 641L243 376L231 394H476L464 321H218L238 341L192 56L180 76H452L428 58L464 173ZM295
764Q273 764 260 779T247 819Q247 848 263 866T306 884Q328 884 341 870T355 830Q355 802 338 783T295 764ZM492 764Q469 764 456 779T443 819Q443 848 459 866T502 884Q525 884 538 870T551 830Q551 802 535 783T492 764Z" />
<glyph unicode="&#xcc;" horiz-adv-x="352" d="M366 647L271 622L285 638L193 59L186 75L272 53L264 0H7L15 53L109 75L93 59L185 638L198 622L108 642L116 695L375 700L366 647ZM604 751L378 848L419 926L632 802L604 751Z" />
<glyph unicode="&#xcd;" horiz-adv-x="352" d="M366 647L271 622L285 638L193 59L186 75L272 53L264 0H7L15 53L109 75L93 59L185 638L198 622L108 642L116 695L375 700L366 647ZM416 751L392 800L615 928L648 848L416 751Z" />
<glyph unicode="&#xce;" horiz-adv-x="352" d="M366 647L271 622L285 638L193 59L186 75L272 53L264 0H7L15 53L109 75L93 59L185 638L198 622L108 642L116 695L375 700L366 647ZM376 747L348 788L501 911L559 916L682 788L643 747L491 858L556 857L376 747Z" />
<glyph unicode="&#xcf;" horiz-adv-x="352" d="M366 647L271 622L285 638L193 59L186 75L272 53L264 0H7L15 53L109 75L93 59L185 638L198 622L108 642L116 695L375 700L366 647ZM162 764Q140 764 127 779T114 819Q114 848 130 866T173 884Q195 884 208 870T222
830Q222 802 205 783T162 764ZM359 764Q336 764 323 779T310 819Q310 848 326 866T369 884Q392 884 405 870T418 830Q418 802 402 783T359 764Z" />
<glyph unicode="&#xd0;" horiz-adv-x="708" d="M58 322L70 392H385L373 322H58ZM402 700Q488 700 548 672T640 583T671 429Q671 345 646 268T571 130T450 35T287 0H7L15 53L109 75L93 59L186 639L197 622L108 642L116 695L311 700H402ZM304 76Q357 76 399 98T472
158T524 243T555 340T566 436Q566 498 547 540T487 603T385 624H265L285 643L192 55L180 76H304Z" />
<glyph unicode="&#xd1;" horiz-adv-x="758" d="M551 695L789 700L781 647L688 622L703 639L601 0H495L248 591H261L176 59L169 75L253 53L245 0H7L15 53L109 75L93 59L186 639L197 622L108 642L116 695L310 700L550 120L538 119L620 640L631 622L543 642L551 695ZM345
774L306 799Q331 849 357 870T412 891Q438 891 460 881T503 859T542 848Q575 848 607 894L647 870Q621 820 593 799T536 777Q511 777 490 788T450 809T408 820Q392 820 378 810T345 774Z" />
<glyph unicode="&#xd2;" horiz-adv-x="723" d="M317 -10Q239 -10 182 21T94 114T63 270Q63 332 78 395T122 515T196 616T300 685T433 710Q512 710 569 679T657 586T688 432Q688 371 674 308T630 188T556 87T452 16T317 -10ZM327 71Q377 71 417 93T489 154T541
239T572 336T583 433Q583 502 562 545T506 608T424 629Q374 629 333 607T262 547T210 462T179 365T169 269Q169 200 189 156T246 92T327 71ZM552 751L326 848L367 926L580 802L552 751Z" />
<glyph unicode="&#xd3;" horiz-adv-x="723" d="M317 -10Q239 -10 182 21T94 114T63 270Q63 332 78 395T122 515T196 616T300 685T433 710Q512 710 569 679T657 586T688 432Q688 371 674 308T630 188T556 87T452 16T317 -10ZM327 71Q377 71 417 93T489 154T541
239T572 336T583 433Q583 502 562 545T506 608T424 629Q374 629 333 607T262 547T210 462T179 365T169 269Q169 200 189 156T246 92T327 71ZM364 751L340 800L563 928L596 848L364 751Z" />
<glyph unicode="&#xd4;" horiz-adv-x="723" d="M317 -10Q239 -10 182 21T94 114T63 270Q63 332 78 395T122 515T196 616T300 685T433 710Q512 710 569 679T657 586T688 432Q688 371 674 308T630 188T556 87T452 16T317 -10ZM327 71Q377 71 417 93T489 154T541
239T572 336T583 433Q583 502 562 545T506 608T424 629Q374 629 333 607T262 547T210 462T179 365T169 269Q169 200 189 156T246 92T327 71ZM324 747L296 788L449 911L507 916L630 788L591 747L439 858L504 857L324 747Z" />
<glyph unicode="&#xd5;" horiz-adv-x="723" d="M317 -10Q239 -10 182 21T94 114T63 270Q63 332 78 395T122 515T196 616T300 685T433 710Q512 710 569 679T657 586T688 432Q688 371 674 308T630 188T556 87T452 16T317 -10ZM327 71Q377 71 417 93T489 154T541
239T572 336T583 433Q583 502 562 545T506 608T424 629Q374 629 333 607T262 547T210 462T179 365T169 269Q169 200 189 156T246 92T327 71ZM339 774L300 799Q325 849 351 870T406 891Q432 891 454 881T497 859T536 848Q569 848 601 894L641 870Q615 820 587 799T530
777Q505 777 484 788T444 809T402 820Q386 820 372 810T339 774Z" />
<glyph unicode="&#xd6;" horiz-adv-x="723" d="M317 -10Q239 -10 182 21T94 114T63 270Q63 332 78 395T122 515T196 616T300 685T433 710Q512 710 569 679T657 586T688 432Q688 371 674 308T630 188T556 87T452 16T317 -10ZM327 71Q377 71 417 93T489 154T541
239T572 336T583 433Q583 502 562 545T506 608T424 629Q374 629 333 607T262 547T210 462T179 365T169 269Q169 200 189 156T246 92T327 71ZM366 764Q344 764 331 779T318 819Q318 848 334 866T377 884Q399 884 412 870T426 830Q426 802 409 783T366 764ZM563 764Q540
764 527 779T514 819Q514 848 530 866T573 884Q596 884 609 870T622 830Q622 802 606 783T563 764Z" />
<glyph unicode="&#xd7;" horiz-adv-x="520" d="M103 149L58 203L235 362L234 335L103 496L164 551L294 390L268 391L445 551L490 496L313 337L315 364L444 204L384 148L254 309L280 308L103 149Z" />
<glyph unicode="&#xd8;" horiz-adv-x="734" d="M669 775L718 742L618 611L608 601L211 80L209 74L95 -76L45 -42L169 122L179 130L564 635L568 644L669 775ZM322 -10Q244 -10 187 21T100 114T69 266Q69 330 83 394T127 515T201 616T305 685T439 710Q518 710 575
679T662 586T693 435Q693 372 679 309T635 188T561 86T458 16T322 -10ZM331 71Q382 71 423 93T494 153T546 239T577 337T588 436Q588 503 568 545T511 608T430 629Q379 629 338 607T267 547T216 462T185 364T174 265Q174 199 194 156T250 92T331 71Z" />
<glyph unicode="&#xd9;" horiz-adv-x="727" d="M509 695L767 700L759 647L663 622L677 639L619 265Q604 172 569 111T472 20T320 -10Q207 -10 153 38T99 182Q99 200 101 219T106 260L167 639L177 622L89 642L98 695L353 700L345 647L252 622L267 639L205 253Q202
234 201 217T199 185Q199 126 228 98T325 70Q390 70 428 93T488 161T519 271L578 639L589 622L501 642L509 695ZM533 751L307 848L348 926L561 802L533 751Z" />
<glyph unicode="&#xda;" horiz-adv-x="727" d="M509 695L767 700L759 647L663 622L677 639L619 265Q604 172 569 111T472 20T320 -10Q207 -10 153 38T99 182Q99 200 101 219T106 260L167 639L177 622L89 642L98 695L353 700L345 647L252 622L267 639L205 253Q202
234 201 217T199 185Q199 126 228 98T325 70Q390 70 428 93T488 161T519 271L578 639L589 622L501 642L509 695ZM346 751L322 800L545 928L578 848L346 751Z" />
<glyph unicode="&#xdb;" horiz-adv-x="727" d="M509 695L767 700L759 647L663 622L677 639L619 265Q604 172 569 111T472 20T320 -10Q207 -10 153 38T99 182Q99 200 101 219T106 260L167 639L177 622L89 642L98 695L353 700L345 647L252 622L267 639L205 253Q202
234 201 217T199 185Q199 126 228 98T325 70Q390 70 428 93T488 161T519 271L578 639L589 622L501 642L509 695ZM305 747L277 788L430 911L488 916L611 788L572 747L420 858L485 857L305 747Z" />
<glyph unicode="&#xdc;" horiz-adv-x="727" d="M509 695L767 700L759 647L663 622L677 639L619 265Q604 172 569 111T472 20T320 -10Q207 -10 153 38T99 182Q99 200 101 219T106 260L167 639L177 622L89 642L98 695L353 700L345 647L252 622L267 639L205 253Q202
234 201 217T199 185Q199 126 228 98T325 70Q390 70 428 93T488 161T519 271L578 639L589 622L501 642L509 695ZM347 764Q325 764 312 779T299 819Q299 848 315 866T358 884Q380 884 393 870T407 830Q407 802 390 783T347 764ZM544 764Q521 764 508 779T495 819Q495
848 511 866T554 884Q577 884 590 870T603 830Q603 802 587 783T544 764Z" />
<glyph unicode="&#xdd;" horiz-adv-x="628" d="M144 0L151 53L247 75L232 59L266 274L272 235L129 640L145 624L65 642L73 695L328 700L320 647L220 626L229 645L338 308H318L533 641L539 622L446 642L454 695L691 700L683 647L599 627L622 642L351 235L365 274L331
59L324 75L412 53L404 0H144ZM306 751L282 800L505 928L538 848L306 751Z" />
<glyph unicode="&#xde;" horiz-adv-x="576" d="M7 0L15 53L109 75L93 59L186 639L198 622L108 642L116 695L375 700L366 647L271 622L285 640L271 548L263 557H369Q437 557 479 539T540 485T559 398Q559 325 523 269T422 183T268 152H196L210 165L193 59L186 75L278
53L270 0H7ZM218 215L208 226H271Q331 226 372 246T436 303T459 385Q459 433 432 458T342 484H249L262 495L218 215Z" />
<glyph unicode="&#xdf;" horiz-adv-x="637" d="M-50 -241Q-68 -241 -83 -239T-110 -235L-94 -165Q-85 -166 -77 -166T-61 -167Q-12 -167 15 -142T54 -51L135 466L148 454H50L59 512L158 527L144 512L154 575Q166 647 204 692T297 758T412 780Q464 780 506 764T574
717T599 639Q599 605 587 581T554 539T511 507T468 478T436 447T423 407Q423 384 436 368T469 339T513 313T556 282T590 237T603 172Q603 113 574 73T494 11T385 -10Q353 -10 320 -4T252 15L277 152L337 151L334 53L322 72Q339 64 356 61T388 57Q420 57 446 68T489
102T506 155Q506 181 493 199T459 230T415 257T372 288T338 330T325 390Q325 425 337 449T370 491T413 523T456 552T489 586T502 632Q502 673 474 692T402 712Q347 712 304 679T250 574L155 -28Q146 -89 127 -130T80 -195T20 -230T-50 -241Z" />
<glyph unicode="&#xe0;" horiz-adv-x="587" d="M178 -10Q140 -10 108 10T56 74T36 188Q36 260 58 324T121 436T215 513T333 541Q372 541 414 528T499 486L456 493L478 530H532L452 25L418 88L534 56L525 1L360 -4L392 186L421 235Q400 153 359 99T270 17T178 -10ZM216
70Q241 70 269 85T324 132T370 211T401 321L423 461L440 427Q411 447 384 456T331 465Q288 465 253 443T191 384T151 299T136 199Q136 132 159 101T216 70ZM286 817L471 665L435 614L234 742L286 817Z" />
<glyph unicode="&#xe1;" horiz-adv-x="587" d="M178 -10Q140 -10 108 10T56 74T36 188Q36 260 58 324T121 436T215 513T333 541Q372 541 414 528T499 486L456 493L478 530H532L452 25L418 88L534 56L525 1L360 -4L392 186L421 235Q400 153 359 99T270 17T178 -10ZM216
70Q241 70 269 85T324 132T370 211T401 321L423 461L440 427Q411 447 384 456T331 465Q288 465 253 443T191 384T151 299T136 199Q136 132 159 101T216 70ZM291 615L254 666L448 815L499 740L291 615Z" />
<glyph unicode="&#xe2;" horiz-adv-x="587" d="M178 -10Q140 -10 108 10T56 74T36 188Q36 260 58 324T121 436T215 513T333 541Q372 541 414 528T499 486L456 493L478 530H532L452 25L418 88L534 56L525 1L360 -4L392 186L421 235Q400 153 359 99T270 17T178 -10ZM216
70Q241 70 269 85T324 132T370 211T401 321L423 461L440 427Q411 447 384 456T331 465Q288 465 253 443T191 384T151 299T136 199Q136 132 159 101T216 70ZM217 880L189 919L339 1053L397 1058L515 919L475 880L329 1003L395 1002L217 880Z" />
<glyph unicode="&#xe3;" horiz-adv-x="587" d="M178 -10Q140 -10 108 10T56 74T36 188Q36 260 58 324T121 436T215 513T333 541Q372 541 414 528T499 486L456 493L478 530H532L452 25L418 88L534 56L525 1L360 -4L392 186L421 235Q400 153 359 99T270 17T178 -10ZM216
70Q241 70 269 85T324 132T370 211T401 321L423 461L440 427Q411 447 384 456T331 465Q288 465 253 443T191 384T151 299T136 199Q136 132 159 101T216 70ZM415 646Q388 646 368 658T330 683T290 695Q271 695 255 684T220 647L181 670Q207 722 236 746T296 771Q323
771 343 759T382 734T422 722Q440 722 456 734T491 770L530 748Q505 696 476 671T415 646Z" />
<glyph unicode="&#xe4;" horiz-adv-x="587" d="M178 -10Q140 -10 108 10T56 74T36 188Q36 260 58 324T121 436T215 513T333 541Q372 541 414 528T499 486L456 493L478 530H532L452 25L418 88L534 56L525 1L360 -4L392 186L421 235Q400 153 359 99T270 17T178 -10ZM216
70Q241 70 269 85T324 132T370 211T401 321L423 461L440 427Q411 447 384 456T331 465Q288 465 253 443T191 384T151 299T136 199Q136 132 159 101T216 70ZM251 636Q229 636 216 651T203 691Q203 720 219 738T262 756Q284 756 297 742T311 702Q311 674 294 655T251
636ZM448 636Q425 636 412 651T399 691Q399 720 415 738T458 756Q481 756 494 742T507 702Q507 674 491 655T448 636Z" />
<glyph unicode="&#xe5;" horiz-adv-x="587" d="M178 -10Q140 -10 108 10T56 74T36 188Q36 260 58 324T121 436T215 513T333 541Q372 541 414 528T499 486L456 493L478 530H532L452 25L418 88L534 56L525 1L360 -4L392 186L421 235Q400 153 359 99T270 17T178 -10ZM216
70Q241 70 269 85T324 132T370 211T401 321L423 461L440 427Q411 447 384 456T331 465Q288 465 253 443T191 384T151 299T136 199Q136 132 159 101T216 70ZM344 614Q298 614 273 639T247 704Q247 738 263 765T308 809T375 825Q420 825 445 800T471 734Q471 702
455 675T411 631T344 614ZM349 663Q379 663 395 685T411 732Q411 752 401 764T369 776Q340 776 324 755T307 707Q307 687 317 675T349 663Z" />
<glyph unicode="&#xe6;" horiz-adv-x="801" d="M361 149Q356 117 336 89T285 38T222 3T157 -10Q98 -10 62 24T25 123Q25 172 48 203T111 251T201 274T306 280H353L338 269Q344 307 350 341T357 397Q357 432 336 449T276 466Q244 466 208 459T134 441L181 493L152
374H93L102 503Q154 518 208 529T306 540Q360 540 393 517T427 446Q427 437 426 429T422 406L399 413Q436 469 493 504T623 540Q700 540 743 504T786 407Q786 363 764 331T704 278T619 245T519 228T416 223L433 245Q432 236 432 227T431 208Q431 133 464 99T549
64Q582 64 620 76T700 112L729 50Q678 21 627 6T528 -10Q437 -10 385 46T332 197Q332 210 333 224T335 251L359 222H317Q283 222 249 220T185 209T139 183T122 135Q122 101 141 82T196 63Q216 63 239 74T283 104T318 148T332 197L361 149ZM434 253L419 284Q451
283 488 285T560 294T625 314T671 347T688 398Q688 430 667 449T609 468Q572 468 543 450T491 400T454 330T434 253Z" />
<glyph unicode="&#xe7;" horiz-adv-x="482" d="M229 -10Q175 -10 132 13T63 85T37 210Q37 280 59 340T121 445T213 515T326 540Q362 540 400 530T477 499L456 367H390L389 457L399 444Q356 467 316 467Q276 467 243 447T187 390T150 309T137 215Q137 136 169 101T251
66Q280 66 314 77T384 109L412 48Q366 19 319 5T229 -10ZM199 -240Q176 -240 153 -235T106 -219L132 -168Q167 -183 202 -183Q227 -183 245 -173T263 -142Q263 -120 238 -111T174 -101L194 0H253L245 -55Q293 -60 314 -80T335 -132Q335 -165 317 -189T268 -227T199
-240Z" />
<glyph unicode="&#xe8;" horiz-adv-x="505" d="M232 -10Q178 -10 134 12T64 81T38 204Q38 268 57 328T114 436T205 512T327 540Q404 540 447 505T490 412Q490 366 462 331T387 272T280 236T159 224Q150 224 141 224T123 225L129 295Q141 294 153 293T179 292Q217
292 255 299T325 320T376 354T395 402Q395 432 374 450T313 468Q271 468 238 445T181 384T146 299T134 206Q134 130 166 96T252 62Q287 62 326 74T406 108L430 52Q381 21 331 6T232 -10ZM275 817L460 665L424 614L223 742L275 817Z" />
<glyph unicode="&#xe9;" horiz-adv-x="505" d="M232 -10Q178 -10 134 12T64 81T38 204Q38 268 57 328T114 436T205 512T327 540Q404 540 447 505T490 412Q490 366 462 331T387 272T280 236T159 224Q150 224 141 224T123 225L129 295Q141 294 153 293T179 292Q217
292 255 299T325 320T376 354T395 402Q395 432 374 450T313 468Q271 468 238 445T181 384T146 299T134 206Q134 130 166 96T252 62Q287 62 326 74T406 108L430 52Q381 21 331 6T232 -10ZM279 615L242 666L436 815L487 740L279 615Z" />
<glyph unicode="&#xea;" horiz-adv-x="505" d="M232 -10Q178 -10 134 12T64 81T38 204Q38 268 57 328T114 436T205 512T327 540Q404 540 447 505T490 412Q490 366 462 331T387 272T280 236T159 224Q150 224 141 224T123 225L129 295Q141 294 153 293T179 292Q217
292 255 299T325 320T376 354T395 402Q395 432 374 450T313 468Q271 468 238 445T181 384T146 299T134 206Q134 130 166 96T252 62Q287 62 326 74T406 108L430 52Q381 21 331 6T232 -10ZM206 880L178 919L328 1053L386 1058L504 919L464 880L318 1003L384 1002L206
880Z" />
<glyph unicode="&#xeb;" horiz-adv-x="505" d="M232 -10Q178 -10 134 12T64 81T38 204Q38 268 57 328T114 436T205 512T327 540Q404 540 447 505T490 412Q490 366 462 331T387 272T280 236T159 224Q150 224 141 224T123 225L129 295Q141 294 153 293T179 292Q217
292 255 299T325 320T376 354T395 402Q395 432 374 450T313 468Q271 468 238 445T181 384T146 299T134 206Q134 130 166 96T252 62Q287 62 326 74T406 108L430 52Q381 21 331 6T232 -10ZM240 636Q218 636 205 651T192 691Q192 720 208 738T251 756Q273 756 286
742T300 702Q300 674 283 655T240 636ZM437 636Q414 636 401 651T388 691Q388 720 404 738T447 756Q470 756 483 742T496 702Q496 674 480 655T437 636Z" />
<glyph unicode="&#xec;" horiz-adv-x="293" d="M55 -4L136 503L171 442L55 474L63 527L238 534L158 26L124 87L239 54L230 1L55 -4ZM401 817L586 665L550 614L349 742L401 817Z" />
<glyph unicode="&#xed;" horiz-adv-x="293" d="M55 -4L136 503L171 442L55 474L63 527L238 534L158 26L124 87L239 54L230 1L55 -4ZM150 615L113 666L307 815L358 740L150 615Z" />
<glyph unicode="&#xee;" horiz-adv-x="293" d="M88 624L56 662L186 797L243 802L334 657L293 624L181 749L243 746L88 624ZM55 -4L136 503L171 442L55 474L63 527L238 534L158 26L124 87L239 54L230 1L55 -4Z" />
<glyph unicode="&#xef;" horiz-adv-x="294" d="M55 -4L136 503L171 442L55 474L63 527L238 534L158 26L124 87L239 54L230 1L55 -4ZM113 636Q90 636 77 651T64 691Q64 720 80 738T123 756Q145 756 158 742T172 702Q172 674 155 655T113 636ZM292 636Q270 636 257
651T244 691Q244 720 260 738T302 756Q325 756 338 742T351 702Q351 674 335 655T292 636Z" />
<glyph unicode="&#xf0;" horiz-adv-x="569" d="M224 -10Q132 -10 83 43T34 193Q34 254 52 310T106 411T190 482T301 508Q346 508 377 494T429 455T460 397L441 396Q442 495 417 563T337 668T198 707L213 780Q297 780 356 752T454 672T510 553T528 405Q528 317
508 242T449 110T354 22T224 -10ZM237 63Q283 63 316 86T372 146T405 226T416 310Q416 372 391 405T313 438Q267 438 234 416T178 357T145 277T134 192Q134 128 160 96T237 63ZM262 570L237 614L507 782L533 738L262 570Z" />
<glyph unicode="&#xf1;" horiz-adv-x="609" d="M377 -4L432 340Q439 379 434 406T413 447T372 461Q347 461 319 446T264 401T218 324T187 214L154 0H56L136 503L170 442L55 474L63 527L233 534L196 346L165 295Q190 383 231 436T321 515T412 540Q456 540 486 519T530
458T533 361L484 55L442 88L561 56L552 1L377 -4ZM431 646Q404 646 384 658T346 683T306 695Q287 695 271 684T236 647L197 670Q223 722 252 746T312 771Q339 771 359 759T398 734T438 722Q456 722 472 734T507 770L546 748Q521 696 492 671T431 646Z" />
<glyph unicode="&#xf2;" horiz-adv-x="558" d="M325 540Q383 540 426 518T494 449T519 324Q519 262 502 203T449 95T360 19T233 -10Q176 -10 133 12T65 81T40 206Q40 268 57 327T110 435T199 511T325 540ZM312 467Q267 467 235 442T181 378T150 293T140 207Q140
139 166 101T247 63Q291 63 323 88T377 152T408 237T419 324Q419 392 393 429T312 467ZM284 817L469 665L433 614L232 742L284 817Z" />
<glyph unicode="&#xf3;" horiz-adv-x="558" d="M325 540Q383 540 426 518T494 449T519 324Q519 262 502 203T449 95T360 19T233 -10Q176 -10 133 12T65 81T40 206Q40 268 57 327T110 435T199 511T325 540ZM312 467Q267 467 235 442T181 378T150 293T140 207Q140
139 166 101T247 63Q291 63 323 88T377 152T408 237T419 324Q419 392 393 429T312 467ZM288 615L251 666L445 815L496 740L288 615Z" />
<glyph unicode="&#xf4;" horiz-adv-x="558" d="M325 540Q383 540 426 518T494 449T519 324Q519 262 502 203T449 95T360 19T233 -10Q176 -10 133 12T65 81T40 206Q40 268 57 327T110 435T199 511T325 540ZM312 467Q267 467 235 442T181 378T150 293T140 207Q140
139 166 101T247 63Q291 63 323 88T377 152T408 237T419 324Q419 392 393 429T312 467ZM215 880L187 919L337 1053L395 1058L513 919L473 880L327 1003L393 1002L215 880Z" />
<glyph unicode="&#xf5;" horiz-adv-x="558" d="M325 540Q383 540 426 518T494 449T519 324Q519 262 502 203T449 95T360 19T233 -10Q176 -10 133 12T65 81T40 206Q40 268 57 327T110 435T199 511T325 540ZM312 467Q267 467 235 442T181 378T150 293T140 207Q140
139 166 101T247 63Q291 63 323 88T377 152T408 237T419 324Q419 392 393 429T312 467ZM413 646Q386 646 366 658T328 683T288 695Q269 695 253 684T218 647L179 670Q205 722 234 746T294 771Q321 771 341 759T380 734T420 722Q438 722 454 734T489 770L528 748Q503
696 474 671T413 646Z" />
<glyph unicode="&#xf6;" horiz-adv-x="558" d="M325 540Q383 540 426 518T494 449T519 324Q519 262 502 203T449 95T360 19T233 -10Q176 -10 133 12T65 81T40 206Q40 268 57 327T110 435T199 511T325 540ZM312 467Q267 467 235 442T181 378T150 293T140 207Q140
139 166 101T247 63Q291 63 323 88T377 152T408 237T419 324Q419 392 393 429T312 467ZM249 636Q227 636 214 651T201 691Q201 720 217 738T260 756Q282 756 295 742T309 702Q309 674 292 655T249 636ZM446 636Q423 636 410 651T397 691Q397 720 413 738T456 756Q479
756 492 742T505 702Q505 674 489 655T446 636Z" />
<glyph unicode="&#xf7;" horiz-adv-x="672" d="M572 386L560 313H126L138 386H572ZM315 112Q289 112 275 127T260 167Q260 197 280 216T328 235Q353 235 368 220T384 179Q384 149 364 131T315 112ZM371 467Q345 467 331 482T316 522Q316 552 336 571T384 590Q409
590 424 575T440 534Q440 504 420 486T371 467Z" />
<glyph unicode="&#xf8;" horiz-adv-x="582" d="M524 616L564 590L435 421L429 416L171 72L166 62L55 -85L15 -59L141 108L151 117L406 457L410 466L524 616ZM338 540Q395 540 438 518T506 449T531 324Q531 263 513 203T460 95T371 19T245 -10Q188 -10 145 12T77
82T52 206Q52 268 69 327T122 435T211 511T338 540ZM325 467Q279 467 247 442T193 378T162 293T152 206Q152 136 178 100T257 63Q302 63 334 88T388 153T420 238T431 324Q431 395 405 431T325 467Z" />
<glyph unicode="&#xf9;" horiz-adv-x="608" d="M196 -10Q153 -11 123 10T80 72T76 168L124 474L133 454L49 474L58 527L232 534L177 190Q171 151 176 124T196 83T237 69Q262 69 290 83T345 128T391 205T422 317L455 530H553L479 57L466 76L555 54L547 1L381 -4L413
186L444 235Q420 149 379 95T289 16T196 -10ZM296 817L481 665L445 614L244 742L296 817Z" />
<glyph unicode="&#xfa;" horiz-adv-x="608" d="M196 -10Q153 -11 123 10T80 72T76 168L124 474L133 454L49 474L58 527L232 534L177 190Q171 151 176 124T196 83T237 69Q262 69 290 83T345 128T391 205T422 317L455 530H553L479 57L466 76L555 54L547 1L381 -4L413
186L444 235Q420 149 379 95T289 16T196 -10ZM301 615L264 666L458 815L509 740L301 615Z" />
<glyph unicode="&#xfb;" horiz-adv-x="608" d="M196 -10Q153 -11 123 10T80 72T76 168L124 474L133 454L49 474L58 527L232 534L177 190Q171 151 176 124T196 83T237 69Q262 69 290 83T345 128T391 205T422 317L455 530H553L479 57L466 76L555 54L547 1L381 -4L413
186L444 235Q420 149 379 95T289 16T196 -10ZM227 880L199 919L349 1053L407 1058L525 919L485 880L339 1003L405 1002L227 880Z" />
<glyph unicode="&#xfc;" horiz-adv-x="608" d="M196 -10Q153 -11 123 10T80 72T76 168L124 474L133 454L49 474L58 527L232 534L177 190Q171 151 176 124T196 83T237 69Q262 69 290 83T345 128T391 205T422 317L455 530H553L479 57L466 76L555 54L547 1L381 -4L413
186L444 235Q420 149 379 95T289 16T196 -10ZM261 636Q239 636 226 651T213 691Q213 720 229 738T272 756Q294 756 307 742T321 702Q321 674 304 655T261 636ZM458 636Q435 636 422 651T409 691Q409 720 425 738T468 756Q491 756 504 742T517 702Q517 674 501 655T458
636Z" />
<glyph unicode="&#xfd;" horiz-adv-x="520" d="M-54 -234L-41 -161Q-30 -163 -20 -164T0 -165Q47 -165 79 -144T139 -81T197 24L191 -12L78 471L88 461L27 473L36 527L169 534L257 67L231 72L421 472L425 461L360 473L367 527L565 534L557 481L495 463L513 473L278
0Q263 -30 246 -62T207 -126T156 -184T89 -225T2 -240Q-24 -240 -54 -234ZM238 615L201 666L395 815L446 740L238 615Z" />
<glyph unicode="&#xfe;" horiz-adv-x="574" d="M-72 -230L-63 -177L60 -145L10 -199L154 713L168 694L78 714L86 768L262 774L191 342L156 296Q177 379 216 433T303 514T395 541Q434 541 466 521T517 457T537 340Q537 244 504 171T410 53T266 -4T84 9L141 18L107
-201L72 -143L196 -177L187 -230H-72ZM147 55L127 85Q197 60 254 68T352 110T415 201T437 330Q437 400 414 430T357 461Q332 461 304 446T250 399T203 320T172 210L147 55Z" />
<glyph unicode="&#xff;" horiz-adv-x="520" d="M-54 -234L-41 -161Q-30 -163 -20 -164T0 -165Q47 -165 79 -144T139 -81T197 24L191 -12L78 471L88 461L27 473L36 527L169 534L257 67L231 72L421 472L425 461L360 473L367 527L565 534L557 481L495 463L513 473L278
0Q263 -30 246 -62T207 -126T156 -184T89 -225T2 -240Q-24 -240 -54 -234ZM198 636Q176 636 163 651T150 691Q150 720 166 738T209 756Q231 756 244 742T258 702Q258 674 241 655T198 636ZM395 636Q372 636 359 651T346 691Q346 720 362 738T405 756Q428 756 441
742T454 702Q454 674 438 655T395 636Z" />
<glyph unicode="&#x2013;" horiz-adv-x="581" d="M530 332L517 254H64L76 332H530Z" />
<glyph unicode="&#x2014;" horiz-adv-x="818" d="M766 329L753 251H60L72 329H766Z" />
<glyph unicode="&#x2018;" horiz-adv-x="195" d="M192 585Q192 557 175 540T134 523Q114 523 99 537T83 579Q83 602 96 634T137 705T206 786L239 757Q205 709 192 682T179 641Q179 628 185 616T192 585Z" />
<glyph unicode="&#x2019;" horiz-adv-x="195" d="M125 722Q125 751 142 767T182 784Q202 784 218 770T234 728Q234 705 221 673T180 603T110 521L77 550Q111 598 124 625T138 666Q138 679 132 691T125 722Z" />
<glyph unicode="&#x201a;" horiz-adv-x="195" d="M19 42Q19 71 36 87T76 104Q96 104 112 90T128 48Q128 25 115 -7T74 -77T4 -159L-29 -130Q5 -82 18 -55T32 -14Q32 -1 26 11T19 42Z" />
<glyph unicode="&#x201c;" horiz-adv-x="361" d="M194 599Q194 570 177 554T136 537Q116 537 101 551T85 593Q85 615 98 647T139 719T208 800L241 771Q208 723 195 696T181 655Q181 642 187 630T194 599ZM359 599Q359 570 342 554T302 537Q282 537 267 551T251
593Q251 615 264 647T305 719T374 800L407 771Q373 723 360 696T346 655Q346 642 352 630T359 599Z" />
<glyph unicode="&#x201d;" horiz-adv-x="361" d="M292 722Q292 751 309 767T349 784Q369 784 385 770T401 728Q401 705 388 673T347 603T277 521L244 550Q278 598 291 625T305 666Q305 679 299 691T292 722ZM127 722Q127 751 144 767T184 784Q204 784 220 770T236
728Q236 705 223 673T182 603T112 521L79 550Q113 598 126 625T140 666Q140 679 134 691T127 722Z" />
<glyph unicode="&#x201e;" horiz-adv-x="361" d="M185 42Q185 71 202 87T242 104Q262 104 278 90T294 48Q294 25 281 -7T240 -77T170 -159L137 -130Q171 -82 184 -55T198 -14Q198 -1 192 11T185 42ZM19 42Q19 71 36 87T76 104Q96 104 112 90T128 48Q128 25 115
-7T74 -77T4 -159L-29 -130Q5 -82 18 -55T32 -14Q32 -1 26 11T19 42Z" />
<glyph unicode="&#x2022;" horiz-adv-x="383" d="M72 308Q72 349 89 379T136 425T201 441Q238 441 265 425T308 380T324 312Q324 272 308 243T262 197T196 181Q160 181 132 197T88 241T72 308Z" />
<glyph unicode="&#x2039;" horiz-adv-x="290" d="M166 58L44 243L51 297L231 482L273 445L113 250L118 291L217 96L166 58Z" />
<glyph unicode="&#x203a;" horiz-adv-x="291" d="M126 482L248 297L241 243L61 58L19 95L179 290L174 249L75 443L126 482Z" />
</font>
</defs>
</svg>
