<?xml version="1.0" standalone="no"?>
<!DOCTYPE svg PUBLIC "-//W3C//DTD SVG 1.1//EN" "http://www.w3.org/Graphics/SVG/1.1/DTD/svg11.dtd">
<svg xmlns="http://www.w3.org/2000/svg">
<defs >
<font id="Bitter" horiz-adv-x="587" ><font-face
    font-family="Bitter Thin"
    units-per-em="1000"
    panose-1="0 0 0 0 0 0 0 0 0 0"
    ascent="935"
    descent="-265"
    alphabetic="0" />
<glyph unicode=" " horiz-adv-x="200" />
<glyph unicode="!" horiz-adv-x="333" d="M136 221L123 698H210L197 225L136 221ZM114 43Q114 67 129 81T166 95Q190 95 204 81T219 43Q219 19 203 5T166 -9Q143 -9 129 5T114 43Z" />
<glyph unicode="&quot;" horiz-adv-x="384" d="M90 528L77 768H154L140 528H90ZM243 528L230 768H307L293 528H243Z" />
<glyph unicode="#" horiz-adv-x="669" d="M92 515H617V463H92V515ZM53 247H578V195H53V247ZM228 698H295L196 0H129L228 698ZM472 698H539L440 0H373L472 698Z" />
<glyph unicode="$" horiz-adv-x="623" d="M290 -138V20L311 4Q305 3 299 3T285 3Q241 3 188 13T84 45L88 209H139L153 95Q187 81 222 74T292 66Q338 66 377 80T439 121T462 190Q462 228 442 252T389 291T317 318T238 343T165 377T112 429T92 510Q92 570 122 610T203
671T317 694L290 677V827H347V678L324 695H336Q365 695 398 690T464 675T526 654L517 498H467L454 609Q427 620 395 626T331 632Q289 632 253 621T195 585T173 521Q173 484 193 461T246 423T319 396T398 371T470 336T523 283T544 199Q544 138 514 97T433 32T321
4L347 23V-138H290Z" />
<glyph unicode="%" horiz-adv-x="846" d="M155 -9L623 707H692L223 -9H155ZM222 350Q141 350 101 398T60 526Q60 607 102 657T230 707Q313 707 351 661T389 538Q389 453 347 402T222 350ZM224 398Q280 398 303 434T327 532Q327 595 305 627T229 659Q171 659 147
624T122 526Q122 466 146 432T224 398ZM617 -9Q536 -9 496 39T455 166Q455 247 497 297T625 347Q709 347 746 301T784 178Q784 94 743 43T617 -9ZM619 39Q675 39 698 75T722 172Q723 235 701 267T624 300Q567 300 543 265T518 167Q518 107 542 73T619 39Z" />
<glyph unicode="&amp;" horiz-adv-x="690" d="M323 -9Q255 -9 202 13T117 80T86 191Q86 237 105 276T166 343T270 377L272 368Q188 377 147 422T105 527Q105 590 135 629T217 688T336 707Q388 707 438 698T536 671L529 527H477L462 636L479 623Q444 634 411 639T341
645Q270 645 229 616T188 521Q188 465 232 433T354 401H645V356L557 338L568 354V217Q568 143 537 93T451 17T323 -9ZM331 56Q403 56 445 94T488 210V353L504 341H345Q284 341 246 322T189 271T170 203Q170 133 215 95T331 56Z" />
<glyph unicode="&apos;" horiz-adv-x="231" d="M90 528L77 768H154L140 528H90Z" />
<glyph unicode="(" horiz-adv-x="308" d="M290 835Q211 730 172 610T132 373Q132 257 171 137T290 -89L238 -122Q146 -11 101 118T55 373Q55 499 100 628T238 868L290 835Z" />
<glyph unicode=")" horiz-adv-x="308" d="M19 -89Q97 17 136 137T176 373Q176 490 137 610T19 836L70 868Q163 757 208 628T254 373Q254 248 209 119T70 -121L19 -89Z" />
<glyph unicode="*" horiz-adv-x="480" d="M317 454L240 569L247 596L273 592L359 487L317 454ZM167 453L122 485L208 594L235 596L240 569L167 453ZM208 594L78 623L94 676L221 632L231 607L208 594ZM241 614L221 632L212 760L266 761L262 632L241 614ZM273 592L252
608L262 632L383 677L400 625L273 592Z" />
<glyph unicode="+" horiz-adv-x="571" d="M270 379L254 363V588H317V363L301 379H519V320H301L317 336V111H254V336L270 320H52V379H270Z" />
<glyph unicode="," horiz-adv-x="233" d="M53 -122Q83 -79 92 -54T101 -18Q101 -7 95 1T82 20T76 47Q76 72 92 85T128 99Q142 99 153 93T172 75T180 41Q180 13 159 -37T84 -144L53 -122Z" />
<glyph unicode="-" horiz-adv-x="458" d="M372 325V262H86V325H372Z" />
<glyph unicode="." horiz-adv-x="211" d="M53 47Q53 71 69 85T106 99Q130 99 144 85T158 47Q158 23 143 9T106 -5Q82 -5 68 9T53 47Z" />
<glyph unicode="/" horiz-adv-x="315" d="M314 802L58 -79H1L256 802H314Z" />
<glyph unicode="0" horiz-adv-x="641" d="M316 -9Q231 -9 176 30T94 147T67 343Q67 465 95 545T182 666T330 707Q417 707 470 670T548 557T573 364Q573 240 545 157T460 33T316 -9ZM319 55Q377 55 414 88T469 187T488 356Q489 462 471 524T417 615T327 643Q267
643 228 611T171 513T152 347Q152 247 170 183T225 87T319 55Z" />
<glyph unicode="1" horiz-adv-x="406" d="M278 44L260 66L394 45V0H55V45L214 65L196 44V629L218 627L44 526L17 577L211 701H278V44Z" />
<glyph unicode="2" horiz-adv-x="544" d="M43 0V71Q161 178 239 258T356 401T395 521Q395 584 353 614T247 644Q218 644 183 637T110 618L121 634L107 513H56L47 669Q104 687 158 697T259 707Q324 707 374 689T453 632T482 532Q482 463 443 394T328 243T138 56L137
67H499V0H43Z" />
<glyph unicode="3" horiz-adv-x="570" d="M251 -8Q196 -8 142 6T40 48L64 108Q108 83 155 70T249 57Q299 57 337 72T398 120T420 200Q420 239 403 269T347 318T246 336H163V397H247Q326 397 365 430T405 523Q405 589 364 617T258 646Q224 646 188 639T117 621L129
634L117 516H67L59 668Q114 686 170 696T276 707Q337 707 385 690T461 635T489 535Q489 462 447 420T321 366L318 372Q412 366 458 321T504 198Q504 146 485 107T430 43T349 5T251 -8Z" />
<glyph unicode="4" horiz-adv-x="584" d="M366 193L387 175H22L12 234L352 709L448 698V224L426 240H568V175H426L448 193V0H366V193ZM389 240L367 224V659L394 654L80 212L64 240H389Z" />
<glyph unicode="5" horiz-adv-x="534" d="M245 -8Q146 -8 45 41L68 101Q111 80 153 69T234 58Q285 58 322 77T381 131T402 215Q402 268 375 298T292 342T152 355H87L101 698H458L457 633H157L181 649L170 398L148 417H207Q305 417 367 394T459 326T489 216Q489
146 458 96T371 19T245 -8Z" />
<glyph unicode="6" d="M132 291L129 350Q177 384 230 401T336 419Q394 419 440 397T515 329T543 216Q543 147 513 97T429 19T306 -9Q233 -9 178 24T91 126T60 304Q60 428 100 518T214 657T388 707Q440 707 497 693L490 632Q465 637 441 639T396 642Q311 642 255
601T172 484T144 303Q144 177 186 117T307 56Q377 56 418 98T459 213Q459 263 439 295T387 343T312 359Q269 359 222 342T132 291Z" />
<glyph unicode="7" horiz-adv-x="502" d="M484 639L213 0H123L401 645L414 631H77L96 646L75 525H24V698H484V639Z" />
<glyph unicode="8" horiz-adv-x="601" d="M291 -8Q247 -8 206 4T132 39T80 98T61 179Q61 223 78 256T123 312T183 351T244 374L295 348Q273 341 247 329T196 299T157 253T142 189Q142 147 162 116T218 69T297 52Q342 52 377 69T434 118T456 191Q456 231 436 257T382
301T308 331T227 359T153 394T99 445T78 525Q78 586 111 626T196 687T308 707Q367 707 416 688T497 631T528 535Q528 494 512 465T469 415T411 382T350 362L293 389Q321 396 349 406T399 433T435 472T449 528Q449 568 429 594T377 633T305 647Q266 647 233 634T179
594T158 529Q158 490 178 465T233 424T307 394T388 367T461 331T516 278T537 195Q537 146 516 108T460 44T382 5T291 -8Z" />
<glyph unicode="9" horiz-adv-x="586" d="M454 411L457 352Q409 318 356 300T249 281Q191 281 145 303T71 370T43 480Q42 551 72 601T157 679T280 707Q353 707 409 674T495 572T526 395Q526 273 487 183T374 42T198 -8Q146 -8 89 6L96 66Q122 61 145 59T189 56Q275
56 331 97T414 215T442 395Q442 521 401 581T279 642Q210 642 169 601T127 486Q127 435 146 403T198 356T271 341Q317 341 364 359T454 411Z" />
<glyph unicode=":" horiz-adv-x="211" d="M53 47Q53 71 69 85T106 99Q130 99 144 85T158 47Q158 23 143 9T106 -5Q82 -5 68 9T53 47ZM53 409Q53 433 69 447T106 461Q130 461 144 447T158 409Q158 385 143 371T106 357Q82 357 68 371T53 409Z" />
<glyph unicode=";" horiz-adv-x="233" d="M53 -122Q83 -79 92 -54T101 -18Q101 -7 95 1T82 20T76 47Q76 72 92 85T128 99Q142 99 153 93T172 75T180 41Q180 13 159 -37T84 -144L53 -122ZM74 409Q74 433 90 447T127 461Q151 461 165 447T179 409Q179 385 164 371T127
357Q103 357 89 371T74 409Z" />
<glyph unicode="&lt;" horiz-adv-x="562" d="M470 130L55 320V382L471 583L493 526L113 344V361L493 189L470 130Z" />
<glyph unicode="=" horiz-adv-x="551" d="M499 471V412H52V471H499ZM499 539V480H52V539H499Z" />
<glyph unicode="&gt;" horiz-adv-x="556" d="M88 562L501 392V330L87 150L66 206L442 368V350L66 500L88 562Z" />
<glyph unicode="?" horiz-adv-x="418" d="M122 227Q120 244 118 261T115 291Q115 327 133 354T177 405T229 450T273 499T291 561Q291 605 261 625T184 646Q157 646 125 639T60 621L42 675Q125 708 204 708Q252 708 290 695T351 651T374 573Q374 528 355 495T307
435T250 385T203 335T183 275Q183 268 183 255T185 231L122 227ZM114 42Q114 66 129 80T167 95Q190 95 204 81T218 44Q218 19 203 5T165 -9Q142 -9 128 5T114 42Z" />
<glyph unicode="@" horiz-adv-x="874" d="M406 -109Q307 -109 232 -63T116 66T74 262Q74 353 101 424T180 546T299 622T450 648Q531 648 597 623T710 551T783 439T809 293Q809 186 763 126T637 65Q589 65 560 88T524 160L536 159Q509 117 469 92T385 66Q355 66
330 79T290 118T276 183Q276 237 310 267T423 298H533L522 287V356Q522 396 496 413T431 430Q404 430 373 423T312 402L299 445Q338 462 376 471T448 480Q509 480 547 449T586 351V176Q586 142 601 127T644 111Q695 111 719 159T743 280Q743 377 708 447T606 556T447
595Q353 595 284 556T178 442T140 263Q140 166 173 95T267 -16T413 -55Q449 -55 488 -48T567 -25L585 -72Q541 -90 495 -99T406 -109ZM408 115Q440 115 473 136T530 194L522 169V274L533 261H438Q385 261 364 243T343 188Q343 153 361 134T408 115Z" />
<glyph unicode="A" horiz-adv-x="709" d="M633 44L610 64L704 43V0H444V43L548 63L540 49L487 209L502 197H196L210 209L153 51L148 62L250 43V0H4V43L96 64L75 46L319 697L402 700L633 44ZM221 244L213 257H486L477 243L346 650L365 649L221 244Z" />
<glyph unicode="B" horiz-adv-x="645" d="M366 352L372 361Q440 360 487 340T557 281T581 189Q581 133 555 91T472 24T327 0H49V43L148 64L135 46V650L151 631L49 650V693L214 698H338Q410 698 458 678T530 620T554 527Q554 455 510 410T366 352ZM321 638H202L217
653V372L202 386H296Q355 386 394 401T452 445T471 516Q471 557 454 584T404 624T321 638ZM321 60Q380 60 419 76T477 121T497 194Q497 236 480 265T429 311T348 327H202L217 343V46L202 60H321Z" />
<glyph unicode="C" horiz-adv-x="646" d="M350 -9Q270 -9 204 32T100 152T61 346Q61 459 100 540T209 664T372 707Q422 707 476 695T588 657L581 500H532L514 624L529 608Q489 625 449 633T373 642Q304 642 254 608T177 509T149 356Q149 260 178 194T257 94T371
59Q417 59 467 79T565 140L598 91Q539 40 475 16T350 -9Z" />
<glyph unicode="D" horiz-adv-x="718" d="M347 698Q414 698 470 678T569 616T635 511T659 360Q659 242 617 162T500 41T331 0H49V43L149 64L135 46V650L149 631L49 650V693L237 698H347ZM334 61Q380 61 422 76T498 124T551 214T571 353Q571 434 552 488T501 575T429
622T345 637H202L217 652V46L202 61H334Z" />
<glyph unicode="E" horiz-adv-x="621" d="M504 164H554V0H49V43L148 64L135 46V650L148 632L49 650V693L216 698H542V540H492L474 650L491 637H202L217 652V372L202 387H469V327H202L217 344V46L202 61H504L486 46L504 164Z" />
<glyph unicode="F" horiz-adv-x="564" d="M49 0V43L146 63L135 49V650L149 632L49 650V693L216 698H533L534 539H484L466 648L483 637H202L217 652V365L202 379H459V318H202L217 332V49L205 63L325 43V0H49Z" />
<glyph unicode="G" horiz-adv-x="738" d="M380 -8Q283 -8 211 31T100 149T60 342Q60 458 100 539T214 664T391 707Q445 707 504 695T625 656L618 500H568L551 623L564 609Q522 624 477 633T392 642Q317 642 262 607T178 506T148 344Q148 206 212 132T390 57Q428
57 469 65T556 91L545 72V288L560 273L458 286V331L705 336V291L611 272L622 288V45Q557 18 496 5T380 -8Z" />
<glyph unicode="H" horiz-adv-x="796" d="M49 0V43L148 64L135 46V651L151 632L49 650V693L304 698V655L203 632L217 651V371L202 386H594L579 371V651L594 632L493 650V693L748 698V655L648 632L661 651V46L648 64L748 43V0H493V43L592 64L579 46V339L594 325H202L217
339V46L204 64L304 43V0H49Z" />
<glyph unicode="I" horiz-adv-x="352" d="M304 655L206 633L217 647V49L206 63L304 43V0H49V43L146 63L135 49V647L148 632L49 650V693L304 698V655Z" />
<glyph unicode="J" horiz-adv-x="331" d="M30 693L294 698V655L196 632L207 651V55Q207 6 198 -31T168 -94T115 -132T36 -145Q22 -145 8 -144T-21 -140L-14 -80Q-5 -81 3 -81T20 -82Q77 -82 101 -53T125 40V651L137 634L30 650V693Z" />
<glyph unicode="K" horiz-adv-x="709" d="M625 46L600 63L694 43V0H445V43L534 63L530 48L328 343L354 327H202L217 344V46L204 65L302 43V0H49V43L147 63L135 46V651L146 634L49 650V693L302 698V655L205 633L217 653V373L202 388H355L331 373L499 650L507 636L411
650V693L654 698V655L558 633L579 649L394 351V374L625 46Z" />
<glyph unicode="L" horiz-adv-x="553" d="M476 178H526V0H49V43L147 63L135 46V650L147 632L49 650V693L315 698V655L206 632L217 650V46L202 61H471L457 46L476 178Z" />
<glyph unicode="M" horiz-adv-x="891" d="M843 655L743 632L756 654V46L743 64L843 43V0H594V43L696 64L680 46V607L693 606L466 182L411 178L191 608L203 609V46L191 63L290 43V0H49V43L149 64L135 46V654L149 632L49 650V693L236 698L453 259H441L665 693L843 698V655Z" />
<glyph unicode="N" horiz-adv-x="792" d="M513 693L756 698V655L656 632L669 651V0H577L193 611L205 612V46L190 64L291 43V0H49V43L150 64L135 46V651L146 633L49 650V693L233 698L612 97L600 96V651L614 633L513 650V693Z" />
<glyph unicode="O" horiz-adv-x="745" d="M362 -9Q276 -9 208 30T100 147T60 342Q60 433 84 501T153 616T254 684T378 707Q442 707 498 686T596 621T661 512T685 361Q685 243 643 161T527 35T362 -9ZM367 56Q429 56 481 87T565 185T597 356Q597 456 568 519T488
612T374 642Q313 642 262 612T179 516T148 345Q148 245 177 181T256 87T367 56Z" />
<glyph unicode="P" horiz-adv-x="596" d="M292 267H199L217 282V46L203 63L327 43V0H49V43L150 64L135 46V651L152 632L49 650V693L219 698H332Q409 698 459 672T534 600T559 493Q559 426 529 375T440 296T292 267ZM320 637H202L217 652V313L199 328H292Q380 328
427 372T475 491Q475 559 436 598T320 637Z" />
<glyph unicode="Q" horiz-adv-x="754" d="M669 -174Q635 -174 595 -155T494 -98T340 -1L362 -9Q275 -8 207 31T100 149T60 342Q60 433 84 501T153 615T256 684T382 707Q449 707 505 686T604 621T670 513T694 361Q694 256 660 179T564 56T425 -2L426 7Q495 -31
539 -56T614 -94T670 -107Q694 -107 719 -97T778 -68L808 -119Q764 -145 732 -159T669 -174ZM148 345Q148 245 177 181T257 87T372 56Q438 56 491 88T575 187T606 356Q606 455 576 518T495 611T379 642Q314 642 262 611T179 514T148 345Z" />
<glyph unicode="R" horiz-adv-x="658" d="M49 0V43L148 64L135 46V650L152 631L49 650V693L220 698H337Q450 698 508 651T566 515Q566 433 515 381T358 318L357 328Q396 324 420 311T462 275T495 219L579 49L554 66L638 43V0H515L423 197Q404 240 387 263T344
297T271 307L202 306L217 320V46L204 64L320 43V0H49ZM217 344L202 366H297Q386 366 434 402T482 510Q482 572 443 604T327 637H202L217 652V344Z" />
<glyph unicode="S" horiz-adv-x="600" d="M159 528Q159 490 179 466T232 427T306 399T386 373T459 337T512 281T533 194Q533 124 498 79T403 13T274 -9Q224 -9 172 1T70 33L76 197H125L142 69L132 86Q167 70 205 62T279 54Q326 54 365 68T428 111T452 183Q452
223 432 247T378 288T305 316T225 341T152 376T99 430T78 516Q78 580 109 622T195 686T317 707Q364 707 415 697T515 666L507 509H457L442 629L454 617Q424 630 389 637T319 644Q278 644 241 633T182 596T159 528Z" />
<glyph unicode="T" horiz-adv-x="585" d="M152 0V43L268 64L252 42V652L270 637H77L97 654L77 527H27V698H558V527H508L488 652L508 637H315L333 652V42L318 64L433 43V0H152Z" />
<glyph unicode="U" horiz-adv-x="749" d="M466 693L721 698V655L622 633L634 654V264Q634 227 628 188T606 114T561 51T486 7T371 -9Q295 -9 246 10T170 60T132 127T118 196T115 253V654L127 633L29 650V693L284 698V655L186 633L197 654V253Q197 228 199 201T209
147T237 101T288 68T372 55Q424 55 457 68T510 103T539 152T550 208T552 264V654L562 634L466 650V693Z" />
<glyph unicode="V" horiz-adv-x="693" d="M298 -1L80 648L102 632L5 650V693L269 698V655L160 634L170 655L354 72H341L538 650L546 633L439 650V693L689 698V655L592 634L613 650L384 -1H298Z" />
<glyph unicode="W" horiz-adv-x="1024" d="M773 693L1019 698V655L923 634L944 656L758 -1H679L504 597L519 596L334 -1H255L83 651L94 635L5 650V693L260 698V655L155 634L167 651L310 75H293L479 694L554 698L732 77H715L871 650L880 634L773 650V693Z" />
<glyph unicode="X" horiz-adv-x="697" d="M612 44L585 63L676 43V0H416V43L516 62L517 47L331 324L352 325L164 45L159 64L262 43V0H22V43L113 63L89 44L312 368L311 343L103 650L125 636L35 650V693L290 698V655L195 635L200 648L369 394L349 397L518 648L524
634L427 650V693L663 698V655L571 631L594 650L385 350L387 374L612 44Z" />
<glyph unicode="Y" horiz-adv-x="641" d="M190 0V43L292 64L278 46V272L287 239L76 648L95 633L4 650V693L260 698V655L153 635L161 651L334 301H317L492 648L499 633L392 650V693L638 698V655L547 635L565 650L353 239L360 272V46L346 64L448 43V0H190Z" />
<glyph unicode="Z" horiz-adv-x="617" d="M44 0V56L470 647L479 636H116L137 647L117 525H67V698H559V643L135 48L131 62H516L495 49L514 173H565L562 0H44Z" />
<glyph unicode="[" horiz-adv-x="344" d="M111 -102V849L330 844V794L181 789V-42L330 -46V-97L111 -102Z" />
<glyph unicode="\" horiz-adv-x="320" d="M3 802H63L318 -79H258L3 802Z" />
<glyph unicode="]" horiz-adv-x="344" d="M233 849V-102L14 -97V-46L163 -42V789L14 794V844L233 849Z" />
<glyph unicode="^" horiz-adv-x="546" d="M57 528L244 863H302L489 528H414L253 829H291L130 528H57Z" />
<glyph unicode="_" horiz-adv-x="495" d="M496 -70V-125H-1V-70H496Z" />
<glyph unicode="`" horiz-adv-x="309" d="M87 805L265 662L234 620L41 745L87 805Z" />
<glyph unicode="a" horiz-adv-x="547" d="M449 45L436 63L528 45V1L388 -5L376 91L383 88Q339 40 288 16T189 -9Q131 -9 91 28T51 140Q51 199 76 230T145 275T247 288H378L369 278V374Q369 429 340 452T260 476Q233 476 203 471T138 453L150 466L140 375H87L79
499Q136 518 186 527T278 537Q358 537 403 502T449 388V45ZM132 147Q132 98 155 75T215 52Q250 52 292 73T375 132L369 111V245L378 236H259Q188 236 160 215T132 147Z" />
<glyph unicode="b" horiz-adv-x="579" d="M250 -9Q214 -9 174 -4T88 11V725L104 702L10 722V765L168 772V443L157 455Q199 495 244 516T334 537Q390 537 434 506T505 416T531 271Q531 206 515 154T464 66T377 11T250 -9ZM265 50Q354 50 401 105T448 265Q448 331
430 378T379 450T306 476Q271 476 234 458T158 401L168 430V44L157 66Q218 50 265 50Z" />
<glyph unicode="c" horiz-adv-x="513" d="M272 -9Q208 -9 157 22T76 114T46 258Q46 331 66 383T122 470T202 520T297 537Q337 537 382 526T462 496L458 371H404L391 465L399 456Q374 468 346 473T296 478Q244 478 207 452T149 377T129 263Q129 195 150 148T207
77T290 53Q326 53 366 68T449 113L477 69Q425 29 373 10T272 -9Z" />
<glyph unicode="d" horiz-adv-x="593" d="M245 -9Q190 -9 145 21T74 111T48 256Q48 395 119 466T314 537Q340 537 368 533T427 521L411 512V713L420 702L328 722V765L491 772V49L479 63L569 45V1L429 -5L417 81L427 77Q382 34 337 13T245 -9ZM273 52Q308 52 345
70T421 126L411 99V478L422 458Q361 478 311 478Q223 478 177 421T131 263Q131 197 149 150T200 77T273 52Z" />
<glyph unicode="e" horiz-adv-x="547" d="M276 -9Q209 -9 158 21T77 111T48 255Q48 342 78 405T163 502T292 537Q362 537 407 508T475 426T498 307Q498 296 497 285T494 258H109V315H424L415 309Q416 354 404 392T363 453T286 476Q235 476 200 449T148 375T131
266Q131 200 150 153T205 79T295 53Q332 53 376 67T467 112L496 67Q440 29 384 10T276 -9Z" />
<glyph unicode="f" horiz-adv-x="348" d="M39 0V43L127 62L117 50V479L127 468H37V512L129 525L117 510V594Q117 688 165 732T293 777Q319 777 346 773T403 758L390 703Q367 710 346 714T305 718Q256 718 227 690T197 601V510L184 524H337L335 468H187L197 479V51L187
62L292 43V0H39Z" />
<glyph unicode="g" horiz-adv-x="559" d="M264 -239Q147 -239 89 -205T31 -107Q31 -62 61 -27T149 34L150 18Q118 20 101 31T84 64Q84 72 86 80T93 102T110 141T140 206L142 192Q99 215 76 254T53 348Q53 435 110 486T269 537Q337 537 386 513L364 518L521 525L522
477L429 459L436 471Q457 451 468 422T479 356Q479 268 420 217T263 166Q207 166 160 185L178 194L152 63L135 73H331Q427 73 477 36T527 -72Q527 -153 461 -196T264 -239ZM271 -178Q362 -178 406 -153T450 -78Q450 -34 417 -12T318 11H159L182 16Q102 -34 102
-92Q102 -135 143 -156T271 -178ZM263 222Q327 222 363 256T399 354Q399 417 365 449T268 481Q204 481 169 448T134 350Q134 288 167 255T263 222Z" />
<glyph unicode="h" horiz-adv-x="620" d="M24 0V43L115 63L103 48V718L115 702L24 722V765L183 772V434L165 438Q214 489 268 513T372 537Q416 537 451 519T505 465T525 372V48L515 62L603 43V0H370V43L456 62L445 47V354Q446 416 417 445T341 474Q305 474 261
454T176 391L183 408V47L173 61L258 43V0H24Z" />
<glyph unicode="i" horiz-adv-x="298" d="M196 51L187 62L274 43V0H38V43L125 62L116 51V473L124 464L38 482V525L196 531V51ZM150 639Q127 639 112 654T97 695Q97 722 112 736T151 751Q175 751 190 737T205 695Q205 668 189 654T150 639Z" />
<glyph unicode="j" horiz-adv-x="271" d="M9 -239Q-3 -239 -15 -238T-41 -235L-34 -176Q-24 -177 -15 -177T1 -178Q56 -178 79 -151T102 -59V476L113 463L24 482V525L182 531V-33Q182 -84 173 -122T142 -186T88 -225T9 -239ZM134 639Q111 639 96 654T81 695Q81
722 96 736T135 751Q159 751 174 737T189 695Q189 668 173 654T134 639Z" />
<glyph unicode="k" horiz-adv-x="567" d="M24 0V43L115 63L103 46V716L111 704L24 722V765L183 772V307L168 320H306L285 309L391 481L398 470L316 482V525L535 532V489L446 471L469 486L347 289L346 313L495 49L480 62L562 43V0H437L288 272L304 264H168L183
273V46L172 63L259 43V0H24Z" />
<glyph unicode="l" horiz-adv-x="285" d="M183 51L174 62L261 43V0H24V43L111 62L103 51V713L111 704L24 722V765L183 772V51Z" />
<glyph unicode="m" horiz-adv-x="954" d="M519 437L508 435Q557 486 612 511T715 537Q776 537 817 497T859 372V48L849 62L937 43V0H705V43L790 62L779 47V354Q779 416 753 445T684 474Q648 474 605 453T519 389L526 408Q527 399 527 391T528 375V48L518 62L601
43V0H375V43L460 62L448 47V354Q448 416 422 445T353 474Q317 474 274 454T189 392L196 407V47L186 61L269 43V0H38V43L128 63L116 48V478L128 463L38 482V525L178 532L189 434L178 438Q227 489 281 513T385 537Q431 537 467 513T519 437Z" />
<glyph unicode="n" horiz-adv-x="633" d="M38 0V43L128 63L116 48V478L128 463L38 482V525L178 532L189 434L178 438Q228 489 282 513T386 537Q452 537 495 497T538 371V48L528 62L616 43V0H383V43L470 62L458 47V354Q458 416 430 445T355 474Q318 474 275 454T189
392L196 408V47L186 61L271 43V0H38Z" />
<glyph unicode="o" horiz-adv-x="575" d="M294 537Q404 537 466 468T529 273Q529 188 499 125T412 26T277 -9Q169 -9 108 58T47 253Q47 341 76 404T161 502T294 537ZM290 478Q213 478 172 420T131 257Q131 154 170 102T282 50Q335 50 371 76T426 152T445 269Q445
371 405 424T290 478Z" />
<glyph unicode="p" horiz-adv-x="596" d="M27 -230V-187L118 -166L105 -181V476L117 463L27 482V525L167 532L177 445L168 451Q214 494 260 515T351 537Q407 537 451 506T522 417T548 273Q548 181 517 118T428 23T294 -10Q266 -10 236 -5T173 8L185 19V-181L174
-167L277 -187V-230H27ZM285 50Q373 50 419 107T465 265Q465 331 447 378T396 450T323 476Q288 476 251 458T175 401L185 426V51L174 69Q235 50 285 50Z" />
<glyph unicode="q" horiz-adv-x="578" d="M318 -230V-185L422 -164L411 -180V75L427 77Q382 33 337 12T245 -10Q190 -10 145 20T74 110T48 256Q48 353 81 415T176 507T319 537Q359 537 402 531T491 513V-180L479 -164L569 -185V-230H318ZM273 51Q308 51 345 69T421
126L411 99V479L422 458Q361 478 311 478Q223 478 177 421T131 263Q131 196 149 149T200 77T273 51Z" />
<glyph unicode="r" horiz-adv-x="442" d="M38 0V43L126 62L116 47V478L127 463L38 482V525L178 532L189 434L178 438Q223 485 266 511T360 537Q392 537 427 527L421 381H371L359 486L368 468Q361 470 353 471T337 472Q297 472 260 448T188 386L196 410V47L184
62L293 43V0H38Z" />
<glyph unicode="s" horiz-adv-x="478" d="M139 400Q139 368 160 350T214 321T284 298T354 271T408 227T429 153Q429 100 400 64T322 10T211 -9Q174 -9 135 -3T55 14L62 148H113L123 50L114 61Q137 55 164 51T214 47Q250 47 280 57T330 88T349 140Q349 173 329
192T275 223T206 245T136 272T82 316T61 390Q61 441 87 473T157 521T251 537Q285 537 326 530T410 509L405 396H354L339 479L351 465Q299 480 253 480Q204 480 172 460T139 400Z" />
<glyph unicode="t" horiz-adv-x="362" d="M215 -9Q163 -9 133 23T103 122V485L116 472H13V516L117 531L103 515V647L183 660V515L172 528H329L326 472H172L183 485V133Q183 91 199 72T246 53Q264 53 285 59T330 76L347 30Q276 -9 215 -9Z" />
<glyph unicode="u" horiz-adv-x="620" d="M247 -9Q181 -9 138 32T95 158V477L105 463L16 482V525L175 531V172Q175 112 203 83T278 54Q315 54 358 74T443 136L437 118V479L447 463L358 482V525L517 532V49L505 62L595 45V1L455 -5L443 94L454 90Q405 39 351 15T247 -9Z" />
<glyph unicode="v" horiz-adv-x="527" d="M322 525L531 532V488L463 468L477 483L303 -2H209L50 481L64 468L-5 482V525L215 532V488L124 471L132 483L266 49H258L403 480L409 471L322 482V525Z" />
<glyph unicode="w" horiz-adv-x="799" d="M603 525L804 532V488L734 471L748 483L611 -2H523L393 470H409L271 -2H183L52 481L64 469L-5 482V525L211 532V488L120 472L129 482L240 47H227L361 526L448 532L577 44H564L681 480L690 469L603 482V525Z" />
<glyph unicode="x" horiz-adv-x="554" d="M10 0V43L97 59L75 46L236 280L255 284L416 525L528 532V488L442 469L467 485L310 262L293 258L122 0H10ZM315 0V43L389 55L384 43L242 250L78 485L98 469L21 482V525L235 532V488L157 474L164 488L297 294L470 46L453
58L538 43V0H315Z" />
<glyph unicode="y" horiz-adv-x="529" d="M15 -234L22 -175Q34 -177 44 -178T64 -179Q113 -179 143 -157T195 -89T238 23L235 -7L48 480L59 471L-6 482V525L213 532V488L123 473L129 482L278 57L260 61L403 480L409 471L321 482V525L533 532V488L463 472L477 481L301
-2Q283 -52 264 -95T219 -170T158 -221T71 -239Q48 -239 15 -234Z" />
<glyph unicode="z" horiz-adv-x="481" d="M437 144L438 1L40 0V48L352 489L364 472H88L112 491L99 396H49L48 528H430V479L117 34L113 56L390 57L367 33L387 144H437Z" />
<glyph unicode="{" horiz-adv-x="341" d="M265 -102Q189 -102 157 -66T125 50V239Q125 287 106 316T33 345V402Q87 402 106 431T125 508V698Q125 778 157 813T265 849H311V799Q263 799 239 790T205 758T196 691V499Q196 446 178 418T131 379T66 368V379Q101 379
130 369T178 330T196 248V56Q196 13 205 -10T238 -42T311 -51V-102H265Z" />
<glyph unicode="|" horiz-adv-x="330" d="M133 803H197V-99H133V803Z" />
<glyph unicode="}" horiz-adv-x="341" d="M76 -102Q152 -102 184 -66T216 50V239Q216 287 235 316T307 345V402Q253 402 235 431T216 508V698Q216 778 184 813T76 849H30V799Q78 799 102 790T135 758T144 691V499Q144 446 162 418T210 379T275 368V379Q240 379
211 369T163 330T144 248V56Q144 13 136 -10T103 -42T30 -51V-102H76Z" />
<glyph unicode="~" horiz-adv-x="609" d="M415 287Q384 287 356 298T300 324T246 350T193 362Q170 362 146 350T97 304L62 326Q90 376 122 399T195 422Q226 422 254 411T310 385T364 359T417 347Q441 347 464 359T512 405L547 382Q518 332 486 310T415 287Z" />
<glyph unicode="&#xa0;" horiz-adv-x="200" />
<glyph unicode="&#xa1;" horiz-adv-x="333" d="M197 267L209 -210H123L135 263L197 267ZM219 445Q219 422 203 408T166 393Q143 393 129 407T114 445Q114 469 129 483T166 497Q190 497 204 483T219 445Z" />
<glyph unicode="&#xa2;" horiz-adv-x="572" d="M498 181Q450 145 403 127T309 106L331 124V-21H275V123L299 106Q233 105 182 135T102 221T73 353Q73 432 103 487T183 574T297 608L275 589V734H331V592L301 608Q335 610 368 605T430 591T481 569L477 450H428L416
534Q392 545 366 549T318 554Q266 554 229 529T171 459T151 358Q151 298 170 255T226 187T312 163Q349 163 389 177T471 222L498 181Z" />
<glyph unicode="&#xa3;" horiz-adv-x="680" d="M76 0V43L177 69L150 51Q177 72 187 108T197 189Q197 227 192 270T181 357L197 341H76V386L189 394L179 380Q174 418 170 454T166 519Q166 590 193 631T270 689T382 707Q425 707 473 700T572 681L565 529H515L499
645L510 630Q475 638 444 641T388 645Q322 645 286 618T249 520Q249 495 253 457T262 382L245 394H446V341H251L265 359Q270 321 274 284T279 213Q279 163 266 122T217 54L207 63L526 61L510 45L529 171H579V0H76Z" />
<glyph unicode="&#xa4;" horiz-adv-x="670" d="M569 125L529 81L432 171H464Q441 148 408 135T333 121Q291 121 259 135T204 172L238 174L139 82L103 121L200 212L197 179Q177 201 167 231T156 295Q156 330 167 361T199 419L197 389L100 479L141 523L240 431L210
429Q234 451 267 464T342 477Q382 477 412 466T464 434H436L529 522L566 482L471 395V427Q493 403 504 372T516 306Q516 271 505 239T473 182L470 216L569 125ZM335 173Q373 173 397 190T434 236T448 299Q449 355 422 390T340 425Q301 425 275 408T237 361T224
297Q224 244 251 209T335 173Z" />
<glyph unicode="&#xa5;" horiz-adv-x="720" d="M147 276V319H302L295 302L116 648L135 633L45 650V693L300 698V655L193 635L199 651L372 304H357L532 648L539 633L432 650V693L676 698V655L587 635L605 650L424 301L418 319H571V276H147ZM232 0V43L332 64L318
46V180L332 166H147V209H571V166H383L400 181V46L386 64L487 43V0H232Z" />
<glyph unicode="&#xa6;" horiz-adv-x="330" d="M133 438V803H197V438H133ZM133 -99V266H197V-99H133Z" />
<glyph unicode="&#xa7;" horiz-adv-x="570" d="M251 -179Q217 -179 180 -173T103 -156L109 -28H160L170 -125L161 -110Q185 -117 208 -121T252 -125Q306 -125 342 -101T379 -28Q379 9 358 35T305 82T236 122T166 165T113 219T92 293Q92 334 111 364T163 413T232
442L247 418Q228 410 209 393T176 353T163 303Q163 268 184 243T238 198T308 157T379 113T433 56T454 -25Q454 -76 428 -110T356 -161T251 -179ZM337 92L328 117Q346 127 365 145T396 186T409 237Q409 272 388 297T334 344T264 385T194 429T140 486T119 563Q119
632 170 669T304 706Q339 706 378 699T458 679L454 570H403L389 654L401 638Q378 645 354 649T308 653Q256 653 225 630T193 565Q193 531 214 506T267 460T337 420T407 377T460 322T481 247Q481 206 461 175T408 123T337 92Z" />
<glyph unicode="&#xa8;" horiz-adv-x="451" d="M325 643Q303 643 291 657T277 695Q277 719 291 733T325 747Q347 747 359 733T372 695Q372 671 358 657T325 643ZM126 643Q104 643 92 657T79 695Q79 719 92 733T126 747Q148 747 161 733T174 695Q174 671 160 657T126 643Z" />
<glyph unicode="&#xa9;" horiz-adv-x="893" d="M444 157Q373 157 326 206T278 346Q278 409 301 453T365 519T457 542Q516 542 578 513L576 420H534L525 487L533 481Q515 489 497 492T462 495Q405 495 374 456T343 350Q343 278 375 242T456 205Q482 205 511 215T570
247L593 213Q556 184 518 171T444 157ZM435 -9Q357 -9 292 17T180 89T107 200T81 341Q81 421 108 488T186 604T303 680T450 707Q528 707 594 681T709 608T785 497T812 357Q812 279 784 212T704 96T584 19T435 -9ZM439 39Q507 39 565 62T665 128T731 227T755 353Q755
442 716 511T606 619T446 659Q355 659 286 619T177 508T138 346Q138 257 175 188T281 79T439 39Z" />
<glyph unicode="&#xaa;" horiz-adv-x="438" d="M350 354L337 370L405 355V322L300 318L292 387L297 384Q266 351 228 333T153 315Q106 315 76 344T46 425Q46 465 65 488T116 520T192 530H292L286 525V589Q286 626 264 643T203 660Q183 660 160 656T111 643L120
656L111 589H70L64 679Q107 693 146 700T218 707Q281 707 315 682T350 599V354ZM110 430Q110 399 127 381T173 362Q199 362 230 376T291 414L286 401V504L293 496H201Q189 496 174 495T144 487T120 467T110 430ZM48 176V234H405V176H48Z" />
<glyph unicode="&#xab;" horiz-adv-x="498" d="M209 64L56 247V293L210 476L249 447L112 254V288L248 95L209 64ZM398 64L245 247V293L399 476L438 447L301 254V288L437 95L398 64Z" />
<glyph unicode="&#xac;" horiz-adv-x="614" d="M466 113V333L477 320H54V379H532V113H466Z" />
<glyph unicode="&#xad;" horiz-adv-x="431" d="M615 325V262H329V325H615Z" />
<glyph unicode="&#xae;" horiz-adv-x="754" d="M236 294V319L288 331L278 320V599L290 587L236 596V620L328 623H384Q441 623 471 601T502 538Q502 504 476 480T394 449L397 458Q427 456 442 442T471 402L514 318L498 330L540 319V294H474L428 393Q417 416 406
426T381 438T349 441H315L325 451V320L316 331L377 319V294H236ZM325 465L315 474H360Q406 474 429 490T453 535Q453 560 434 573T376 587H315L325 600V465ZM368 166Q285 166 220 202T119 302T83 449Q83 534 122 600T227 705T379 744Q464 744 530 708T634 608T672
461Q672 398 649 345T585 251T488 188T368 166ZM370 205Q443 205 501 238T594 328T628 460Q628 532 596 587T507 674T378 705Q305 705 249 672T160 582T128 451Q128 378 158 323T243 236T370 205Z" />
<glyph unicode="&#xaf;" horiz-adv-x="430" d="M348 730V671H82V730H348Z" />
<glyph unicode="&#xb0;" horiz-adv-x="445" d="M198 439Q131 439 90 478T48 587Q48 631 67 664T120 715T199 734Q266 734 307 695T348 589Q348 521 307 480T198 439ZM199 486Q242 486 267 512T292 588Q292 635 267 661T199 687Q156 687 131 662T105 589Q105 541
130 514T199 486Z" />
<glyph unicode="&#xb1;" horiz-adv-x="597" d="M283 433L267 417V627H330V417L314 433H523V374H314L330 390V179H267V390L283 374H75V433H283ZM523 101V42H75V101H523Z" />
<glyph unicode="&#xb2;" horiz-adv-x="355" d="M33 346V396Q100 456 146 502T216 586T240 657Q240 693 218 708T160 724Q121 724 81 709L90 722L82 649H41L35 753Q70 763 104 769T170 776Q230 776 269 751T309 668Q309 634 294 602T250 537T186 469T106 393L105
400H318V346H33Z" />
<glyph unicode="&#xb3;" horiz-adv-x="367" d="M163 339Q129 339 95 348T29 374L50 418Q76 404 103 397T157 390Q197 390 225 409T253 469Q253 501 232 521T158 542H102V587H155Q203 587 224 606T245 658Q245 696 223 711T164 727Q146 727 126 724T84 714L94 724L87
655H46L41 751Q76 763 111 769T178 775Q217 775 247 765T296 731T314 668Q314 623 289 598T216 567L212 570Q268 565 295 538T322 466Q322 423 300 395T242 353T163 339Z" />
<glyph unicode="&#xb4;" horiz-adv-x="319" d="M95 620L66 661L248 804L293 743L95 620Z" />
<glyph unicode="&#xb5;" horiz-adv-x="653" d="M131 132L152 79Q158 39 164 -8T175 -111T180 -230H100V478L110 464L22 482V525L180 529V169Q180 110 208 82T282 54Q319 54 363 74T449 137L442 121V480L452 464L364 482V525L522 530V49L510 63L601 45V1L460 -5L448
94L458 90Q410 40 360 16T263 -9Q209 -9 173 25T131 132Z" />
<glyph unicode="&#xb6;" horiz-adv-x="599" d="M135 -170V-127L235 -106L222 -124V348L242 329Q186 329 144 351T78 415T55 514Q55 569 78 610T144 675T243 698H539V655L439 632L452 651V-170H384V657L399 637L276 636L290 658V-170H135Z" />
<glyph unicode="&#xb7;" horiz-adv-x="211" d="M53 329Q53 353 69 367T106 381Q130 381 144 367T158 329Q158 305 143 291T106 277Q82 277 68 291T53 329Z" />
<glyph unicode="&#xb8;" horiz-adv-x="322" d="M151 -233Q129 -233 106 -228T60 -213L78 -171Q95 -177 114 -181T151 -185Q176 -185 193 -175T210 -144Q210 -129 198 -119T163 -103T109 -97L115 0H166V-58Q222 -63 246 -85T271 -141Q271 -172 255 -192T211 -223T151
-233Z" />
<glyph unicode="&#xb9;" horiz-adv-x="276" d="M188 384L177 398L261 382V346H38V382L136 397L125 384V713L143 712L34 648L13 689L138 771H188V384Z" />
<glyph unicode="&#xba;" horiz-adv-x="481" d="M231 313Q149 313 102 364T55 502Q55 563 78 609T144 681T246 707Q330 707 378 656T426 519Q426 459 403 413T336 340T231 313ZM68 176V234H414V176H68ZM236 363Q276 363 303 382T343 435T357 515Q357 582 328 620T242
658Q183 658 154 617T124 506Q124 438 152 401T236 363Z" />
<glyph unicode="&#xbb;" horiz-adv-x="498" d="M289 476L442 293V247L288 64L249 93L386 286V252L250 445L289 476ZM100 476L253 293V247L100 64L61 93L197 286V252L61 445L100 476Z" />
<glyph unicode="&#xbc;" horiz-adv-x="834" d="M211 314L200 328L284 312V276H61V312L159 327L148 314V643L166 642L57 578L36 619L161 701H211V314ZM155 -7L589 705H655L221 -7H155ZM662 116L672 101H464L455 150L646 430L728 423V139L712 150H797V101H712L728
116V0H662V116ZM673 150L662 139V391L673 390L498 131L490 150H673Z" />
<glyph unicode="&#xbd;" horiz-adv-x="856" d="M215 314L204 328L288 312V276H65V312L163 327L152 314V643L170 642L61 578L40 619L165 701H215V314ZM158 -7L592 705H658L224 -7H158ZM518 0V50Q585 110 631 156T701 240T725 311Q725 347 703 362T645 378Q606 378
566 363L575 376L567 303H526L520 407Q555 417 589 423T655 430Q715 430 754 405T794 322Q794 288 779 256T735 191T671 123T591 47L590 54H803V0H518Z" />
<glyph unicode="&#xbe;" horiz-adv-x="872" d="M163 269Q129 269 95 278T29 304L50 348Q76 334 103 327T157 320Q197 320 225 339T253 399Q253 431 232 451T158 472H102V517H155Q203 517 224 536T245 588Q245 626 223 641T164 657Q146 657 126 654T84 644L94 654L87
585H46L41 681Q76 693 111 699T178 705Q217 705 247 695T296 661T314 598Q314 553 289 528T216 497L212 500Q268 495 295 468T322 396Q322 353 300 325T242 283T163 269ZM194 -7L628 705H694L260 -7H194ZM702 116L712 101H504L495 150L686 430L768 423V139L752
150H837V101H752L768 116V0H702V116ZM713 150L702 139V391L713 390L538 131L530 150H713Z" />
<glyph unicode="&#xbf;" horiz-adv-x="420" d="M286 301Q289 285 290 267T292 237Q292 201 274 174T230 123T178 78T134 29T116 -33Q116 -77 146 -97T223 -118Q251 -118 283 -111T347 -93L365 -147Q283 -180 203 -180Q156 -180 118 -167T57 -123T34 -45Q34 0 53
33T100 93T157 143T205 193T224 253Q224 260 224 273T222 297L286 301ZM294 486Q294 462 279 448T240 433Q218 433 204 447T189 484Q189 509 204 523T242 537Q265 537 279 523T294 486Z" />
<glyph unicode="&#xc0;" horiz-adv-x="709" d="M633 44L610 64L704 43V0H444V43L548 63L540 49L487 209L502 197H196L210 209L153 51L148 62L250 43V0H4V43L96 64L75 46L319 697L402 700L633 44ZM221 244L213 257H486L477 243L346 650L365 649L221 244ZM456 750L242
845L280 913L479 796L456 750Z" />
<glyph unicode="&#xc1;" horiz-adv-x="709" d="M633 44L610 64L704 43V0H444V43L548 63L540 49L487 209L502 197H196L210 209L153 51L148 62L250 43V0H4V43L96 64L75 46L319 697L402 700L633 44ZM221 244L213 257H486L477 243L346 650L365 649L221 244ZM274 750L249
795L450 913L485 846L274 750Z" />
<glyph unicode="&#xc2;" horiz-adv-x="709" d="M633 44L610 64L704 43V0H444V43L548 63L540 49L487 209L502 197H196L210 209L153 51L148 62L250 43V0H4V43L96 64L75 46L319 697L402 700L633 44ZM221 244L213 257H486L477 243L346 650L365 649L221 244ZM223 745L195
779L333 898L380 902L526 779L497 745L331 853L384 852L223 745Z" />
<glyph unicode="&#xc3;" horiz-adv-x="709" d="M633 44L610 64L704 43V0H444V43L548 63L540 49L487 209L502 197H196L210 209L153 51L148 62L250 43V0H4V43L96 64L75 46L319 697L402 700L633 44ZM221 244L213 257H486L477 243L346 650L365 649L221 244ZM233 774L197
791Q214 837 237 857T290 878Q315 878 339 867T386 846T427 835Q444 835 459 845T488 880L525 864Q507 817 483 797T429 777Q404 777 381 787T336 808T292 819Q274 819 261 809T233 774Z" />
<glyph unicode="&#xc4;" horiz-adv-x="709" d="M633 44L610 64L704 43V0H444V43L548 63L540 49L487 209L502 197H196L210 209L153 51L148 62L250 43V0H4V43L96 64L75 46L319 697L402 700L633 44ZM221 244L213 257H486L477 243L346 650L365 649L221 244ZM460 766Q438
766 426 780T412 818Q412 842 426 856T460 870Q482 870 494 856T507 818Q507 794 493 780T460 766ZM261 766Q239 766 227 780T214 818Q214 842 227 856T261 870Q283 870 296 856T309 818Q309 794 295 780T261 766Z" />
<glyph unicode="&#xc5;" horiz-adv-x="709" d="M633 44L610 64L704 43V0H444V43L548 63L540 49L487 209L502 197H196L210 209L153 51L148 62L250 43V0H4V43L96 64L75 46L319 697L402 700L633 44ZM221 244L213 257H486L477 243L346 650L365 649L221 244ZM360 733Q330
733 306 744T269 777T255 828Q255 857 268 879T306 913T362 926Q393 926 416 915T453 882T467 831Q467 802 454 780T416 746T360 733ZM360 774Q386 774 400 790T414 830Q414 854 401 869T361 885Q335 885 322 869T308 829Q308 805 321 790T360 774Z" />
<glyph unicode="&#xc6;" horiz-adv-x="946" d="M0 0V43L94 64L70 45L377 647L387 632L288 650V693L479 698H866V540H816L797 654L814 637H531L546 652V381L531 395H793V336H531L546 352V46L531 61H827L810 45L829 164H879L878 0H381V43L477 65L464 49V229L479
214H221L241 228L148 45L142 64L246 43V0H0ZM255 261L245 273H479L464 260V648L479 637H433L452 647L255 261Z" />
<glyph unicode="&#xc7;" horiz-adv-x="646" d="M350 -9Q270 -9 204 32T100 152T61 346Q61 459 100 540T209 664T372 707Q422 707 476 695T588 657L581 500H532L514 624L529 608Q489 625 449 633T373 642Q304 642 254 608T177 509T149 356Q149 260 178 194T257
94T371 59Q417 59 467 79T565 140L598 91Q539 40 475 16T350 -9ZM363 -233Q341 -233 318 -228T272 -213L290 -171Q307 -177 326 -181T363 -185Q388 -185 405 -175T422 -144Q422 -129 410 -119T375 -103T321 -97L327 0H378V-58Q434 -63 458 -85T483 -141Q483 -172
467 -192T423 -223T363 -233Z" />
<glyph unicode="&#xc8;" horiz-adv-x="621" d="M504 164H554V0H49V43L148 64L135 46V650L148 632L49 650V693L216 698H542V540H492L474 650L491 637H202L217 652V372L202 387H469V327H202L217 344V46L202 61H504L486 46L504 164ZM416 750L202 845L240 913L439
796L416 750Z" />
<glyph unicode="&#xc9;" horiz-adv-x="621" d="M504 164H554V0H49V43L148 64L135 46V650L148 632L49 650V693L216 698H542V540H492L474 650L491 637H202L217 652V372L202 387H469V327H202L217 344V46L202 61H504L486 46L504 164ZM234 750L209 795L410 913L445
846L234 750Z" />
<glyph unicode="&#xca;" horiz-adv-x="621" d="M504 164H554V0H49V43L148 64L135 46V650L148 632L49 650V693L216 698H542V540H492L474 650L491 637H202L217 652V372L202 387H469V327H202L217 344V46L202 61H504L486 46L504 164ZM183 745L155 779L293 898L340
902L486 779L457 745L291 853L344 852L183 745Z" />
<glyph unicode="&#xcb;" horiz-adv-x="621" d="M504 164H554V0H49V43L148 64L135 46V650L148 632L49 650V693L216 698H542V540H492L474 650L491 637H202L217 652V372L202 387H469V327H202L217 344V46L202 61H504L486 46L504 164ZM420 766Q398 766 386 780T372
818Q372 842 386 856T420 870Q442 870 454 856T467 818Q467 794 453 780T420 766ZM221 766Q199 766 187 780T174 818Q174 842 187 856T221 870Q243 870 256 856T269 818Q269 794 255 780T221 766Z" />
<glyph unicode="&#xcc;" horiz-adv-x="352" d="M304 655L206 633L217 647V49L206 63L304 43V0H49V43L146 63L135 49V647L148 632L49 650V693L304 698V655ZM527 750L313 845L351 913L550 796L527 750Z" />
<glyph unicode="&#xcd;" horiz-adv-x="352" d="M304 655L206 633L217 647V49L206 63L304 43V0H49V43L146 63L135 49V647L148 632L49 650V693L304 698V655ZM89 750L64 795L265 913L300 846L89 750Z" />
<glyph unicode="&#xce;" horiz-adv-x="352" d="M304 655L206 633L217 647V49L206 63L304 43V0H49V43L146 63L135 49V647L148 632L49 650V693L304 698V655ZM294 745L266 779L404 898L451 902L597 779L568 745L402 853L455 852L294 745Z" />
<glyph unicode="&#xcf;" horiz-adv-x="352" d="M304 655L206 633L217 647V49L206 63L304 43V0H49V43L146 63L135 49V647L148 632L49 650V693L304 698V655ZM531 766Q509 766 497 780T483 818Q483 842 497 856T531 870Q553 870 565 856T578 818Q578 794 564 780T531
766ZM332 766Q310 766 298 780T285 818Q285 842 298 856T332 870Q354 870 367 856T380 818Q380 794 366 780T332 766Z" />
<glyph unicode="&#xd0;" horiz-adv-x="718" d="M49 328V385H382V328H49ZM347 698Q414 698 470 678T569 616T635 511T659 360Q659 242 617 162T500 41T331 0H49V43L149 64L135 46V650L149 631L49 650V693L237 698H347ZM334 61Q380 61 422 76T498 124T551 214T571
353Q571 434 552 488T501 575T429 622T345 637H202L217 652V46L202 61H334Z" />
<glyph unicode="&#xd1;" horiz-adv-x="792" d="M513 693L756 698V655L656 632L669 651V0H577L193 611L205 612V46L190 64L291 43V0H49V43L150 64L135 46V651L146 633L49 650V693L233 698L612 97L600 96V651L614 633L513 650V693ZM281 774L245 791Q262 837 285
857T338 878Q363 878 387 867T434 846T475 835Q492 835 507 845T536 880L573 864Q555 817 531 797T477 777Q452 777 429 787T384 808T340 819Q322 819 309 809T281 774Z" />
<glyph unicode="&#xd2;" horiz-adv-x="745" d="M362 -9Q276 -9 208 30T100 147T60 342Q60 433 84 501T153 616T254 684T378 707Q442 707 498 686T596 621T661 512T685 361Q685 243 643 161T527 35T362 -9ZM367 56Q429 56 481 87T565 185T597 356Q597 456 568 519T488
612T374 642Q313 642 262 612T179 516T148 345Q148 245 177 181T256 87T367 56ZM472 750L258 845L296 913L495 796L472 750Z" />
<glyph unicode="&#xd3;" horiz-adv-x="745" d="M362 -9Q276 -9 208 30T100 147T60 342Q60 433 84 501T153 616T254 684T378 707Q442 707 498 686T596 621T661 512T685 361Q685 243 643 161T527 35T362 -9ZM367 56Q429 56 481 87T565 185T597 356Q597 456 568 519T488
612T374 642Q313 642 262 612T179 516T148 345Q148 245 177 181T256 87T367 56ZM289 750L264 795L465 913L500 846L289 750Z" />
<glyph unicode="&#xd4;" horiz-adv-x="745" d="M362 -9Q276 -9 208 30T100 147T60 342Q60 433 84 501T153 616T254 684T378 707Q442 707 498 686T596 621T661 512T685 361Q685 243 643 161T527 35T362 -9ZM367 56Q429 56 481 87T565 185T597 356Q597 456 568 519T488
612T374 642Q313 642 262 612T179 516T148 345Q148 245 177 181T256 87T367 56ZM239 745L211 779L349 898L396 902L542 779L513 745L347 853L400 852L239 745Z" />
<glyph unicode="&#xd5;" horiz-adv-x="745" d="M362 -9Q276 -9 208 30T100 147T60 342Q60 433 84 501T153 616T254 684T378 707Q442 707 498 686T596 621T661 512T685 361Q685 243 643 161T527 35T362 -9ZM367 56Q429 56 481 87T565 185T597 356Q597 456 568 519T488
612T374 642Q313 642 262 612T179 516T148 345Q148 245 177 181T256 87T367 56ZM248 774L212 791Q229 837 252 857T305 878Q330 878 354 867T401 846T442 835Q459 835 474 845T503 880L540 864Q522 817 498 797T444 777Q419 777 396 787T351 808T307 819Q289 819
276 809T248 774Z" />
<glyph unicode="&#xd6;" horiz-adv-x="745" d="M362 -9Q276 -9 208 30T100 147T60 342Q60 433 84 501T153 616T254 684T378 707Q442 707 498 686T596 621T661 512T685 361Q685 243 643 161T527 35T362 -9ZM367 56Q429 56 481 87T565 185T597 356Q597 456 568 519T488
612T374 642Q313 642 262 612T179 516T148 345Q148 245 177 181T256 87T367 56ZM475 766Q453 766 441 780T427 818Q427 842 441 856T475 870Q497 870 509 856T522 818Q522 794 508 780T475 766ZM276 766Q254 766 242 780T229 818Q229 842 242 856T276 870Q298 870
311 856T324 818Q324 794 310 780T276 766Z" />
<glyph unicode="&#xd7;" horiz-adv-x="506" d="M102 155L58 199L220 360L221 337L58 500L103 544L266 381L242 382L404 544L448 500L286 338L285 362L448 199L403 154L240 317H264L102 155Z" />
<glyph unicode="&#xd8;" horiz-adv-x="746" d="M608 771L653 744L574 620L561 603L228 75L222 62L136 -74L90 -47L176 90L186 102L523 634L528 646L608 771ZM363 -9Q277 -9 209 30T101 147T61 342Q61 433 85 501T154 616T255 684T379 707Q443 707 499 686T597
621T662 512T686 361Q686 243 644 161T528 35T363 -9ZM368 56Q430 56 482 87T566 185T598 356Q598 456 569 519T489 612T375 642Q314 642 263 612T180 516T149 345Q149 245 178 181T257 87T368 56Z" />
<glyph unicode="&#xd9;" horiz-adv-x="749" d="M466 693L721 698V655L622 633L634 654V264Q634 227 628 188T606 114T561 51T486 7T371 -9Q295 -9 246 10T170 60T132 127T118 196T115 253V654L127 633L29 650V693L284 698V655L186 633L197 654V253Q197 228 199
201T209 147T237 101T288 68T372 55Q424 55 457 68T510 103T539 152T550 208T552 264V654L562 634L466 650V693ZM471 750L257 845L295 913L494 796L471 750Z" />
<glyph unicode="&#xda;" horiz-adv-x="749" d="M466 693L721 698V655L622 633L634 654V264Q634 227 628 188T606 114T561 51T486 7T371 -9Q295 -9 246 10T170 60T132 127T118 196T115 253V654L127 633L29 650V693L284 698V655L186 633L197 654V253Q197 228 199
201T209 147T237 101T288 68T372 55Q424 55 457 68T510 103T539 152T550 208T552 264V654L562 634L466 650V693ZM289 750L264 795L465 913L500 846L289 750Z" />
<glyph unicode="&#xdb;" horiz-adv-x="749" d="M466 693L721 698V655L622 633L634 654V264Q634 227 628 188T606 114T561 51T486 7T371 -9Q295 -9 246 10T170 60T132 127T118 196T115 253V654L127 633L29 650V693L284 698V655L186 633L197 654V253Q197 228 199
201T209 147T237 101T288 68T372 55Q424 55 457 68T510 103T539 152T550 208T552 264V654L562 634L466 650V693ZM238 745L210 779L348 898L395 902L541 779L512 745L346 853L399 852L238 745Z" />
<glyph unicode="&#xdc;" horiz-adv-x="749" d="M466 693L721 698V655L622 633L634 654V264Q634 227 628 188T606 114T561 51T486 7T371 -9Q295 -9 246 10T170 60T132 127T118 196T115 253V654L127 633L29 650V693L284 698V655L186 633L197 654V253Q197 228 199
201T209 147T237 101T288 68T372 55Q424 55 457 68T510 103T539 152T550 208T552 264V654L562 634L466 650V693ZM475 766Q453 766 441 780T427 818Q427 842 441 856T475 870Q497 870 509 856T522 818Q522 794 508 780T475 766ZM276 766Q254 766 242 780T229 818Q229
842 242 856T276 870Q298 870 311 856T324 818Q324 794 310 780T276 766Z" />
<glyph unicode="&#xdd;" horiz-adv-x="641" d="M190 0V43L292 64L278 46V272L287 239L76 648L95 633L4 650V693L260 698V655L153 635L161 651L334 301H317L492 648L499 633L392 650V693L638 698V655L547 635L565 650L353 239L360 272V46L346 64L448 43V0H190ZM235
750L210 795L411 913L446 846L235 750Z" />
<glyph unicode="&#xde;" horiz-adv-x="582" d="M49 0V43L148 64L135 46V651L148 632L49 650V693L304 698V655L205 631L217 649V541L202 557H332Q436 557 491 509T546 368Q546 262 479 207T294 151H202L217 168V46L204 64L325 43V0H49ZM217 196L202 211H280Q336
211 377 227T440 277T463 363Q463 409 445 439T391 483T307 498H202L217 512V196Z" />
<glyph unicode="&#xdf;" horiz-adv-x="651" d="M389 416Q389 387 406 368T452 335T511 306T570 272T615 224T633 151Q633 96 607 61T537 9T438 -9Q406 -9 372 -3T303 14L309 144L360 143L371 45L360 62Q380 54 401 50T442 45Q473 45 498 55T540 87T556 140Q556
172 539 194T493 232T434 264T376 297T331 341T313 406Q313 443 329 465T368 502T415 532T455 565T471 617Q471 650 454 672T408 706T342 718Q278 718 238 686T197 585V0H39V43L130 63L117 47V476L130 468H37V512L128 525L117 512V579Q117 632 134 670T183 731T255
766T344 777Q402 777 448 760T521 709T549 624Q549 585 533 562T494 522T446 493T406 462T389 416Z" />
<glyph unicode="&#xe0;" horiz-adv-x="548" d="M449 45L436 63L528 45V1L388 -5L376 91L383 88Q339 40 288 16T189 -9Q131 -9 91 28T51 140Q51 199 76 230T145 275T247 288H378L369 278V374Q369 429 340 452T260 476Q233 476 203 471T138 453L150 466L140 375H87L79
499Q136 518 186 527T278 537Q358 537 403 502T449 388V45ZM132 147Q132 98 155 75T215 52Q250 52 292 73T375 132L369 111V245L378 236H259Q188 236 160 215T132 147ZM202 805L380 662L349 620L156 745L202 805Z" />
<glyph unicode="&#xe1;" horiz-adv-x="548" d="M449 45L436 63L528 45V1L388 -5L376 91L383 88Q339 40 288 16T189 -9Q131 -9 91 28T51 140Q51 199 76 230T145 275T247 288H378L369 278V374Q369 429 340 452T260 476Q233 476 203 471T138 453L150 466L140 375H87L79
499Q136 518 186 527T278 537Q358 537 403 502T449 388V45ZM132 147Q132 98 155 75T215 52Q250 52 292 73T375 132L369 111V245L378 236H259Q188 236 160 215T132 147ZM209 620L180 661L362 804L407 743L209 620Z" />
<glyph unicode="&#xe2;" horiz-adv-x="548" d="M449 45L436 63L528 45V1L388 -5L376 91L383 88Q339 40 288 16T189 -9Q131 -9 91 28T51 140Q51 199 76 230T145 275T247 288H378L369 278V374Q369 429 340 452T260 476Q233 476 203 471T138 453L150 466L140 375H87L79
499Q136 518 186 527T278 537Q358 537 403 502T449 388V45ZM132 147Q132 98 155 75T215 52Q250 52 292 73T375 132L369 111V245L378 236H259Q188 236 160 215T132 147ZM137 628L108 661L244 789L291 793L433 661L404 628L242 746L295 745L137 628Z" />
<glyph unicode="&#xe3;" horiz-adv-x="548" d="M449 45L436 63L528 45V1L388 -5L376 91L383 88Q339 40 288 16T189 -9Q131 -9 91 28T51 140Q51 199 76 230T145 275T247 288H378L369 278V374Q369 429 340 452T260 476Q233 476 203 471T138 453L150 466L140 375H87L79
499Q136 518 186 527T278 537Q358 537 403 502T449 388V45ZM132 147Q132 98 155 75T215 52Q250 52 292 73T375 132L369 111V245L378 236H259Q188 236 160 215T132 147ZM338 649Q311 649 289 661T245 686T201 699Q183 699 168 688T139 651L101 667Q119 715 143 737T199
760Q226 760 248 748T292 723T336 710Q354 710 369 722T399 759L436 743Q418 695 394 672T338 649Z" />
<glyph unicode="&#xe4;" horiz-adv-x="548" d="M449 45L436 63L528 45V1L388 -5L376 91L383 88Q339 40 288 16T189 -9Q131 -9 91 28T51 140Q51 199 76 230T145 275T247 288H378L369 278V374Q369 429 340 452T260 476Q233 476 203 471T138 453L150 466L140 375H87L79
499Q136 518 186 527T278 537Q358 537 403 502T449 388V45ZM132 147Q132 98 155 75T215 52Q250 52 292 73T375 132L369 111V245L378 236H259Q188 236 160 215T132 147ZM368 643Q346 643 334 657T320 695Q320 719 334 733T368 747Q390 747 402 733T415 695Q415 671
401 657T368 643ZM169 643Q147 643 135 657T122 695Q122 719 135 733T169 747Q191 747 204 733T217 695Q217 671 203 657T169 643Z" />
<glyph unicode="&#xe5;" horiz-adv-x="548" d="M449 45L436 63L528 45V1L388 -5L376 91L383 88Q339 40 288 16T189 -9Q131 -9 91 28T51 140Q51 199 76 230T145 275T247 288H378L369 278V374Q369 429 340 452T260 476Q233 476 203 471T138 453L150 466L140 375H87L79
499Q136 518 186 527T278 537Q358 537 403 502T449 388V45ZM132 147Q132 98 155 75T215 52Q250 52 292 73T375 132L369 111V245L378 236H259Q188 236 160 215T132 147ZM268 619Q238 619 214 630T177 663T163 714Q163 743 176 765T214 799T270 812Q301 812 324 801T361
768T375 717Q375 688 362 666T324 632T268 619ZM268 660Q294 660 308 676T322 716Q322 740 309 755T269 771Q243 771 230 755T216 715Q216 691 229 676T268 660Z" />
<glyph unicode="&#xe6;" horiz-adv-x="868" d="M85 379L77 499Q134 519 183 528T271 537Q340 537 379 510T424 429L429 408L421 414Q449 473 499 505T614 537Q711 537 764 475T818 301Q818 282 817 268T814 242H443L452 263L453 247Q454 157 498 105T616 53Q697
53 787 113L816 67Q762 30 707 11T598 -9Q532 -9 482 22T405 111L427 110Q384 49 326 20T211 -10Q168 -10 132 7T73 58T51 141Q51 220 98 259T244 299H381L371 284V374Q371 426 344 451T262 477Q236 477 205 471T137 453L147 466L137 379H85ZM388 126Q379 153 375
185T371 260L381 242H259Q191 242 162 224T132 152Q132 102 162 76T235 50Q275 50 317 72T393 138L388 126ZM452 283L443 299H745L735 286Q737 383 705 430T607 478Q537 478 496 427T452 283Z" />
<glyph unicode="&#xe7;" horiz-adv-x="513" d="M272 -9Q208 -9 157 22T76 114T46 258Q46 331 66 383T122 470T202 520T297 537Q337 537 382 526T462 496L458 371H404L391 465L399 456Q374 468 346 473T296 478Q244 478 207 452T149 377T129 263Q129 195 150 148T207
77T290 53Q326 53 366 68T449 113L477 69Q425 29 373 10T272 -9ZM283 -233Q261 -233 238 -228T192 -213L210 -171Q227 -177 246 -181T283 -185Q308 -185 325 -175T342 -144Q342 -129 330 -119T295 -103T241 -97L247 0H298V-58Q354 -63 378 -85T403 -141Q403 -172
387 -192T343 -223T283 -233Z" />
<glyph unicode="&#xe8;" horiz-adv-x="548" d="M276 -9Q209 -9 158 21T77 111T48 255Q48 342 78 405T163 502T292 537Q362 537 407 508T475 426T498 307Q498 296 497 285T494 258H109V315H424L415 309Q416 354 404 392T363 453T286 476Q235 476 200 449T148 375T131
266Q131 200 150 153T205 79T295 53Q332 53 376 67T467 112L496 67Q440 29 384 10T276 -9ZM218 805L396 662L365 620L172 745L218 805Z" />
<glyph unicode="&#xe9;" horiz-adv-x="548" d="M276 -9Q209 -9 158 21T77 111T48 255Q48 342 78 405T163 502T292 537Q362 537 407 508T475 426T498 307Q498 296 497 285T494 258H109V315H424L415 309Q416 354 404 392T363 453T286 476Q235 476 200 449T148 375T131
266Q131 200 150 153T205 79T295 53Q332 53 376 67T467 112L496 67Q440 29 384 10T276 -9ZM225 620L196 661L378 804L423 743L225 620Z" />
<glyph unicode="&#xea;" horiz-adv-x="548" d="M276 -9Q209 -9 158 21T77 111T48 255Q48 342 78 405T163 502T292 537Q362 537 407 508T475 426T498 307Q498 296 497 285T494 258H109V315H424L415 309Q416 354 404 392T363 453T286 476Q235 476 200 449T148 375T131
266Q131 200 150 153T205 79T295 53Q332 53 376 67T467 112L496 67Q440 29 384 10T276 -9ZM153 628L124 661L260 789L307 793L449 661L420 628L258 746L311 745L153 628Z" />
<glyph unicode="&#xeb;" horiz-adv-x="548" d="M276 -9Q209 -9 158 21T77 111T48 255Q48 342 78 405T163 502T292 537Q362 537 407 508T475 426T498 307Q498 296 497 285T494 258H109V315H424L415 309Q416 354 404 392T363 453T286 476Q235 476 200 449T148 375T131
266Q131 200 150 153T205 79T295 53Q332 53 376 67T467 112L496 67Q440 29 384 10T276 -9ZM384 643Q362 643 350 657T336 695Q336 719 350 733T384 747Q406 747 418 733T431 695Q431 671 417 657T384 643ZM185 643Q163 643 151 657T138 695Q138 719 151 733T185
747Q207 747 220 733T233 695Q233 671 219 657T185 643Z" />
<glyph unicode="&#xec;" horiz-adv-x="298" d="M196 51L187 62L274 43V0H38V43L125 62L116 51V473L124 464L38 482V525L196 531V51ZM324 805L502 662L471 620L278 745L324 805Z" />
<glyph unicode="&#xed;" horiz-adv-x="298" d="M196 51L187 62L274 43V0H38V43L125 62L116 51V473L124 464L38 482V525L196 531V51ZM348 620L319 661L501 804L546 743L348 620Z" />
<glyph unicode="&#xee;" horiz-adv-x="298" d="M39 628L8 661L124 789L171 793L294 661L262 628L122 746L175 745L39 628ZM196 51L187 62L274 43V0H38V43L125 62L116 51V473L124 464L38 482V525L196 531V51Z" />
<glyph unicode="&#xef;" horiz-adv-x="298" d="M238 643Q217 643 205 657T192 695Q192 719 206 733T238 747Q259 747 271 733T284 695Q284 671 270 657T238 643ZM51 643Q30 643 18 657T6 695Q5 719 19 733T51 747Q72 747 84 733T97 695Q97 671 83 657T51 643ZM196
51L187 62L274 43V0H38V43L125 62L116 51V473L124 464L38 482V525L196 531V51Z" />
<glyph unicode="&#xf0;" horiz-adv-x="585" d="M274 -9Q200 -9 149 22T72 109T46 242Q46 327 75 387T157 480T276 513Q338 513 384 484T457 400L449 403Q435 500 395 570T290 678T135 718L142 777Q243 777 315 738T435 634T504 485T527 314Q527 238 511 178T462
76T383 13T274 -9ZM279 50Q330 50 367 76T424 151T444 266Q444 358 405 407T292 457Q242 457 206 433T149 362T129 247Q129 150 169 100T279 50ZM221 581L194 618L445 778L472 741L221 581Z" />
<glyph unicode="&#xf1;" horiz-adv-x="633" d="M38 0V43L128 63L116 48V478L128 463L38 482V525L178 532L189 434L178 438Q228 489 282 513T386 537Q452 537 495 497T538 371V48L528 62L616 43V0H383V43L470 62L458 47V354Q458 416 430 445T355 474Q318 474 275
454T189 392L196 408V47L186 61L271 43V0H38ZM396 649Q369 649 347 661T303 686T259 699Q241 699 226 688T197 651L159 667Q177 715 201 737T257 760Q284 760 306 748T350 723T394 710Q412 710 427 722T457 759L494 743Q476 695 452 672T396 649Z" />
<glyph unicode="&#xf2;" horiz-adv-x="575" d="M294 537Q404 537 466 468T529 273Q529 188 499 125T412 26T277 -9Q169 -9 108 58T47 253Q47 341 76 404T161 502T294 537ZM290 478Q213 478 172 420T131 257Q131 154 170 102T282 50Q335 50 371 76T426 152T445
269Q445 371 405 424T290 478ZM221 805L399 662L368 620L175 745L221 805Z" />
<glyph unicode="&#xf3;" horiz-adv-x="575" d="M294 537Q404 537 466 468T529 273Q529 188 499 125T412 26T277 -9Q169 -9 108 58T47 253Q47 341 76 404T161 502T294 537ZM290 478Q213 478 172 420T131 257Q131 154 170 102T282 50Q335 50 371 76T426 152T445
269Q445 371 405 424T290 478ZM228 620L199 661L381 804L426 743L228 620Z" />
<glyph unicode="&#xf4;" horiz-adv-x="575" d="M294 537Q404 537 466 468T529 273Q529 188 499 125T412 26T277 -9Q169 -9 108 58T47 253Q47 341 76 404T161 502T294 537ZM290 478Q213 478 172 420T131 257Q131 154 170 102T282 50Q335 50 371 76T426 152T445
269Q445 371 405 424T290 478ZM155 628L126 661L262 789L309 793L451 661L422 628L260 746L313 745L155 628Z" />
<glyph unicode="&#xf5;" horiz-adv-x="575" d="M294 537Q404 537 466 468T529 273Q529 188 499 125T412 26T277 -9Q169 -9 108 58T47 253Q47 341 76 404T161 502T294 537ZM290 478Q213 478 172 420T131 257Q131 154 170 102T282 50Q335 50 371 76T426 152T445
269Q445 371 405 424T290 478ZM357 649Q330 649 308 661T264 686T220 699Q202 699 187 688T158 651L120 667Q138 715 162 737T218 760Q245 760 267 748T311 723T355 710Q373 710 388 722T418 759L455 743Q437 695 413 672T357 649Z" />
<glyph unicode="&#xf6;" horiz-adv-x="575" d="M294 537Q404 537 466 468T529 273Q529 188 499 125T412 26T277 -9Q169 -9 108 58T47 253Q47 341 76 404T161 502T294 537ZM290 478Q213 478 172 420T131 257Q131 154 170 102T282 50Q335 50 371 76T426 152T445
269Q445 371 405 424T290 478ZM387 643Q365 643 353 657T339 695Q339 719 353 733T387 747Q409 747 421 733T434 695Q434 671 420 657T387 643ZM188 643Q166 643 154 657T141 695Q141 719 154 733T188 747Q210 747 223 733T236 695Q236 671 222 657T188 643Z" />
<glyph unicode="&#xf7;" horiz-adv-x="551" d="M499 379V320H52V379H499ZM223 179Q223 203 239 217T276 231Q300 231 314 217T328 179Q328 155 313 141T276 127Q252 127 238 141T223 179ZM223 523Q223 547 239 561T276 575Q300 575 314 561T328 523Q328 499 313
485T276 471Q252 471 238 485T223 523Z" />
<glyph unicode="&#xf8;" horiz-adv-x="578" d="M478 611L521 586L446 465L434 453L187 52L182 36L108 -84L65 -58L139 62L152 75L402 480L406 494L478 611ZM296 537Q405 537 467 468T530 273Q530 188 500 125T414 26T279 -9Q171 -9 110 58T49 253Q49 341 78 404T163
502T296 537ZM292 478Q215 478 174 420T132 257Q132 154 171 102T284 50Q337 50 373 76T428 152T447 269Q447 371 407 424T292 478Z" />
<glyph unicode="&#xf9;" horiz-adv-x="620" d="M247 -9Q181 -9 138 32T95 158V477L105 463L16 482V525L175 531V172Q175 112 203 83T278 54Q315 54 358 74T443 136L437 118V479L447 463L358 482V525L517 532V49L505 62L595 45V1L455 -5L443 94L454 90Q405 39 351
15T247 -9ZM232 805L410 662L379 620L186 745L232 805Z" />
<glyph unicode="&#xfa;" horiz-adv-x="620" d="M247 -9Q181 -9 138 32T95 158V477L105 463L16 482V525L175 531V172Q175 112 203 83T278 54Q315 54 358 74T443 136L437 118V479L447 463L358 482V525L517 532V49L505 62L595 45V1L455 -5L443 94L454 90Q405 39 351
15T247 -9ZM240 620L211 661L393 804L438 743L240 620Z" />
<glyph unicode="&#xfb;" horiz-adv-x="620" d="M247 -9Q181 -9 138 32T95 158V477L105 463L16 482V525L175 531V172Q175 112 203 83T278 54Q315 54 358 74T443 136L437 118V479L447 463L358 482V525L517 532V49L505 62L595 45V1L455 -5L443 94L454 90Q405 39 351
15T247 -9ZM167 628L138 661L274 789L321 793L463 661L434 628L272 746L325 745L167 628Z" />
<glyph unicode="&#xfc;" horiz-adv-x="620" d="M247 -9Q181 -9 138 32T95 158V477L105 463L16 482V525L175 531V172Q175 112 203 83T278 54Q315 54 358 74T443 136L437 118V479L447 463L358 482V525L517 532V49L505 62L595 45V1L455 -5L443 94L454 90Q405 39 351
15T247 -9ZM398 643Q376 643 364 657T350 695Q350 719 364 733T398 747Q420 747 432 733T445 695Q445 671 431 657T398 643ZM199 643Q177 643 165 657T152 695Q152 719 165 733T199 747Q221 747 234 733T247 695Q247 671 233 657T199 643Z" />
<glyph unicode="&#xfd;" horiz-adv-x="529" d="M15 -234L22 -175Q34 -177 44 -178T64 -179Q113 -179 143 -157T195 -89T238 23L235 -7L48 480L59 471L-6 482V525L213 532V488L123 473L129 482L278 57L260 61L403 480L409 471L321 482V525L533 532V488L463 472L477
481L301 -2Q283 -52 264 -95T219 -170T158 -221T71 -239Q48 -239 15 -234ZM204 620L175 661L357 804L402 743L204 620Z" />
<glyph unicode="&#xfe;" horiz-adv-x="581" d="M12 -230V-187L103 -166L90 -182V717L103 701L12 722V765L170 772V453L153 451Q199 494 245 515T336 537Q393 537 437 506T507 417T533 273Q533 181 502 118T413 23T279 -10Q251 -10 221 -5T158 8L170 17V-182L160
-167L262 -187V-230H12ZM270 50Q358 50 404 107T450 265Q450 331 432 378T382 450T308 476Q273 476 236 458T160 401L170 421V55L159 69Q220 50 270 50Z" />
<glyph unicode="&#xff;" horiz-adv-x="529" d="M15 -234L22 -175Q34 -177 44 -178T64 -179Q113 -179 143 -157T195 -89T238 23L235 -7L48 480L59 471L-6 482V525L213 532V488L123 473L129 482L278 57L260 61L403 480L409 471L321 482V525L533 532V488L463 472L477
481L301 -2Q283 -52 264 -95T219 -170T158 -221T71 -239Q48 -239 15 -234ZM362 643Q340 643 328 657T314 695Q314 719 328 733T362 747Q384 747 396 733T409 695Q409 671 395 657T362 643ZM163 643Q141 643 129 657T116 695Q116 719 129 733T163 747Q185 747 198
733T211 695Q211 671 197 657T163 643Z" />
<glyph unicode="&#x2013;" horiz-adv-x="618" d="M542 325V262H76V325H542Z" />
<glyph unicode="&#x2014;" horiz-adv-x="868" d="M792 322V259H76V322H792Z" />
<glyph unicode="&#x2018;" horiz-adv-x="202" d="M140 594Q140 570 126 558T93 545Q74 545 59 559T43 601Q43 628 62 675T129 781L158 761Q134 717 126 694T118 658Q118 647 123 638T134 619T140 594Z" />
<glyph unicode="&#x2019;" horiz-adv-x="202" d="M61 731Q61 756 75 768T108 781Q127 781 143 767T159 725Q159 698 140 651T72 545L43 564Q68 609 75 633T83 668Q83 680 78 688T67 706T61 731Z" />
<glyph unicode="&#x201a;" horiz-adv-x="202" d="M62 39Q62 64 76 76T109 89Q128 89 144 75T160 33Q160 6 141 -41T73 -147L44 -128Q69 -83 76 -59T84 -24Q84 -12 79 -4T68 14T62 39Z" />
<glyph unicode="&#x201c;" horiz-adv-x="355" d="M140 609Q140 584 126 572T93 560Q74 560 59 573T43 615Q43 643 62 689T129 795L158 776Q134 732 126 708T118 672Q118 661 123 653T134 634T140 609ZM293 609Q293 584 279 572T246 560Q227 560 211 573T195 615Q195
643 215 689T282 795L311 776Q287 732 279 708T271 672Q271 661 276 653T287 634T293 609Z" />
<glyph unicode="&#x201d;" horiz-adv-x="355" d="M215 731Q215 756 229 768T262 781Q281 781 297 767T313 725Q313 698 294 651T226 545L197 564Q222 609 229 633T237 668Q237 680 232 688T221 706T215 731ZM62 731Q62 756 76 768T109 781Q128 781 144 767T160
725Q160 698 141 651T73 545L44 564Q69 609 76 633T84 668Q84 680 79 688T68 706T62 731Z" />
<glyph unicode="&#x201e;" horiz-adv-x="355" d="M215 39Q215 64 229 76T262 89Q281 89 297 75T313 33Q313 6 294 -41T226 -147L197 -128Q222 -83 229 -59T237 -24Q237 -12 232 -4T221 14T215 39ZM62 39Q62 64 76 76T109 89Q128 89 144 75T160 33Q160 6 141 -41T73
-147L44 -128Q69 -83 76 -59T84 -24Q84 -12 79 -4T68 14T62 39Z" />
<glyph unicode="&#x2022;" horiz-adv-x="379" d="M75 313Q75 348 91 373T133 413T190 428Q225 428 250 414T290 374T304 313Q304 279 288 253T246 213T190 199Q137 199 106 230T75 313Z" />
<glyph unicode="&#x2039;" horiz-adv-x="309" d="M209 64L56 247V293L210 476L249 447L112 254V288L248 95L209 64Z" />
<glyph unicode="&#x203a;" horiz-adv-x="309" d="M100 476L253 293V247L100 64L61 93L197 286V252L61 445L100 476Z" />
</font>
</defs>
</svg>
