<?xml version="1.0" standalone="no"?>
<!DOCTYPE svg PUBLIC "-//W3C//DTD SVG 1.1//EN" "http://www.w3.org/Graphics/SVG/1.1/DTD/svg11.dtd">
<svg xmlns="http://www.w3.org/2000/svg">
<defs >
<font id="Cabin" horiz-adv-x="1054" ><font-face
    font-family="Cabin"
    units-per-em="2000"
    panose-1="0 0 0 0 0 0 0 0 0 0"
    ascent="1930"
    descent="-500"
    alphabetic="0" />
<glyph unicode=" " horiz-adv-x="450" />
<glyph unicode="!" horiz-adv-x="500" d="M148 414V472L126 1400H374L352 472V414H148ZM120 0V272H380V0H120Z" />
<glyph unicode="&quot;" horiz-adv-x="708" d="M100 1000L60 1400H308L268 1000H100ZM440 1000L400 1400H648L608 1000H440Z" />
<glyph unicode="#" horiz-adv-x="1420" d="M130 -22L298 422H62L154 630H378L452 828H210L274 1024H526L674 1400H862L718 1024H946L1090 1400H1278L1134 1024H1356L1288 828H1060L986 630H1236L1140 422H906L738 -22H546L714 422H490L318 -22H130ZM566 630H794L872
828H644L566 630Z" />
<glyph unicode="$" horiz-adv-x="1160" d="M560 -28Q475 -28 385 -12T218 28T96 74L126 346Q196 312 272 283T428 236T590 218Q692 218 754 258T816 380Q816 443 781 481T674 550T490 620Q378 659 289 708T148 834T96 1028Q96 1144 153 1234T323 1376T606 1428Q734
1428 850 1400T1048 1338L1022 1076Q904 1129 801 1156T590 1184Q478 1184 417 1147T356 1036Q356 977 390 941T487 880T638 826Q790 778 893 721T1049 582T1102 380Q1102 320 1083 250T1008 116T845 13T560 -28ZM530 -288L550 68H706L726 -288H530ZM550 1346L530
1688H726L706 1346H550Z" />
<glyph unicode="%" horiz-adv-x="1838" d="M434 628Q325 628 249 680T132 824T92 1034Q92 1213 186 1320T434 1428Q589 1428 682 1321T776 1034Q776 916 736 825T619 681T434 628ZM434 802Q500 802 536 862T572 1034Q572 1145 535 1199T434 1254Q371 1254 334
1200T296 1034Q296 923 330 863T434 802ZM408 0L1234 1400H1432L608 0H408ZM1404 -28Q1295 -28 1219 24T1102 168T1062 378Q1062 557 1156 664T1404 772Q1559 772 1652 665T1746 378Q1746 260 1706 169T1589 25T1404 -28ZM1404 146Q1470 146 1506 206T1542 378Q1542
489 1505 543T1404 598Q1341 598 1304 544T1266 378Q1266 267 1300 207T1404 146Z" />
<glyph unicode="&amp;" horiz-adv-x="1254" d="M530 -48Q368 -48 265 6T113 148T64 336Q64 428 98 500T187 629T308 734Q248 809 203 895T158 1076Q158 1180 213 1254T357 1367T546 1406Q708 1406 795 1326T882 1118Q882 1030 841 965T734 846T598 742L878 422Q885
457 888 493T894 566T896 637T898 704H1136Q1136 647 1129 569T1101 406T1038 240L1248 0H960L898 68Q832 16 742 -16T530 -48ZM564 142Q635 142 685 160T772 210L426 600Q380 551 351 492T322 358Q322 306 342 257T414 175T564 142ZM494 864Q542 898 580 933T641
1007T664 1092Q664 1152 631 1180T542 1208Q482 1208 442 1173T402 1066Q402 1017 425 970T494 864Z" />
<glyph unicode="&apos;" horiz-adv-x="368" d="M100 1000L60 1400H308L268 1000H100Z" />
<glyph unicode="(" horiz-adv-x="656" d="M388 -272Q317 -163 256 -34T158 254T120 614Q120 814 157 973T256 1262T388 1500H600Q504 1337 436 1123T368 614Q368 320 436 106T600 -272H388Z" />
<glyph unicode=")" horiz-adv-x="656" d="M56 -272Q151 -108 219 106T288 614Q288 908 220 1122T56 1500H268Q339 1391 400 1262T498 974T536 614Q536 414 499 255T400 -34T268 -272H56Z" />
<glyph unicode="*" horiz-adv-x="870" d="M60 974L314 1122L60 1270L144 1396L370 1240L360 1510H510L500 1240L726 1396L810 1270L556 1122L810 974L726 848L500 1004L510 724H360L370 1004L144 848L60 974Z" />
<glyph unicode="+" horiz-adv-x="900" d="M348 192V460H80V648H348V916H552V648H820V460H552V192H348Z" />
<glyph unicode="," horiz-adv-x="464" d="M240 -240H124L210 0H108V272H368V24L240 -240Z" />
<glyph unicode="-" horiz-adv-x="836" d="M108 528V716H728V528H108Z" />
<glyph unicode="." horiz-adv-x="444" d="M92 0V272H352V0H92Z" />
<glyph unicode="/" horiz-adv-x="718" d="M-16 -170L520 1400H770L234 -170H-16Z" />
<glyph unicode="0" horiz-adv-x="1412" d="M706 -28Q529 -28 397 64T190 323T116 712Q116 924 190 1085T396 1337T706 1428Q884 1428 1016 1337T1222 1085T1296 712Q1296 490 1223 324T1017 65T706 -28ZM706 202Q801 202 876 254T996 418T1040 712Q1040 961 945
1081T706 1202Q564 1202 468 1083T372 712Q372 533 416 421T535 255T706 202Z" />
<glyph unicode="1" horiz-adv-x="738" d="M288 0V1038Q249 1013 206 994T112 966L90 1182Q133 1191 186 1225T284 1305T348 1400H544V0H288Z" />
<glyph unicode="2" horiz-adv-x="1058" d="M88 0L456 566Q529 678 573 755T638 890T658 1004Q658 1090 610 1139T474 1188Q369 1188 286 1136T136 1018L104 1276Q194 1348 295 1388T526 1428Q653 1428 737 1376T864 1238T906 1050Q906 971 884 892T812 716T676
490L512 240H956V0H88Z" />
<glyph unicode="3" horiz-adv-x="1078" d="M462 -28Q336 -28 233 1T68 62L130 278Q196 245 282 219T462 192Q572 192 638 242T704 398Q704 503 640 556T446 610H304V850H444Q552 850 609 900T666 1038Q666 1115 614 1161T462 1208Q377 1208 302 1182T152 1114L114
1340Q183 1376 278 1402T488 1428Q625 1428 719 1382T861 1254T910 1070Q910 935 838 841T634 714L632 760Q778 736 869 643T960 398Q960 261 898 166T723 22T462 -28Z" />
<glyph unicode="4" horiz-adv-x="1242" d="M712 0V320H14L784 1400H958V528H1138V320H958V0H712ZM350 444L302 528H712V1124L778 1052L350 444Z" />
<glyph unicode="5" horiz-adv-x="1074" d="M482 -26Q367 -26 271 4T98 86L158 318Q232 272 308 243T478 214Q592 214 659 274T726 436Q726 546 650 608T430 670Q364 670 299 662T168 642L258 1400H918L902 1152H450L402 764L306 852Q354 866 406 873T520 880Q654
880 756 828T916 676T974 436Q974 292 911 189T736 30T482 -26Z" />
<glyph unicode="6" horiz-adv-x="1124" d="M580 -28Q434 -28 325 37T156 219T96 494Q96 663 155 809T310 1076T518 1286T736 1428L914 1288Q861 1262 787 1214T633 1100T486 950T375 770T332 562L260 650Q313 736 401 789T630 842Q747 842 840 788T986 639T1040
420Q1040 287 984 186T825 29T580 -28ZM584 184Q680 184 744 250T808 410Q808 505 744 567T584 630Q487 630 424 568T360 410Q360 316 423 250T584 184Z" />
<glyph unicode="7" horiz-adv-x="1020" d="M154 0L678 1258L750 1160H86V1400H1006L422 0H154Z" />
<glyph unicode="8" horiz-adv-x="1208" d="M604 -28Q452 -28 342 26T172 178T112 402Q112 528 174 623T346 772T604 826Q751 826 862 773T1034 624T1096 402Q1096 275 1036 178T866 27T604 -28ZM605 192Q726 192 793 254T860 418Q860 514 793 577T604 640Q483
640 416 577T348 418Q348 316 415 254T605 192ZM604 680Q485 680 388 727T234 857T176 1050Q176 1142 219 1229T357 1372T604 1428Q756 1428 848 1372T982 1229T1024 1050Q1024 941 973 858T827 727T604 680ZM604 866Q702 866 751 919T800 1048Q800 1128 751 1178T604
1228Q507 1228 454 1178T400 1048Q400 973 453 920T604 866Z" />
<glyph unicode="9" horiz-adv-x="1124" d="M420 0L242 140Q294 165 366 211T514 320T656 464T763 638T804 838L876 750Q824 665 736 612T506 558Q389 558 297 612T150 761T96 980Q96 1113 152 1214T311 1371T556 1428Q702 1428 811 1363T980 1181T1040 906Q1040
743 983 601T833 342T632 139T420 0ZM552 778Q648 778 710 838T772 990Q772 1082 710 1145T552 1208Q458 1208 395 1145T332 990Q332 899 395 839T552 778Z" />
<glyph unicode=":" horiz-adv-x="444" d="M92 728V1000H352V728H92ZM92 0V272H352V0H92Z" />
<glyph unicode=";" horiz-adv-x="460" d="M240 -240H124L210 0H108V272H368V24L240 -240ZM108 728V1000H368V728H108Z" />
<glyph unicode="&lt;" horiz-adv-x="822" d="M786 134L80 450V658L786 976V768L288 554L786 342V134Z" />
<glyph unicode="=" horiz-adv-x="900" d="M80 624V808H820V624H80ZM80 300V484H820V300H80Z" />
<glyph unicode="&gt;" horiz-adv-x="822" d="M36 134L742 450V658L36 976V768L534 554L36 342V134Z" />
<glyph unicode="?" horiz-adv-x="934" d="M248 414V434Q248 512 271 570T331 676T412 766Q487 841 530 896T574 1030Q574 1078 552 1112T490 1164T396 1182Q315 1182 246 1161T108 1106L80 1342Q158 1380 245 1404T456 1428Q580 1428 669 1382T806 1256T854 1074Q854
1004 830 946T764 833T664 722Q603 661 557 597T510 446V414H248ZM248 0V272H508V0H248Z" />
<glyph unicode="@" horiz-adv-x="1444" d="M592 -174Q364 -174 230 -39T96 340Q96 504 156 643T321 886T563 1048T850 1106Q1086 1106 1217 969T1348 600Q1348 499 1320 405T1230 249T1064 188Q1027 188 1003 205T978 290Q978 379 1014 488T1088 758Q1051 797
990 830T846 864Q752 864 662 816T498 687T380 507T336 306Q336 248 353 197T411 113T518 80Q576 80 643 106T773 185T878 312Q877 302 875 284T872 242Q872 210 882 173T918 110T988 84Q1020 84 1062 99T1148 138T1226 192L1232 186Q1167 79 1068 -2T848 -128T592
-174ZM584 212Q538 212 517 250T496 346Q496 428 532 499T624 625T745 711T864 742Q881 742 911 736T954 698Q940 618 900 533T805 375T693 257T584 212Z" />
<glyph unicode="A" horiz-adv-x="1250" d="M918 332H332V556H918V332ZM592 1150H658L254 0H6L504 1400H746L1244 0H996L592 1150Z" />
<glyph unicode="B" horiz-adv-x="1252" d="M154 0V1400H682Q885 1400 983 1314T1082 1062Q1082 939 1027 857T860 736V784Q1028 748 1111 652T1194 398Q1194 209 1072 105T738 0H154ZM410 228H700Q805 228 867 271T930 426Q930 540 864 581T700 622H410V228ZM410
850H644Q737 850 783 888T830 1010Q830 1097 784 1134T644 1172H410V850Z" />
<glyph unicode="C" horiz-adv-x="1218" d="M788 -28Q575 -28 413 62T161 316T70 700Q70 920 163 1083T421 1337T796 1428Q907 1428 999 1405T1158 1346L1130 1102Q1054 1137 974 1159T794 1182Q647 1182 549 1120T400 949T350 700Q350 560 399 451T545 280T788
218Q889 218 969 240T1130 298L1158 54Q1079 17 985 -5T788 -28Z" />
<glyph unicode="D" horiz-adv-x="1440" d="M154 0V1400H678Q878 1400 1034 1317T1279 1077T1368 700Q1368 480 1279 324T1034 84T678 0H154ZM410 228H678Q814 228 905 285T1042 448T1088 700Q1088 846 1042 952T905 1115T678 1172H410V228Z" />
<glyph unicode="E" horiz-adv-x="1136" d="M154 0V1400H1050V1152H416V854H908V606H416V248H1070V0H154Z" />
<glyph unicode="F" horiz-adv-x="1050" d="M154 0V1400H1016V1152H410V854H878V606H410V0H154Z" />
<glyph unicode="G" horiz-adv-x="1328" d="M776 -28Q554 -28 396 62T154 317T70 702Q70 921 163 1084T422 1338T802 1428Q913 1428 1014 1405T1188 1346L1160 1102Q1085 1137 995 1159T802 1182Q646 1182 546 1120T398 950T350 706Q350 563 398 453T544 281T786
218Q830 218 878 224T978 240V490H786V702H1234V78Q1161 35 1041 4T776 -28Z" />
<glyph unicode="H" horiz-adv-x="1460" d="M154 0V1400H410V846H1050V1400H1306V0H1050V606H410V0H154Z" />
<glyph unicode="I" horiz-adv-x="564" d="M154 0V1400H410V0H154Z" />
<glyph unicode="J" horiz-adv-x="564" d="M14 -344L-8 -124Q78 -124 116 -88T154 48V1400H410V-8Q410 -191 323 -267T86 -344H14Z" />
<glyph unicode="K" horiz-adv-x="1254" d="M948 0L430 740L948 1400H1248L726 740L1248 0H948ZM154 0V1400H410V0H154Z" />
<glyph unicode="L" horiz-adv-x="1000" d="M154 0V1400H410V228H986V0H154Z" />
<glyph unicode="M" horiz-adv-x="1666" d="M88 0L282 1400H492L834 762L1174 1400H1384L1578 0H1312L1178 1052L1248 1038L834 294L418 1036L488 1050L354 0H88Z" />
<glyph unicode="N" horiz-adv-x="1414" d="M154 0V1400H406L1004 496V1400H1260V0H1050L410 960V0H154Z" />
<glyph unicode="O" horiz-adv-x="1520" d="M760 -28Q560 -28 404 62T159 316T70 700Q70 920 159 1083T404 1337T760 1428Q960 1428 1116 1338T1361 1084T1450 700Q1450 480 1361 317T1116 63T760 -28ZM760 220Q900 220 994 282T1135 452T1182 700Q1182 839 1135
947T994 1118T760 1180Q620 1180 526 1118T385 948T338 700Q338 561 385 453T526 282T760 220Z" />
<glyph unicode="P" horiz-adv-x="1192" d="M154 0V1400H652Q813 1400 924 1352T1092 1204T1150 948Q1150 790 1093 688T926 536T658 486H410V0H154ZM410 700H628Q759 700 824 759T890 944Q890 1070 824 1128T622 1186H410V700Z" />
<glyph unicode="Q" horiz-adv-x="1520" d="M802 426L960 596L1448 132L1290 -38L802 426ZM760 -28Q560 -28 404 62T159 316T70 700Q70 920 159 1083T404 1337T760 1428Q960 1428 1116 1338T1361 1084T1450 700Q1450 480 1361 317T1116 63T760 -28ZM760 220Q900
220 994 282T1135 452T1182 700Q1182 839 1135 947T994 1118T760 1180Q620 1180 526 1118T385 948T338 700Q338 561 385 453T526 282T760 220Z" />
<glyph unicode="R" horiz-adv-x="1252" d="M154 0V1400H666Q811 1400 919 1354T1088 1214T1148 976Q1148 822 1083 732T910 588L1226 0H940L670 520Q667 520 665 520T660 520H410V0H154ZM410 734H598Q756 734 818 798T880 962Q880 1067 819 1126T608 1186H410V734Z" />
<glyph unicode="S" horiz-adv-x="1160" d="M560 -28Q475 -28 385 -12T218 28T96 74L126 346Q196 312 272 283T428 236T590 218Q692 218 754 258T816 380Q816 443 781 481T674 550T490 620Q378 659 289 708T148 834T96 1028Q96 1144 153 1234T323 1376T606 1428Q734
1428 850 1400T1048 1338L1022 1076Q904 1129 801 1156T590 1184Q478 1184 417 1147T356 1036Q356 977 390 941T487 880T638 826Q790 778 893 721T1049 582T1102 380Q1102 320 1083 250T1008 116T845 13T560 -28Z" />
<glyph unicode="T" horiz-adv-x="1108" d="M426 0V1152H30V1400H1078V1152H682V0H426Z" />
<glyph unicode="U" horiz-adv-x="1436" d="M718 -28Q521 -28 393 50T201 269T138 600V1400H394V666Q394 566 407 484T454 342T553 250T718 218Q819 218 883 250T981 341T1029 483T1042 666V1400H1298V600Q1298 410 1235 269T1044 50T718 -28Z" />
<glyph unicode="V" horiz-adv-x="1238" d="M498 0L0 1400H258L644 296H592L980 1400H1238L740 0H498Z" />
<glyph unicode="W" horiz-adv-x="1926" d="M414 0L20 1400H286L566 406L878 1400H1056L1380 432L1648 1400H1914L1504 0H1278L966 934L656 0H414Z" />
<glyph unicode="X" horiz-adv-x="1252" d="M-4 0L486 718L20 1400H304L626 924L948 1400H1232L766 718L1256 0H972L626 510L280 0H-4Z" />
<glyph unicode="Y" horiz-adv-x="1208" d="M476 0V566L-16 1400H264L664 690H544L944 1400H1224L732 566V0H476Z" />
<glyph unicode="Z" horiz-adv-x="1096" d="M16 0L732 1252L776 1172H106V1400H1082L366 148L322 228H1072V0H16Z" />
<glyph unicode="[" horiz-adv-x="670" d="M134 -272V1500H648V1282H360V-54H648V-272H134Z" />
<glyph unicode="\" horiz-adv-x="678" d="M480 -170L-16 1400H234L730 -170H480Z" />
<glyph unicode="]" horiz-adv-x="670" d="M22 -272V-54H310V1282H22V1500H536V-272H22Z" />
<glyph unicode="^" horiz-adv-x="1024" d="M100 830V1094L512 1518L924 1094V830L512 1204L100 830Z" />
<glyph unicode="_" horiz-adv-x="1116" d="M-2 -260V-72H1118V-260H-2Z" />
<glyph unicode="`" horiz-adv-x="954" d="M674 1140L280 1292V1522L674 1298V1140Z" />
<glyph unicode="a" horiz-adv-x="996" d="M332 -20Q252 -20 186 15T81 118T42 280Q42 365 81 425T185 526T325 590T474 625T604 638Q600 724 560 763T424 802Q357 802 294 784T150 726L128 928Q218 972 308 994T492 1016Q604 1016 685 976T810 848T854 614V344Q854
269 861 236T887 193T942 184H974L952 -20H862Q806 -20 763 -6T688 35T638 96Q589 41 506 11T332 -20ZM436 170Q469 170 518 187T606 242V470Q536 467 466 447T349 388T302 290Q302 229 334 200T436 170Z" />
<glyph unicode="b" horiz-adv-x="1142" d="M636 -20Q522 -20 439 17T284 118L358 170L346 0H114V1500H362V834L302 872Q368 940 449 978T636 1016Q783 1016 883 945T1034 756T1086 498Q1086 358 1035 240T883 51T636 -20ZM600 184Q674 184 726 224T805 334T832
498Q832 591 805 661T726 772T600 812Q513 812 458 772T377 662T350 498Q350 405 376 335T458 224T600 184Z" />
<glyph unicode="c" horiz-adv-x="910" d="M580 -20Q408 -20 292 50T116 238T56 498Q56 641 115 759T292 949T588 1020Q672 1020 740 1002T856 956L836 756Q790 780 733 796T612 812Q468 812 389 725T310 498Q310 365 391 275T610 184Q669 184 726 201T838 250L860
40Q808 13 735 -3T580 -20Z" />
<glyph unicode="d" horiz-adv-x="1142" d="M520 -20Q368 -20 265 51T109 240T56 498Q56 638 108 756T264 945T520 1016Q630 1016 706 980T840 886L780 834V1500H1028V0H794L782 170L854 118Q784 54 709 17T520 -20ZM556 184Q638 184 690 224T767 334T792 498Q792
591 767 661T690 772T556 812Q478 812 423 772T339 662T310 498Q310 405 339 335T423 224T556 184Z" />
<glyph unicode="e" horiz-adv-x="1030" d="M598 -20Q417 -20 297 52T116 244T56 506Q56 643 112 759T278 945T544 1016Q688 1016 784 957T928 800T976 582Q976 549 972 516T960 446H314Q328 353 372 296T481 211T620 184Q707 184 782 206T920 266L932 56Q875 26
790 3T598 -20ZM320 614H724Q724 659 707 704T651 781T544 812Q448 812 393 756T320 614Z" />
<glyph unicode="f" horiz-adv-x="680" d="M176 0V796H34L56 1000H176V1212Q176 1344 254 1422T480 1500Q528 1500 568 1495T642 1482L620 1282Q605 1287 587 1289T542 1292Q488 1292 456 1263T424 1168V1000H644V796H424V0H176Z" />
<glyph unicode="g" horiz-adv-x="1002" d="M512 -504Q372 -504 268 -470T106 -371T48 -218Q48 -143 89 -85T210 18Q170 42 146 78T122 160Q122 208 149 243T222 300Q146 354 107 438T68 622Q68 730 115 820T252 965T474 1020Q542 1020 599 1003T702 956Q732 973
789 986T916 1000Q933 1000 948 1000T980 1000L964 844Q942 844 920 844T874 844Q865 844 850 844T818 842Q848 796 863 739T878 622Q878 514 832 424T695 279T474 224Q446 224 420 228T368 238Q346 229 346 206Q346 179 379 165T482 140L654 118Q815 97 906 27T998
-172Q998 -272 941 -346T774 -462T512 -504ZM522 -316Q648 -316 713 -285T778 -190Q778 -133 733 -106T588 -64L369 -32Q320 -51 287 -84T254 -172Q254 -245 325 -280T522 -316ZM474 408Q563 408 608 466T654 622Q654 720 609 778T474 836Q384 836 338 778T292
622Q292 525 338 467T474 408Z" />
<glyph unicode="h" horiz-adv-x="1102" d="M114 0V1500H362V854L306 898Q369 942 443 979T620 1016Q752 1016 835 958T957 796T996 556V0H748V538Q748 678 703 745T556 812Q469 812 414 772T316 662L362 796V0H114Z" />
<glyph unicode="i" horiz-adv-x="480" d="M116 0V1000H364V0H116ZM116 1152V1400H364V1152H116Z" />
<glyph unicode="j" horiz-adv-x="480" d="M18 -484L-4 -280Q43 -280 69 -266T105 -216T116 -120V1000H364V-222Q364 -327 333 -383T242 -462T96 -484H18ZM116 1152V1400H364V1152H116Z" />
<glyph unicode="k" horiz-adv-x="970" d="M114 0V1500H362V590L672 1000H952L588 520L960 0H680L362 444V0H114Z" />
<glyph unicode="l" horiz-adv-x="526" d="M372 -20Q283 -20 227 15T143 110T116 242V1500H364V344Q364 264 373 231T409 191T484 184L462 -20H372Z" />
<glyph unicode="m" horiz-adv-x="1738" d="M116 0V1000H328L344 854L308 898Q365 943 444 979T630 1016Q710 1016 771 993T877 926T948 822L888 836Q936 922 1028 969T1238 1016Q1376 1016 1463 959T1591 799T1632 556V0H1384V538Q1384 678 1341 745T1196 812Q1146
812 1109 795T1047 744T1010 663T998 556V0H750V538Q750 631 731 692T669 782T558 812Q471 812 416 772T318 662L364 796V0H116Z" />
<glyph unicode="n" horiz-adv-x="1104" d="M116 0V1000H348L358 814L300 890Q357 938 436 977T620 1016Q812 1016 905 889T998 558V0H750V538Q750 678 704 745T552 812Q467 812 413 771T318 660L364 782V0H116Z" />
<glyph unicode="o" horiz-adv-x="1140" d="M570 -20Q407 -20 292 51T117 240T56 498Q56 639 116 758T292 948T570 1020Q733 1020 848 949T1023 758T1084 498Q1084 358 1024 240T848 51T570 -20ZM570 184Q695 184 762 271T830 498Q830 639 763 727T570 816Q446
816 378 728T310 498Q310 359 378 272T570 184Z" />
<glyph unicode="p" horiz-adv-x="1144" d="M116 -484V1000H316L364 834L290 860Q359 931 440 973T638 1016Q785 1016 885 945T1036 756T1088 498Q1088 358 1037 240T885 51T638 -20Q521 -20 448 12T300 114L364 164V-484H116ZM600 184Q711 184 772 271T834 498Q834
638 773 725T600 812Q514 812 459 772T378 662T352 498Q352 405 378 335T459 224T600 184Z" />
<glyph unicode="q" horiz-adv-x="1144" d="M780 -484V164L844 118Q780 52 704 16T516 -20Q366 -20 264 51T109 240T56 498Q56 638 108 756T263 945T516 1016Q632 1016 712 974T854 860L780 834L838 1000H1028V-484H780ZM556 184Q638 184 690 224T767 334T792 498Q792
638 736 725T556 812Q439 812 375 725T310 498Q310 359 374 272T556 184Z" />
<glyph unicode="r" horiz-adv-x="660" d="M116 0V1000H348L354 894Q392 936 461 978T612 1020Q636 1020 656 1016L638 772Q616 778 595 780T552 782Q489 782 437 753T364 682V0H116Z" />
<glyph unicode="s" horiz-adv-x="846" d="M400 -20Q301 -20 222 -1T62 54L84 266Q161 221 235 194T392 166Q466 166 505 190T544 266Q544 305 524 330T462 375T360 418Q268 452 204 492T106 588T72 728Q72 814 117 880T245 983T442 1020Q537 1020 612 999T752
942L730 730Q663 777 595 807T446 838Q382 838 347 812T312 738Q312 680 361 651T518 580Q588 553 639 524T725 460T775 381T792 278Q792 183 747 117T614 15T400 -20Z" />
<glyph unicode="t" horiz-adv-x="688" d="M442 -20Q348 -20 289 18T202 117T174 242V796H32L54 1000H174V1220L422 1246V1000H642V796H422V344Q422 268 431 235T472 193T574 184H642L620 -20H442Z" />
<glyph unicode="u" horiz-adv-x="1104" d="M530 -20Q374 -20 281 42T147 212T106 462V1000H354V462Q354 323 400 256T552 188Q636 188 691 228T784 340L740 214V1000H988V0H756L744 174L798 104Q762 58 685 19T530 -20Z" />
<glyph unicode="v" horiz-adv-x="992" d="M390 0L6 1000H250L496 308L742 1000H986L602 0H390Z" />
<glyph unicode="w" horiz-adv-x="1452" d="M312 0L20 1000H262L434 302L622 980H830L1016 302L1190 1000H1432L1140 0H932L726 652L520 0H312Z" />
<glyph unicode="x" horiz-adv-x="982" d="M20 0L352 500L20 1000H316L498 710L666 1000H962L630 500L962 0H666L484 290L316 0H20Z" />
<glyph unicode="y" horiz-adv-x="1074" d="M196 -484L418 66L2 1000H278L534 356L794 1000H1070L444 -484H196Z" />
<glyph unicode="z" horiz-adv-x="944" d="M36 0L578 880L606 790H82V1000H910L368 120L330 210H914V0H36Z" />
<glyph unicode="{" horiz-adv-x="676" d="M578 -272Q386 -272 301 -183T216 48Q216 107 224 181T232 320Q232 428 196 481T60 534V694Q159 694 195 747T232 908Q232 973 224 1047T216 1180Q216 1321 301 1410T578 1500H652V1282H598Q508 1282 459 1246T410 1120Q410
1059 418 984T426 848Q426 728 365 671T202 586V642Q304 617 365 559T426 380Q426 320 418 245T410 108Q410 18 459 -18T598 -54H652V-272H578Z" />
<glyph unicode="|" horiz-adv-x="448" d="M100 -420V1500H348V-420H100Z" />
<glyph unicode="}" horiz-adv-x="676" d="M24 -272V-54H78Q168 -54 217 -18T266 108Q266 170 258 245T250 380Q250 500 311 558T474 642V586Q372 612 311 670T250 848Q250 908 258 983T266 1120Q266 1210 217 1246T78 1282H24V1500H98Q290 1500 375 1411T460 1180Q460
1122 452 1048T444 908Q444 800 480 747T616 694V534Q517 534 481 481T444 320Q444 256 452 182T460 48Q460 -93 375 -182T98 -272H24Z" />
<glyph unicode="~" horiz-adv-x="930" d="M638 578Q580 578 531 602T434 650T332 674Q254 674 254 592H80Q85 721 139 789T292 858Q352 858 402 834T500 786T598 762Q676 762 676 844H850Q846 715 792 647T638 578Z" />
<glyph unicode="&#xa0;" horiz-adv-x="450" />
<glyph unicode="&#xa1;" horiz-adv-x="460" d="M148 586V528L126 -400H374L352 528V586H148ZM120 1000V728H380V1000H120Z" />
<glyph unicode="&#xa2;" horiz-adv-x="910" d="M580 -20Q408 -20 292 50T116 238T56 498Q56 641 115 759T292 949T588 1020Q672 1020 740 1002T856 956L836 756Q790 780 733 796T612 812Q468 812 389 725T310 498Q310 365 391 275T610 184Q669 184 726 201T838
250L860 40Q808 13 735 -3T580 -20ZM460 -288L480 68H636L656 -288H460ZM480 936L460 1278H656L636 936H480Z" />
<glyph unicode="&#xa3;" horiz-adv-x="1040" d="M96 0Q134 110 159 205T202 403T234 636L268 956Q292 1178 398 1303T718 1428Q790 1428 853 1411T978 1358L958 1096Q901 1138 848 1161T732 1184Q638 1184 587 1130T524 972L490 652Q476 522 459 430T415 260T346
98L276 240H988V0H96ZM80 624V800H864V624H80Z" />
<glyph unicode="&#xa4;" horiz-adv-x="1484" d="M742 1214Q899 1214 1020 1147T1209 963T1278 696Q1278 548 1211 431T1023 246T742 178Q579 178 459 246T272 432T206 696Q206 845 273 962T461 1146T742 1214ZM742 990Q652 990 589 953T493 850T460 696Q460 609
493 543T589 440T742 402Q832 402 895 439T991 543T1024 696Q1024 783 991 849T895 953T742 990ZM214 1340L506 1046L396 930L100 1228L214 1340ZM394 460L506 346L214 52L100 164L394 460ZM1084 464L1384 164L1270 52L970 354L1084 464ZM1270 1340L1384 1228L1096
938L982 1052L1270 1340Z" />
<glyph unicode="&#xa5;" horiz-adv-x="1208" d="M476 0V566L-16 1400H264L664 690H544L944 1400H1224L732 566V0H476ZM194 248V424H1014V248H194ZM194 528V704H1014V528H194Z" />
<glyph unicode="&#xa6;" horiz-adv-x="448" d="M100 684V1500H348V684H100ZM100 -420V396H348V-420H100Z" />
<glyph unicode="&#xa7;" horiz-adv-x="920" d="M414 -170Q332 -170 258 -144T128 -88L146 122Q206 82 285 52T428 22Q500 22 542 53T584 138Q584 193 548 229T454 292T331 347T209 415T115 514T78 664Q78 760 125 831T248 958Q220 982 191 1043T162 1188Q162 1273
201 1344T316 1457T506 1500Q589 1500 666 1474T792 1418L774 1208Q713 1249 633 1278T488 1308Q431 1308 384 1285T336 1208Q336 1159 372 1125T466 1062T589 1003T711 929T805 823T842 666Q842 609 823 555T766 454T670 372Q714 336 735 286T756 164Q756 89 727
12T623 -117T414 -170ZM568 462Q601 486 628 526T656 622Q656 679 622 719T521 795T358 874Q327 852 298 811T268 708Q268 653 301 612T401 536T568 462Z" />
<glyph unicode="&#xa8;" horiz-adv-x="996" d="M604 1182V1362H796V1182H604ZM200 1182V1362H392V1182H200Z" />
<glyph unicode="&#xa9;" horiz-adv-x="1402" d="M702 72Q521 72 380 154T159 384T78 730Q78 928 158 1075T380 1304T702 1386Q883 1386 1023 1305T1244 1076T1324 730Q1324 532 1244 384T1024 154T702 72ZM718 380Q623 380 549 423T433 544T390 726Q390 884 482
979T718 1074Q772 1074 826 1061T922 1028L902 858Q856 878 812 891T718 904Q648 904 610 857T572 726Q572 647 610 598T718 548Q768 548 812 562T902 598L922 430Q880 406 826 393T718 380ZM702 212Q858 212 961 280T1116 465T1168 730Q1168 878 1117 994T962
1178T702 1246Q545 1246 441 1179T286 995T234 730Q234 582 285 465T441 280T702 212Z" />
<glyph unicode="&#xaa;" horiz-adv-x="722" d="M242 868Q163 868 112 911T60 1034Q60 1089 84 1128T152 1193T253 1235T378 1258Q378 1270 364 1282T298 1294Q255 1294 209 1286T120 1264L110 1426Q175 1444 234 1454T348 1464Q458 1464 522 1408T586 1258V1086Q586
1058 594 1048T618 1038H650L642 868H544Q495 868 463 885T410 932Q382 902 334 885T242 868ZM324 1010Q339 1010 353 1014T380 1028V1126Q334 1120 307 1105T280 1054Q280 1032 293 1021T324 1010Z" />
<glyph unicode="&#xab;" horiz-adv-x="1214" d="M326 156L22 568L326 980H620L316 568L620 156H326ZM846 156L542 568L846 980H1140L836 568L1140 156H846Z" />
<glyph unicode="&#xac;" horiz-adv-x="1020" d="M736 302V624H80V812H940V302H736Z" />
<glyph unicode="&#xad;" horiz-adv-x="888" d="M134 528V716H754V528H134Z" />
<glyph unicode="&#xae;" horiz-adv-x="1402" d="M702 74Q522 74 382 156T161 385T80 730Q80 928 160 1075T381 1304T702 1386Q882 1386 1022 1305T1242 1076T1322 730Q1322 533 1242 386T1022 156T702 74ZM702 214Q858 214 961 282T1115 466T1166 730Q1166 878
1115 994T961 1177T702 1244Q546 1244 443 1177T288 994T236 730Q236 583 287 467T442 282T702 214ZM450 406V1076H704Q817 1076 879 1023T942 856Q942 798 913 752T848 682L996 406H810L694 630H626V406H450ZM626 792H690Q728 792 745 812T762 860Q762 890 746
908T690 926H626V792Z" />
<glyph unicode="&#xaf;" horiz-adv-x="1056" d="M200 1182V1344H856V1182H200Z" />
<glyph unicode="&#xb0;" horiz-adv-x="578" d="M288 964Q159 964 88 1044T16 1236Q16 1347 87 1428T288 1510Q419 1510 490 1429T562 1236Q562 1125 491 1045T288 964ZM288 1086Q356 1086 390 1127T424 1236Q424 1304 390 1346T288 1388Q225 1388 189 1346T152
1236Q152 1169 188 1128T288 1086Z" />
<glyph unicode="&#xb1;" horiz-adv-x="900" d="M352 370V630H80V810H352V1070H548V810H820V630H548V370H352ZM80 94V274H820V94H80Z" />
<glyph unicode="&#xb2;" horiz-adv-x="652" d="M60 772L282 1088Q327 1153 344 1192T362 1272Q362 1316 336 1343T260 1370Q209 1370 165 1346T78 1284L64 1468Q117 1501 178 1522T312 1544Q426 1544 496 1481T566 1312Q566 1267 555 1225T517 1135T448 1026L286
794L244 946H600V772H60Z" />
<glyph unicode="&#xb3;" horiz-adv-x="658" d="M324 744Q246 744 179 762T56 812L94 984Q139 956 185 937T286 918Q337 918 367 937T398 992Q398 1031 370 1054T280 1078H218V1232H282Q324 1232 349 1250T374 1302Q374 1331 353 1350T286 1370Q238 1370 195 1353T112
1306L98 1488Q148 1514 208 1529T336 1544Q450 1544 514 1485T578 1336Q578 1261 539 1215T446 1148V1172Q515 1151 558 1103T602 974Q602 866 523 805T324 744Z" />
<glyph unicode="&#xb4;" horiz-adv-x="954" d="M280 1140V1298L674 1522V1292L280 1140Z" />
<glyph unicode="&#xb5;" horiz-adv-x="1216" d="M134 -484V1000H382V422Q382 304 428 246T580 188Q642 188 688 210T768 272V1000H1016V344Q1016 269 1023 236T1049 193T1104 184H1136L1114 -20H1024Q945 -20 892 8T808 84Q766 44 704 14T558 -16Q507 -16 463
-7T382 18V-484H134Z" />
<glyph unicode="&#xb6;" horiz-adv-x="1250" d="M584 0V458Q412 468 297 538T124 714T66 932Q66 1049 129 1156T319 1331T640 1400H1160V1186H1022V0H846V1186H722V0H584Z" />
<glyph unicode="&#xb7;" horiz-adv-x="464" d="M108 426V686H356V426H108Z" />
<glyph unicode="&#xb8;" horiz-adv-x="790" d="M382 -158L304 -128Q328 -119 351 -114T402 -108Q489 -108 539 -153T590 -282Q590 -379 525 -428T364 -478Q310 -478 270 -467T200 -440L238 -322Q270 -337 301 -346T368 -356Q410 -356 436 -340T462 -290Q462 -255
437 -238T360 -220Q336 -220 314 -223T264 -234L320 0H430L382 -158Z" />
<glyph unicode="&#xb9;" horiz-adv-x="498" d="M208 772V1302Q175 1277 143 1261T78 1236L68 1396Q118 1413 169 1446T248 1516H398V772H208Z" />
<glyph unicode="&#xba;" horiz-adv-x="754" d="M376 868Q275 868 204 910T94 1021T56 1166Q56 1243 94 1311T203 1421T376 1464Q478 1464 549 1422T658 1311T696 1166Q696 1089 659 1021T550 911T376 868ZM376 1022Q427 1022 456 1066T486 1167Q486 1222 457 1266T376
1310Q325 1310 296 1266T266 1167Q266 1111 295 1067T376 1022Z" />
<glyph unicode="&#xbb;" horiz-adv-x="1214" d="M594 156L898 568L594 980H888L1192 568L888 156H594ZM74 156L378 568L74 980H368L672 568L368 156H74Z" />
<glyph unicode="&#xbc;" horiz-adv-x="1390" d="M456 656V1186Q423 1161 391 1145T326 1120L316 1280Q366 1297 417 1330T496 1400H646V656H456ZM158 0L984 1400H1182L358 0H158ZM1046 0V160H638L1054 744H1216V304H1314V160H1216V0H1046ZM872 250L798 304H1046V404V632L1112
590L996 424L872 250Z" />
<glyph unicode="&#xbd;" horiz-adv-x="1458" d="M456 656V1186Q423 1161 391 1145T326 1120L316 1280Q366 1297 417 1330T496 1400H646V656H456ZM140 0L966 1400H1164L340 0H140ZM858 0L1080 316Q1125 381 1142 420T1160 500Q1160 544 1134 571T1058 598Q1007
598 963 574T876 512L862 696Q915 729 976 750T1110 772Q1224 772 1294 709T1364 540Q1364 495 1353 453T1315 363T1246 254L1084 22L1042 174H1398V0H858Z" />
<glyph unicode="&#xbe;" horiz-adv-x="1504" d="M324 628Q246 628 179 646T56 696L94 868Q139 840 185 821T286 802Q337 802 367 821T398 876Q398 915 370 938T280 962H218V1116H282Q324 1116 349 1134T374 1186Q374 1215 353 1234T286 1254Q238 1254 195 1237T112
1190L98 1372Q148 1398 208 1413T336 1428Q450 1428 514 1369T578 1220Q578 1145 539 1099T446 1032V1056Q515 1035 558 987T602 858Q602 750 523 689T324 628ZM294 0L1120 1400H1318L494 0H294ZM1160 0V160H752L1168 744H1330V304H1428V160H1330V0H1160ZM986 250L912
304H1160V404V632L1226 590L1110 424L986 250Z" />
<glyph unicode="&#xbf;" horiz-adv-x="874" d="M686 586V566Q686 488 663 430T603 324T522 234Q447 159 404 104T360 -30Q360 -78 382 -112T444 -164T538 -182Q619 -182 688 -161T826 -106L854 -342Q776 -380 689 -404T478 -428Q354 -428 265 -382T128 -256T80
-74Q80 -4 104 54T170 167T270 278Q331 339 377 403T424 554V586H686ZM686 1000V728H426V1000H686Z" />
<glyph unicode="&#xc0;" horiz-adv-x="1250" d="M918 332H332V556H918V332ZM592 1150H658L254 0H6L504 1400H746L1244 0H996L592 1150ZM822 1518L428 1634V1846L822 1656V1518Z" />
<glyph unicode="&#xc1;" horiz-adv-x="1250" d="M918 332H332V556H918V332ZM592 1150H658L254 0H6L504 1400H746L1244 0H996L592 1150ZM430 1518V1656L824 1846V1634L430 1518Z" />
<glyph unicode="&#xc2;" horiz-adv-x="1250" d="M918 332H332V556H918V332ZM592 1150H658L254 0H6L504 1400H746L1244 0H996L592 1150ZM362 1490V1638L626 1822L890 1638V1490L626 1634L362 1490Z" />
<glyph unicode="&#xc3;" horiz-adv-x="1250" d="M918 332H332V556H918V332ZM592 1150H658L254 0H6L504 1400H746L1244 0H996L592 1150ZM800 1554Q754 1554 704 1575T606 1617T520 1638Q454 1638 454 1568H302Q302 1670 339 1724T452 1778Q498 1778 548 1757T646
1715T732 1694Q798 1694 798 1764H950Q950 1664 914 1609T800 1554Z" />
<glyph unicode="&#xc4;" horiz-adv-x="1250" d="M918 332H332V556H918V332ZM592 1150H658L254 0H6L504 1400H746L1244 0H996L592 1150ZM328 1566V1738H520V1566H328ZM732 1566V1738H924V1566H732Z" />
<glyph unicode="&#xc5;" horiz-adv-x="1250" d="M918 332H332V556H918V332ZM592 1150H658L254 0H6L504 1400H746L1244 0H996L592 1150ZM626 1508Q529 1508 472 1565T414 1702Q414 1782 471 1840T626 1898Q725 1898 781 1840T838 1702Q838 1623 782 1566T626 1508ZM626
1612Q665 1612 691 1637T718 1702Q718 1741 692 1766T626 1792Q587 1792 561 1767T534 1702Q534 1662 560 1637T626 1612Z" />
<glyph unicode="&#xc6;" horiz-adv-x="1732" d="M-22 0L660 1400H1648V1152H1056V854H1512V606H1056V248H1666V0H794V1146L244 0H-22ZM352 338V586H826V338H352Z" />
<glyph unicode="&#xc7;" horiz-adv-x="1218" d="M788 -28Q575 -28 413 62T161 316T70 700Q70 920 163 1083T421 1337T796 1428Q907 1428 999 1405T1158 1346L1130 1102Q1054 1137 974 1159T794 1182Q647 1182 549 1120T400 949T350 700Q350 560 399 451T545 280T788
218Q889 218 969 240T1130 298L1158 54Q1079 17 985 -5T788 -28ZM760 -158L682 -128Q706 -119 729 -114T780 -108Q867 -108 917 -153T968 -282Q968 -379 903 -428T742 -478Q688 -478 648 -467T578 -440L616 -322Q648 -337 679 -346T746 -356Q788 -356 814 -340T840
-290Q840 -255 815 -238T738 -220Q714 -220 692 -223T642 -234L698 0H808L760 -158Z" />
<glyph unicode="&#xc8;" horiz-adv-x="1136" d="M154 0V1400H1050V1152H416V854H908V606H416V248H1070V0H154ZM818 1518L424 1634V1846L818 1656V1518Z" />
<glyph unicode="&#xc9;" horiz-adv-x="1136" d="M154 0V1400H1050V1152H416V854H908V606H416V248H1070V0H154ZM426 1518V1656L820 1846V1634L426 1518Z" />
<glyph unicode="&#xca;" horiz-adv-x="1136" d="M154 0V1400H1050V1152H416V854H908V606H416V248H1070V0H154ZM358 1490V1638L622 1822L886 1638V1490L622 1634L358 1490Z" />
<glyph unicode="&#xcb;" horiz-adv-x="1136" d="M154 0V1400H1050V1152H416V854H908V606H416V248H1070V0H154ZM324 1566V1738H516V1566H324ZM728 1566V1738H920V1566H728Z" />
<glyph unicode="&#xcc;" horiz-adv-x="564" d="M154 0V1400H410V0H154ZM478 1518L84 1634V1846L478 1656V1518Z" />
<glyph unicode="&#xcd;" horiz-adv-x="564" d="M154 0V1400H410V0H154ZM86 1518V1656L480 1846V1634L86 1518Z" />
<glyph unicode="&#xce;" horiz-adv-x="564" d="M154 0V1400H410V0H154ZM18 1490V1638L282 1822L546 1638V1490L282 1634L18 1490Z" />
<glyph unicode="&#xcf;" horiz-adv-x="564" d="M154 0V1400H410V0H154ZM-16 1566V1738H176V1566H-16ZM388 1566V1738H580V1566H388Z" />
<glyph unicode="&#xd0;" horiz-adv-x="1462" d="M176 0V618H46V806H176V1400H700Q900 1400 1056 1317T1301 1077T1390 700Q1390 480 1301 324T1056 84T700 0H176ZM432 246H700Q904 246 1007 368T1110 700Q1110 910 1007 1032T700 1154H432V806H676V618H432V246Z" />
<glyph unicode="&#xd1;" horiz-adv-x="1414" d="M154 0V1400H406L1004 496V1400H1260V0H1050L410 960V0H154ZM880 1554Q834 1554 784 1575T686 1617T600 1638Q534 1638 534 1568H382Q382 1670 419 1724T532 1778Q578 1778 628 1757T726 1715T812 1694Q878 1694
878 1764H1030Q1030 1664 994 1609T880 1554Z" />
<glyph unicode="&#xd2;" horiz-adv-x="1520" d="M760 -28Q560 -28 404 62T159 316T70 700Q70 920 159 1083T404 1337T760 1428Q960 1428 1116 1338T1361 1084T1450 700Q1450 480 1361 317T1116 63T760 -28ZM760 220Q900 220 994 282T1135 452T1182 700Q1182 839
1135 947T994 1118T760 1180Q620 1180 526 1118T385 948T338 700Q338 561 385 453T526 282T760 220ZM956 1518L562 1634V1846L956 1656V1518Z" />
<glyph unicode="&#xd3;" horiz-adv-x="1520" d="M760 -28Q560 -28 404 62T159 316T70 700Q70 920 159 1083T404 1337T760 1428Q960 1428 1116 1338T1361 1084T1450 700Q1450 480 1361 317T1116 63T760 -28ZM760 220Q900 220 994 282T1135 452T1182 700Q1182 839
1135 947T994 1118T760 1180Q620 1180 526 1118T385 948T338 700Q338 561 385 453T526 282T760 220ZM564 1518V1656L958 1846V1634L564 1518Z" />
<glyph unicode="&#xd4;" horiz-adv-x="1520" d="M760 -28Q560 -28 404 62T159 316T70 700Q70 920 159 1083T404 1337T760 1428Q960 1428 1116 1338T1361 1084T1450 700Q1450 480 1361 317T1116 63T760 -28ZM760 220Q900 220 994 282T1135 452T1182 700Q1182 839
1135 947T994 1118T760 1180Q620 1180 526 1118T385 948T338 700Q338 561 385 453T526 282T760 220ZM496 1490V1638L760 1822L1024 1638V1490L760 1634L496 1490Z" />
<glyph unicode="&#xd5;" horiz-adv-x="1520" d="M760 -28Q560 -28 404 62T159 316T70 700Q70 920 159 1083T404 1337T760 1428Q960 1428 1116 1338T1361 1084T1450 700Q1450 480 1361 317T1116 63T760 -28ZM760 220Q900 220 994 282T1135 452T1182 700Q1182 839
1135 947T994 1118T760 1180Q620 1180 526 1118T385 948T338 700Q338 561 385 453T526 282T760 220ZM934 1554Q888 1554 838 1575T740 1617T654 1638Q588 1638 588 1568H436Q436 1670 473 1724T586 1778Q632 1778 682 1757T780 1715T866 1694Q932 1694 932 1764H1084Q1084
1664 1048 1609T934 1554Z" />
<glyph unicode="&#xd6;" horiz-adv-x="1520" d="M760 -28Q560 -28 404 62T159 316T70 700Q70 920 159 1083T404 1337T760 1428Q960 1428 1116 1338T1361 1084T1450 700Q1450 480 1361 317T1116 63T760 -28ZM760 220Q900 220 994 282T1135 452T1182 700Q1182 839
1135 947T994 1118T760 1180Q620 1180 526 1118T385 948T338 700Q338 561 385 453T526 282T760 220ZM462 1566V1738H654V1566H462ZM866 1566V1738H1058V1566H866Z" />
<glyph unicode="&#xd7;" horiz-adv-x="868" d="M198 184L64 318L670 924L804 790L198 184ZM670 184L64 790L198 924L804 318L670 184Z" />
<glyph unicode="&#xd8;" horiz-adv-x="1520" d="M122 -88L1196 1488H1398L324 -88H122ZM760 -28Q560 -28 404 62T159 316T70 700Q70 920 159 1083T404 1337T760 1428Q960 1428 1116 1338T1361 1084T1450 700Q1450 480 1361 317T1116 63T760 -28ZM760 220Q900 220
994 282T1135 452T1182 700Q1182 839 1135 947T994 1118T760 1180Q620 1180 526 1118T385 948T338 700Q338 561 385 453T526 282T760 220Z" />
<glyph unicode="&#xd9;" horiz-adv-x="1436" d="M718 -28Q521 -28 393 50T201 269T138 600V1400H394V666Q394 566 407 484T454 342T553 250T718 218Q819 218 883 250T981 341T1029 483T1042 666V1400H1298V600Q1298 410 1235 269T1044 50T718 -28ZM914 1518L520
1634V1846L914 1656V1518Z" />
<glyph unicode="&#xda;" horiz-adv-x="1436" d="M718 -28Q521 -28 393 50T201 269T138 600V1400H394V666Q394 566 407 484T454 342T553 250T718 218Q819 218 883 250T981 341T1029 483T1042 666V1400H1298V600Q1298 410 1235 269T1044 50T718 -28ZM522 1518V1656L916
1846V1634L522 1518Z" />
<glyph unicode="&#xdb;" horiz-adv-x="1436" d="M718 -28Q521 -28 393 50T201 269T138 600V1400H394V666Q394 566 407 484T454 342T553 250T718 218Q819 218 883 250T981 341T1029 483T1042 666V1400H1298V600Q1298 410 1235 269T1044 50T718 -28ZM454 1490V1638L718
1822L982 1638V1490L718 1634L454 1490Z" />
<glyph unicode="&#xdc;" horiz-adv-x="1436" d="M718 -28Q521 -28 393 50T201 269T138 600V1400H394V666Q394 566 407 484T454 342T553 250T718 218Q819 218 883 250T981 341T1029 483T1042 666V1400H1298V600Q1298 410 1235 269T1044 50T718 -28ZM420 1566V1738H612V1566H420ZM824
1566V1738H1016V1566H824Z" />
<glyph unicode="&#xdd;" horiz-adv-x="1208" d="M476 0V566L-16 1400H264L664 690H544L944 1400H1224L732 566V0H476ZM408 1518V1656L802 1846V1634L408 1518Z" />
<glyph unicode="&#xde;" horiz-adv-x="1136" d="M154 0V1400H410V1110H646Q868 1110 981 1009T1094 720Q1094 533 981 432T646 330H410V0H154ZM410 544H616Q741 544 787 591T834 720Q834 813 788 854T616 896H410V544Z" />
<glyph unicode="&#xdf;" horiz-adv-x="1260" d="M748 -28Q696 -28 649 -24T550 -10V194Q600 185 649 181T750 176Q849 176 907 217T966 334Q966 398 930 442T839 521T731 590T641 668T604 776Q604 839 639 885T750 1004Q801 1054 826 1090T852 1184Q852 1247 803
1285T658 1324Q540 1324 481 1255T422 1064V0H174V796H32L54 1000H174V1060Q174 1296 309 1412T662 1528Q860 1528 980 1442T1100 1206Q1100 1136 1080 1089T1024 1004T940 922Q895 880 877 852T858 794Q858 753 894 721T985 657T1093 584T1183 483T1220 338Q1220
213 1153 132T978 12T748 -28Z" />
<glyph unicode="&#xe0;" horiz-adv-x="996" d="M332 -20Q252 -20 186 15T81 118T42 280Q42 365 81 425T185 526T325 590T474 625T604 638Q600 724 560 763T424 802Q357 802 294 784T150 726L128 928Q218 972 308 994T492 1016Q604 1016 685 976T810 848T854 614V344Q854
269 861 236T887 193T942 184H974L952 -20H862Q806 -20 763 -6T688 35T638 96Q589 41 506 11T332 -20ZM436 170Q469 170 518 187T606 242V470Q536 467 466 447T349 388T302 290Q302 229 334 200T436 170ZM688 1140L294 1292V1522L688 1298V1140Z" />
<glyph unicode="&#xe1;" horiz-adv-x="996" d="M332 -20Q252 -20 186 15T81 118T42 280Q42 365 81 425T185 526T325 590T474 625T604 638Q600 724 560 763T424 802Q357 802 294 784T150 726L128 928Q218 972 308 994T492 1016Q604 1016 685 976T810 848T854 614V344Q854
269 861 236T887 193T942 184H974L952 -20H862Q806 -20 763 -6T688 35T638 96Q589 41 506 11T332 -20ZM436 170Q469 170 518 187T606 242V470Q536 467 466 447T349 388T302 290Q302 229 334 200T436 170ZM296 1140V1298L690 1522V1292L296 1140Z" />
<glyph unicode="&#xe2;" horiz-adv-x="996" d="M332 -20Q252 -20 186 15T81 118T42 280Q42 365 81 425T185 526T325 590T474 625T604 638Q600 724 560 763T424 802Q357 802 294 784T150 726L128 928Q218 972 308 994T492 1016Q604 1016 685 976T810 848T854 614V344Q854
269 861 236T887 193T942 184H974L952 -20H862Q806 -20 763 -6T688 35T638 96Q589 41 506 11T332 -20ZM436 170Q469 170 518 187T606 242V470Q536 467 466 447T349 388T302 290Q302 229 334 200T436 170ZM228 1108V1266L492 1490L756 1266V1108L492 1274L228 1108Z"
/>
<glyph unicode="&#xe3;" horiz-adv-x="996" d="M332 -20Q252 -20 186 15T81 118T42 280Q42 365 81 425T185 526T325 590T474 625T604 638Q600 724 560 763T424 802Q357 802 294 784T150 726L128 928Q218 972 308 994T492 1016Q604 1016 685 976T810 848T854 614V344Q854
269 861 236T887 193T942 184H974L952 -20H862Q806 -20 763 -6T688 35T638 96Q589 41 506 11T332 -20ZM436 170Q469 170 518 187T606 242V470Q536 467 466 447T349 388T302 290Q302 229 334 200T436 170ZM662 1156Q612 1156 565 1178T474 1222T388 1244Q320 1244
320 1172H150Q155 1289 198 1351T322 1414Q372 1414 419 1392T510 1348T596 1326Q664 1326 664 1398H834Q830 1281 787 1219T662 1156Z" />
<glyph unicode="&#xe4;" horiz-adv-x="996" d="M332 -20Q252 -20 186 15T81 118T42 280Q42 365 81 425T185 526T325 590T474 625T604 638Q600 724 560 763T424 802Q357 802 294 784T150 726L128 928Q218 972 308 994T492 1016Q604 1016 685 976T810 848T854 614V344Q854
269 861 236T887 193T942 184H974L952 -20H862Q806 -20 763 -6T688 35T638 96Q589 41 506 11T332 -20ZM436 170Q469 170 518 187T606 242V470Q536 467 466 447T349 388T302 290Q302 229 334 200T436 170ZM598 1182V1362H790V1182H598ZM194 1182V1362H386V1182H194Z"
/>
<glyph unicode="&#xe5;" horiz-adv-x="996" d="M332 -20Q252 -20 186 15T81 118T42 280Q42 365 81 425T185 526T325 590T474 625T604 638Q600 724 560 763T424 802Q357 802 294 784T150 726L128 928Q218 972 308 994T492 1016Q604 1016 685 976T810 848T854 614V344Q854
269 861 236T887 193T942 184H974L952 -20H862Q806 -20 763 -6T688 35T638 96Q589 41 506 11T332 -20ZM436 170Q469 170 518 187T606 242V470Q536 467 466 447T349 388T302 290Q302 229 334 200T436 170ZM492 1140Q396 1140 340 1197T284 1334Q284 1414 340 1472T492
1530Q590 1530 645 1472T700 1334Q700 1255 645 1198T492 1140ZM492 1244Q530 1244 555 1269T580 1334Q580 1373 555 1398T492 1424Q455 1424 430 1399T404 1334Q404 1294 429 1269T492 1244Z" />
<glyph unicode="&#xe6;" horiz-adv-x="1566" d="M370 -20Q274 -20 200 13T84 108T42 260Q42 358 90 425T218 534T397 595T598 614H1260Q1260 694 1220 753T1090 812Q982 812 924 734T866 522Q866 402 908 328T1016 219T1158 184Q1236 184 1314 208T1456 266L1468
56Q1410 26 1329 3T1144 -20Q966 -20 848 52T671 244T612 506V550Q612 667 576 734T424 802Q357 802 294 784T150 726L128 928Q218 972 308 994T492 1016Q611 1016 694 972T818 828L690 802Q749 898 850 957T1090 1016Q1231 1016 1324 957T1465 800T1512 582Q1512
549 1508 516T1496 446H634Q474 446 388 406T302 288Q302 228 345 199T452 170Q509 170 569 196T684 280L760 170Q690 85 585 33T370 -20Z" />
<glyph unicode="&#xe7;" horiz-adv-x="910" d="M580 -20Q408 -20 292 50T116 238T56 498Q56 641 115 759T292 949T588 1020Q672 1020 740 1002T856 956L836 756Q790 780 733 796T612 812Q468 812 389 725T310 498Q310 365 391 275T610 184Q669 184 726 201T838
250L860 40Q808 13 735 -3T580 -20ZM558 -158L480 -128Q504 -119 527 -114T578 -108Q665 -108 715 -153T766 -282Q766 -379 701 -428T540 -478Q486 -478 446 -467T376 -440L414 -322Q446 -337 477 -346T544 -356Q586 -356 612 -340T638 -290Q638 -255 613 -238T536
-220Q512 -220 490 -223T440 -234L496 0H606L558 -158Z" />
<glyph unicode="&#xe8;" horiz-adv-x="1030" d="M598 -20Q417 -20 297 52T116 244T56 506Q56 643 112 759T278 945T544 1016Q688 1016 784 957T928 800T976 582Q976 549 972 516T960 446H314Q328 353 372 296T481 211T620 184Q707 184 782 206T920 266L932 56Q875
26 790 3T598 -20ZM320 614H724Q724 659 707 704T651 781T544 812Q448 812 393 756T320 614ZM758 1140L364 1292V1522L758 1298V1140Z" />
<glyph unicode="&#xe9;" horiz-adv-x="1030" d="M598 -20Q417 -20 297 52T116 244T56 506Q56 643 112 759T278 945T544 1016Q688 1016 784 957T928 800T976 582Q976 549 972 516T960 446H314Q328 353 372 296T481 211T620 184Q707 184 782 206T920 266L932 56Q875
26 790 3T598 -20ZM320 614H724Q724 659 707 704T651 781T544 812Q448 812 393 756T320 614ZM366 1140V1298L760 1522V1292L366 1140Z" />
<glyph unicode="&#xea;" horiz-adv-x="1030" d="M598 -20Q417 -20 297 52T116 244T56 506Q56 643 112 759T278 945T544 1016Q688 1016 784 957T928 800T976 582Q976 549 972 516T960 446H314Q328 353 372 296T481 211T620 184Q707 184 782 206T920 266L932 56Q875
26 790 3T598 -20ZM320 614H724Q724 659 707 704T651 781T544 812Q448 812 393 756T320 614ZM298 1108V1266L562 1490L826 1266V1108L562 1274L298 1108Z" />
<glyph unicode="&#xeb;" horiz-adv-x="1030" d="M598 -20Q417 -20 297 52T116 244T56 506Q56 643 112 759T278 945T544 1016Q688 1016 784 957T928 800T976 582Q976 549 972 516T960 446H314Q328 353 372 296T481 211T620 184Q707 184 782 206T920 266L932 56Q875
26 790 3T598 -20ZM320 614H724Q724 659 707 704T651 781T544 812Q448 812 393 756T320 614ZM668 1182V1362H860V1182H668ZM264 1182V1362H456V1182H264Z" />
<glyph unicode="&#xec;" horiz-adv-x="480" d="M116 0V1000H364V0H116ZM436 1140L42 1292V1522L436 1298V1140Z" />
<glyph unicode="&#xed;" horiz-adv-x="480" d="M116 0V1000H364V0H116ZM44 1140V1298L438 1522V1292L44 1140Z" />
<glyph unicode="&#xee;" horiz-adv-x="480" d="M116 0V1000H364V0H116ZM-24 1108V1266L240 1490L504 1266V1108L240 1274L-24 1108Z" />
<glyph unicode="&#xef;" horiz-adv-x="480" d="M116 0V1000H364V0H116ZM346 1182V1362H538V1182H346ZM-58 1182V1362H134V1182H-58Z" />
<glyph unicode="&#xf0;" horiz-adv-x="1002" d="M484 -26Q356 -26 254 30T92 184T32 410Q32 518 79 619T221 786T456 852Q566 852 628 814T736 734L696 694Q691 834 647 946T506 1140T246 1270L288 1402Q453 1361 576 1281T781 1087T903 830T944 516Q944 356 902
251T792 86T642 0T484 -26ZM488 176Q593 176 648 246T704 414Q704 512 648 585T482 658Q410 658 363 624T292 534T268 410Q268 316 322 246T488 176ZM322 980L246 1106L774 1400L848 1274L322 980Z" />
<glyph unicode="&#xf1;" horiz-adv-x="1104" d="M116 0V1000H348L358 814L300 890Q357 938 436 977T620 1016Q812 1016 905 889T998 558V0H750V538Q750 678 704 745T552 812Q467 812 413 771T318 660L364 782V0H116ZM756 1136Q706 1136 659 1158T568 1202T482
1224Q414 1224 414 1152H244Q249 1269 292 1331T416 1394Q466 1394 513 1372T604 1328T690 1306Q758 1306 758 1378H928Q924 1261 881 1199T756 1136Z" />
<glyph unicode="&#xf2;" horiz-adv-x="1140" d="M570 -20Q407 -20 292 51T117 240T56 498Q56 639 116 758T292 948T570 1020Q733 1020 848 949T1023 758T1084 498Q1084 358 1024 240T848 51T570 -20ZM570 184Q695 184 762 271T830 498Q830 639 763 727T570 816Q446
816 378 728T310 498Q310 359 378 272T570 184ZM766 1140L372 1292V1522L766 1298V1140Z" />
<glyph unicode="&#xf3;" horiz-adv-x="1140" d="M570 -20Q407 -20 292 51T117 240T56 498Q56 639 116 758T292 948T570 1020Q733 1020 848 949T1023 758T1084 498Q1084 358 1024 240T848 51T570 -20ZM570 184Q695 184 762 271T830 498Q830 639 763 727T570 816Q446
816 378 728T310 498Q310 359 378 272T570 184ZM374 1140V1298L768 1522V1292L374 1140Z" />
<glyph unicode="&#xf4;" horiz-adv-x="1140" d="M570 -20Q407 -20 292 51T117 240T56 498Q56 639 116 758T292 948T570 1020Q733 1020 848 949T1023 758T1084 498Q1084 358 1024 240T848 51T570 -20ZM570 184Q695 184 762 271T830 498Q830 639 763 727T570 816Q446
816 378 728T310 498Q310 359 378 272T570 184ZM306 1108V1266L570 1490L834 1266V1108L570 1274L306 1108Z" />
<glyph unicode="&#xf5;" horiz-adv-x="1140" d="M570 -20Q407 -20 292 51T117 240T56 498Q56 639 116 758T292 948T570 1020Q733 1020 848 949T1023 758T1084 498Q1084 358 1024 240T848 51T570 -20ZM570 184Q695 184 762 271T830 498Q830 639 763 727T570 816Q446
816 378 728T310 498Q310 359 378 272T570 184ZM740 1156Q690 1156 643 1178T552 1222T466 1244Q398 1244 398 1172H228Q233 1289 276 1351T400 1414Q450 1414 497 1392T588 1348T674 1326Q742 1326 742 1398H912Q908 1281 865 1219T740 1156Z" />
<glyph unicode="&#xf6;" horiz-adv-x="1140" d="M570 -20Q407 -20 292 51T117 240T56 498Q56 639 116 758T292 948T570 1020Q733 1020 848 949T1023 758T1084 498Q1084 358 1024 240T848 51T570 -20ZM570 184Q695 184 762 271T830 498Q830 639 763 727T570 816Q446
816 378 728T310 498Q310 359 378 272T570 184ZM676 1182V1362H868V1182H676ZM272 1182V1362H464V1182H272Z" />
<glyph unicode="&#xf7;" horiz-adv-x="980" d="M80 460V648H900V460H80ZM366 88V340H614V88H366ZM366 768V1020H614V768H366Z" />
<glyph unicode="&#xf8;" horiz-adv-x="1140" d="M864 1060H1036L276 -80H104L864 1060ZM570 -20Q407 -20 292 51T117 240T56 498Q56 639 116 758T292 948T570 1020Q733 1020 848 949T1023 758T1084 498Q1084 358 1024 240T848 51T570 -20ZM570 184Q695 184 762
271T830 498Q830 639 763 727T570 816Q446 816 378 728T310 498Q310 359 378 272T570 184Z" />
<glyph unicode="&#xf9;" horiz-adv-x="1104" d="M530 -20Q374 -20 281 42T147 212T106 462V1000H354V462Q354 323 400 256T552 188Q636 188 691 228T784 340L740 214V1000H988V0H756L744 174L798 104Q762 58 685 19T530 -20ZM748 1140L354 1292V1522L748 1298V1140Z" />
<glyph unicode="&#xfa;" horiz-adv-x="1104" d="M530 -20Q374 -20 281 42T147 212T106 462V1000H354V462Q354 323 400 256T552 188Q636 188 691 228T784 340L740 214V1000H988V0H756L744 174L798 104Q762 58 685 19T530 -20ZM356 1140V1298L750 1522V1292L356 1140Z" />
<glyph unicode="&#xfb;" horiz-adv-x="1104" d="M530 -20Q374 -20 281 42T147 212T106 462V1000H354V462Q354 323 400 256T552 188Q636 188 691 228T784 340L740 214V1000H988V0H756L744 174L798 104Q762 58 685 19T530 -20ZM288 1108V1266L552 1490L816 1266V1108L552
1274L288 1108Z" />
<glyph unicode="&#xfc;" horiz-adv-x="1104" d="M530 -20Q374 -20 281 42T147 212T106 462V1000H354V462Q354 323 400 256T552 188Q636 188 691 228T784 340L740 214V1000H988V0H756L744 174L798 104Q762 58 685 19T530 -20ZM658 1182V1362H850V1182H658ZM254
1182V1362H446V1182H254Z" />
<glyph unicode="&#xfd;" horiz-adv-x="1074" d="M196 -484L418 66L2 1000H278L534 356L794 1000H1070L444 -484H196ZM340 1140V1298L734 1522V1292L340 1140Z" />
<glyph unicode="&#xfe;" horiz-adv-x="1164" d="M116 -484V1500H364V834L304 882Q376 945 449 980T640 1016Q793 1016 897 945T1054 756T1108 498Q1108 358 1055 240T897 51T640 -20Q523 -20 452 16T300 118L364 164V-484H116ZM608 184Q725 184 789 271T854 498Q854
638 790 725T608 812Q519 812 463 772T379 662T352 498Q352 405 379 335T462 224T608 184Z" />
<glyph unicode="&#xff;" horiz-adv-x="1074" d="M196 -484L418 66L2 1000H278L534 356L794 1000H1070L444 -484H196ZM642 1182V1362H834V1182H642ZM238 1182V1362H430V1182H238Z" />
<glyph unicode="&#x2013;" horiz-adv-x="1106" d="M0 528V716H1106V528H0Z" />
<glyph unicode="&#x2014;" horiz-adv-x="1490" d="M0 528V716H1490V528H0Z" />
<glyph unicode="&#x2018;" horiz-adv-x="464" d="M236 1400H352L266 1160H368V888H108V1136L236 1400Z" />
<glyph unicode="&#x2019;" horiz-adv-x="452" d="M228 888H112L198 1128H96V1400H356V1152L228 888Z" />
<glyph unicode="&#x201a;" horiz-adv-x="452" d="M484 -240H368L454 0H352V272H612V24L484 -240Z" />
<glyph unicode="&#x201c;" horiz-adv-x="844" d="M236 1426H352L266 1186H368V914H108V1162L236 1426ZM616 1426H732L646 1186H748V914H488V1162L616 1426Z" />
<glyph unicode="&#x201d;" horiz-adv-x="832" d="M228 888H112L198 1128H96V1400H356V1152L228 888ZM608 888H492L578 1128H476V1400H736V1152L608 888Z" />
<glyph unicode="&#x201e;" horiz-adv-x="832" d="M484 -240H368L454 0H352V272H612V24L484 -240ZM608 -240H492L578 0H476V272H736V24L608 -240Z" />
<glyph unicode="&#x2022;" horiz-adv-x="596" d="M298 338Q208 338 144 402T80 556Q80 646 144 710T298 774Q388 774 452 710T516 556Q516 466 452 402T298 338Z" />
<glyph unicode="&#x2039;" horiz-adv-x="694" d="M326 156L22 568L326 980H620L316 568L620 156H326Z" />
<glyph unicode="&#x203a;" horiz-adv-x="694" d="M74 156L378 568L74 980H368L672 568L368 156H74Z" />
</font>
</defs>
</svg>
