<?xml version="1.0" standalone="no"?>
<!DOCTYPE svg PUBLIC "-//W3C//DTD SVG 1.1//EN" "http://www.w3.org/Graphics/SVG/1.1/DTD/svg11.dtd">
<svg xmlns="http://www.w3.org/2000/svg">
<defs >
<font id="Candal" horiz-adv-x="1328" ><font-face
    font-family="Candal"
    units-per-em="2048"
    panose-1="2 0 5 3 0 0 0 2 0 4"
    ascent="2226"
    descent="-432"
    alphabetic="0" />
<glyph unicode=" " glyph-name="space" horiz-adv-x="713" />
<glyph unicode="!" glyph-name="exclam" horiz-adv-x="1033" d="M292 1414H740L676 512H356L292 1414ZM516 -29Q451 -29 403 -12T323 30T276 90T260 159Q260 195 276 229T325 291T405 335T516 352Q579 352 627 336T707 292T756 231T773 160Q773 125 758 91T710
31T630 -12T516 -29Z" />
<glyph unicode="&quot;" glyph-name="quotedbl" horiz-adv-x="1088" d="M176 1536H496L436 976H236L176 1536ZM592 1536H912L852 976H652L592 1536Z" />
<glyph unicode="#" glyph-name="numbersign" horiz-adv-x="1182" d="M242 691Q200 751 180 819T159 960Q159 1026 177 1089T230 1210L127 1319L287 1473L394 1360Q439 1383 492 1395T607 1408Q661 1408 708 1398T797 1370L895 1473L1055 1319L970 1230Q1012 1170
1033 1101T1055 960Q1055 882 1030 808T957 672L1055 570L895 416L776 541Q698 512 607 512Q552 512 505 522T415 550L287 416L127 570L242 691ZM415 960Q415 913 425 872T458 801T517 754T607 736Q660 736 697 753T756 801T789 872T799 960Q799 1007 789 1048T757
1119T697 1166T607 1184Q554 1184 518 1167T458 1119T425 1048T415 960Z" />
<glyph unicode="$" glyph-name="dollar" horiz-adv-x="1372" d="M581 42Q479 51 376 76T178 143V475Q226 451 280 430T391 393T506 368T619 359Q658 359 693 361T756 372T800 397T817 441Q817 465 801 487T750 531T661 579T531 633Q488 653 443 676T355 727T274
790T207 868T162 963T145 1079Q145 1145 169 1205T243 1313T372 1396T558 1444V1600H796V1450Q844 1447 896 1440T1000 1418T1100 1384T1190 1335L1158 1058Q1117 1076 1073 1094T976 1126T860 1150T718 1159Q652 1159 622 1139T592 1086Q592 1066 614 1045T670
1004T748 965T835 930Q874 912 919 889T1010 836T1098 766T1173 678T1225 568T1245 433Q1245 369 1220 306T1143 190T1011 99T819 45V-100H581V42Z" />
<glyph unicode="%" glyph-name="percent" horiz-adv-x="2818" d="M562 285Q468 285 394 308T263 371T167 467T103 588T67 724T55 869Q55 940 66 1010T102 1144T166 1262T261 1356T392 1418T562 1441Q704 1441 801 1392T957 1263T1043 1079T1069 869Q1069 796 1058
725T1022 588T958 468T862 372T731 308T562 285ZM562 522Q603 522 634 551T685 629T716 740T727 867Q727 931 717 993T686 1103T634 1181T562 1211Q521 1211 490 1182T438 1104T407 993T396 867Q396 802 406 740T437 630T489 552T562 522ZM2258 -29Q2163 -28 2089
-5T1959 58T1863 154T1799 275T1763 411T1751 556Q1751 628 1762 698T1798 831T1862 949T1957 1043T2088 1105T2258 1128Q2400 1128 2497 1079T2653 950T2739 766T2765 556Q2765 483 2754 412T2718 275T2654 155T2558 59T2427 -5T2258 -29ZM2258 209Q2299 209 2330
238T2381 316T2412 427T2423 554Q2423 618 2413 680T2382 790T2330 868T2258 898Q2217 898 2186 869T2134 791T2103 680T2092 554Q2092 489 2102 427T2133 317T2185 239T2258 209ZM1884 1426L1360 0H943L1442 1426H1884Z" />
<glyph unicode="&amp;" glyph-name="ampersand" horiz-adv-x="1761" d="M1329 456Q1329 420 1334 387T1357 329T1406 289T1491 274Q1525 274 1566 281T1659 305L1683 23Q1620 0 1539 -14T1366 -29Q1328 -29 1287 -25T1203 -8Q1177 -1 1157 13T1122 45T1094 83T1072
125Q1025 55 925 13T657 -29Q514 -29 411 3T242 91T145 222T113 384Q113 441 136 501T205 612T315 697T465 736Q388 749 339 781T261 856T221 951T210 1056Q210 1135 240 1194T320 1296T435 1367T572 1411T714 1434T849 1441Q894 1441 953 1436T1074 1423T1194
1402T1297 1376L1233 1088Q1152 1105 1042 1112T873 1120Q807 1120 750 1117T651 1099T585 1053T561 965Q561 936 565 915T576 878T595 850T620 827Q648 805 686 792T773 778H923V938H1329V456ZM937 289Q935 294 933 309T928 356T925 438T923 564Q812 564 742 556T631
530T576 484T561 416Q561 389 570 361T602 310T661 271T753 256Q789 256 834 263T937 289Z" />
<glyph unicode="&apos;" glyph-name="quotesingle" horiz-adv-x="673" d="M176 1535H496L436 937H236L176 1535Z" />
<glyph unicode="(" glyph-name="parenleft" horiz-adv-x="949" d="M160 711Q160 812 179 907T235 1087T327 1242T453 1364T611 1443T800 1472V1216Q755 1216 714 1173T643 1058T594 896T576 711Q576 619 594 531T642 375T714 266T800 224V-32Q698 -32 611 -5T453
72T327 190T235 341T179 518T160 711Z" />
<glyph unicode=")" glyph-name="parenright" horiz-adv-x="950" d="M790 711Q790 612 771 518T715 342T623 191T497 73T339 -4T150 -32V224Q195 224 236 265T307 375T356 531T374 711Q374 805 356 895T308 1057T236 1172T150 1216V1472Q252 1472 339 1444T497
1364T623 1243T715 1087T771 907T790 711Z" />
<glyph unicode="*" glyph-name="asterisk" horiz-adv-x="1038" d="M391 473L198 565L350 866H39V1086H350L198 1404L391 1496L519 1199L647 1496L840 1404L688 1103H999V883H688L840 565L647 473L519 770L391 473Z" />
<glyph unicode="+" glyph-name="plus" horiz-adv-x="1162" d="M421 544H197V832H421V1088H741V832H965V544H741V288H421V544Z" />
<glyph unicode="," glyph-name="comma" horiz-adv-x="832" d="M397 4Q331 -32 282 -32Q243 -32 210 -15T151 30T112 97T98 176Q98 218 114 261T164 338T248 394T367 416Q504 416 573 335T642 98Q642 -28 605 -109T509 -237T375 -302T226 -320H130V-128Q223 -128
276 -120T357 -96T390 -54T397 4Z" />
<glyph unicode="-" glyph-name="hyphen" horiz-adv-x="1001" d="M900 832V512H100V832H900Z" />
<glyph unicode="." glyph-name="period" horiz-adv-x="924" d="M455 -29Q388 -29 344 -10T268 40T221 112T204 195Q204 235 221 275T270 347T346 399T456 419Q523 419 570 399T650 347T702 276T720 196Q720 153 703 113T653 41T573 -10T455 -29Z" />
<glyph unicode="/" glyph-name="slash" horiz-adv-x="748" d="M864 1441L448 -29H0L384 1441H864Z" />
<glyph unicode="0" glyph-name="zero" horiz-adv-x="1524" d="M762 1441Q888 1441 987 1412T1160 1333T1287 1212T1371 1061T1419 889T1434 706Q1434 615 1419 524T1371 352T1286 200T1159 80T986 0T762 -29Q637 -29 539 0T365 79T238 200T153 351T105 524T90
706Q90 798 105 888T152 1060T237 1212T363 1332T537 1412T762 1441ZM762 1121Q707 1121 666 1087T596 994T554 861T539 705Q539 626 553 551T595 419T664 326T762 291Q817 291 859 326T929 418T971 551T985 705Q985 786 971 861T928 994T859 1086T762 1121Z" />
<glyph unicode="1" glyph-name="one" horiz-adv-x="1109" d="M860 0H433V1021L209 980V1254Q276 1275 356 1312T544 1414H860V0Z" />
<glyph unicode="2" glyph-name="two" horiz-adv-x="1321" d="M604 349H1145V0H199L147 352Q192 395 251 441T373 537T497 639T606 747T683 862T713 983Q713 1021 696 1047T651 1090T591 1113T524 1120Q483 1120 441 1114T360 1099T288 1079T231 1056L167 1376Q279
1414 388 1427T594 1441Q739 1441 845 1407T1022 1314T1125 1177T1159 1013Q1159 919 1115 825T995 643T818 481T604 349Z" />
<glyph unicode="3" glyph-name="three" horiz-adv-x="1297" d="M285 864Q406 864 481 872T598 898T654 942T669 1004Q669 1045 652 1074T606 1121T539 1147T459 1156Q419 1156 376 1151T289 1137T203 1114T125 1085V1357Q219 1401 318 1420T540 1441Q656 1440
744 1424T896 1378T1002 1310T1070 1225T1106 1129T1117 1028Q1117 951 1091 897T1026 808T942 753T857 724Q902 716 953 697T1047 641T1120 547T1149 404Q1149 347 1138 293T1099 191T1025 103T909 33T744 -12T522 -29Q408 -29 312 -12T125 44V327Q160 311 202
298T288 276T376 261T459 256Q499 256 537 265T604 294T651 346T669 425Q669 465 656 498T603 556T487 594T285 608V864Z" />
<glyph unicode="4" glyph-name="four" horiz-adv-x="1364" d="M1108 608H1278V288H1108V0H692V288H84V608L436 1414H1108V608ZM623 1120L428 608H692V1120H623Z" />
<glyph unicode="5" glyph-name="five" horiz-adv-x="1425" d="M175 642L271 1414H1199L1167 1122H591L527 832Q561 863 602 882T687 911T773 925T851 928Q940 928 1024 896T1172 806T1276 665T1315 481Q1315 364 1277 270T1165 109T982 6T732 -30Q586 -30 482
3T307 93T198 227T143 395H559Q567 359 583 333T621 290T668 265T721 256Q756 256 790 269T851 307T894 370T911 454Q911 492 901 527T869 590T811 633T727 650Q701 650 673 645T618 630T566 607T525 576L175 642Z" />
<glyph unicode="6" glyph-name="six" horiz-adv-x="1399" d="M1171 1091Q1144 1101 1109 1112T1032 1133T945 1149T855 1156Q793 1156 738 1143T639 1092T567 984T531 800Q568 817 608 829T691 849T773 860T851 864Q941 864 1022 837T1164 758T1262 627T1299 448Q1299
389 1290 331T1256 220T1193 122T1094 43T952 -10T762 -29Q626 -29 526 -2T353 73T235 189T162 338T125 511T115 702Q115 860 158 995T288 1230T505 1385T808 1441Q896 1441 994 1426T1203 1376L1171 1091ZM531 578Q531 468 551 404T603 307T678 265T764 256Q808
256 842 271T899 310T935 366T947 431Q947 456 942 487T916 547T855 593T745 612Q703 612 651 604T531 578Z" />
<glyph unicode="7" glyph-name="seven" horiz-adv-x="1216" d="M1133 1122L701 -3H221L653 1122H125V1414H1101L1133 1122Z" />
<glyph unicode="8" glyph-name="eight" horiz-adv-x="1574" d="M1363 1091Q1363 1003 1305 927T1132 802Q1193 779 1252 748T1357 674T1431 575T1459 446Q1459 388 1447 330T1404 220T1324 122T1199 43T1020 -10T780 -29Q616 -29 492 5T284 94T158 218T115 358Q115
461 194 547T435 679Q387 708 346 744T275 827T228 929T211 1055Q211 1131 248 1201T359 1324T539 1409T788 1441Q927 1441 1034 1411T1215 1331T1325 1218T1363 1091ZM730 559Q704 567 675 576T615 596Q576 566 554 530T531 445Q531 391 553 355T610 296T691 265T783
256Q826 256 867 263T940 290T991 342T1011 425Q1011 450 990 466T930 497T841 525T730 559ZM788 1176Q713 1176 670 1148T627 1077Q627 1037 643 1005T691 947T771 899T883 854Q909 886 928 934T947 1037Q947 1063 935 1088T902 1132T852 1164T788 1176Z" />
<glyph unicode="9" glyph-name="nine" horiz-adv-x="1399" d="M243 321Q270 311 305 300T382 279T469 263T559 256Q621 256 676 269T775 320T847 428T883 612Q846 595 806 583T723 563T641 552T563 548Q473 548 392 575T250 654T152 785T115 964Q115 1023 124
1081T158 1192T221 1290T320 1369T462 1422T652 1441Q788 1441 888 1414T1061 1339T1179 1223T1252 1074T1289 901T1299 710Q1299 552 1256 417T1126 182T909 27T606 -29Q518 -29 420 -14T211 36L243 321ZM883 834Q883 944 863 1008T811 1105T736 1147T650 1156Q606
1156 572 1141T515 1102T479 1046T467 981Q467 956 472 925T498 865T559 819T669 800Q711 800 763 808T883 834Z" />
<glyph unicode=":" glyph-name="colon" horiz-adv-x="929" d="M465 0Q400 0 352 21T272 76T225 152T209 239Q209 284 225 327T274 404Q306 438 354 451T465 464Q528 464 576 451T656 404Q688 371 704 328T721 239Q721 195 705 153T658 76T578 21T465 0ZM465 690Q399
690 351 703T271 752Q240 785 225 827T209 915Q209 960 225 1003T274 1080T354 1135T465 1156Q528 1156 576 1135T656 1081T704 1004T721 915Q721 870 705 829T657 752Q625 718 577 704T465 690Z" />
<glyph unicode=";" glyph-name="semicolon" horiz-adv-x="869" d="M373 683Q308 684 260 704T180 755T133 828T117 915Q117 960 133 1003T182 1080T262 1135T373 1156Q436 1156 484 1135T564 1081T612 1004T629 915Q629 870 613 829T566 756T486 704T373 683ZM405
0Q352 -32 301 -29Q262 -32 229 -15T170 30T131 97T117 176Q117 219 133 260T183 334T267 387T386 409Q523 409 592 331T661 98Q661 -28 624 -109T528 -237T394 -302T245 -320H149V-128Q221 -128 270 -121T349 -98T392 -58T405 0Z" />
<glyph unicode="&lt;" glyph-name="less" horiz-adv-x="1098" d="M197 1024L901 1280V960L389 832L901 704V384L197 640V1024Z" />
<glyph unicode="=" glyph-name="equal" horiz-adv-x="1098" d="M901 519V263H197V519H901ZM901 928V672H197V928H901Z" />
<glyph unicode="&gt;" glyph-name="greater" horiz-adv-x="1088" d="M891 640L197 384V704L709 832L197 960V1280L891 1024V640Z" />
<glyph unicode="?" glyph-name="question" horiz-adv-x="1336" d="M327 770Q436 779 513 793T643 825T726 864T773 908T793 957T798 1010Q798 1046 785 1075T748 1126T693 1158T628 1170Q600 1170 574 1161T526 1133T492 1086T478 1020H147Q147 1110 180 1187T277
1321T437 1409T658 1441Q793 1441 890 1406T1049 1313T1140 1178T1169 1020Q1169 947 1139 877T1049 748T899 650T688 599V449H357L327 770ZM543 -29Q486 -29 444 -14T373 27T331 86T317 153Q317 187 331 220T374 278T445 319T543 335Q598 335 640 320T711 279T754
221T769 154Q769 119 756 86T714 28T644 -13T543 -29Z" />
<glyph unicode="@" glyph-name="at" horiz-adv-x="2463" d="M1780 273Q1835 273 1858 355T1881 603Q1881 729 1842 831T1723 1006T1525 1117T1248 1156Q1097 1156 964 1124T730 1021T572 839T514 569Q514 402 571 290T738 108T1012 7T1387 -29L1418 -189Q1375
-204 1306 -212T1137 -220Q939 -220 797 -189Q628 -153 502 -78T291 98T165 319T123 566Q123 725 166 851T284 1075T464 1241T692 1355T953 1419T1232 1440Q1362 1440 1488 1422T1727 1365T1936 1265T2102 1116T2211 915T2251 656Q2251 579 2238 505T2198 365T2131
242T2035 145T1911 81T1757 58Q1692 58 1639 72T1543 115T1466 186T1404 286Q1389 257 1364 233T1304 190T1229 161T1141 150Q1030 150 944 185T798 279T709 416T678 582Q678 659 706 730T787 856T915 944T1083 977Q1269 977 1356 823L1387 929H1592L1674 809V397Q1674
353 1685 329T1713 292T1748 276T1780 273ZM1356 700Q1278 760 1218 760Q1161 760 1123 745T1061 704T1027 647T1017 582Q1017 543 1032 509T1073 451T1134 412T1208 397Q1287 397 1356 428V700Z" />
<glyph unicode="A" glyph-name="A" horiz-adv-x="1395" d="M1385 0H851L785 301H434L371 0H10L370 1414H996L1385 0ZM614 1194L477 535H763L645 1194H614Z" />
<glyph unicode="B" glyph-name="B" horiz-adv-x="1549" d="M170 1414H646Q708 1414 782 1410T932 1392T1077 1354T1201 1290T1288 1193T1321 1056Q1321 1009 1310 963T1271 877T1193 809T1066 768Q1150 763 1215 730T1326 646T1394 536T1418 416Q1418 337 1386
263T1279 130T1079 36T771 0H170V1414ZM618 256H799Q885 256 927 300T970 416Q970 458 956 488T902 537T795 566T618 576V256ZM758 832Q805 832 844 845T911 881T954 932T970 992Q970 1040 951 1071T890 1120T781 1145T618 1152V832H758Z" />
<glyph unicode="C" glyph-name="C" horiz-adv-x="1427" d="M92 704Q92 875 153 1011T320 1243T564 1390T859 1441Q968 1441 1081 1420T1306 1344L1244 1024Q1156 1072 1070 1096T912 1120Q825 1120 756 1092T639 1009T566 878T540 704Q540 607 565 530T639 399T756
317T912 288Q984 288 1070 312T1244 384L1306 64Q1194 10 1081 -9T859 -29Q703 -29 564 21T320 166T154 397T92 704Z" />
<glyph unicode="D" glyph-name="D" horiz-adv-x="1539" d="M170 0V1414H662Q844 1414 989 1372T1234 1243T1388 1026T1442 719Q1442 585 1415 480T1337 294T1215 159T1056 68T869 16T658 0H170ZM618 320H648Q726 320 790 334T899 392T969 513T994 719Q994 835
972 912T907 1036T801 1102T657 1122H618V320Z" />
<glyph unicode="E" glyph-name="E" horiz-adv-x="1319" d="M171 1414H1163V1152H619V853H1099V597H619V288H1163V0H171V1414Z" />
<glyph unicode="F" glyph-name="F" horiz-adv-x="1200" d="M171 1414H1139V1152H619V850H1075V562H619V0H171V1414Z" />
<glyph unicode="G" glyph-name="G" horiz-adv-x="1548" d="M867 -29Q757 -29 657 -5T471 66T316 178T197 327T120 508T93 717Q93 879 157 1012T337 1241T612 1389T963 1441Q1066 1441 1181 1426T1411 1376L1347 1056Q1244 1093 1159 1107T995 1122Q890 1122 806
1093T663 1010T573 882T541 715Q541 614 562 535T627 401T738 317T899 288H1027V581L803 551V800H1411V124Q1337 80 1268 51T1132 4T1000 -21T867 -29Z" />
<glyph unicode="H" glyph-name="H" horiz-adv-x="1654" d="M171 1414H619V864H1035V1414H1483V0H1035V576H619V0H171V1414Z" />
<glyph unicode="I" glyph-name="I" horiz-adv-x="790" d="M171 1414H619V0H171V1414Z" />
<glyph unicode="J" glyph-name="J" horiz-adv-x="994" d="M343 -29Q252 -29 168 -16T23 35V320Q90 299 147 294T247 288Q292 288 317 306T356 354T372 419T375 492V1414H823V429Q823 309 781 223T672 80T518 -2T343 -29Z" />
<glyph unicode="K" glyph-name="K" horiz-adv-x="1416" d="M618 598V0H170V1414H618V791L938 1414H1461L1056 736L1461 0H938L650 666L618 598Z" />
<glyph unicode="L" glyph-name="L" horiz-adv-x="1150" d="M170 1414H618V288H1098V0H170V1414Z" />
<glyph unicode="M" glyph-name="M" horiz-adv-x="1887" d="M170 1414H586L938 864L1290 1414H1716V0H1258V768L928 209H831L490 768V0H170V1414Z" />
<glyph unicode="N" glyph-name="N" horiz-adv-x="1654" d="M170 1414H603L1141 704V1414H1483V0H1039L509 752V0H170V1414Z" />
<glyph unicode="O" glyph-name="O" horiz-adv-x="1593" d="M795 -29Q664 -29 561 -1T380 78T247 198T158 349T108 521T92 704Q92 796 111 886T168 1059T264 1211T400 1332T576 1412T795 1441Q915 1441 1013 1412T1190 1332T1327 1211T1423 1059T1481 887T1500
704Q1500 611 1484 521T1434 350T1344 199T1211 79T1030 0T795 -29ZM540 704Q540 584 557 499T607 360T687 281T795 256Q855 256 902 281T983 360T1034 499T1052 704Q1052 824 1035 909T984 1049T903 1130T795 1156Q735 1156 688 1130T608 1050T558 910T540 704Z"
/>
<glyph unicode="P" glyph-name="P" horiz-adv-x="1501" d="M170 1414H716Q858 1414 965 1397T1152 1347T1283 1270T1367 1172T1412 1057T1425 931Q1425 876 1413 821T1371 716T1292 623T1172 548T1003 498T778 480Q760 480 733 480T680 483L618 487V0H170V1414ZM618
704H721Q793 704 842 721T921 769T964 840T977 928Q977 1003 958 1052T905 1130T823 1172T721 1184H618V704Z" />
<glyph unicode="Q" glyph-name="Q" horiz-adv-x="1594" d="M1203 -484Q1115 -450 1038 -412T895 -321T775 -196T679 -22Q570 -10 484 25T333 112T222 231T147 374T105 534T92 704Q92 796 111 886T168 1059T264 1211T400 1332T576 1412T795 1441Q915 1441 1013
1412T1190 1332T1327 1211T1423 1059T1481 887T1500 704Q1500 587 1475 475T1393 268T1245 102T1021 -2Q1036 -36 1071 -68T1153 -128T1256 -177T1369 -208L1203 -484ZM540 704Q540 584 557 499T607 360T687 281T795 256Q855 256 902 281T983 360T1034 499T1052
704Q1052 824 1035 909T984 1049T903 1130T795 1156Q735 1156 688 1130T608 1050T558 910T540 704Z" />
<glyph unicode="R" glyph-name="R" horiz-adv-x="1456" d="M170 1414H806Q957 1414 1072 1375T1263 1271T1379 1125T1418 960Q1418 895 1405 832T1359 712T1269 610T1122 536Q1135 494 1166 432T1238 298T1326 149T1418 0H906Q863 97 818 217T746 480H618V0H170V1414ZM694
704Q770 704 822 724T908 776T955 848T970 928Q970 1007 948 1057T888 1135T800 1174T693 1184H618V704H694Z" />
<glyph unicode="S" glyph-name="S" horiz-adv-x="1394" d="M1179 1047Q1138 1065 1084 1083T970 1117T849 1141T734 1151Q640 1151 587 1127T534 1046Q534 1019 552 999T605 961T686 927T792 892L865 869Q957 841 1030 802T1153 709T1231 586T1258 429Q1258 326
1226 242T1124 97T948 4T689 -29Q555 -29 423 -7T155 70V400Q284 334 405 304T645 273Q742 273 786 304T831 390Q831 423 815 446T762 490T666 530T523 577Q439 602 368 640T244 731T163 856T133 1018Q133 1112 166 1190T267 1323T439 1410T688 1441Q745 1441 809
1436T939 1421T1071 1395T1194 1357L1179 1047Z" />
<glyph unicode="T" glyph-name="T" horiz-adv-x="1116" d="M330 0V1088H10V1414H1105V1088H778V0H330Z" />
<glyph unicode="U" glyph-name="U" horiz-adv-x="1579" d="M810 -29Q661 -29 543 14T341 145T214 365T170 674V1414H618V672Q618 573 628 496T662 366T726 284T826 256Q892 256 932 284T995 365T1026 496T1034 672V1414H1408V674Q1408 496 1373 364T1265 145T1079
14T810 -29Z" />
<glyph unicode="V" glyph-name="V" horiz-adv-x="1364" d="M10 1414H554L760 359L1002 1414H1354L971 0H362L10 1414Z" />
<glyph unicode="W" glyph-name="W" horiz-adv-x="2062" d="M1063 800L918 0H327L71 1414H577L718 280L893 1414H1319L1491 278L1639 1414H1991L1767 0H1223L1063 800Z" />
<glyph unicode="X" glyph-name="X" horiz-adv-x="1451" d="M1061 704L1413 0H869L689 533L447 0H37L389 704L37 1414H581L797 913L1029 1414H1413L1061 704Z" />
<glyph unicode="Y" glyph-name="Y" horiz-adv-x="1235" d="M414 0V486L-23 1414H491L663 905L821 1414H1257L862 499V0H414Z" />
<glyph unicode="Z" glyph-name="Z" horiz-adv-x="1064" d="M980 1414V1088L564 320H967V0H84V317L567 1088H98V1414H980Z" />
<glyph unicode="[" glyph-name="bracketleft" horiz-adv-x="1008" d="M180 1441H881V1152H612V289H881V0H180V1441Z" />
<glyph unicode="\" glyph-name="backslash" horiz-adv-x="853" d="M451 1441L853 0H402L0 1441H451Z" />
<glyph unicode="]" glyph-name="bracketright" horiz-adv-x="1008" d="M848 0H147V289H416V1152H147V1441H848V0Z" />
<glyph unicode="^" glyph-name="asciicircum" horiz-adv-x="1376" d="M188 512L488 1200H888L1188 512H844L688 1000L537 512H188Z" />
<glyph unicode="_" glyph-name="underscore" horiz-adv-x="1000" d="M1000 0V-220H0V0H1000Z" />
<glyph unicode="`" glyph-name="grave" horiz-adv-x="1204" d="M586 1219L330 1853H778L874 1219H586Z" />
<glyph unicode="a" glyph-name="a" horiz-adv-x="1362" d="M416 -29Q352 -29 294 -11T190 44T119 137T92 271Q92 345 116 399T180 493T275 557T391 597T516 617T642 623Q684 623 723 621T796 616Q794 679 772 720T714 786T630 821T529 831Q480 831 429 825T328
809T235 788T156 768V1048Q205 1059 261 1069T379 1088T503 1101T629 1106Q706 1106 780 1097T921 1065T1044 1006T1141 915T1205 786T1228 615V0H816V179Q792 130 749 92T652 26T537 -15T416 -29ZM585 206Q613 206 649 221T718 269T773 350T796 467H763Q715 467
665 457T572 427T503 378T476 311Q476 281 486 261T511 229T546 211T585 206Z" />
<glyph unicode="b" glyph-name="b" horiz-adv-x="1519" d="M948 -29Q894 -29 841 -15T741 25T654 90T588 178V0H156V1536H588V931Q611 969 651 1001T741 1056T848 1093T962 1106Q1052 1106 1137 1076T1288 979T1394 803T1435 538Q1435 390 1396 283T1290 107T1135
4T948 -29ZM1003 537Q1003 619 985 674T937 764T870 812T793 827Q754 827 718 813T652 764T606 675T588 538Q588 456 605 401T652 312T718 264T794 249Q833 249 870 263T937 311T985 400T1003 537Z" />
<glyph unicode="c" glyph-name="c" horiz-adv-x="1213" d="M512 538Q512 465 529 411T579 322T656 269T757 251Q829 251 893 270T1024 324L1088 64Q1044 41 993 24T888 -5T779 -23T670 -29Q549 -29 442 5T255 109T127 286T80 539Q80 685 127 792T254 969T442 1073T670
1107Q723 1107 778 1101T888 1084T993 1055T1088 1014L1024 754Q957 788 893 807T757 827Q701 827 656 810T579 756T530 666T512 538Z" />
<glyph unicode="d" glyph-name="d" horiz-adv-x="1519" d="M571 -29Q473 -29 385 4T230 106T124 283T84 538Q84 694 124 802T231 978T382 1076T557 1106Q614 1106 671 1093T778 1057T868 1001T931 931V1536H1363V0H931V178Q904 129 865 91T779 26T678 -15T571
-29ZM516 537Q516 455 534 400T581 312T648 264T725 249Q764 249 801 263T867 311T913 400T931 538Q931 619 914 674T867 764T802 812T726 827Q687 827 650 813T582 764T534 675T516 537Z" />
<glyph unicode="e" glyph-name="e" horiz-adv-x="1297" d="M1156 43Q1062 12 953 -8T726 -29Q597 -29 480 5T274 111T133 293T80 557Q80 644 107 718T180 854T289 962T423 1041T571 1089T720 1106Q835 1106 923 1081T1069 1012T1158 912T1188 791Q1188 713 1162
658T1091 566T988 507T864 474T732 459T603 456Q582 456 563 456T524 457Q532 400 555 361T614 298T696 263T796 252Q836 252 881 258T973 274T1066 298T1156 327V43ZM515 611Q539 612 576 614T656 621T740 635T816 658T871 693T892 744Q892 795 852 825T739 856Q706
856 668 847T597 810T541 735T515 611Z" />
<glyph unicode="f" glyph-name="f" horiz-adv-x="959" d="M641 0H209V827H37V1079H207Q207 1202 240 1293T334 1446T481 1537T676 1568Q764 1568 839 1549T977 1504L945 1247Q887 1261 849 1270T774 1280Q728 1280 702 1263T662 1218T645 1154T641 1079H943Q929
1013 921 952T913 827H641V0Z" />
<glyph unicode="g" glyph-name="g" horiz-adv-x="1491" d="M902 186Q860 98 772 49T569 0Q446 0 355 46T203 167T114 339T84 538Q84 643 114 744T204 926T352 1056T555 1106Q629 1106 687 1089T791 1041T869 966T926 868Q926 877 924 905T919 966T911 1030T903
1079H1335V232Q1335 51 1291 -82T1163 -304T960 -436T688 -480Q627 -480 580 -477T489 -468T403 -453T307 -432L337 -180Q365 -188 400 -195T474 -207T553 -216T629 -220Q715 -220 768 -187T851 -98T891 31T902 186ZM487 537Q487 455 505 400T552 312T619 264T696
249Q735 249 772 263T838 311T884 400T902 538Q902 619 885 674T838 764T773 812T697 827Q658 827 621 813T553 764T505 675T487 537Z" />
<glyph unicode="h" glyph-name="h" horiz-adv-x="1485" d="M156 1536H588V931Q616 970 660 1002T757 1057T869 1093T987 1106Q1060 1106 1124 1083T1237 1007T1312 874T1340 677V0H908V570Q908 645 896 695T863 775T818 818T766 831Q736 831 707 820T653 787T611
737T588 673V0H156V1536Z" />
<glyph unicode="i" glyph-name="i" horiz-adv-x="761" d="M162 1079H594V0H162V1079ZM379 1301Q322 1301 272 1313T186 1346T128 1397T106 1463Q106 1503 127 1533T185 1584T272 1614T380 1624Q438 1624 488 1614T576 1584T634 1534T655 1463Q655 1427 634 1397T575
1346T488 1313T379 1301Z" />
<glyph unicode="j" glyph-name="j" horiz-adv-x="777" d="M205 -416Q126 -416 53 -412T-83 -384V-97Q-55 -106 -36 -112T0 -121T30 -126T61 -128Q103 -128 128 -112T167 -68T185 -6T189 67V1079H621V44Q621 -88 588 -176T497 -318T365 -393T205 -416ZM395 1318Q338
1318 288 1330T202 1363T144 1414T122 1480Q122 1520 143 1550T201 1601T288 1631T396 1641Q454 1641 504 1631T592 1601T650 1551T671 1480Q671 1444 650 1414T591 1363T504 1330T395 1318Z" />
<glyph unicode="k" glyph-name="k" horiz-adv-x="1405" d="M984 1079H1427L1016 571L1447 0H947L622 509L588 474V0H156V1536H588V598L984 1079Z" />
<glyph unicode="l" glyph-name="l" horiz-adv-x="744" d="M156 1536H588V0H156V1536Z" />
<glyph unicode="m" glyph-name="m" horiz-adv-x="2285" d="M154 1079H591Q582 1050 576 1026T567 977T563 929T561 876Q588 921 631 963T727 1036T841 1087T964 1106Q1013 1106 1060 1092T1151 1050T1230 981T1292 885Q1323 933 1372 973T1482 1043T1609 1089T1744
1106Q1852 1106 1927 1075T2049 987T2117 850T2138 673V0H1706V610Q1706 639 1700 676T1675 747T1626 804T1543 827Q1508 827 1477 810T1422 765T1384 701T1370 627V0H938V610Q938 651 931 690T905 759T856 808T778 827Q745 827 711 815T649 781T604 729T586 664V0H154V1079Z"
/>
<glyph unicode="n" glyph-name="n" horiz-adv-x="1572" d="M156 1079H588Q582 1045 576 992T570 881Q604 932 655 973T769 1044T900 1090T1041 1106Q1119 1106 1189 1083T1312 1008T1396 876T1427 678V0H995V615Q995 677 982 718T946 783T892 817T823 827Q783
827 744 814T673 777T618 723T588 657V0H156V1079Z" />
<glyph unicode="o" glyph-name="o" horiz-adv-x="1408" d="M704 -29Q586 -29 494 -7T333 54T216 146T137 263T94 396T80 538Q80 609 93 678T137 811T215 928T332 1021T494 1083T704 1106Q822 1106 914 1084T1075 1022T1193 929T1271 812T1314 679T1328 538Q1328
466 1315 396T1271 263T1193 147T1075 54T914 -7T704 -29ZM512 538Q512 484 522 433T554 341T613 276T704 251Q758 251 794 275T853 340T886 432T896 538Q896 592 886 643T854 735T795 801T704 826Q650 826 614 801T555 736T522 644T512 538Z" />
<glyph unicode="p" glyph-name="p" horiz-adv-x="1488" d="M156 1079H596Q579 1025 573 979T566 881Q594 930 639 971T738 1042T851 1089T968 1106Q1052 1106 1131 1074T1270 975T1367 804T1404 555Q1404 393 1364 282T1258 101T1112 2T948 -29Q889 -29 834 -17T731
18T646 71T588 138V-432H156V1079ZM588 537Q588 455 606 400T653 312T720 264T797 249Q836 249 873 263T939 311T985 400T1003 538Q1003 619 986 674T939 764T874 812T798 827Q759 827 722 813T654 764T606 675T588 537Z" />
<glyph unicode="q" glyph-name="q" horiz-adv-x="1503" d="M915 -432V138Q894 100 857 69T772 16T668 -17T554 -29Q468 -29 384 0T234 98T126 278T84 555Q84 699 121 803T222 975T366 1074T537 1106Q594 1106 650 1094T756 1059T847 1004T915 931V1079H1347V-432H915ZM500
537Q500 455 518 400T565 312T632 264T709 249Q748 249 785 263T851 311T897 400T915 538Q915 619 898 674T851 764T786 812T710 827Q671 827 634 813T566 764T518 675T500 537Z" />
<glyph unicode="r" glyph-name="r" horiz-adv-x="1050" d="M156 1079H567Q565 1053 564 1022T563 956T563 886T563 819Q583 868 615 919T690 1012T789 1079T914 1106Q927 1106 942 1105T973 1100T1001 1093T1024 1082L989 670Q944 687 894 695T807 704Q756 704
718 692T652 659T610 615T588 568V0H156V1079Z" />
<glyph unicode="s" glyph-name="s" horiz-adv-x="1156" d="M996 756Q896 802 801 827T633 853Q557 853 525 839T493 788Q493 756 540 738T678 695Q769 671 841 642T963 570T1040 467T1067 320Q1067 242 1037 178T946 67T792 -4T573 -29Q461 -29 348 -13T120 46V355Q223
310 327 283T525 256Q694 256 694 326Q694 338 686 348T657 367T597 387T498 413Q415 433 342 464T214 541T128 648T96 787Q96 857 125 916T214 1017T362 1082T568 1106Q636 1106 698 1100T817 1086T921 1068T1011 1050L996 756Z" />
<glyph unicode="t" glyph-name="t" horiz-adv-x="1053" d="M693 -29Q600 -29 515 -7T366 69T263 211T224 432V831H25V896L496 1408H656V1079H976Q964 1019 955 958T944 831H656V436Q656 400 661 367T684 308T733 267T818 251Q852 251 893 257T986 282L1010 23Q947
0 866 -14T693 -29Z" />
<glyph unicode="u" glyph-name="u" horiz-adv-x="1517" d="M1361 0H930L939 69Q943 101 946 141T951 224Q921 165 876 119T775 39T658 -11T533 -29Q455 -29 385 -4T262 77T177 220T145 432V1079H577V472Q577 410 588 368T620 300T666 263T721 251Q755 251 789
265T852 303T901 359T929 429V1079H1361V0Z" />
<glyph unicode="v" glyph-name="v" horiz-adv-x="1305" d="M29 1079H514L701 271L910 1079H1277L932 0H385L29 1079Z" />
<glyph unicode="w" glyph-name="w" horiz-adv-x="2019" d="M66 1079H526L687 261L848 1079H1318L1498 261L1612 1079H1954L1730 0H1174L1035 698L909 0H325L66 1079Z" />
<glyph unicode="x" glyph-name="x" horiz-adv-x="1361" d="M972 562L1332 0H842L633 359L445 0H82L389 556L29 1079H519L718 734L919 1079H1282L972 562Z" />
<glyph unicode="y" glyph-name="y" horiz-adv-x="1453" d="M848 1079H1280V151Q1280 38 1257 -52T1193 -212T1096 -333T971 -416T826 -464T668 -480Q559 -480 449 -469T248 -432L278 -180Q387 -206 460 -213T569 -220Q669 -220 728 -191T819 -102Q834 -72 843
-43T859 17T867 81T869 156Q848 118 812 89T732 40T640 10T545 0Q465 0 393 24T266 101T178 236T145 432V1079H529V444Q529 394 543 358T581 298T635 263T696 251Q725 251 752 260T801 288T835 334T848 396V1079Z" />
<glyph unicode="z" glyph-name="z" horiz-adv-x="1067" d="M590 271H977Q965 208 959 142T952 0H84V271L464 832H84L109 1079H952V826L590 271Z" />
<glyph unicode="{" glyph-name="braceleft" horiz-adv-x="1163" d="M381 1055Q381 1172 417 1277T523 1462T695 1589T931 1636V1409Q893 1409 873 1386T844 1326T833 1242T831 1145Q831 1089 813 1029T758 915T665 821T531 762Q608 743 664 699T758 598T813 475T831
350Q831 306 832 264T843 189T873 136T931 116V-111Q798 -111 696 -64T523 62T417 247T381 470Q381 507 369 533T337 574T289 597T231 604V921Q262 921 289 928T336 950T369 991T381 1055Z" />
<glyph unicode="|" glyph-name="bar" horiz-adv-x="872" d="M236 1600H636V-100H236V1600Z" />
<glyph unicode="}" glyph-name="braceright" horiz-adv-x="1163" d="M781 1055Q781 1017 793 992T825 951T873 928T931 921V604Q900 604 873 597T826 575T793 533T781 470Q781 353 745 248T639 63T467 -64T231 -111V116Q268 116 288 136T318 189T329 264T331 350Q331
410 349 475T404 597T497 699T631 762Q554 780 498 821T404 915T349 1028T331 1145Q331 1194 330 1241T319 1326T289 1386T231 1409V1636Q364 1636 466 1589T639 1463T745 1278T781 1055Z" />
<glyph unicode="~" glyph-name="asciitilde" horiz-adv-x="1673" d="M1027 836Q988 836 951 850T876 885T802 931T729 977T658 1013T587 1027Q530 1027 487 995T427 893L197 976Q233 1075 282 1147T390 1266T515 1337T651 1360Q689 1360 727 1346T802 1311T876
1265T949 1219T1020 1183T1090 1169Q1147 1169 1187 1193T1245 1272L1476 1189Q1441 1098 1393 1032T1286 922T1162 857T1027 836Z" />
<glyph unicode="&#xa0;" glyph-name="uni00A0" horiz-adv-x="510" />
<glyph unicode="&#xa1;" glyph-name="exclamdown" horiz-adv-x="1033" d="M292 0H740L676 900H356L292 0ZM516 1441Q451 1441 403 1424T323 1382T276 1322T260 1253Q260 1217 276 1183T325 1121T405 1077T516 1060Q579 1060 627 1076T707 1120T756 1181T773 1252Q773
1287 758 1321T710 1381T630 1424T516 1441Z" />
<glyph unicode="&#xa2;" glyph-name="cent" horiz-adv-x="1213" d="M840 0H623V136Q528 141 442 169Q335 203 255 273T127 450T80 703Q80 849 127 956T254 1133T442 1237Q528 1264 623 1270V1441H840V1256Q864 1252 888 1247Q942 1236 993 1219T1088 1178L1024
918Q957 952 893 971Q867 979 840 984V422Q867 426 893 434Q957 454 1024 488L1088 228Q1044 205 993 188T888 158Q864 153 840 149V0ZM512 702Q512 629 529 575T579 485Q598 464 623 448V957Q598 942 579 920Q547 884 530 830T512 702Z" />
<glyph unicode="&#xa3;" glyph-name="sterling" horiz-adv-x="1399" d="M294 832Q314 1012 355 1130T463 1317T625 1413T851 1441Q978 1441 1058 1413T1185 1332T1249 1201T1267 1024H1011Q1011 1057 1007 1086T990 1136T951 1171T883 1184Q841 1184 812 1165T765
1104T737 995T723 832H979V576H723V416Q723 384 722 349T718 283Q738 280 762 276T809 267T852 259T883 256Q919 256 938 267T967 297T977 338T979 384H1299Q1299 264 1266 185T1178 58T1054 -9T915 -29Q819 -29 753 -19T643 9T572 49T531 96Q462 39 357 20T115
0V256Q146 256 174 262T225 282T261 321T275 384V576H115V832H294Z" />
<glyph unicode="&#xa4;" glyph-name="currency" horiz-adv-x="1290" d="M640 293Q536 293 457 328T325 420T245 550T218 700Q218 777 244 850T324 980T456 1071T640 1106Q744 1106 823 1072T955 980T1034 850T1061 700Q1061 623 1034 550T954 420T822 328T640
293ZM639 469Q692 469 733 489T801 541T843 614T857 700Q857 743 843 784T802 858T734 910T639 930Q585 930 544 911T475 859T433 785T419 700Q419 656 433 615T475 541T544 489T639 469Z" />
<glyph unicode="&#xa5;" glyph-name="yen" horiz-adv-x="1292" d="M799 1414H1269L966 864H1246V608H846V448H1246V192H846V0H446V192H46V448H446V608H46V864H326L23 1414H493L646 1027L799 1414Z" />
<glyph unicode="&#xa6;" glyph-name="brokenbar" horiz-adv-x="698" d="M162 1600H546V864H162V1600ZM162 640H546V-96H162V640Z" />
<glyph unicode="&#xa7;" glyph-name="section" horiz-adv-x="941" d="M14 1136Q14 1201 46 1263T143 1373T301 1450T519 1479Q585 1479 657 1467T812 1426V1177Q795 1185 767 1192T704 1206T629 1215T549 1219Q515 1219 483 1214T426 1198T386 1166T371 1116Q371
1096 394 1081T454 1052T539 1022T637 986T734 940T819 879T880 796T903 687Q903 635 880 583T809 486Q836 464 858 437T897 376T923 301T933 211Q933 143 904 80T813 -32T657 -110T433 -139Q361 -139 275 -129T95 -99V160Q198 136 275 126T413 115Q491 115 528
141T565 209Q565 229 542 244T480 274T394 304T294 340T195 386T108 448T47 531T23 641Q23 698 47 753T123 857Q75 902 45 968T14 1136ZM608 641Q608 659 586 675T527 709T440 743T337 781Q329 766 322 743T315 693Q315 676 337 661T397 631T484 599T588 565Q599
582 603 602T608 641Z" />
<glyph unicode="&#xa8;" glyph-name="dieresis" horiz-adv-x="1356" d="M386 1197Q335 1197 296 1214T231 1260T191 1325T178 1399Q178 1437 191 1473T230 1537T295 1583T386 1600Q438 1600 477 1583T542 1538T581 1473T595 1399Q595 1361 582 1325T542 1261T477
1215T386 1197ZM969 1197Q918 1197 879 1214T814 1260T774 1325T761 1399Q761 1437 774 1473T813 1537T878 1583T969 1600Q1021 1600 1060 1583T1125 1538T1164 1473T1178 1399Q1178 1361 1165 1325T1125 1261T1060 1215T969 1197Z" />
<glyph unicode="&#xa9;" glyph-name="copyright" horiz-adv-x="2312" d="M1156 88Q1260 88 1347 112T1504 178T1626 279T1714 405T1766 548T1784 700Q1784 776 1767 851T1714 995T1627 1121T1505 1221T1348 1288T1156 1312Q1051 1312 964 1288T807 1222T685 1121T598
995T546 852T528 700Q528 623 545 548T598 405T685 279T807 179T964 112T1156 88ZM1156 1541Q1306 1541 1430 1508T1655 1417T1830 1278T1955 1105T2030 908T2055 700Q2055 595 2030 492T1955 295T1830 122T1655 -16T1431 -108T1156 -141Q1006 -141 881 -108T656
-17T482 121T357 294T282 491T257 700Q257 805 282 908T357 1104T481 1278T656 1416T881 1508T1156 1541ZM1175 238Q1083 238 1003 268T862 357T767 505T732 713Q732 801 761 882T845 1026T981 1125T1165 1162Q1241 1162 1317 1147T1469 1096L1453 864Q1411 890
1356 902T1250 915Q1206 915 1169 901T1106 860T1064 794T1049 702Q1049 596 1100 541T1243 486Q1354 486 1457 538L1483 310Q1414 275 1337 257T1175 238Z" />
<glyph unicode="&#xaa;" glyph-name="ordfeminine" horiz-adv-x="1034" d="M310 331Q263 331 221 344T146 384T94 452T74 549Q74 603 91 642T138 710T207 757T291 786T383 801T474 805Q505 805 533 804T586 800Q585 846 569 876T527 925T466 950T392 957Q356 957
319 952T245 940T177 925T121 911V1115Q156 1123 197 1130T283 1143T373 1152T465 1156Q549 1156 627 1140T767 1084T864 974T901 800V352H601V482Q584 447 553 419T482 372T398 342T310 331ZM433 502Q453 502 479 513T529 547T569 606T586 692H562Q527 692 491
685T424 663T374 627T354 578Q354 556 361 542T379 518T405 506T433 502Z" />
<glyph unicode="&#xab;" glyph-name="guillemotleft" horiz-adv-x="1290" d="M591 250L93 600V900L591 1250V930L285 750L591 570V250ZM1153 250L655 600V900L1153 1250V930L847 750L1153 570V250Z" />
<glyph unicode="&#xac;" glyph-name="logicalnot" horiz-adv-x="1176" d="M997 832V529H421V288H197V832H997Z" />
<glyph unicode="&#xad;" glyph-name="uni00AD" horiz-adv-x="1707" />
<glyph unicode="&#xae;" glyph-name="registered" horiz-adv-x="2312" d="M837 1157H1147Q1248 1157 1324 1137T1452 1081T1530 998T1556 899Q1556 864 1548 830T1518 764T1459 708T1365 668Q1377 613 1398 560T1445 456T1500 360T1556 273H1267Q1235 329 1201
417T1138 642H1101V268H837V1157ZM1122 779Q1170 779 1202 787T1255 810T1284 842T1293 878Q1293 918 1280 940T1243 974T1188 987T1121 990H1101V779H1122ZM1156 88Q1260 88 1347 112T1504 178T1626 279T1714 405T1766 548T1784 700Q1784 776 1767 851T1714 995T1627
1121T1505 1221T1348 1288T1156 1312Q1051 1312 964 1288T807 1222T685 1121T598 995T546 852T528 700Q528 623 545 548T598 405T685 279T807 179T964 112T1156 88ZM1156 1541Q1304 1541 1427 1508T1650 1417T1823 1278T1946 1105T2020 908T2045 700Q2045 595 2021
492T1947 295T1823 122T1650 -16T1428 -108T1156 -141Q1008 -141 885 -108T662 -17T489 121T365 294T291 491T266 700Q266 805 290 908T364 1104T488 1278T662 1416T884 1508T1156 1541Z" />
<glyph unicode="&#xaf;" glyph-name="overscore" horiz-adv-x="987" d="M894 1545V1300H94V1545H894Z" />
<glyph unicode="&#xb0;" glyph-name="degree" horiz-adv-x="991" d="M473 823Q396 823 338 849T241 918T182 1015T162 1126Q162 1182 181 1236T240 1332T337 1400T473 1426Q551 1426 609 1400T707 1332T766 1236T786 1126Q786 1069 766 1015T707 918T610 849T473
823ZM472 983Q504 983 529 995T571 1027T597 1073T606 1126Q606 1153 598 1178T572 1222T530 1254T472 1266Q439 1266 414 1254T372 1223T346 1178T337 1126Q337 1099 346 1074T372 1028T414 995T472 983Z" />
<glyph unicode="&#xb1;" glyph-name="plusminus" horiz-adv-x="1675" d="M397 604H197V860H397V1108H697V860H897V604H697V360H397V604ZM897 249V0H197V249H897Z" />
<glyph unicode="&#xb2;" glyph-name="twosuperior" horiz-adv-x="1063" d="M474 614H883V350H168L128 616Q162 649 206 684T299 757T393 834T475 916T534 1003T556 1094Q556 1123 543 1143T510 1175T464 1193T413 1198Q382 1198 351 1194T290 1183T235 1167T192
1150L143 1391Q228 1420 310 1430T467 1441Q576 1441 656 1415T790 1344T868 1241T894 1117Q894 1046 861 974T770 837T636 714T474 614Z" />
<glyph unicode="&#xb3;" glyph-name="threesuperior" horiz-adv-x="1040" d="M249 993Q343 993 401 999T492 1019T535 1053T547 1102Q547 1133 534 1155T498 1192T446 1212T384 1219Q353 1219 319 1216T252 1205T186 1187T125 1164V1375Q198 1409 275 1424T447
1441Q537 1440 605 1427T722 1392T805 1339T858 1273T886 1199T894 1120Q894 1061 874 1019T824 950T758 907T693 884Q727 878 766 864T840 820T896 747T919 636Q919 592 910 550T880 471T822 403T733 349T605 314T433 301Q344 301 270 314T125 357V577Q152 564
184 554T251 537T319 526T384 522Q415 522 444 528T497 551T533 591T547 653Q547 684 537 710T496 755T406 784T249 795V993Z" />
<glyph unicode="&#xb4;" glyph-name="acute" horiz-adv-x="1204" d="M330 1219L426 1853H874L618 1219H330Z" />
<glyph unicode="&#xb5;" glyph-name="mu" horiz-adv-x="1517" d="M1361 0H930L939 69Q943 101 946 141T951 224Q921 165 876 119T775 39T658 -11Q610 -25 562 -28V-352H145V1079H577V472Q577 410 588 368T620 300T666 263T721 251Q755 251 789 265T852 303T901
359T929 429V1079H1361V0Z" />
<glyph unicode="&#xb6;" glyph-name="paragraph" horiz-adv-x="1451" d="M1334 0H1034V1156H834V0H534V704Q411 704 330 735T202 816T136 929T117 1055Q117 1131 139 1197T220 1311T379 1386T638 1414H1334V0Z" />
<glyph unicode="&#xb7;" glyph-name="middot" horiz-adv-x="927" d="M465 502Q396 502 344 521T258 571T207 643T190 726Q190 770 208 812T260 888T346 942T466 963Q533 963 585 943T671 889T724 813T742 727Q742 684 725 644T674 572T587 521T465 502Z" />
<glyph unicode="&#xb8;" glyph-name="cedilla" horiz-adv-x="1029" d="M238 0H438V-100Q524 -100 590 -129T700 -205T768 -313T791 -438Q791 -503 767 -566T691 -678T563 -758T380 -788Q347 -788 312 -785T238 -774V-478Q289 -487 329 -487Q368 -487 397 -476T446
-448T476 -408T486 -361Q486 -338 477 -316T449 -277T402 -249T335 -238Q290 -238 238 -256V0Z" />
<glyph unicode="&#xb9;" glyph-name="onesuperior" horiz-adv-x="877" d="M661 347H313V1100L113 1059V1272Q141 1282 173 1295T244 1327T328 1369T427 1426H661V347Z" />
<glyph unicode="&#xba;" glyph-name="ordmasculine" horiz-adv-x="1135" d="M559 928Q487 928 459 882T431 751Q431 661 459 619T559 576Q631 576 659 618T687 751Q687 836 659 882T559 928ZM559 1120Q667 1120 740 1088T859 1005T923 887T943 752Q943 683 924
617T861 499T746 416T570 384Q459 384 383 414T261 494T195 611T175 752Q175 821 194 887T259 1004T377 1088T559 1120Z" />
<glyph unicode="&#xbb;" glyph-name="guillemotright" horiz-adv-x="1290" d="M655 250L1153 600V900L655 1250V930L961 750L655 570V250ZM93 250L591 600V900L93 1250V930L399 750L93 570V250Z" />
<glyph unicode="&#xbc;" glyph-name="onequarter" horiz-adv-x="2588" d="M1587 1441L1044 0H678L1195 1441H1587ZM661 347H313V1100L113 1059V1272Q141 1282 173 1295T244 1327T328 1369T427 1426H661V347ZM2378 389H2553V150H2378V-54H1936V150H1434V389L1782
1055H2378V389ZM1972 836L1731 389H1996V836H1972Z" />
<glyph unicode="&#xbd;" glyph-name="onehalf" horiz-adv-x="2457" d="M1597 1441L1054 0H688L1205 1441H1597ZM661 347H313V1100L113 1059V1272Q141 1282 173 1295T244 1327T328 1369T427 1426H661V347ZM1932 264H2341V0H1626L1586 266Q1620 299 1664 334T1757
407T1851 484T1933 566T1992 653T2014 744Q2014 773 2001 793T1968 825T1922 843T1871 848Q1840 848 1809 844T1748 833T1693 817T1650 800L1601 1041Q1686 1070 1768 1080T1925 1091Q2034 1091 2114 1065T2248 994T2326 891T2352 767Q2352 696 2319 624T2228 487T2094
364T1932 264Z" />
<glyph unicode="&#xbe;" glyph-name="threequarters" horiz-adv-x="2823" d="M1788 1441L1245 0H879L1396 1441H1788ZM2583 389H2758V150H2583V-54H2141V150H1639V389L1987 1055H2583V389ZM2177 836L1936 389H2201V836H2177ZM249 993Q343 993 401 999T492 1019T535
1053T547 1102Q547 1133 534 1155T498 1192T446 1212T384 1219Q353 1219 319 1216T252 1205T186 1187T125 1164V1375Q198 1409 275 1424T447 1441Q537 1440 605 1427T722 1392T805 1339T858 1273T886 1199T894 1120Q894 1061 874 1019T824 950T758 907T693 884Q727
878 766 864T840 820T896 747T919 636Q919 592 910 550T880 471T822 403T733 349T605 314T433 301Q344 301 270 314T125 357V577Q152 564 184 554T251 537T319 526T384 522Q415 522 444 528T497 551T533 591T547 653Q547 684 537 710T496 755T406 784T249 795V993Z"
/>
<glyph unicode="&#xbf;" glyph-name="questiondown" horiz-adv-x="1336" d="M989 642Q880 633 803 619T673 587T590 548T543 504T523 455T518 402Q518 366 531 337T568 286T623 254T688 242Q716 242 742 251T790 279T824 326T838 392H1169Q1169 302 1136 225T1039
91T879 3T658 -29Q523 -29 426 6T267 99T176 234T147 392Q147 465 177 535T267 664T417 762T628 813V963H959L989 642ZM773 1441Q830 1441 872 1426T943 1385T985 1326T999 1259Q999 1225 985 1192T942 1134T871 1093T773 1077Q718 1077 676 1092T605 1133T562
1191T547 1258Q547 1293 560 1326T602 1384T672 1425T773 1441Z" />
<glyph unicode="&#xc0;" glyph-name="Agrave" horiz-adv-x="1395" d="M1385 0H851L785 301H434L371 0H10L370 1414H996L1385 0ZM614 1194L477 535H763L645 1194H614ZM681 1592L425 2226H873L969 1592H681Z" />
<glyph unicode="&#xc1;" glyph-name="Aacute" horiz-adv-x="1395" d="M1385 0H851L785 301H434L371 0H10L370 1414H996L1385 0ZM614 1194L477 535H763L645 1194H614ZM425 1537L521 2171H969L713 1537H425Z" />
<glyph unicode="&#xc2;" glyph-name="Acircumflex" horiz-adv-x="1395" d="M1385 0H851L785 301H434L371 0H10L370 1414H996L1385 0ZM614 1194L477 535H763L645 1194H614ZM847 1580L697 1982L547 1580H247L447 2124H947L1147 1580H847Z" />
<glyph unicode="&#xc3;" glyph-name="Atilde" horiz-adv-x="1395" d="M1385 0H851L785 301H434L371 0H10L370 1414H996L1385 0ZM614 1194L477 535H763L645 1194H614ZM880 1618Q831 1618 781 1640T680 1688T581 1737T487 1759Q454 1759 432 1727T404 1623L169 1673Q186
1766 217 1836T290 1953T379 2025T478 2049Q531 2049 586 2027T695 1979T802 1930T904 1908Q938 1908 961 1940T990 2044L1225 1994Q1205 1901 1170 1831T1089 1714T990 1642T880 1618Z" />
<glyph unicode="&#xc4;" glyph-name="Adieresis" horiz-adv-x="1395" d="M1385 0H851L785 301H434L371 0H10L370 1414H996L1385 0ZM614 1194L477 535H763L645 1194H614ZM405 1570Q354 1570 315 1587T250 1633T210 1698T197 1772Q197 1810 210 1846T249 1910T314
1956T405 1973Q457 1973 496 1956T561 1911T600 1846T614 1772Q614 1734 601 1698T561 1634T496 1588T405 1570ZM988 1570Q937 1570 898 1587T833 1633T793 1698T780 1772Q780 1810 793 1846T832 1910T897 1956T988 1973Q1040 1973 1079 1956T1144 1911T1183 1846T1197
1772Q1197 1734 1184 1698T1144 1634T1079 1588T988 1570Z" />
<glyph unicode="&#xc5;" glyph-name="Aring" horiz-adv-x="1395" d="M1385 0H851L785 301H434L371 0H10L370 1414H996L1385 0ZM614 1194L477 535H763L645 1194H614ZM601 1781Q601 1739 626 1712T697 1685Q742 1685 767 1712T793 1781Q793 1823 768 1850T697 1877Q652
1877 627 1850T601 1781ZM473 1781Q473 1818 487 1853T530 1914T601 1957T697 1973Q751 1973 793 1957T863 1915T906 1853T921 1781Q921 1743 907 1709T864 1648T793 1605T697 1589Q643 1589 601 1605T531 1647T488 1708T473 1781Z" />
<glyph unicode="&#xc6;" glyph-name="AE" horiz-adv-x="1978" d="M1935 0H850L827 301H476L370 0H10L570 1414H1732L1770 1152H1231L1270 853H1748L1786 597H1306L1350 288H1894L1935 0ZM783 1194L552 535H838L814 1194H783Z" />
<glyph unicode="&#xc7;" glyph-name="Ccedilla" horiz-adv-x="1427" d="M92 704Q92 875 153 1011T320 1243T564 1390T859 1441Q968 1441 1081 1420T1306 1344L1244 1024Q1156 1072 1070 1096T912 1120Q825 1120 756 1092T639 1009T566 878T540 704Q540 607 565
530T639 399T756 317T912 288Q984 288 1070 312T1244 384L1306 64Q1194 10 1081 -9T859 -29Q703 -29 564 21T320 166T154 397T92 704ZM661 0H861V-100Q947 -100 1013 -129T1123 -205T1191 -313T1214 -438Q1214 -503 1190 -566T1114 -678T986 -758T803 -788Q770
-788 735 -785T661 -774V-478Q712 -487 752 -487Q791 -487 820 -476T869 -448T899 -408T909 -361Q909 -338 900 -316T872 -277T825 -249T758 -238Q713 -238 661 -256V0Z" />
<glyph unicode="&#xc8;" glyph-name="Egrave" horiz-adv-x="1319" d="M171 1414H1163V1152H619V853H1099V597H619V288H1163V0H171V1414ZM643 1592L387 2226H835L931 1592H643Z" />
<glyph unicode="&#xc9;" glyph-name="Eacute" horiz-adv-x="1319" d="M171 1414H1163V1152H619V853H1099V597H619V288H1163V0H171V1414ZM387 1537L483 2171H931L675 1537H387Z" />
<glyph unicode="&#xca;" glyph-name="Ecircumflex" horiz-adv-x="1319" d="M171 1414H1163V1152H619V853H1099V597H619V288H1163V0H171V1414ZM809 1577L659 1979L509 1577H209L409 2121H909L1109 1577H809Z" />
<glyph unicode="&#xcb;" glyph-name="Edieresis" horiz-adv-x="1319" d="M171 1414H1163V1152H619V853H1099V597H619V288H1163V0H171V1414ZM370 1570Q319 1570 280 1587T215 1633T175 1698T162 1772Q162 1810 175 1846T214 1910T279 1956T370 1973Q422 1973 461
1956T526 1911T565 1846T579 1772Q579 1734 566 1698T526 1634T461 1588T370 1570ZM953 1570Q902 1570 863 1587T798 1633T758 1698T745 1772Q745 1810 758 1846T797 1910T862 1956T953 1973Q1005 1973 1044 1956T1109 1911T1148 1846T1162 1772Q1162 1734 1149
1698T1109 1634T1044 1588T953 1570Z" />
<glyph unicode="&#xcc;" glyph-name="Igrave" horiz-adv-x="790" d="M171 1414H619V0H171V1414ZM333 1535L77 2169H525L621 1535H333Z" />
<glyph unicode="&#xcd;" glyph-name="Iacute" horiz-adv-x="790" d="M171 1414H619V0H171V1414ZM125 1537L221 2171H669L413 1537H125Z" />
<glyph unicode="&#xce;" glyph-name="Icircumflex" horiz-adv-x="790" d="M171 1414H619V0H171V1414ZM547 1580L397 1982L247 1580H-53L147 2124H647L847 1580H547Z" />
<glyph unicode="&#xcf;" glyph-name="Idieresis" horiz-adv-x="790" d="M171 1414H619V0H171V1414ZM105 1570Q54 1570 15 1587T-50 1633T-90 1698T-103 1772Q-103 1810 -90 1846T-51 1910T14 1956T105 1973Q157 1973 196 1956T261 1911T300 1846T314 1772Q314
1734 301 1698T261 1634T196 1588T105 1570ZM688 1570Q637 1570 598 1587T533 1633T493 1698T480 1772Q480 1810 493 1846T532 1910T597 1956T688 1973Q740 1973 779 1956T844 1911T883 1846T897 1772Q897 1734 884 1698T844 1634T779 1588T688 1570Z" />
<glyph unicode="&#xd0;" glyph-name="Eth" horiz-adv-x="1539" d="M170 0V592H0V832H170V1414H662Q844 1414 989 1372T1234 1243T1388 1026T1442 719Q1442 585 1415 480T1337 294T1215 159T1056 68T869 16T658 0H170ZM618 320H648Q726 320 790 334T899 392T969
513T994 719Q994 835 972 912T907 1036T801 1102T657 1122H618V832H800V592H618V320Z" />
<glyph unicode="&#xd1;" glyph-name="Ntilde" horiz-adv-x="1654" d="M170 1414H603L1141 704V1414H1483V0H1039L509 752V0H170V1414ZM1010 1618Q961 1618 911 1640T810 1688T711 1737T617 1759Q584 1759 562 1727T534 1623L299 1673Q316 1766 347 1836T420 1953T509
2025T608 2049Q661 2049 716 2027T825 1979T932 1930T1034 1908Q1068 1908 1091 1940T1120 2044L1355 1994Q1335 1901 1300 1831T1219 1714T1120 1642T1010 1618Z" />
<glyph unicode="&#xd2;" glyph-name="Ograve" horiz-adv-x="1593" d="M795 -29Q664 -29 561 -1T380 78T247 198T158 349T108 521T92 704Q92 796 111 886T168 1059T264 1211T400 1332T576 1412T795 1441Q915 1441 1013 1412T1190 1332T1327 1211T1423 1059T1481
887T1500 704Q1500 611 1484 521T1434 350T1344 199T1211 79T1030 0T795 -29ZM540 704Q540 584 557 499T607 360T687 281T795 256Q855 256 902 281T983 360T1034 499T1052 704Q1052 824 1035 909T984 1049T903 1130T795 1156Q735 1156 688 1130T608 1050T558 910T540
704ZM697 1534L441 2168H889L985 1534H697Z" />
<glyph unicode="&#xd3;" glyph-name="Oacute" horiz-adv-x="1593" d="M795 -29Q664 -29 561 -1T380 78T247 198T158 349T108 521T92 704Q92 796 111 886T168 1059T264 1211T400 1332T576 1412T795 1441Q915 1441 1013 1412T1190 1332T1327 1211T1423 1059T1481
887T1500 704Q1500 611 1484 521T1434 350T1344 199T1211 79T1030 0T795 -29ZM540 704Q540 584 557 499T607 360T687 281T795 256Q855 256 902 281T983 360T1034 499T1052 704Q1052 824 1035 909T984 1049T903 1130T795 1156Q735 1156 688 1130T608 1050T558 910T540
704ZM524 1535L620 2169H1068L812 1535H524Z" />
<glyph unicode="&#xd4;" glyph-name="Ocircumflex" horiz-adv-x="1593" d="M795 -29Q664 -29 561 -1T380 78T247 198T158 349T108 521T92 704Q92 796 111 886T168 1059T264 1211T400 1332T576 1412T795 1441Q915 1441 1013 1412T1190 1332T1327 1211T1423 1059T1481
887T1500 704Q1500 611 1484 521T1434 350T1344 199T1211 79T1030 0T795 -29ZM540 704Q540 584 557 499T607 360T687 281T795 256Q855 256 902 281T983 360T1034 499T1052 704Q1052 824 1035 909T984 1049T903 1130T795 1156Q735 1156 688 1130T608 1050T558 910T540
704ZM946 1577L796 1979L646 1577H346L546 2121H1046L1246 1577H946Z" />
<glyph unicode="&#xd5;" glyph-name="Otilde" horiz-adv-x="1593" d="M795 -29Q664 -29 561 -1T380 78T247 198T158 349T108 521T92 704Q92 796 111 886T168 1059T264 1211T400 1332T576 1412T795 1441Q915 1441 1013 1412T1190 1332T1327 1211T1423 1059T1481
887T1500 704Q1500 611 1484 521T1434 350T1344 199T1211 79T1030 0T795 -29ZM540 704Q540 584 557 499T607 360T687 281T795 256Q855 256 902 281T983 360T1034 499T1052 704Q1052 824 1035 909T984 1049T903 1130T795 1156Q735 1156 688 1130T608 1050T558 910T540
704ZM979 1618Q930 1618 880 1640T779 1688T680 1737T586 1759Q553 1759 531 1727T503 1623L268 1673Q285 1766 316 1836T389 1953T478 2025T577 2049Q630 2049 685 2027T794 1979T901 1930T1003 1908Q1037 1908 1060 1940T1089 2044L1324 1994Q1304 1901 1269
1831T1188 1714T1089 1642T979 1618Z" />
<glyph unicode="&#xd6;" glyph-name="Odieresis" horiz-adv-x="1593" d="M795 -29Q664 -29 561 -1T380 78T247 198T158 349T108 521T92 704Q92 796 111 886T168 1059T264 1211T400 1332T576 1412T795 1441Q915 1441 1013 1412T1190 1332T1327 1211T1423 1059T1481
887T1500 704Q1500 611 1484 521T1434 350T1344 199T1211 79T1030 0T795 -29ZM540 704Q540 584 557 499T607 360T687 281T795 256Q855 256 902 281T983 360T1034 499T1052 704Q1052 824 1035 909T984 1049T903 1130T795 1156Q735 1156 688 1130T608 1050T558 910T540
704ZM504 1570Q453 1570 414 1587T349 1633T309 1698T296 1772Q296 1810 309 1846T348 1910T413 1956T504 1973Q556 1973 595 1956T660 1911T699 1846T713 1772Q713 1734 700 1698T660 1634T595 1588T504 1570ZM1087 1570Q1036 1570 997 1587T932 1633T892 1698T879
1772Q879 1810 892 1846T931 1910T996 1956T1087 1973Q1139 1973 1178 1956T1243 1911T1282 1846T1296 1772Q1296 1734 1283 1698T1243 1634T1178 1588T1087 1570Z" />
<glyph unicode="&#xd7;" glyph-name="multiply" horiz-adv-x="1271" d="M850 684L1045 490L832 277L638 471L444 277L231 490L425 684L231 879L444 1092L638 897L832 1092L1045 879L850 684Z" />
<glyph unicode="&#xd8;" glyph-name="Oslash" horiz-adv-x="1593" d="M795 -29Q664 -29 561 0H560L455 -200L255 -100L357 93Q293 139 246 198Q192 268 158 349T108 521T92 704Q92 796 111 886T168 1059T264 1211T400 1332T576 1412T795 1441Q915 1441 1013 1412Q1032
1406 1049 1400L1155 1600L1355 1500L1245 1292Q1290 1255 1327 1211Q1385 1141 1423 1059T1481 887T1500 704Q1500 611 1484 521T1434 350T1344 199T1211 79T1030 0T795 -29ZM540 704Q540 584 557 499Q559 489 562 479L905 1128Q904 1129 902 1130Q855 1156 795
1156Q735 1156 688 1130T608 1050T558 910T540 704ZM795 256Q855 256 902 281T983 360T1034 499T1052 704Q1052 817 1036 899L705 272Q746 256 795 256Z" />
<glyph unicode="&#xd9;" glyph-name="Ugrave" horiz-adv-x="1579" d="M810 -29Q661 -29 543 14T341 145T214 365T170 674V1414H618V672Q618 573 628 496T662 366T726 284T826 256Q892 256 932 284T995 365T1026 496T1034 672V1414H1408V674Q1408 496 1373 364T1265
145T1079 14T810 -29ZM773 1535L517 2169H965L1061 1535H773Z" />
<glyph unicode="&#xda;" glyph-name="Uacute" horiz-adv-x="1579" d="M810 -29Q661 -29 543 14T341 145T214 365T170 674V1414H618V672Q618 573 628 496T662 366T726 284T826 256Q892 256 932 284T995 365T1026 496T1034 672V1414H1408V674Q1408 496 1373 364T1265
145T1079 14T810 -29ZM517 1536L613 2170H1061L805 1536H517Z" />
<glyph unicode="&#xdb;" glyph-name="Ucircumflex" horiz-adv-x="1579" d="M810 -29Q661 -29 543 14T341 145T214 365T170 674V1414H618V672Q618 573 628 496T662 366T726 284T826 256Q892 256 932 284T995 365T1026 496T1034 672V1414H1408V674Q1408 496 1373
364T1265 145T1079 14T810 -29ZM939 1582L789 1984L639 1582H339L539 2126H1039L1239 1582H939Z" />
<glyph unicode="&#xdc;" glyph-name="Udieresis" horiz-adv-x="1579" d="M810 -29Q661 -29 543 14T341 145T214 365T170 674V1414H618V672Q618 573 628 496T662 366T726 284T826 256Q892 256 932 284T995 365T1026 496T1034 672V1414H1408V674Q1408 496 1373 364T1265
145T1079 14T810 -29ZM497 1570Q446 1570 407 1587T342 1633T302 1698T289 1772Q289 1810 302 1846T341 1910T406 1956T497 1973Q549 1973 588 1956T653 1911T692 1846T706 1772Q706 1734 693 1698T653 1634T588 1588T497 1570ZM1080 1570Q1029 1570 990 1587T925
1633T885 1698T872 1772Q872 1810 885 1846T924 1910T989 1956T1080 1973Q1132 1973 1171 1956T1236 1911T1275 1846T1289 1772Q1289 1734 1276 1698T1236 1634T1171 1588T1080 1570Z" />
<glyph unicode="&#xdd;" glyph-name="Yacute" horiz-adv-x="1235" d="M414 0V486L-23 1414H491L663 905L821 1414H1257L862 499V0H414ZM345 1537L441 2171H889L633 1537H345Z" />
<glyph unicode="&#xde;" glyph-name="Thorn" horiz-adv-x="1487" d="M170 1414H618V1280H716Q851 1280 953 1263T1129 1214T1253 1138T1332 1040T1374 926T1386 800Q1386 717 1358 637T1260 494T1073 391T778 352H618V0H170V1414ZM618 576H746Q818 576 867 593T946
641T989 712T1002 800Q1002 866 983 909T930 977T848 1013T746 1024H618V576Z" />
<glyph unicode="&#xdf;" glyph-name="germandbls" horiz-adv-x="1491" d="M589 0H157L156 1008Q156 1099 183 1166T256 1281T363 1361T492 1409T633 1434T773 1441Q924 1441 1032 1411T1210 1331T1312 1218T1345 1089Q1345 1041 1329 992T1281 899T1205 820T1102
762Q1195 752 1267 719T1388 638T1463 529T1489 405Q1489 323 1445 242T1309 96T1074 -9T735 -50V200Q817 200 878 216T980 260T1041 323T1062 394Q1062 429 1043 463T984 523T887 566T751 582V828Q813 828 858 845T932 888T974 946T988 1010Q988 1088 945 1134T808
1180Q705 1180 648 1134T589 1010V0Z" />
<glyph unicode="&#xe0;" glyph-name="agrave" horiz-adv-x="1362" d="M416 -29Q352 -29 294 -11T190 44T119 137T92 271Q92 345 116 399T180 493T275 557T391 597T516 617T642 623Q684 623 723 621T796 616Q794 679 772 720T714 786T630 821T529 831Q480 831 429
825T328 809T235 788T156 768V1048Q205 1059 261 1069T379 1088T503 1101T629 1106Q706 1106 780 1097T921 1065T1044 1006T1141 915T1205 786T1228 615V0H816V179Q792 130 749 92T652 26T537 -15T416 -29ZM585 206Q613 206 649 221T718 269T773 350T796 467H763Q715
467 665 457T572 427T503 378T476 311Q476 281 486 261T511 229T546 211T585 206ZM665 1219L409 1853H857L953 1219H665Z" />
<glyph unicode="&#xe1;" glyph-name="aacute" horiz-adv-x="1362" d="M416 -29Q352 -29 294 -11T190 44T119 137T92 271Q92 345 116 399T180 493T275 557T391 597T516 617T642 623Q684 623 723 621T796 616Q794 679 772 720T714 786T630 821T529 831Q480 831 429
825T328 809T235 788T156 768V1048Q205 1059 261 1069T379 1088T503 1101T629 1106Q706 1106 780 1097T921 1065T1044 1006T1141 915T1205 786T1228 615V0H816V179Q792 130 749 92T652 26T537 -15T416 -29ZM585 206Q613 206 649 221T718 269T773 350T796 467H763Q715
467 665 457T572 427T503 378T476 311Q476 281 486 261T511 229T546 211T585 206ZM409 1219L505 1853H953L697 1219H409Z" />
<glyph unicode="&#xe2;" glyph-name="acircumflex" horiz-adv-x="1362" d="M416 -29Q352 -29 294 -11T190 44T119 137T92 271Q92 345 116 399T180 493T275 557T391 597T516 617T642 623Q684 623 723 621T796 616Q794 679 772 720T714 786T630 821T529 831Q480
831 429 825T328 809T235 788T156 768V1048Q205 1059 261 1069T379 1088T503 1101T629 1106Q706 1106 780 1097T921 1065T1044 1006T1141 915T1205 786T1228 615V0H816V179Q792 130 749 92T652 26T537 -15T416 -29ZM585 206Q613 206 649 221T718 269T773 350T796
467H763Q715 467 665 457T572 427T503 378T476 311Q476 281 486 261T511 229T546 211T585 206ZM831 1248L681 1650L531 1248H231L431 1792H931L1131 1248H831Z" />
<glyph unicode="&#xe3;" glyph-name="atilde" horiz-adv-x="1362" d="M416 -29Q352 -29 294 -11T190 44T119 137T92 271Q92 345 116 399T180 493T275 557T391 597T516 617T642 623Q684 623 723 621T796 616Q794 679 772 720T714 786T630 821T529 831Q480 831 429
825T328 809T235 788T156 768V1048Q205 1059 261 1069T379 1088T503 1101T629 1106Q706 1106 780 1097T921 1065T1044 1006T1141 915T1205 786T1228 615V0H816V179Q792 130 749 92T652 26T537 -15T416 -29ZM585 206Q613 206 649 221T718 269T773 350T796 467H763Q715
467 665 457T572 427T503 378T476 311Q476 281 486 261T511 229T546 211T585 206ZM864 1245Q815 1245 765 1267T664 1315T565 1364T471 1386Q438 1386 416 1354T388 1250L153 1300Q170 1393 201 1463T274 1580T363 1652T462 1676Q515 1676 570 1654T679 1606T786
1557T888 1535Q922 1535 945 1567T974 1671L1209 1621Q1189 1528 1154 1458T1073 1341T974 1269T864 1245Z" />
<glyph unicode="&#xe4;" glyph-name="adieresis" horiz-adv-x="1362" d="M416 -29Q352 -29 294 -11T190 44T119 137T92 271Q92 345 116 399T180 493T275 557T391 597T516 617T642 623Q684 623 723 621T796 616Q794 679 772 720T714 786T630 821T529 831Q480 831
429 825T328 809T235 788T156 768V1048Q205 1059 261 1069T379 1088T503 1101T629 1106Q706 1106 780 1097T921 1065T1044 1006T1141 915T1205 786T1228 615V0H816V179Q792 130 749 92T652 26T537 -15T416 -29ZM585 206Q613 206 649 221T718 269T773 350T796 467H763Q715
467 665 457T572 427T503 378T476 311Q476 281 486 261T511 229T546 211T585 206ZM389 1197Q338 1197 299 1214T234 1260T194 1325T181 1399Q181 1437 194 1473T233 1537T298 1583T389 1600Q441 1600 480 1583T545 1538T584 1473T598 1399Q598 1361 585 1325T545
1261T480 1215T389 1197ZM972 1197Q921 1197 882 1214T817 1260T777 1325T764 1399Q764 1437 777 1473T816 1537T881 1583T972 1600Q1024 1600 1063 1583T1128 1538T1167 1473T1181 1399Q1181 1361 1168 1325T1128 1261T1063 1215T972 1197Z" />
<glyph unicode="&#xe5;" glyph-name="aring" horiz-adv-x="1362" d="M416 -29Q352 -29 294 -11T190 44T119 137T92 271Q92 345 116 399T180 493T275 557T391 597T516 617T642 623Q684 623 723 621T796 616Q794 679 772 720T714 786T630 821T529 831Q480 831 429
825T328 809T235 788T156 768V1048Q205 1059 261 1069T379 1088T503 1101T629 1106Q706 1106 780 1097T921 1065T1044 1006T1141 915T1205 786T1228 615V0H816V179Q792 130 749 92T652 26T537 -15T416 -29ZM585 206Q613 206 649 221T718 269T773 350T796 467H763Q715
467 665 457T572 427T503 378T476 311Q476 281 486 261T511 229T546 211T585 206ZM585 1408Q585 1366 610 1339T681 1312Q726 1312 751 1339T777 1408Q777 1450 752 1477T681 1504Q636 1504 611 1477T585 1408ZM457 1408Q457 1445 471 1480T514 1541T585 1584T681
1600Q735 1600 777 1584T847 1542T890 1480T905 1408Q905 1370 891 1336T848 1275T777 1232T681 1216Q627 1216 585 1232T515 1274T472 1335T457 1408Z" />
<glyph unicode="&#xe6;" glyph-name="ae" horiz-adv-x="1978" d="M1874 43Q1780 12 1671 -8T1444 -29Q1300 -29 1173 12T955 144Q913 103 853 71T721 16T572 -17T416 -29Q352 -29 294 -11T190 44T119 137T92 271Q92 345 116 399T180 493T275 557T391 597T516 617T642
623Q684 623 723 621T796 616Q794 679 772 720T714 786T630 821T529 831Q480 831 429 825T328 809T235 788T156 768V1048Q205 1059 261 1069T379 1088T503 1101T629 1106Q750 1106 861 1082T1058 996Q1144 1050 1242 1078T1438 1106Q1553 1106 1641 1081T1787 1012T1876
912T1906 791Q1906 713 1880 658T1809 566T1706 507T1582 474T1450 459T1321 456Q1300 456 1281 456T1242 457Q1250 400 1273 361T1332 298T1414 263T1514 252Q1554 252 1599 258T1691 274T1784 298T1874 327V43ZM1233 611Q1257 612 1294 614T1374 621T1458 635T1534
658T1589 693T1610 744Q1610 795 1570 825T1457 856Q1424 856 1386 847T1315 810T1259 735T1233 611ZM585 206Q613 206 649 221T718 269T773 350T796 467H763Q715 467 665 457T572 427T503 378T476 311Q476 281 486 261T511 229T546 211T585 206Z" />
<glyph unicode="&#xe7;" glyph-name="ccedilla" horiz-adv-x="1213" d="M512 538Q512 465 529 411T579 322T656 269T757 251Q829 251 893 270T1024 324L1088 64Q1044 41 993 24T888 -5T779 -23T670 -29Q549 -29 442 5T255 109T127 286T80 539Q80 685 127 792T254
969T442 1073T670 1107Q723 1107 778 1101T888 1084T993 1055T1088 1014L1024 754Q957 788 893 807T757 827Q701 827 656 810T579 756T530 666T512 538ZM531 0H731V-100Q817 -100 883 -129T993 -205T1061 -313T1084 -438Q1084 -503 1060 -566T984 -678T856 -758T673
-788Q640 -788 605 -785T531 -774V-478Q582 -487 622 -487Q661 -487 690 -476T739 -448T769 -408T779 -361Q779 -338 770 -316T742 -277T695 -249T628 -238Q583 -238 531 -256V0Z" />
<glyph unicode="&#xe8;" glyph-name="egrave" horiz-adv-x="1297" d="M1156 43Q1062 12 953 -8T726 -29Q597 -29 480 5T274 111T133 293T80 557Q80 644 107 718T180 854T289 962T423 1041T571 1089T720 1106Q835 1106 923 1081T1069 1012T1158 912T1188 791Q1188
713 1162 658T1091 566T988 507T864 474T732 459T603 456Q582 456 563 456T524 457Q532 400 555 361T614 298T696 263T796 252Q836 252 881 258T973 274T1066 298T1156 327V43ZM515 611Q539 612 576 614T656 621T740 635T816 658T871 693T892 744Q892 795 852 825T739
856Q706 856 668 847T597 810T541 735T515 611ZM632 1219L376 1853H824L920 1219H632Z" />
<glyph unicode="&#xe9;" glyph-name="eacute" horiz-adv-x="1297" d="M1156 43Q1062 12 953 -8T726 -29Q597 -29 480 5T274 111T133 293T80 557Q80 644 107 718T180 854T289 962T423 1041T571 1089T720 1106Q835 1106 923 1081T1069 1012T1158 912T1188 791Q1188
713 1162 658T1091 566T988 507T864 474T732 459T603 456Q582 456 563 456T524 457Q532 400 555 361T614 298T696 263T796 252Q836 252 881 258T973 274T1066 298T1156 327V43ZM515 611Q539 612 576 614T656 621T740 635T816 658T871 693T892 744Q892 795 852 825T739
856Q706 856 668 847T597 810T541 735T515 611ZM376 1219L472 1853H920L664 1219H376Z" />
<glyph unicode="&#xea;" glyph-name="ecircumflex" horiz-adv-x="1297" d="M1156 43Q1062 12 953 -8T726 -29Q597 -29 480 5T274 111T133 293T80 557Q80 644 107 718T180 854T289 962T423 1041T571 1089T720 1106Q835 1106 923 1081T1069 1012T1158 912T1188 791Q1188
713 1162 658T1091 566T988 507T864 474T732 459T603 456Q582 456 563 456T524 457Q532 400 555 361T614 298T696 263T796 252Q836 252 881 258T973 274T1066 298T1156 327V43ZM515 611Q539 612 576 614T656 621T740 635T816 658T871 693T892 744Q892 795 852 825T739
856Q706 856 668 847T597 810T541 735T515 611ZM798 1248L648 1650L498 1248H198L398 1792H898L1098 1248H798Z" />
<glyph unicode="&#xeb;" glyph-name="edieresis" horiz-adv-x="1297" d="M1156 43Q1062 12 953 -8T726 -29Q597 -29 480 5T274 111T133 293T80 557Q80 644 107 718T180 854T289 962T423 1041T571 1089T720 1106Q835 1106 923 1081T1069 1012T1158 912T1188 791Q1188
713 1162 658T1091 566T988 507T864 474T732 459T603 456Q582 456 563 456T524 457Q532 400 555 361T614 298T696 263T796 252Q836 252 881 258T973 274T1066 298T1156 327V43ZM515 611Q539 612 576 614T656 621T740 635T816 658T871 693T892 744Q892 795 852 825T739
856Q706 856 668 847T597 810T541 735T515 611ZM615 1197Q564 1197 525 1214T460 1260T420 1325T407 1399Q407 1437 420 1473T459 1537T524 1583T615 1600Q667 1600 706 1583T771 1538T810 1473T824 1399Q824 1361 811 1325T771 1261T706 1215T615 1197ZM1198 1197Q1147
1197 1108 1214T1043 1260T1003 1325T990 1399Q990 1437 1003 1473T1042 1537T1107 1583T1198 1600Q1250 1600 1289 1583T1354 1538T1393 1473T1407 1399Q1407 1361 1394 1325T1354 1261T1289 1215T1198 1197Z" />
<glyph unicode="&#xec;" glyph-name="igrave" horiz-adv-x="670" d="M162 1079H594V0H162V1079ZM321 1219L65 1853H513L609 1219H321Z" />
<glyph unicode="&#xed;" glyph-name="iacute" horiz-adv-x="670" d="M162 1079H594V0H162V1079ZM65 1219L161 1853H609L353 1219H65Z" />
<glyph unicode="&#xee;" glyph-name="icircumflex" horiz-adv-x="670" d="M162 1079H594V0H162V1079ZM487 1248L337 1650L187 1248H-113L87 1792H587L787 1248H487Z" />
<glyph unicode="&#xef;" glyph-name="idieresis" horiz-adv-x="670" d="M162 1079H594V0H162V1079ZM85 1197Q34 1197 -5 1214T-70 1260T-110 1325T-123 1399Q-123 1437 -110 1473T-71 1537T-6 1583T85 1600Q137 1600 176 1583T241 1538T280 1473T294 1399Q294
1361 281 1325T241 1261T176 1215T85 1197ZM668 1197Q617 1197 578 1214T513 1260T473 1325T460 1399Q460 1437 473 1473T512 1537T577 1583T668 1600Q720 1600 759 1583T824 1538T863 1473T877 1399Q877 1361 864 1325T824 1261T759 1215T668 1197Z" />
<glyph unicode="&#xf0;" glyph-name="eth" horiz-adv-x="1391" d="M761 1105Q755 1108 745 1112Q737 1116 725 1120T696 1133Q650 1138 626 1141T598 1144Q524 1145 466 1131T363 1107Q318 1096 288 1086T240 1070L208 1377Q375 1441 620 1441Q795 1441 912 1396T1102
1271L1351 1373L1433 1195L1195 1098Q1227 1005 1245 893T1264 663Q1264 569 1254 481T1218 315T1147 174T1031 64T861 -7T629 -32Q519 -32 436 -15T291 34T190 107T125 197T90 299T80 406Q80 498 118 571T221 696T368 774T540 802Q615 802 694 785T848 738Q848
757 845 786T839 845T831 901T823 941L665 855L575 991L761 1105ZM656 577Q602 577 566 564T507 527T474 473T464 409Q464 376 473 343T502 284T552 241T624 225Q678 225 719 235T789 281T833 387T848 577H656Z" />
<glyph unicode="&#xf1;" glyph-name="ntilde" horiz-adv-x="1572" d="M156 1079H588Q582 1045 576 992T570 881Q604 932 655 973T769 1044T900 1090T1041 1106Q1119 1106 1189 1083T1312 1008T1396 876T1427 678V0H995V615Q995 677 982 718T946 783T892 817T823
827Q783 827 744 814T673 777T618 723T588 657V0H156V1079ZM969 1245Q920 1245 870 1267T769 1315T670 1364T576 1386Q543 1386 521 1354T493 1250L258 1300Q275 1393 306 1463T379 1580T468 1652T567 1676Q620 1676 675 1654T784 1606T891 1557T993 1535Q1027
1535 1050 1567T1079 1671L1314 1621Q1294 1528 1259 1458T1178 1341T1079 1269T969 1245Z" />
<glyph unicode="&#xf2;" glyph-name="ograve" horiz-adv-x="1408" d="M704 -29Q586 -29 494 -7T333 54T216 146T137 263T94 396T80 538Q80 609 93 678T137 811T215 928T332 1021T494 1083T704 1106Q822 1106 914 1084T1075 1022T1193 929T1271 812T1314 679T1328
538Q1328 466 1315 396T1271 263T1193 147T1075 54T914 -7T704 -29ZM512 538Q512 484 522 433T554 341T613 276T704 251Q758 251 794 275T853 340T886 432T896 538Q896 592 886 643T854 735T795 801T704 826Q650 826 614 801T555 736T522 644T512 538ZM688 1219L432
1853H880L976 1219H688Z" />
<glyph unicode="&#xf3;" glyph-name="oacute" horiz-adv-x="1408" d="M704 -29Q586 -29 494 -7T333 54T216 146T137 263T94 396T80 538Q80 609 93 678T137 811T215 928T332 1021T494 1083T704 1106Q822 1106 914 1084T1075 1022T1193 929T1271 812T1314 679T1328
538Q1328 466 1315 396T1271 263T1193 147T1075 54T914 -7T704 -29ZM512 538Q512 484 522 433T554 341T613 276T704 251Q758 251 794 275T853 340T886 432T896 538Q896 592 886 643T854 735T795 801T704 826Q650 826 614 801T555 736T522 644T512 538ZM516 1219L612
1853H1060L804 1219H516Z" />
<glyph unicode="&#xf4;" glyph-name="ocircumflex" horiz-adv-x="1408" d="M704 -29Q586 -29 494 -7T333 54T216 146T137 263T94 396T80 538Q80 609 93 678T137 811T215 928T332 1021T494 1083T704 1106Q822 1106 914 1084T1075 1022T1193 929T1271 812T1314 679T1328
538Q1328 466 1315 396T1271 263T1193 147T1075 54T914 -7T704 -29ZM512 538Q512 484 522 433T554 341T613 276T704 251Q758 251 794 275T853 340T886 432T896 538Q896 592 886 643T854 735T795 801T704 826Q650 826 614 801T555 736T522 644T512 538ZM854 1248L704
1650L554 1248H254L454 1792H954L1154 1248H854Z" />
<glyph unicode="&#xf5;" glyph-name="otilde" horiz-adv-x="1408" d="M704 -29Q586 -29 494 -7T333 54T216 146T137 263T94 396T80 538Q80 609 93 678T137 811T215 928T332 1021T494 1083T704 1106Q822 1106 914 1084T1075 1022T1193 929T1271 812T1314 679T1328
538Q1328 466 1315 396T1271 263T1193 147T1075 54T914 -7T704 -29ZM512 538Q512 484 522 433T554 341T613 276T704 251Q758 251 794 275T853 340T886 432T896 538Q896 592 886 643T854 735T795 801T704 826Q650 826 614 801T555 736T522 644T512 538ZM887 1245Q838
1245 788 1267T687 1315T588 1364T494 1386Q461 1386 439 1354T411 1250L176 1300Q193 1393 224 1463T297 1580T386 1652T485 1676Q538 1676 593 1654T702 1606T809 1557T911 1535Q945 1535 968 1567T997 1671L1232 1621Q1212 1528 1177 1458T1096 1341T997 1269T887
1245Z" />
<glyph unicode="&#xf6;" glyph-name="odieresis" horiz-adv-x="1408" d="M704 -29Q586 -29 494 -7T333 54T216 146T137 263T94 396T80 538Q80 609 93 678T137 811T215 928T332 1021T494 1083T704 1106Q822 1106 914 1084T1075 1022T1193 929T1271 812T1314 679T1328
538Q1328 466 1315 396T1271 263T1193 147T1075 54T914 -7T704 -29ZM512 538Q512 484 522 433T554 341T613 276T704 251Q758 251 794 275T853 340T886 432T896 538Q896 592 886 643T854 735T795 801T704 826Q650 826 614 801T555 736T522 644T512 538ZM412 1197Q361
1197 322 1214T257 1260T217 1325T204 1399Q204 1437 217 1473T256 1537T321 1583T412 1600Q464 1600 503 1583T568 1538T607 1473T621 1399Q621 1361 608 1325T568 1261T503 1215T412 1197ZM995 1197Q944 1197 905 1214T840 1260T800 1325T787 1399Q787 1437 800
1473T839 1537T904 1583T995 1600Q1047 1600 1086 1583T1151 1538T1190 1473T1204 1399Q1204 1361 1191 1325T1151 1261T1086 1215T995 1197Z" />
<glyph unicode="&#xf7;" glyph-name="divide" horiz-adv-x="1146" d="M581 8Q537 8 505 22T452 58T421 110T411 168Q411 198 422 226T454 277T507 314T581 328Q623 328 655 314T708 278T741 227T752 168Q752 139 742 110T710 59T656 22T581 8ZM581 800Q537 800
505 814T452 851T421 902T411 960Q411 990 422 1018T454 1069T507 1106T581 1120Q623 1120 655 1106T708 1070T741 1019T752 960Q752 931 742 903T710 851T656 814T581 800ZM965 704V480H197V704H965Z" />
<glyph unicode="&#xf8;" glyph-name="oslash" horiz-adv-x="1408" d="M704 -29Q599 -29 515 -11L408 -215L259 -142L354 42Q343 48 333 54Q264 93 216 146T137 263T94 396T80 538Q80 609 93 678T137 811T215 928T332 1021T494 1083T704 1106Q808 1106 892 1088L1010
1318L1172 1232L1064 1028Q1070 1024 1075 1021Q1145 982 1193 929T1271 812T1314 679T1328 538Q1328 466 1315 396T1271 263T1193 147T1075 54T914 -7T704 -29ZM512 538Q512 484 522 432Q526 410 532 390L753 820Q731 826 704 826Q650 826 614 801T555 736T522
644T512 538ZM704 251Q758 251 794 275T853 340T886 432T896 538Q896 592 886 643Q883 660 878 675L657 256Q678 251 704 251Z" />
<glyph unicode="&#xf9;" glyph-name="ugrave" horiz-adv-x="1517" d="M1361 0H930L939 69Q943 101 946 141T951 224Q921 165 876 119T775 39T658 -11T533 -29Q455 -29 385 -4T262 77T177 220T145 432V1079H577V472Q577 410 588 368T620 300T666 263T721 251Q755
251 789 265T852 303T901 359T929 429V1079H1361V0ZM742 1219L486 1853H934L1030 1219H742Z" />
<glyph unicode="&#xfa;" glyph-name="uacute" horiz-adv-x="1517" d="M1361 0H930L939 69Q943 101 946 141T951 224Q921 165 876 119T775 39T658 -11T533 -29Q455 -29 385 -4T262 77T177 220T145 432V1079H577V472Q577 410 588 368T620 300T666 263T721 251Q755
251 789 265T852 303T901 359T929 429V1079H1361V0ZM486 1219L582 1853H1030L774 1219H486Z" />
<glyph unicode="&#xfb;" glyph-name="ucircumflex" horiz-adv-x="1517" d="M1361 0H930L939 69Q943 101 946 141T951 224Q921 165 876 119T775 39T658 -11T533 -29Q455 -29 385 -4T262 77T177 220T145 432V1079H577V472Q577 410 588 368T620 300T666 263T721 251Q755
251 789 265T852 303T901 359T929 429V1079H1361V0ZM908 1248L758 1650L608 1248H308L508 1792H1008L1208 1248H908Z" />
<glyph unicode="&#xfc;" glyph-name="udieresis" horiz-adv-x="1517" d="M1361 0H930L939 69Q943 101 946 141T951 224Q921 165 876 119T775 39T658 -11T533 -29Q455 -29 385 -4T262 77T177 220T145 432V1079H577V472Q577 410 588 368T620 300T666 263T721 251Q755
251 789 265T852 303T901 359T929 429V1079H1361V0ZM466 1197Q415 1197 376 1214T311 1260T271 1325T258 1399Q258 1437 271 1473T310 1537T375 1583T466 1600Q518 1600 557 1583T622 1538T661 1473T675 1399Q675 1361 662 1325T622 1261T557 1215T466 1197ZM1049
1197Q998 1197 959 1214T894 1260T854 1325T841 1399Q841 1437 854 1473T893 1537T958 1583T1049 1600Q1101 1600 1140 1583T1205 1538T1244 1473T1258 1399Q1258 1361 1245 1325T1205 1261T1140 1215T1049 1197Z" />
<glyph unicode="&#xfd;" glyph-name="yacute" horiz-adv-x="1453" d="M848 1079H1280V151Q1280 38 1257 -52T1193 -212T1096 -333T971 -416T826 -464T668 -480Q559 -480 449 -469T248 -432L278 -180Q387 -206 460 -213T569 -220Q669 -220 728 -191T819 -102Q834
-72 843 -43T859 17T867 81T869 156Q848 118 812 89T732 40T640 10T545 0Q465 0 393 24T266 101T178 236T145 432V1079H529V444Q529 394 543 358T581 298T635 263T696 251Q725 251 752 260T801 288T835 334T848 396V1079ZM454 1219L550 1853H998L742 1219H454Z"
/>
<glyph unicode="&#xfe;" glyph-name="thorn" horiz-adv-x="1487" d="M156 1414H604V963Q625 1001 660 1036T742 1097T842 1140T956 1156Q1016 1156 1077 1141T1195 1095T1302 1016T1388 901T1446 745T1468 547Q1468 437 1447 352T1389 202T1302 94T1196 23T1078
-17T956 -29Q897 -29 843 -19T742 12T661 63T604 131V-352H156V1414ZM604 544Q604 467 620 413T662 324T723 273T796 256Q814 256 838 257T887 267T936 293T978 343T1008 424T1020 547Q1020 618 1009 667T979 748T936 797T887 823T838 833T796 835Q758 835 724
822T663 777T620 693T604 563V544Z" />
<glyph unicode="&#xff;" glyph-name="ydieresis" horiz-adv-x="1453" d="M848 1079H1280V151Q1280 38 1257 -52T1193 -212T1096 -333T971 -416T826 -464T668 -480Q559 -480 449 -469T248 -432L278 -180Q387 -206 460 -213T569 -220Q669 -220 728 -191T819 -102Q834
-72 843 -43T859 17T867 81T869 156Q848 118 812 89T732 40T640 10T545 0Q465 0 393 24T266 101T178 236T145 432V1079H529V444Q529 394 543 358T581 298T635 263T696 251Q725 251 752 260T801 288T835 334T848 396V1079ZM434 1197Q383 1197 344 1214T279 1260T239
1325T226 1399Q226 1437 239 1473T278 1537T343 1583T434 1600Q486 1600 525 1583T590 1538T629 1473T643 1399Q643 1361 630 1325T590 1261T525 1215T434 1197ZM1017 1197Q966 1197 927 1214T862 1260T822 1325T809 1399Q809 1437 822 1473T861 1537T926 1583T1017
1600Q1069 1600 1108 1583T1173 1538T1212 1473T1226 1399Q1226 1361 1213 1325T1173 1261T1108 1215T1017 1197Z" />
<glyph unicode="&#x2013;" glyph-name="endash" horiz-adv-x="800" d="M800 832V512H0V832H800Z" />
<glyph unicode="&#x2014;" glyph-name="emdash" horiz-adv-x="2048" d="M992 832V512H0V832H992Z" />
<glyph unicode="&#x2018;" glyph-name="quoteleft" horiz-adv-x="849" d="M446 1024Q446 990 459 966T502 927T581 904T702 896V704H606Q531 704 457 722T324 786T227 914T190 1122Q190 1277 259 1358T465 1440Q533 1440 583 1419T667 1363T717 1285T734 1200Q734
1159 720 1121T681 1055T623 1009T550 992Q499 992 446 1024Z" />
<glyph unicode="&#x2019;" glyph-name="quoteright" horiz-adv-x="748" d="M405 1120Q405 1154 392 1178T349 1217T270 1240T149 1248V1440H245Q320 1440 394 1422T527 1358T624 1230T661 1022Q661 867 592 786T386 704Q318 704 268 725T184 781T134 859T117 944Q117
985 131 1023T170 1089T228 1135T301 1152Q352 1152 405 1120Z" />
<glyph unicode="&#x201a;" glyph-name="quotesinglbase" horiz-adv-x="745" d="M133 98H453L393 -528H193L133 98Z" />
<glyph unicode="&#x201c;" glyph-name="quotedblleft" horiz-adv-x="1309" d="M1054 1024Q1054 990 1067 966T1110 927T1189 904T1310 896V704H1214Q1139 704 1065 722T932 786T835 914T798 1122Q798 1277 867 1358T1073 1440Q1141 1440 1191 1419T1275 1363T1325
1285T1342 1200Q1342 1159 1328 1121T1289 1055T1231 1009T1158 992Q1107 992 1054 1024ZM446 1024Q446 990 459 966T502 927T581 904T702 896V704H606Q531 704 457 722T324 786T227 914T190 1122Q190 1277 259 1358T465 1440Q533 1440 583 1419T667 1363T717 1285T734
1200Q734 1159 720 1121T681 1055T623 1009T550 992Q499 992 446 1024Z" />
<glyph unicode="&#x201d;" glyph-name="quotedblright" horiz-adv-x="1309" d="M1098 1120Q1098 1154 1085 1178T1042 1217T963 1240T842 1248V1440H938Q1013 1440 1087 1422T1220 1358T1317 1230T1354 1022Q1354 867 1285 786T1079 704Q1011 704 961 725T877
781T827 859T810 944Q810 985 824 1023T863 1089T921 1135T994 1152Q1045 1152 1098 1120ZM458 1120Q458 1154 445 1178T402 1217T323 1240T202 1248V1440H298Q373 1440 447 1422T580 1358T677 1230T714 1022Q714 867 645 786T439 704Q371 704 321 725T237 781T187
859T170 944Q170 985 184 1023T223 1089T281 1135T354 1152Q405 1152 458 1120Z" />
<glyph unicode="&#x201e;" glyph-name="quotedblbase" horiz-adv-x="997" d="M549 100H869L809 -526H609L549 100ZM133 100H453L393 -526H193L133 100Z" />
<glyph unicode="&#x2022;" glyph-name="bullet" horiz-adv-x="1253" d="M560 300Q486 300 431 325T339 392T284 487T266 596Q266 653 284 707T340 804T432 873T560 899Q633 899 687 873T779 805T834 708T853 597Q853 541 835 488T780 393T688 326T560 300Z" />
<glyph unicode="&#x2039;" glyph-name="guilsinglleft" horiz-adv-x="811" d="M743 200L143 600V900L743 1300V900L415 750L743 600V200Z" />
<glyph unicode="&#x203a;" glyph-name="guilsinglright" horiz-adv-x="811" d="M174 600L502 750L174 900V1300L774 900V600L174 200V600Z" />
</font>
</defs>
</svg>
