<?xml version="1.0" standalone="no"?>
<!DOCTYPE svg PUBLIC "-//W3C//DTD SVG 1.1//EN" "http://www.w3.org/Graphics/SVG/1.1/DTD/svg11.dtd">
<svg xmlns="http://www.w3.org/2000/svg">
<defs >
<font id="Coda" horiz-adv-x="1163" ><font-face
    font-family="Coda ExtraBold"
    units-per-em="2048"
    panose-1="2 0 5 5 2 0 0 2 0 4"
    ascent="2124"
    descent="-784"
    alphabetic="0" />
<glyph unicode=" " glyph-name="space" horiz-adv-x="380" />
<glyph unicode="!" glyph-name="exclam" horiz-adv-x="722" d="M171 72T171 171T231 325T375 381T518 326T579 171T519 17T375 -39T232 16ZM314 607Q292 701 239 888T154 1210T122 1413Q122 1517 196 1574T373 1631Q478 1631 555 1573T633 1411Q633 1341 599 1205T511
886T435 607Q427 574 411 557T375 539Q355 539 339 556T314 607Z" />
<glyph unicode="&quot;" glyph-name="quotedbl" horiz-adv-x="1213" d="M777 896Q761 964 725 1093T666 1315T644 1454Q644 1538 699 1583T830 1629Q908 1629 966 1582T1025 1452Q1025 1404 1002 1311T941 1091T887 896Q881 868 866 853T832 837Q815 837 800 852T777
896ZM280 896Q264 964 228 1093T169 1315T147 1454Q147 1538 202 1583T333 1629Q411 1629 469 1582T528 1452Q528 1404 505 1311T444 1091T390 896Q384 868 368 853T335 837T303 852T280 896Z" />
<glyph unicode="#" glyph-name="numbersign" horiz-adv-x="1718" d="M734 621H931L983 993H786L734 621ZM1567 430H1402L1342 0H841L902 429H705L645 0H143L204 429H70L96 621H234L285 993H137L166 1200H319L373 1595H872L819 1200H1016L1071 1595H1569L1516 1200H1664L1634
994H1483L1431 621H1594L1567 430Z" />
<glyph unicode="$" glyph-name="dollar" horiz-adv-x="1434" d="M600 1031Q603 1030 635 1023T685 1012V1283H600V1031ZM847 556L764 572V283H847V556ZM685 -168V22Q435 24 301 71Q186 112 139 206T101 482L600 450V283H685V586Q626 597 586 605T490 627T395 655T309
692T229 740T165 800T113 875T82 967T70 1080Q70 1192 101 1274T185 1407T319 1488T486 1530T685 1544V1730H764V1545Q1007 1543 1145 1500Q1217 1476 1262 1436T1324 1343T1347 1227T1346 1092L847 1122V1283H764V997Q843 982 889 972T1008 940T1126 897T1224
837T1307 756T1357 649T1378 510Q1378 395 1350 311T1273 173T1145 86T976 39T764 23V-168H685Z" />
<glyph unicode="%" glyph-name="percent" horiz-adv-x="2792" d="M1779 1632L1403 -39H1015L1395 1632H1779ZM2215 129Q2158 129 2119 130T2028 139T1943 158T1872 194T1815 250T1779 330T1765 441V798Q1765 859 1779 907T1814 988T1872 1043T1942 1078T2027 1098T2118
1107T2214 1109T2309 1108T2400 1099T2486 1080T2557 1044T2615 989T2651 908T2665 799V442Q2665 382 2651 334T2615 254T2557 198T2486 161T2401 141T2310 131T2215 129ZM2262 892H2172V347H2262V892ZM575 618Q528 618 500 618T428 622T357 630T295 647T238 673T192
711T155 765T134 836T125 927V1286Q125 1339 134 1382T164 1457T208 1511T267 1549T334 1573T410 1587T490 1593T574 1595T657 1594T737 1588T814 1575T882 1551T941 1513T985 1459T1015 1385T1025 1288V929Q1025 867 1011 818T976 737T917 681T847 646T761 628T671
620T575 618ZM623 1378H532V833H623V1378Z" />
<glyph unicode="&amp;" glyph-name="ampersand" horiz-adv-x="1653" d="M359 861L247 873Q219 876 193 894T141 947T100 1048T84 1198Q84 1281 106 1347T165 1457T258 1535T373 1586T509 1615T654 1629T806 1632Q1125 1632 1283 1539T1442 1238Q1442 1209 1438
1184H893V1392H687V929H896V1068H1442V929H1593V736H1442V513Q1442 400 1430 320T1388 175T1309 72T1184 7T1006 -30T766 -40Q671 -40 600 -36T455 -19T327 16T226 76T149 165T102 290T85 456Q85 503 93 557T120 668T171 764T247 809L359 822V861ZM896 224V736H687V224H896Z"
/>
<glyph unicode="&apos;" glyph-name="quotesingle" horiz-adv-x="629" d="M280 896Q264 964 228 1093T169 1315T147 1454Q147 1538 202 1583T333 1629Q411 1629 469 1582T528 1452Q528 1404 505 1311T444 1091T390 896Q384 868 368 853T335 837T303 852T280 896Z" />
<glyph unicode="(" glyph-name="parenleft" horiz-adv-x="860" d="M51 674T51 827T75 1125T150 1400T273 1628T450 1783T678 1841H771V1562H706Q629 1562 570 1453T482 1178T453 827T482 481T570 215T706 110H771V-169H678Q554 -169 450 -114T274 37T150 260T75 531Z" />
<glyph unicode=")" glyph-name="parenright" horiz-adv-x="861" d="M810 980T810 827T786 531T711 260T588 37T411 -113T183 -169H90V110H155Q232 110 291 215T379 481T408 827T379 1177T291 1452T155 1562H90V1841H183Q307 1841 411 1784T587 1629T711 1401T786 1125Z" />
<glyph unicode="*" glyph-name="asterisk" horiz-adv-x="1321" d="M775 489Q765 506 754 532T730 602T709 672T685 759T663 840Q654 808 642 763T623 691T606 627T587 570T567 523T545 483T519 455T487 436T450 430Q388 430 335 476T282 581Q282 594 286 607T300
637T319 667T347 702T379 736T418 775T458 813T504 856T551 899Q537 895 501 885T448 870T399 857T349 844T305 833T263 824T229 819T198 817Q138 817 106 859T73 962Q73 1023 106 1067T199 1112Q219 1112 247 1108T317 1093T387 1074T472 1050T551 1027Q533 1044
503 1072T457 1117T416 1157T378 1196T346 1231T319 1265T300 1295T286 1325T282 1351Q282 1409 334 1453T450 1497Q519 1497 553 1440Q564 1422 574 1395T598 1322T618 1252T642 1162T663 1080Q669 1104 684 1162T708 1251T728 1323T752 1394T774 1440Q808 1497
877 1497Q939 1497 992 1453T1045 1351Q1045 1335 1039 1318T1016 1278T986 1237T942 1190T893 1141T835 1085T775 1027Q795 1033 853 1050T939 1074T1009 1092T1079 1107T1128 1112Q1187 1112 1220 1068T1254 962Q1254 902 1222 860T1128 817Q1108 817 1081 821T1011
836T941 853T855 877T775 899Q792 883 821 856T866 814T907 775T946 736T978 701T1006 667T1026 637T1040 607T1044 581Q1044 522 992 476T877 430Q810 430 775 489Z" />
<glyph unicode="+" glyph-name="plus" horiz-adv-x="1328" d="M469 811V1192H861V811H1225V478H861V100H469V478H104V811H469Z" />
<glyph unicode="," glyph-name="comma" horiz-adv-x="711" d="M141 209Q141 303 201 356T345 409Q448 409 501 341T555 169Q555 99 532 29T465 -101T355 -197T208 -234Q186 -234 164 -231V-122Q227 -121 271 -89T320 0Q245 8 193 62T141 209Z" />
<glyph unicode="-" glyph-name="hyphen" horiz-adv-x="1328" d="M1165 811V478H164V811H1165Z" />
<glyph unicode="." glyph-name="period" horiz-adv-x="670" d="M136 72T136 171T196 325T340 381T483 326T544 171T484 17T340 -39T197 16Z" />
<glyph unicode="/" glyph-name="slash" horiz-adv-x="1056" d="M136 0L488 1595H922L571 0H136Z" />
<glyph unicode="0" glyph-name="zero" horiz-adv-x="1469" d="M739 -39Q679 -39 633 -38T530 -32T429 -19T338 3T256 38T188 88T134 155T102 242T89 352V1242Q89 1302 101 1352T135 1439T189 1507T257 1557T340 1591T432 1613T532 1626T634 1632T738 1633Q816
1633 874 1631T1004 1619T1126 1593T1228 1548T1311 1478T1363 1377T1383 1242V352Q1383 290 1371 239T1338 151T1285 83T1218 34T1136 0T1045 -21T945 -33T844 -38T739 -39ZM653 233H819V1359H653V233Z" />
<glyph unicode="1" glyph-name="one" horiz-adv-x="961" d="M41 1511Q249 1511 388 1595H866V0H262V1291H41V1511Z" />
<glyph unicode="2" glyph-name="two" horiz-adv-x="1403" d="M78 1064Q76 1110 76 1124Q76 1245 108 1335T194 1481T332 1572T508 1620T718 1633Q1043 1633 1196 1516T1349 1125Q1349 1054 1332 990T1294 880T1226 787T1150 713T1056 649T965 597T868 550Q865
548 863 547T858 545Q811 522 777 502T706 451T650 382T630 301H1277V1H78V201Q78 317 103 413T169 577T277 705T411 806T573 890Q610 908 622 914T667 939T714 969T747 1001T774 1042T782 1086V1358H630V1064H78Z" />
<glyph unicode="3" glyph-name="three" horiz-adv-x="1436" d="M714 1632Q881 1632 999 1606T1200 1520T1324 1360T1364 1113Q1364 1006 1311 932T1163 820Q1263 783 1314 706T1366 522Q1366 391 1336 294T1252 133T1115 31T936 -23T716 -39Q384 -39 228 97T71
517Q71 569 75 613H627V235H799V707H540V931H799V1361H627V1024H75Q72 1068 72 1108Q72 1255 112 1356T236 1518T435 1605T714 1632Z" />
<glyph unicode="4" glyph-name="four" horiz-adv-x="1459" d="M1377 0H865V240H73V657L327 1595H900L649 657V603H865V938H1377V0Z" />
<glyph unicode="5" glyph-name="five" horiz-adv-x="1429" d="M955 1105Q1051 1105 1122 1079T1240 1006T1314 888T1353 737T1364 553Q1364 377 1330 264T1216 82T1017 -12T714 -39Q604 -39 518 -30T352 5T216 70T124 177T75 331Q66 398 66 474H616V236H797V838H616V655H83L136
1596H1229V1299H638L604 998Q696 1105 955 1105Z" />
<glyph unicode="6" glyph-name="six" horiz-adv-x="1448" d="M718 -39Q561 -39 447 -12T250 74T126 234T85 476V1056Q85 1219 126 1331T250 1509T446 1603T717 1632Q781 1632 830 1630T946 1619T1063 1594T1165 1548T1252 1478T1307 1376T1329 1237Q1329 1222
1330 1196T1331 1158H800V1369H637V1068H761Q939 1068 1054 1042T1244 952T1350 785T1382 523Q1382 387 1352 288T1268 127T1129 28T946 -24T718 -39ZM636 236H816V798H636V236Z" />
<glyph unicode="7" glyph-name="seven" horiz-adv-x="991" d="M942 1595V1351L716 0H112L334 1354H40V1595H942Z" />
<glyph unicode="8" glyph-name="eight" horiz-adv-x="1427" d="M628 235H794V720H628V235ZM640 1355V960H794V1355H640ZM119 1181Q119 1283 148 1361T228 1490T355 1573T520 1618T719 1631Q857 1631 961 1609T1145 1537T1268 1397T1310 1180Q1310 911 1149 864Q1225
848 1275 792T1346 655T1368 470Q1368 378 1352 305T1307 178T1233 86T1136 23T1015 -15T877 -34T721 -40Q586 -40 486 -25T303 25T170 119T91 265T64 470Q64 811 251 864Q119 911 119 1181Z" />
<glyph unicode="9" glyph-name="nine" horiz-adv-x="1445" d="M68 1071Q68 1172 84 1252T128 1391T201 1492T297 1560T419 1602T560 1623T722 1629Q848 1629 946 1614T1124 1562T1257 1466T1337 1320T1365 1116V520Q1365 391 1337 295T1258 135T1127 32T952 -23T733
-40Q125 -40 115 328Q114 362 114 424H645V225H803V508H576Q428 508 329 541T173 646T92 820T68 1071ZM799 1358H628V779H799V1358Z" />
<glyph unicode=":" glyph-name="colon" horiz-adv-x="691" d="M141 1034T141 1133T201 1287T345 1343T488 1288T549 1133T489 979T345 923T202 978ZM141 224T141 323T201 477T345 533T488 478T549 323T489 169T345 113T202 168Z" />
<glyph unicode=";" glyph-name="semicolon" horiz-adv-x="710" d="M141 1034T141 1133T201 1287T345 1343T488 1288T549 1133T489 979T345 923T202 978ZM141 323Q141 417 201 470T345 523Q448 523 501 455T555 283Q555 213 532 143T465 13T355 -83T208 -120Q186
-120 164 -117V-8Q227 -7 271 25T320 114Q245 122 193 176T141 323Z" />
<glyph unicode="&lt;" glyph-name="less" horiz-adv-x="1036" d="M75 1098L951 1597V1092L350 797L951 504V0L75 489V1098Z" />
<glyph unicode="=" glyph-name="equal" horiz-adv-x="1008" d="M923 897V561H89V897H923ZM923 336V0H89V336H923Z" />
<glyph unicode="&gt;" glyph-name="greater" horiz-adv-x="1035" d="M963 489L86 0V504L687 797L86 1092V1597L963 1098V489Z" />
<glyph unicode="?" glyph-name="question" horiz-adv-x="906" d="M153 72T153 171T213 325T357 381T500 326T561 171T501 17T357 -39T214 16ZM417 567Q410 510 355 510Q294 510 294 582Q294 661 313 744T356 885T405 1010T439 1123Q441 1141 441 1150Q441 1201
407 1232T299 1264Q221 1264 105 1215L69 1562Q288 1632 440 1632Q537 1632 613 1614T737 1566T817 1494T860 1408T873 1313Q873 1251 850 1195T790 1092T707 1001T614 909T525 813T455 701T417 567Z" />
<glyph unicode="@" glyph-name="at" horiz-adv-x="2198" d="M1081 641V336H1174V641H1081ZM1553 88Q1291 93 1202 239Q1101 113 950 113Q785 113 702 183T613 405Q612 435 612 493Q612 674 691 755T950 836Q1100 836 1175 788V1022H1116V887H664Q664 898 664 921T663
956Q663 1029 686 1081T749 1166T850 1216T980 1241T1138 1248Q1320 1248 1420 1209T1563 1083T1607 837V330H1777V832Q1777 941 1765 1024T1730 1171T1668 1278T1581 1350T1466 1395T1324 1418T1152 1424Q1005 1424 895 1406T704 1348T570 1251T486 1109T441 925T428
692Q428 529 442 416T494 217T587 79T736 -4T943 -47T1222 -58Q1367 -58 1704 22L1762 -233Q1519 -393 1240 -393Q1082 -393 956 -382T715 -346T513 -279T352 -177T228 -35T142 153T91 392T74 687Q74 928 118 1107T247 1407T465 1602T763 1709T1148 1741Q1412 1741
1594 1695T1899 1546T2077 1279T2133 878Q2133 771 2127 686T2105 517T2060 370T1988 252T1884 162T1740 108T1553 88Z" />
<glyph unicode="A" glyph-name="A" horiz-adv-x="1550" d="M782 1283H763L686 576H864L782 1283ZM668 366L613 0H27L319 1595H1226L1523 0H936L882 366H668Z" />
<glyph unicode="B" glyph-name="B" horiz-adv-x="1514" d="M696 951H869V1358H696V951ZM696 235H869V770H696V235ZM1098 873V860Q1210 847 1287 810T1405 716T1461 598T1478 460Q1478 321 1449 233T1352 92T1185 20T935 0H92V1595H939Q1000 1595 1049 1592T1151
1578T1244 1552T1322 1507T1384 1439T1422 1345T1437 1219Q1437 1060 1363 977T1098 873Z" />
<glyph unicode="C" glyph-name="C" horiz-adv-x="1519" d="M858 1356H685V233H858V614H1462V369Q1462 291 1439 229T1380 124T1287 51T1175 3T1044 -24T911 -37T776 -40Q707 -40 650 -38T519 -25T386 2T268 50T169 123T105 228T80 370V1226Q80 1303 103 1365T164
1470T259 1543T373 1592T505 1619T639 1633T773 1636Q851 1636 911 1634T1046 1621T1177 1595T1289 1547T1381 1474T1439 1369T1462 1227V979H858V1356Z" />
<glyph unicode="D" glyph-name="D" horiz-adv-x="1554" d="M1474 1204V393Q1474 326 1461 271T1420 177T1359 108T1277 59T1184 28T1077 10T965 2T848 0H92V1595H848Q924 1595 983 1592T1110 1580T1228 1553T1326 1507T1405 1437T1455 1337T1474 1204ZM697 235H870V1358H697V235Z"
/>
<glyph unicode="E" glyph-name="E" horiz-adv-x="1096" d="M1037 1595V1346H696V961H1014V711H696V251H1037V0H92V1595H1037Z" />
<glyph unicode="F" glyph-name="F" horiz-adv-x="1080" d="M1037 1595V1346H696V954H1014V705H696V0H92V1595H1037Z" />
<glyph unicode="G" glyph-name="G" horiz-adv-x="1540" d="M901 124Q801 -39 550 -39Q452 -39 369 -15T220 56T117 181T80 359V1228Q80 1306 103 1368T163 1473T258 1545T372 1593T503 1620T637 1633T772 1636Q836 1636 894 1633T1024 1619T1155 1591T1273 1542T1372
1469T1437 1365T1462 1227V979H857V1358H684V235H857V538H772V769H1462V0H975L901 124Z" />
<glyph unicode="H" glyph-name="H" horiz-adv-x="1585" d="M1493 1595V0H889V688H696V0H92V1595H696V908H889V1595H1493Z" />
<glyph unicode="I" glyph-name="I" horiz-adv-x="788" d="M696 1595V0H92V1595H696Z" />
<glyph unicode="J" glyph-name="J" horiz-adv-x="923" d="M831 1594V274Q831 158 792 73T680 -62T516 -135T310 -159Q192 -159 54 -134V138H227V1594H831Z" />
<glyph unicode="K" glyph-name="K" horiz-adv-x="1667" d="M1657 0L1284 840L1609 1595H990L695 829L697 1013V1595H92V0H697V564L756 695L1008 0H1657Z" />
<glyph unicode="L" glyph-name="L" horiz-adv-x="1072" d="M92 0V1595H696V241H1037V0H92Z" />
<glyph unicode="M" glyph-name="M" horiz-adv-x="1904" d="M1324 958L1167 -1H740L595 958H581L525 0H64L148 1595H818L945 671H958L1085 1595H1756L1840 0H1394L1338 958H1324Z" />
<glyph unicode="N" glyph-name="N" horiz-adv-x="1576" d="M945 0L540 711V0H92V1595H609L1040 834V1595H1484V0H945Z" />
<glyph unicode="O" glyph-name="O" horiz-adv-x="1542" d="M768 -39Q688 -39 628 -37T493 -25T362 2T251 49T160 122T102 227T80 370V1226Q80 1303 103 1365T163 1470T256 1543T370 1591T500 1619T634 1632T768 1635Q836 1635 893 1633T1024 1620T1156 1593T1273
1545T1372 1472T1437 1367T1462 1226V370Q1462 291 1439 228T1378 123T1283 51T1169 3T1037 -23T903 -36T768 -39ZM685 235H858V1362H685V235Z" />
<glyph unicode="P" glyph-name="P" horiz-adv-x="1530" d="M695 628H868V1362H695V628ZM92 1595H847Q923 1595 982 1592T1109 1580T1227 1553T1325 1507T1404 1437T1454 1337T1473 1204V793Q1473 733 1462 684T1431 597T1380 530T1315 480T1236 445T1149 422T1052
410T952 404T848 402H696V0H92V1595Z" />
<glyph unicode="Q" glyph-name="Q" horiz-adv-x="1542" d="M685 235H858V1362H685V235ZM1030 -499L642 -36Q563 -32 501 -24T371 2T254 48T163 120T101 226T80 370V1226Q80 1303 103 1365T163 1469T257 1542T370 1589T501 1616T634 1629T768 1632Q837 1632 893
1630T1023 1618T1156 1592T1274 1544T1373 1472T1437 1367T1462 1226V370Q1462 297 1439 238T1379 139T1287 68T1176 20T1049 -12L1275 -281L1030 -499Z" />
<glyph unicode="R" glyph-name="R" horiz-adv-x="1527" d="M696 881H869V1358H696V881ZM1099 792L1100 786Q1300 763 1387 671T1475 437V0H869V649H696V0H92V1595H1005Q1118 1595 1198 1576T1339 1510T1429 1385T1459 1190Q1459 1119 1450 1066T1418 963T1354
881T1250 824T1099 792Z" />
<glyph unicode="S" glyph-name="S" horiz-adv-x="1451" d="M632 1125L635 1123Q635 1117 637 1111T645 1101T656 1093T671 1086T687 1080T705 1076T723 1072T741 1069T757 1066Q982 1026 1080 992Q1301 916 1373 752Q1413 663 1413 542Q1413 369 1376 257T1253
79T1045 -13T735 -39Q667 -39 613 -37T490 -25T367 0T259 45T166 113T101 212T67 345Q61 413 61 488H634V235H807V485Q807 504 797 518T765 544T730 561T689 575Q656 586 603 601T514 628T428 656T343 688T267 727T197 776T139 836T93 910T66 1001T55 1111Q55 1203
72 1278T119 1407T195 1501T294 1567T415 1607T552 1629T705 1635Q793 1635 861 1631T998 1614T1117 1580T1211 1524T1282 1443T1325 1329T1341 1180H805V1358H632V1125Z" />
<glyph unicode="T" glyph-name="T" horiz-adv-x="1319" d="M1316 1595V1326H960V0H356V1326H3V1595H1316Z" />
<glyph unicode="U" glyph-name="U" horiz-adv-x="1552" d="M689 234H862V1594H1467V370Q1467 292 1444 230T1383 125T1289 52T1174 4T1043 -23T908 -36T774 -39Q705 -39 648 -37T517 -24T386 3T270 51T173 124T110 229T85 371V1595H689V234Z" />
<glyph unicode="V" glyph-name="V" horiz-adv-x="1494" d="M745 412H756L894 1595H1486L1168 0H326L8 1595H599L745 412Z" />
<glyph unicode="W" glyph-name="W" horiz-adv-x="2059" d="M1396 624L1410 626L1517 1595H2028L1809 0H1167L1020 927H1009L862 0H240L31 1595H594L669 624H682L798 1595H1277L1396 624Z" />
<glyph unicode="X" glyph-name="X" horiz-adv-x="1493" d="M563 0H15L322 802L15 1595H567L740 1081H749L927 1595H1478L1168 802L1478 0H923L745 514H736L563 0Z" />
<glyph unicode="Y" glyph-name="Y" horiz-adv-x="1486" d="M738 955H747L933 1595H1489L1047 529V0H442V539L-3 1595H557L738 955Z" />
<glyph unicode="Z" glyph-name="Z" horiz-adv-x="1108" d="M1013 1595L1006 1342L712 294H1063L1053 0H101V266L421 1304H65L49 1595H1013Z" />
<glyph unicode="[" glyph-name="bracketleft" horiz-adv-x="1111" d="M100 1819H1075V1578H734V-77H1075V-319H100V1819Z" />
<glyph unicode="\" glyph-name="backslash" horiz-adv-x="1053" d="M587 1595L939 0H464L113 1595H587Z" />
<glyph unicode="]" glyph-name="bracketright" horiz-adv-x="1108" d="M1010 -319H35V-77H376V1578H35V1819H1010V-319Z" />
<glyph unicode="^" glyph-name="asciicircum" horiz-adv-x="1222" d="M896 676L1179 61H698L610 381L526 61H46L318 676H896Z" />
<glyph unicode="_" glyph-name="underscore" horiz-adv-x="1042" d="M967 1V-435H78V1H967Z" />
<glyph unicode="`" glyph-name="grave" horiz-adv-x="873" d="M814 1480Q848 1450 848 1420Q848 1399 830 1385T785 1371Q767 1371 753 1376Q702 1392 592 1423T414 1474T269 1522T157 1570Q99 1604 70 1652T41 1752Q41 1825 90 1877T215 1930Q276 1930 340 1893Q375
1873 437 1822T549 1725T689 1596T814 1480Z" />
<glyph unicode="a" glyph-name="a" horiz-adv-x="1450" d="M629 653V200H795V653H629ZM1365 257Q1366 129 1394 1H874L818 139Q770 60 684 15T478 -30Q265 -30 161 73T57 388Q57 613 175 718T529 824Q670 824 795 783V1106H656V915L131 895Q120 959 120 1005Q120
1067 141 1117T197 1200T284 1257T386 1294T501 1315T615 1325T724 1327Q782 1327 827 1326T928 1321T1027 1308T1117 1286T1199 1253T1266 1206T1319 1141T1352 1057T1365 952V257Z" />
<glyph unicode="b" glyph-name="b" horiz-adv-x="1484" d="M672 199H839V1105H672V199ZM993 -30Q884 -30 794 8T658 114L621 0H101V1710H672V1215Q769 1327 996 1327Q1410 1327 1410 940V377Q1410 -30 993 -30Z" />
<glyph unicode="c" glyph-name="c" horiz-adv-x="1448" d="M1384 539L1385 352Q1385 293 1372 244T1338 158T1283 92T1213 44T1128 10T1035 -11T935 -23T834 -29T731 -30Q655 -30 597 -28T467 -16T342 9T236 54T150 123T95 222T74 355V955Q74 1013 87 1061T123
1145T181 1209T253 1256T339 1288T433 1309T535 1321T636 1326T737 1327Q812 1327 855 1326T975 1319T1100 1300T1208 1262T1302 1200T1360 1107T1384 978V787H813V1105H646V199H813V539H1384Z" />
<glyph unicode="d" glyph-name="d" horiz-adv-x="1471" d="M811 1105H644V199H811V1105ZM489 1327Q715 1327 812 1215V1710H1383V0H863L826 114Q779 48 690 9T491 -30Q74 -30 74 377V940Q74 1327 489 1327Z" />
<glyph unicode="e" glyph-name="e" horiz-adv-x="1450" d="M646 777H814V1105H646V777ZM1384 483Q1392 422 1392 380Q1392 156 1233 63T731 -30Q672 -30 628 -29T526 -24T425 -12T333 10T248 43T178 92T122 157T87 244T74 353V953Q74 1026 96 1084T152 1181T242
1248T350 1291T475 1314T601 1325T729 1327Q786 1327 829 1326T929 1321T1029 1310T1122 1289T1208 1256T1279 1209T1335 1145T1370 1061T1384 954V604H646V199H813V483H1384Z" />
<glyph unicode="f" glyph-name="f" horiz-adv-x="1118" d="M225 1300Q225 1420 258 1504T357 1637T516 1709T735 1731Q944 1731 1101 1683V1477H796V1300H1110V1098H796V0H225V1098H18V1300H225Z" />
<glyph unicode="g" glyph-name="g" horiz-adv-x="1463" d="M812 1104H645V316H812V1104ZM497 1327Q733 1325 836 1187L872 1299H1383V236Q1383 -78 1209 -225T664 -372Q408 -372 187 -311L244 -20Q385 -59 590 -59Q763 -59 825 -22V205Q780 148 692 120T494 91Q74
91 74 482V927Q74 1327 497 1327Z" />
<glyph unicode="h" glyph-name="h" horiz-adv-x="1494" d="M993 1327Q1410 1327 1410 945V0H839V1105H672V0H101V1710H672V1210Q713 1266 801 1296T993 1327Z" />
<glyph unicode="i" glyph-name="i" horiz-adv-x="751" d="M661 1709V1425H90V1709H661ZM661 0H90V1300H661V0Z" />
<glyph unicode="j" glyph-name="j" horiz-adv-x="827" d="M737 1709V1425H165V1709H737ZM737 94Q737 -122 620 -224T276 -326Q112 -326 6 -305L-24 -66H165V1300H737V94Z" />
<glyph unicode="k" glyph-name="k" horiz-adv-x="1520" d="M101 0V1710H672V798L941 1300H1527L1196 690L1534 0H954L715 575L672 478V0H101Z" />
<glyph unicode="l" glyph-name="l" horiz-adv-x="760" d="M676 0H105V1710H676V0Z" />
<glyph unicode="m" glyph-name="m" horiz-adv-x="2196" d="M1689 1327Q1893 1327 2002 1231T2112 944V0H1549V1105H1376Q1383 1067 1383 1001V0H826V1105H659V0H96V1300H608L645 1188Q693 1253 791 1290T1003 1327Q1231 1327 1342 1191Q1388 1258 1478 1292T1689 1327Z" />
<glyph unicode="n" glyph-name="n" horiz-adv-x="1489" d="M984 1327Q1189 1326 1297 1229T1405 944V0H834V1105H667V0H96V1300H606L643 1188Q688 1251 780 1289T984 1327Z" />
<glyph unicode="o" glyph-name="o" horiz-adv-x="1457" d="M732 -30Q670 -30 625 -29T521 -24T420 -13T328 9T244 42T175 90T120 155T87 240T74 348V953Q74 1016 89 1068T135 1158T203 1223T293 1270T393 1300T505 1317T619 1325T733 1327Q811 1327 870 1325T1001
1313T1123 1288T1226 1244T1310 1177T1363 1081T1383 952V347Q1383 270 1362 210T1309 111T1222 44T1118 2T993 -19T866 -28T732 -30ZM645 228H811V1105H645V228Z" />
<glyph unicode="p" glyph-name="p" horiz-adv-x="1480" d="M667 199H834V1105H667V199ZM986 -30Q879 -30 796 -1T667 87V-410H96V1300H586L623 1188Q672 1254 769 1290T983 1327Q1406 1327 1406 926V365Q1406 -30 986 -30Z" />
<glyph unicode="q" glyph-name="q" horiz-adv-x="1459" d="M817 1105H652V199H817V1105ZM502 1327Q606 1327 696 1289T831 1188L869 1300H1381V-410H832V87Q730 -30 501 -30Q86 -30 86 365V926H85Q85 1327 502 1327Z" />
<glyph unicode="r" glyph-name="r" horiz-adv-x="981" d="M100 0L101 1300H587L628 1153Q661 1232 750 1278T957 1327V949L671 893V0H100Z" />
<glyph unicode="s" glyph-name="s" horiz-adv-x="1414" d="M792 446H793Q785 455 749 460Q730 463 683 469T609 478T543 488T470 502T407 517Q333 537 273 569T162 647T83 757T55 900Q55 977 73 1039T122 1145T201 1221T304 1274T429 1306T569 1322T724 1327Q794
1327 844 1325T963 1315T1079 1293T1178 1250T1260 1184T1311 1088T1332 956Q1332 887 1331 872L792 902V1063H625V861Q634 852 670 846Q697 842 776 831T910 809T1012 786Q1084 766 1143 737T1254 664T1334 558T1363 420Q1363 344 1349 282T1306 175T1242 96T1155
40T1055 4T941 -18T821 -27T695 -30Q611 -30 550 -27T421 -14T307 15T215 66T144 142T101 251T85 397Q85 420 86 432L625 400V233H792V446Z" />
<glyph unicode="t" glyph-name="t" horiz-adv-x="944" d="M906 -7Q906 -7 900 -8Q894 -9 883 -10T858 -14T824 -18T785 -21T742 -24T695 -25Q587 -25 511 -19T368 3T259 46T187 116T144 218T131 359V1100H-6V1300H131V1595H702V1300H861V1100H702V328Q702 297
718 276T764 243T827 228T906 223V-7Z" />
<glyph unicode="u" glyph-name="u" horiz-adv-x="1490" d="M508 -30Q303 -30 194 67T84 360V1300H656V233H822V1300H1394V0H877L840 112Q800 47 707 9T508 -30Z" />
<glyph unicode="v" glyph-name="v" horiz-adv-x="1335" d="M676 356H689L793 1300H1344L1065 0H271L-9 1300H542L676 356Z" />
<glyph unicode="w" glyph-name="w" horiz-adv-x="2025" d="M923 0H233L35 1300H535L630 385H644L746 1300H1291L1388 385H1402L1495 1300H1990L1796 0H1102L1016 801H1006L923 0Z" />
<glyph unicode="x" glyph-name="x" horiz-adv-x="1362" d="M23 0L396 652L23 1300H595L681 1049L768 1300H1339L966 652L1339 0H772L681 258L590 0H23Z" />
<glyph unicode="y" glyph-name="y" horiz-adv-x="1337" d="M488 -411Q568 -411 634 -400T763 -360T875 -286T963 -169T1028 -3L1338 1300H804L700 376H692L522 1300H-5L366 41Q375 11 375 -10Q375 -77 287 -77Q220 -77 65 -33L22 -344Q116 -371 257 -391T488 -411Z" />
<glyph unicode="z" glyph-name="z" horiz-adv-x="1080" d="M77 1300H1015L1038 1079L682 246H1053L1038 0H81L57 233L422 1051H88L77 1300Z" />
<glyph unicode="{" glyph-name="braceleft" horiz-adv-x="1132" d="M1100 1925V1646Q1009 1646 944 1624T843 1563T785 1473T755 1362T744 1238T736 1111T720 989T681 881T609 796Q653 767 681 719T720 615T736 495T744 367T755 242T785 128T843 35T945 -28T1101
-51V-330Q892 -330 748 -296T500 -182T341 33T273 366Q271 384 268 415T263 466T256 514T244 560T224 599T192 631T147 650T85 658V937Q119 937 146 944T191 963T222 993T243 1030T255 1076T263 1124T268 1176T274 1228Q309 1493 401 1643T659 1859T1100 1925Z"
/>
<glyph unicode="|" glyph-name="bar" horiz-adv-x="831" d="M700 1795V-100H129V1795H700Z" />
<glyph unicode="}" glyph-name="braceright" horiz-adv-x="1131" d="M59 1646V1925Q334 1925 499 1860T757 1644T885 1228Q887 1209 890 1177T896 1124T903 1076T916 1031T936 994T968 963T1013 945T1074 937V658Q1039 658 1012 651T967 631T936 599T915 561T903
515T896 467T891 415T886 366Q872 167 818 33T660 -181T411 -296T58 -330V-51Q149 -51 214 -28T315 35T374 127T403 241T414 366T423 494T439 614T478 718T550 796Q506 829 478 880T439 989T423 1110T415 1238T404 1361T375 1473T317 1563T215 1624T59 1646Z" />
<glyph unicode="~" glyph-name="asciitilde" horiz-adv-x="1424" d="M1057 642Q1057 713 1031 759T950 806Q905 806 861 787T779 739T700 683T602 636T480 616Q396 616 331 636T221 697T147 786T102 902T80 1032T73 1176H369Q369 1008 481 1008Q533 1008 583 1028T676
1076T766 1132T875 1181T1008 1201Q1083 1201 1139 1185T1233 1133T1295 1054T1332 942T1349 806T1354 642H1057Z" />
<glyph unicode="&#xa1;" glyph-name="exclamdown" horiz-adv-x="719" d="M151 1392L152 1391Q152 1504 211 1565T353 1627Q436 1627 498 1566T561 1398Q561 1298 500 1243T355 1187Q272 1187 212 1241T151 1392ZM311 989H310Q318 1022 334 1039T371 1057T407 1040T431
989Q453 896 507 711T595 391T629 185Q629 82 552 24T369 -35Q266 -35 192 22T118 183Q118 251 151 386T236 706T311 989Z" />
<glyph unicode="&#xa2;" glyph-name="cent" horiz-adv-x="1462" d="M598 1119V373H706V1119H598ZM1396 633V523Q1396 467 1385 420T1353 338T1302 274T1238 226T1160 192T1074 169T980 156T884 149T785 147V-74H706V147Q634 147 577 150T453 164T336 190T237 236T156
304T106 400T86 529V969Q86 1040 106 1097T159 1192T242 1258T343 1302T461 1327T582 1340T706 1343V1578H785V1343Q845 1342 895 1340T1010 1328T1127 1304T1230 1262T1317 1200T1374 1111T1396 992V881H885V1119H785V373H885V633H1396Z" />
<glyph unicode="&#xa3;" glyph-name="sterling" horiz-adv-x="1598" d="M74 265L76 266Q234 286 234 376V719H76V941H234V1065Q234 1234 256 1340T346 1511Q423 1584 556 1608T893 1632Q962 1632 1019 1629T1139 1618T1251 1596T1347 1559T1426 1505T1479 1430T1504
1331Q1507 1288 1507 1247V1070H926V1364H819V940H1246V718H819V268H947V562H1528V385Q1528 262 1500 186T1399 65Q1294 0 1097 0Q904 0 819 91Q805 106 781 130Q734 81 691 55T579 16Q496 2 301 0H74V265Z" />
<glyph unicode="&#xa4;" glyph-name="currency" horiz-adv-x="1390" d="M637 570H749V1070H637V570ZM698 299Q489 301 354 349L206 189L126 273L244 401Q150 462 109 556T68 804Q68 963 101 1065T219 1229L127 1330L207 1414L325 1286Q470 1343 697 1343Q919 1343
1065 1287L1181 1414L1262 1330L1171 1231Q1259 1168 1292 1070T1325 804Q1325 654 1282 556T1145 398L1263 272L1182 188L1036 346Q894 299 698 299Z" />
<glyph unicode="&#xa5;" glyph-name="yen" horiz-adv-x="1571" d="M746 1021L763 815H792L809 1021L968 1595H1524L1190 728H1425V585H1134L1082 449V442H1425V299H1082V0H477V299H127V442H477V459L428 585H127V728H372L32 1595H592L746 1021Z" />
<glyph unicode="&#xa6;" glyph-name="brokenbar" horiz-adv-x="831" d="M702 1708V797H131V1708H702ZM702 656V-255H131V656H702Z" />
<glyph unicode="&#xa7;" glyph-name="section" horiz-adv-x="1362" d="M717 748V971H648V748H717ZM265 1046Q88 1129 88 1329Q88 1413 105 1479T150 1590T224 1669T318 1722T433 1752T561 1766T702 1770Q768 1770 817 1768T931 1758T1041 1736T1136 1694T1214
1630T1264 1537T1283 1411Q1283 1394 1283 1359T1282 1306H730V1497H657V1248Q662 1243 672 1240T696 1235T721 1233T750 1232T776 1231Q976 1223 1072 1196Q1294 1135 1294 949Q1294 776 1142 705Q1100 685 1083 685Q1087 683 1106 675T1137 660Q1278 575 1278
401Q1278 317 1261 251T1216 140T1142 61T1048 8T933 -22T805 -36T664 -40Q598 -40 549 -38T435 -28T325 -5T231 37T153 101T104 194T85 321Q85 338 85 373T86 426H637V235H710V487H455Q273 487 173 554T73 783Q73 880 121 945T248 1039L265 1046Z" />
<glyph unicode="&#xa8;" glyph-name="dieresis" horiz-adv-x="1296" d="M1217 418V82H766V418H1217ZM533 418V82H83V418H533Z" />
<glyph unicode="&#xa9;" glyph-name="copyright" horiz-adv-x="1861" d="M835 432H1034V749H1311V542Q1311 474 1293 426T1243 348T1160 301T1052 278T916 272Q828 272 768 282T656 322T580 406T555 547V1107Q555 1190 578 1245T650 1329T762 1370T916 1381Q966
1381 1000 1380T1079 1372T1154 1355T1217 1324T1268 1276T1299 1206T1311 1111V913H1034V1222H835V432ZM323 1114V535Q323 399 359 308T475 164T663 90T932 68Q1047 68 1137 79T1305 120T1433 195T1512 314T1541 482V1165Q1541 1263 1510 1336T1427 1453T1294
1525T1128 1563T932 1573Q772 1573 662 1552T474 1478T359 1336T323 1114ZM932 -101Q772 -101 647 -83T414 -19T235 99T124 282T84 539V1116Q84 1225 108 1315T174 1470T279 1584T412 1664T571 1714T745 1741T932 1749Q1091 1749 1216 1731T1450 1669T1629 1553T1740
1371T1780 1116V539Q1780 386 1734 271T1611 87T1422 -26T1192 -85T932 -101Z" />
<glyph unicode="&#xaa;" glyph-name="ordfeminine" horiz-adv-x="1471" d="M644 942V489H810V942H644ZM135 1294Q135 1354 153 1402T203 1483T281 1540T377 1579T491 1602T613 1613T739 1616Q1031 1616 1186 1553Q1289 1511 1334 1442T1380 1241V546L1381 547Q1381
420 1409 290H889L833 428Q786 350 700 307T493 263Q279 263 176 364T72 677Q72 902 190 1007T544 1113Q685 1113 810 1072V1395H671V1204L146 1184Q135 1248 135 1294Z" />
<glyph unicode="&#xab;" glyph-name="guillemotleft" horiz-adv-x="1806" d="M1446 213L920 593Q876 624 853 673T830 775Q831 830 854 880T920 961L1446 1341Q1478 1364 1512 1364T1569 1339T1592 1278Q1592 1241 1568 1209L1234 777L1568 345Q1590 317 1590
277Q1590 241 1567 216T1510 190Q1477 190 1446 213ZM711 213L184 593Q140 624 117 673T94 775Q95 830 118 880T184 961L711 1341Q743 1364 776 1364Q810 1364 833 1339T857 1278T832 1209L498 777L832 345Q855 315 855 277Q855 241 832 216T774 190Q741 190 711
213Z" />
<glyph unicode="&#xac;" glyph-name="logicalnot" horiz-adv-x="1269" d="M1179 300H950V791H83V1105H1179V300Z" />
<glyph unicode="&#xad;" glyph-name="uni00AD" horiz-adv-x="1005" d="M920 897V561H87V897H920Z" />
<glyph unicode="&#xae;" glyph-name="registered" horiz-adv-x="1861" d="M895 915H978V1274H895V915ZM1116 835L1227 828Q1289 824 1323 775T1357 643V279H978V756H895V279H506V1434H1016Q1056 1434 1084 1433T1152 1426T1217 1410T1273 1379T1320 1331T1349
1261T1361 1164V1071Q1361 978 1325 924T1226 864L1116 854V835ZM323 1114V535Q323 399 359 308T475 164T663 90T932 68Q1047 68 1137 79T1305 120T1433 195T1512 314T1541 482V1165Q1541 1263 1510 1336T1427 1453T1294 1525T1128 1563T932 1573Q772 1573 662
1552T474 1478T359 1336T323 1114ZM932 -101Q772 -101 647 -83T414 -19T235 99T124 282T84 539V1116Q84 1225 108 1315T174 1470T279 1584T412 1664T571 1714T745 1741T932 1749Q1091 1749 1216 1731T1450 1669T1629 1553T1740 1371T1780 1116V539Q1780 386 1734
271T1611 87T1422 -26T1192 -85T932 -101Z" />
<glyph unicode="&#xaf;" glyph-name="overscore" horiz-adv-x="999" d="M920 897V666H87V897H920Z" />
<glyph unicode="&#xb0;" glyph-name="degree" horiz-adv-x="812" d="M545 1305T545 1371T506 1478T404 1520T303 1479T263 1371T302 1264T404 1222T505 1263ZM73 1250T73 1371T164 1582T404 1672T644 1582T735 1371T644 1160T404 1070T164 1160Z" />
<glyph unicode="&#xb1;" glyph-name="plusminus" horiz-adv-x="1304" d="M1064 300V-1H230V300H1064ZM457 1214V1595H849V1214H1213V881H849V503H457V881H92V1214H457Z" />
<glyph unicode="&#xb2;" glyph-name="uni00B2" horiz-adv-x="1090" d="M189 836Q189 843 189 857T188 878Q188 957 209 1016T266 1111T357 1170T472 1200T610 1209Q714 1209 786 1194T915 1143T998 1040T1026 876Q1026 806 1007 748T961 652T887 578T801 522T703
474Q670 459 649 448T603 419T566 380T553 332H986V134H189V313Q189 409 212 483T281 610T383 700T517 768Q549 781 566 789T607 811T642 841T653 877V1030H553V836H189Z" />
<glyph unicode="&#xb3;" glyph-name="uni00B3" horiz-adv-x="1101" d="M1036 881Q1036 729 898 669Q967 643 1002 583T1038 439Q1038 257 935 179T607 100Q387 100 284 191T180 471Q180 500 183 532H549V282H662V595H491V743H662V1027H549V804H183Q180 833 180
859Q180 1050 283 1127T606 1205Q820 1205 928 1132T1036 881Z" />
<glyph unicode="&#xb4;" glyph-name="acute" horiz-adv-x="873" d="M59 1480Q94 1512 184 1595T323 1724T435 1821T533 1893Q597 1930 658 1930Q733 1930 782 1878T832 1752Q832 1700 803 1652T716 1570Q680 1549 604 1522T460 1475T281 1423T120 1376Q106 1371
88 1371Q61 1371 43 1385T25 1420Q25 1450 59 1480Z" />
<glyph unicode="&#xb5;" glyph-name="uni00B5" horiz-adv-x="1707" />
<glyph unicode="&#xb6;" glyph-name="paragraph" horiz-adv-x="1318" d="M591 659Q330 659 193 765T56 1107Q56 1226 89 1314T178 1456T317 1541T489 1584T689 1595H1223V0H962V658H853V0H591V659Z" />
<glyph unicode="&#xb7;" glyph-name="middot" horiz-adv-x="670" d="M136 1017T136 1116T196 1270T340 1326T483 1271T544 1116T484 962T340 906T197 961Z" />
<glyph unicode="&#xb8;" glyph-name="cedilla" horiz-adv-x="948" d="M384 0H561V-70Q675 -70 733 -104T791 -228V-323Q791 -373 772 -405T716 -454T638 -475T538 -481Q412 -481 348 -449T284 -323V-267L511 -239V-371H574V-180H384V0Z" />
<glyph unicode="&#xb9;" glyph-name="uni00B9" horiz-adv-x="731" d="M115 1115Q252 1115 342 1170H654V130H259V971H115V1115Z" />
<glyph unicode="&#xba;" glyph-name="ordmasculine" horiz-adv-x="1334" d="M675 317H808V1014H675V317ZM744 99Q679 99 634 100T530 109T430 128T346 164T277 220T235 302T218 413V893Q218 954 235 1002T280 1082T351 1138T437 1173T537 1193T640 1202T745 1204Q807
1204 853 1202T957 1193T1055 1172T1138 1136T1206 1080T1248 1000T1265 892V412Q1265 339 1246 285T1183 197T1099 144T987 114T870 103T744 99Z" />
<glyph unicode="&#xbb;" glyph-name="guillemotright" horiz-adv-x="1770" d="M816 593L290 213Q259 190 226 190Q192 190 169 215T146 277Q146 317 168 345L502 777L168 1209Q144 1241 144 1278Q144 1314 167 1339T224 1364T290 1341L816 961Q858 930 881 880T906
775Q906 722 883 673T816 593ZM1552 593L1025 213Q995 190 962 190Q928 190 905 215T881 277Q881 315 904 345L1238 777L904 1209Q879 1242 879 1278T902 1339T960 1364Q993 1364 1025 1341L1552 961Q1594 930 1617 880T1642 775Q1642 722 1619 673T1552 593Z"
/>
<glyph unicode="&#xbc;" glyph-name="onequarter" horiz-adv-x="2565" d="M751 0L1103 1595H1537L1186 0H751ZM31 1415Q168 1415 258 1470H570V430H175V1271H31V1415ZM2499 130H2140V291H1624V571L1794 1172H2179L2010 571V535H2140V760H2499V130Z" />
<glyph unicode="&#xbd;" glyph-name="onehalf" horiz-adv-x="2580" d="M766 0L1118 1595H1552L1201 0H766ZM31 1415Q168 1415 258 1470H570V430H175V1271H31V1415ZM1685 836Q1685 843 1685 857T1684 878Q1684 957 1705 1016T1762 1111T1853 1170T1968 1200T2106
1209Q2210 1209 2282 1194T2411 1143T2494 1040T2522 876Q2522 806 2503 748T2457 652T2383 578T2297 522T2199 474Q2166 459 2145 448T2099 419T2062 380T2049 332H2482V134H1685V313Q1685 409 1708 483T1777 610T1879 700T2013 768Q2045 781 2062 789T2103 811T2138
841T2149 877V1030H2049V836H1685Z" />
<glyph unicode="&#xbe;" glyph-name="threequarters" horiz-adv-x="2894" d="M1120 0L1472 1595H1906L1555 0H1120ZM995 1175Q995 1023 857 963Q926 937 961 877T997 733Q997 551 894 473T566 394Q346 394 243 485T139 765Q139 794 142 826H508V576H621V889H450V1037H621V1321H508V1098H142Q139
1126 139 1153Q139 1344 242 1421T565 1499Q779 1499 887 1426T995 1175ZM2828 130H2469V291H1953V571L2123 1172H2508L2339 571V535H2469V760H2828V130Z" />
<glyph unicode="&#xbf;" glyph-name="questiondown" horiz-adv-x="906" d="M757 1526T757 1427T697 1273T553 1217T410 1272T349 1427T409 1581T553 1637T696 1582ZM493 1031Q500 1088 555 1088Q616 1088 616 1016Q616 937 597 854T554 713T505 588T471 475Q469
457 469 448Q469 397 503 366T611 334Q689 334 805 383L841 36Q622 -34 470 -34Q373 -34 297 -16T173 32T93 104T50 190T37 285Q37 347 60 403T120 506T203 597T296 689T385 785T455 897T493 1031Z" />
<glyph unicode="&#xc0;" glyph-name="Agrave" horiz-adv-x="1550" d="M820 1846Q854 1816 854 1786Q854 1765 836 1751T791 1737Q773 1737 759 1742Q708 1758 598 1789T420 1840T275 1888T163 1936Q105 1970 76 2018T47 2118Q47 2191 96 2243T221 2296Q282 2296
346 2259Q381 2239 443 2188T555 2091T695 1962T820 1846ZM782 1283H763L686 576H864L782 1283ZM668 366L613 0H27L319 1595H1226L1523 0H936L882 366H668Z" />
<glyph unicode="&#xc1;" glyph-name="Aacute" horiz-adv-x="1550" d="M730 1846Q765 1878 855 1961T994 2090T1106 2187T1204 2259Q1268 2296 1329 2296Q1404 2296 1453 2244T1503 2118Q1503 2066 1474 2018T1387 1936Q1351 1915 1275 1888T1131 1841T952 1789T791
1742Q777 1737 759 1737Q732 1737 714 1751T696 1786Q696 1816 730 1846ZM782 1283H763L686 576H864L782 1283ZM668 366L613 0H27L319 1595H1226L1523 0H936L882 366H668Z" />
<glyph unicode="&#xc2;" glyph-name="Acircumflex" horiz-adv-x="1550" d="M370 1853L633 2262Q655 2297 694 2315T776 2334Q870 2334 917 2262L1180 1853Q1198 1824 1198 1800Q1198 1773 1180 1755T1135 1737Q1106 1737 1078 1759L775 1994L472 1759Q446 1739
418 1739T371 1756T352 1801Q352 1824 370 1853ZM782 1283H763L686 576H864L782 1283ZM668 366L613 0H27L319 1595H1226L1523 0H936L882 366H668Z" />
<glyph unicode="&#xc3;" glyph-name="Atilde" horiz-adv-x="1550" d="M1415 1763H1122Q1122 1833 1096 1880T1012 1927Q992 1927 971 1918T940 1902T909 1878Q823 1809 742 1773T542 1737Q371 1737 284 1812T162 2043Q135 2137 135 2288H431Q431 2215 457 2168T543
2120Q550 2120 557 2121T571 2124T583 2127T596 2133T607 2140T619 2147T630 2154T641 2162T651 2170Q704 2209 727 2224T799 2265T899 2302T1009 2313Q1085 2313 1144 2301T1247 2266T1320 2206T1368 2126T1397 2024T1411 1904T1415 1763ZM782 1283H763L686 576H864L782
1283ZM668 366L613 0H27L319 1595H1226L1523 0H936L882 366H668Z" />
<glyph unicode="&#xc4;" glyph-name="Adieresis" horiz-adv-x="1550" d="M1342 2073V1737H891V2073H1342ZM658 2073V1737H208V2073H658ZM782 1283H763L686 576H864L782 1283ZM668 366L613 0H27L319 1595H1226L1523 0H936L882 366H668Z" />
<glyph unicode="&#xc5;" glyph-name="Aring" horiz-adv-x="1550" d="M773 2056Q721 2056 687 2022T652 1934Q652 1883 687 1848T773 1813Q823 1813 858 1848T894 1934Q894 1986 859 2021T773 2056ZM1108 1934Q1108 1795 1013 1705T775 1614Q666 1614 586 1668T468
1809Q442 1869 442 1934Q442 2075 537 2165T775 2256Q884 2256 964 2201T1082 2060Q1108 2000 1108 1934ZM782 1283H763L686 576H864L782 1283ZM668 366L613 0H27L319 1595H1226L1523 0H936L882 366H668Z" />
<glyph unicode="&#xc6;" glyph-name="AE" horiz-adv-x="2011" d="M847 578H987V1001L847 578ZM1946 1595V1354H1605V961H1923V711H1605V244H1946V0H987V348H774L663 0H38L673 1595H1946Z" />
<glyph unicode="&#xc7;" glyph-name="Ccedilla" horiz-adv-x="1519" d="M682 -24H859V-94Q973 -94 1031 -128T1089 -252V-347Q1089 -397 1070 -429T1014 -478T936 -499T836 -505Q710 -505 646 -473T582 -347V-291L809 -263V-395H872V-204H682V-24ZM858 1356H685V233H858V614H1462V369Q1462
291 1439 229T1380 124T1287 51T1175 3T1044 -24T911 -37T776 -40Q707 -40 650 -38T519 -25T386 2T268 50T169 123T105 228T80 370V1226Q80 1303 103 1365T164 1470T259 1543T373 1592T505 1619T639 1633T773 1636Q851 1636 911 1634T1046 1621T1177 1595T1289
1547T1381 1474T1439 1369T1462 1227V979H858V1356Z" />
<glyph unicode="&#xc8;" glyph-name="Egrave" horiz-adv-x="1096" d="M610 1846Q644 1816 644 1786Q644 1765 626 1751T581 1737Q563 1737 549 1742Q498 1758 388 1789T210 1840T65 1888T-47 1936Q-105 1970 -134 2018T-163 2118Q-163 2191 -114 2243T11 2296Q72
2296 136 2259Q171 2239 233 2188T345 2091T485 1962T610 1846ZM1037 1595V1346H696V961H1014V711H696V251H1037V0H92V1595H1037Z" />
<glyph unicode="&#xc9;" glyph-name="Eacute" horiz-adv-x="1096" d="M519 1846Q554 1878 644 1961T783 2090T895 2187T993 2259Q1057 2296 1118 2296Q1193 2296 1242 2244T1292 2118Q1292 2066 1263 2018T1176 1936Q1140 1915 1064 1888T920 1841T741 1789T580
1742Q566 1737 548 1737Q521 1737 503 1751T485 1786Q485 1816 519 1846ZM1037 1595V1346H696V961H1014V711H696V251H1037V0H92V1595H1037Z" />
<glyph unicode="&#xca;" glyph-name="Ecircumflex" horiz-adv-x="1096" d="M160 1853L423 2262Q445 2297 484 2315T566 2334Q660 2334 707 2262L970 1853Q988 1824 988 1800Q988 1773 970 1755T925 1737Q896 1737 868 1759L565 1994L262 1759Q236 1739 208 1739T161
1756T142 1801Q142 1824 160 1853ZM1037 1595V1346H696V961H1014V711H696V251H1037V0H92V1595H1037Z" />
<glyph unicode="&#xcb;" glyph-name="Edieresis" horiz-adv-x="1096" d="M1131 2073V1737H680V2073H1131ZM447 2073V1737H-3V2073H447ZM1037 1595V1346H696V961H1014V711H696V251H1037V0H92V1595H1037Z" />
<glyph unicode="&#xcc;" glyph-name="Igrave" horiz-adv-x="788" d="M439 1846Q473 1816 473 1786Q473 1765 455 1751T410 1737Q392 1737 378 1742Q327 1758 217 1789T39 1840T-106 1888T-218 1936Q-276 1970 -305 2018T-334 2118Q-334 2191 -285 2243T-160 2296Q-99
2296 -35 2259Q0 2239 62 2188T174 2091T314 1962T439 1846ZM696 1595V0H92V1595H696Z" />
<glyph unicode="&#xcd;" glyph-name="Iacute" horiz-adv-x="788" d="M349 1846Q384 1878 474 1961T613 2090T725 2187T823 2259Q887 2296 948 2296Q1023 2296 1072 2244T1122 2118Q1122 2066 1093 2018T1006 1936Q970 1915 894 1888T750 1841T571 1789T410 1742Q396
1737 378 1737Q351 1737 333 1751T315 1786Q315 1816 349 1846ZM696 1595V0H92V1595H696Z" />
<glyph unicode="&#xce;" glyph-name="Icircumflex" horiz-adv-x="788" d="M-11 1853L252 2262Q274 2297 313 2315T395 2334Q489 2334 536 2262L799 1853Q817 1824 817 1800Q817 1773 799 1755T754 1737Q725 1737 697 1759L394 1994L91 1759Q65 1739 37 1739T-10
1756T-29 1801Q-29 1824 -11 1853ZM696 1595V0H92V1595H696Z" />
<glyph unicode="&#xcf;" glyph-name="Idieresis" horiz-adv-x="788" d="M961 2073V1737H510V2073H961ZM277 2073V1737H-173V2073H277ZM696 1595V0H92V1595H696Z" />
<glyph unicode="&#xd0;" glyph-name="Eth" horiz-adv-x="1449" d="M645 237H881V1358H645V868H773V726H645V237ZM1378 393L1376 392Q1376 261 1338 186T1210 66Q1075 0 817 0H146V726H52V868H146V1595H817Q909 1595 983 1588T1130 1561T1254 1508T1338 1420T1375
1289Q1378 1244 1378 1204V393Z" />
<glyph unicode="&#xd1;" glyph-name="Ntilde" horiz-adv-x="1576" d="M1428 1763H1135Q1135 1833 1109 1880T1025 1927Q1005 1927 984 1918T953 1902T922 1878Q836 1809 755 1773T555 1737Q384 1737 297 1812T175 2043Q148 2137 148 2288H444Q444 2215 470 2168T556
2120Q563 2120 570 2121T584 2124T596 2127T609 2133T620 2140T632 2147T643 2154T654 2162T664 2170Q717 2209 740 2224T812 2265T912 2302T1022 2313Q1098 2313 1157 2301T1260 2266T1333 2206T1381 2126T1410 2024T1424 1904T1428 1763ZM945 0L540 711V0H92V1595H609L1040
834V1595H1484V0H945Z" />
<glyph unicode="&#xd2;" glyph-name="Ograve" horiz-adv-x="1542" d="M816 1846Q850 1816 850 1786Q850 1765 832 1751T787 1737Q769 1737 755 1742Q704 1758 594 1789T416 1840T271 1888T159 1936Q101 1970 72 2018T43 2118Q43 2191 92 2243T217 2296Q278 2296
342 2259Q377 2239 439 2188T551 2091T691 1962T816 1846ZM768 -39Q688 -39 628 -37T493 -25T362 2T251 49T160 122T102 227T80 370V1226Q80 1303 103 1365T163 1470T256 1543T370 1591T500 1619T634 1632T768 1635Q836 1635 893 1633T1024 1620T1156 1593T1273
1545T1372 1472T1437 1367T1462 1226V370Q1462 291 1439 228T1378 123T1283 51T1169 3T1037 -23T903 -36T768 -39ZM685 235H858V1362H685V235Z" />
<glyph unicode="&#xd3;" glyph-name="Oacute" horiz-adv-x="1542" d="M726 1846Q761 1878 851 1961T990 2090T1102 2187T1200 2259Q1264 2296 1325 2296Q1400 2296 1449 2244T1499 2118Q1499 2066 1470 2018T1383 1936Q1347 1915 1271 1888T1127 1841T948 1789T787
1742Q773 1737 755 1737Q728 1737 710 1751T692 1786Q692 1816 726 1846ZM768 -39Q688 -39 628 -37T493 -25T362 2T251 49T160 122T102 227T80 370V1226Q80 1303 103 1365T163 1470T256 1543T370 1591T500 1619T634 1632T768 1635Q836 1635 893 1633T1024 1620T1156
1593T1273 1545T1372 1472T1437 1367T1462 1226V370Q1462 291 1439 228T1378 123T1283 51T1169 3T1037 -23T903 -36T768 -39ZM685 235H858V1362H685V235Z" />
<glyph unicode="&#xd4;" glyph-name="Ocircumflex" horiz-adv-x="1542" d="M366 1853L629 2262Q651 2297 690 2315T772 2334Q866 2334 913 2262L1176 1853Q1194 1824 1194 1800Q1194 1773 1176 1755T1131 1737Q1102 1737 1074 1759L771 1994L468 1759Q442 1739
414 1739T367 1756T348 1801Q348 1824 366 1853ZM768 -39Q688 -39 628 -37T493 -25T362 2T251 49T160 122T102 227T80 370V1226Q80 1303 103 1365T163 1470T256 1543T370 1591T500 1619T634 1632T768 1635Q836 1635 893 1633T1024 1620T1156 1593T1273 1545T1372
1472T1437 1367T1462 1226V370Q1462 291 1439 228T1378 123T1283 51T1169 3T1037 -23T903 -36T768 -39ZM685 235H858V1362H685V235Z" />
<glyph unicode="&#xd5;" glyph-name="Otilde" horiz-adv-x="1542" d="M1411 1763H1118Q1118 1833 1092 1880T1008 1927Q988 1927 967 1918T936 1902T905 1878Q819 1809 738 1773T538 1737Q367 1737 280 1812T158 2043Q131 2137 131 2288H427Q427 2215 453 2168T539
2120Q546 2120 553 2121T567 2124T579 2127T592 2133T603 2140T615 2147T626 2154T637 2162T647 2170Q700 2209 723 2224T795 2265T895 2302T1005 2313Q1081 2313 1140 2301T1243 2266T1316 2206T1364 2126T1393 2024T1407 1904T1411 1763ZM768 -39Q688 -39 628
-37T493 -25T362 2T251 49T160 122T102 227T80 370V1226Q80 1303 103 1365T163 1470T256 1543T370 1591T500 1619T634 1632T768 1635Q836 1635 893 1633T1024 1620T1156 1593T1273 1545T1372 1472T1437 1367T1462 1226V370Q1462 291 1439 228T1378 123T1283 51T1169
3T1037 -23T903 -36T768 -39ZM685 235H858V1362H685V235Z" />
<glyph unicode="&#xd6;" glyph-name="Odieresis" horiz-adv-x="1542" d="M1338 2073V1737H887V2073H1338ZM654 2073V1737H204V2073H654ZM768 -39Q688 -39 628 -37T493 -25T362 2T251 49T160 122T102 227T80 370V1226Q80 1303 103 1365T163 1470T256 1543T370 1591T500
1619T634 1632T768 1635Q836 1635 893 1633T1024 1620T1156 1593T1273 1545T1372 1472T1437 1367T1462 1226V370Q1462 291 1439 228T1378 123T1283 51T1169 3T1037 -23T903 -36T768 -39ZM685 235H858V1362H685V235Z" />
<glyph unicode="&#xd7;" glyph-name="multiply" horiz-adv-x="1310" d="M1266 924L1008 649L1266 375L917 4L660 279L401 4L53 375L311 649L53 924L401 1294L660 1020L917 1294L1266 924Z" />
<glyph unicode="&#xd8;" glyph-name="Oslash" horiz-adv-x="1542" d="M1292 1546Q1472 1450 1472 1226V370Q1472 296 1452 236T1399 134T1313 61T1204 11T1074 -19T931 -35T778 -39L779 -41Q499 -41 350 10L242 -166L114 -70L210 85Q90 184 90 370V1226Q90 1300
109 1359T162 1460T247 1533T355 1582T484 1611T625 1626T778 1630Q1002 1630 1141 1599L1275 1817L1396 1716L1292 1546ZM695 235H868V1362H695V235Z" />
<glyph unicode="&#xd9;" glyph-name="Ugrave" horiz-adv-x="1552" d="M821 1846Q855 1816 855 1786Q855 1765 837 1751T792 1737Q774 1737 760 1742Q709 1758 599 1789T421 1840T276 1888T164 1936Q106 1970 77 2018T48 2118Q48 2191 97 2243T222 2296Q283 2296
347 2259Q382 2239 444 2188T556 2091T696 1962T821 1846ZM689 234H862V1594H1467V370Q1467 292 1444 230T1383 125T1289 52T1174 4T1043 -23T908 -36T774 -39Q705 -39 648 -37T517 -24T386 3T270 51T173 124T110 229T85 371V1595H689V234Z" />
<glyph unicode="&#xda;" glyph-name="Uacute" horiz-adv-x="1552" d="M731 1846Q766 1878 856 1961T995 2090T1107 2187T1205 2259Q1269 2296 1330 2296Q1405 2296 1454 2244T1504 2118Q1504 2066 1475 2018T1388 1936Q1352 1915 1276 1888T1132 1841T953 1789T792
1742Q778 1737 760 1737Q733 1737 715 1751T697 1786Q697 1816 731 1846ZM689 234H862V1594H1467V370Q1467 292 1444 230T1383 125T1289 52T1174 4T1043 -23T908 -36T774 -39Q705 -39 648 -37T517 -24T386 3T270 51T173 124T110 229T85 371V1595H689V234Z" />
<glyph unicode="&#xdb;" glyph-name="Ucircumflex" horiz-adv-x="1552" d="M371 1853L634 2262Q656 2297 695 2315T777 2334Q871 2334 918 2262L1181 1853Q1199 1824 1199 1800Q1199 1773 1181 1755T1136 1737Q1107 1737 1079 1759L776 1994L473 1759Q447 1739
419 1739T372 1756T353 1801Q353 1824 371 1853ZM689 234H862V1594H1467V370Q1467 292 1444 230T1383 125T1289 52T1174 4T1043 -23T908 -36T774 -39Q705 -39 648 -37T517 -24T386 3T270 51T173 124T110 229T85 371V1595H689V234Z" />
<glyph unicode="&#xdc;" glyph-name="Udieresis" horiz-adv-x="1552" d="M1343 2073V1737H892V2073H1343ZM659 2073V1737H209V2073H659ZM689 234H862V1594H1467V370Q1467 292 1444 230T1383 125T1289 52T1174 4T1043 -23T908 -36T774 -39Q705 -39 648 -37T517
-24T386 3T270 51T173 124T110 229T85 371V1595H689V234Z" />
<glyph unicode="&#xdd;" glyph-name="Yacute" horiz-adv-x="1486" d="M698 1846Q733 1878 823 1961T962 2090T1074 2187T1172 2259Q1236 2296 1297 2296Q1372 2296 1421 2244T1471 2118Q1471 2066 1442 2018T1355 1936Q1319 1915 1243 1888T1099 1841T920 1789T759
1742Q745 1737 727 1737Q700 1737 682 1751T664 1786Q664 1816 698 1846ZM738 955H747L933 1595H1489L1047 529V0H442V539L-3 1595H557L738 955Z" />
<glyph unicode="&#xde;" glyph-name="Thorn" horiz-adv-x="1534" d="M706 482H869V1182H706V482ZM104 1599H706V1413H843Q1132 1413 1284 1347Q1385 1303 1427 1231T1469 1022V641Q1469 524 1447 469Q1425 415 1381 375T1281 312T1151 274T1004 255T843 250H706V0H104V1599Z"
/>
<glyph unicode="&#xdf;" glyph-name="germandbls" horiz-adv-x="1389" d="M1327 258Q1327 201 1311 156T1268 80T1198 27T1111 -7T1007 -26T896 -35T776 -37H692V194H831V750H719V981H831V1358H595V-205H99V1217Q99 1313 132 1382T218 1492T354 1556T521 1587T715
1595Q925 1595 1058 1539T1236 1350Q1258 1285 1258 1170Q1258 1034 1186 957T986 870Q1138 861 1232 781T1327 553V258Z" />
<glyph unicode="&#xe0;" glyph-name="agrave" horiz-adv-x="1450" d="M1026 1538Q1060 1508 1060 1478Q1060 1457 1042 1443T997 1429Q979 1429 965 1434Q914 1450 804 1481T626 1532T481 1580T369 1628Q311 1662 282 1710T253 1810Q253 1883 302 1935T427 1988Q488
1988 552 1951Q587 1931 649 1880T761 1783T901 1654T1026 1538ZM629 653V200H795V653H629ZM1365 257Q1366 129 1394 1H874L818 139Q770 60 684 15T478 -30Q265 -30 161 73T57 388Q57 613 175 718T529 824Q670 824 795 783V1106H656V915L131 895Q120 959 120 1005Q120
1067 141 1117T197 1200T284 1257T386 1294T501 1315T615 1325T724 1327Q782 1327 827 1326T928 1321T1027 1308T1117 1286T1199 1253T1266 1206T1319 1141T1352 1057T1365 952V257Z" />
<glyph unicode="&#xe1;" glyph-name="aacute" horiz-adv-x="1450" d="M681 1538Q716 1570 806 1653T945 1782T1057 1879T1155 1951Q1219 1988 1280 1988Q1355 1988 1404 1936T1454 1810Q1454 1758 1425 1710T1338 1628Q1302 1607 1226 1580T1082 1533T903 1481T742
1434Q728 1429 710 1429Q683 1429 665 1443T647 1478Q647 1508 681 1538ZM629 653V200H795V653H629ZM1365 257Q1366 129 1394 1H874L818 139Q770 60 684 15T478 -30Q265 -30 161 73T57 388Q57 613 175 718T529 824Q670 824 795 783V1106H656V915L131 895Q120 959
120 1005Q120 1067 141 1117T197 1200T284 1257T386 1294T501 1315T615 1325T724 1327Q782 1327 827 1326T928 1321T1027 1308T1117 1286T1199 1253T1266 1206T1319 1141T1352 1057T1365 952V257Z" />
<glyph unicode="&#xe2;" glyph-name="acircumflex" horiz-adv-x="1450" d="M320 1545L583 1954Q605 1989 644 2007T726 2026Q820 2026 867 1954L1130 1545Q1148 1516 1148 1492Q1148 1465 1130 1447T1085 1429Q1056 1429 1028 1451L725 1686L422 1451Q396 1431
368 1431T321 1448T302 1493Q302 1516 320 1545ZM629 653V200H795V653H629ZM1365 257Q1366 129 1394 1H874L818 139Q770 60 684 15T478 -30Q265 -30 161 73T57 388Q57 613 175 718T529 824Q670 824 795 783V1106H656V915L131 895Q120 959 120 1005Q120 1067 141
1117T197 1200T284 1257T386 1294T501 1315T615 1325T724 1327Q782 1327 827 1326T928 1321T1027 1308T1117 1286T1199 1253T1266 1206T1319 1141T1352 1057T1365 952V257Z" />
<glyph unicode="&#xe3;" glyph-name="atilde" horiz-adv-x="1450" d="M1365 1455H1072Q1072 1525 1046 1572T962 1619Q942 1619 921 1610T890 1594T859 1570Q773 1501 692 1465T492 1429Q321 1429 234 1504T112 1735Q85 1829 85 1980H381Q381 1907 407 1860T493
1812Q500 1812 507 1813T521 1816T533 1819T546 1825T557 1832T569 1839T580 1846T591 1854T601 1862Q654 1901 677 1916T749 1957T849 1994T959 2005Q1035 2005 1094 1993T1197 1958T1270 1898T1318 1818T1347 1716T1361 1596T1365 1455ZM629 653V200H795V653H629ZM1365
257Q1366 129 1394 1H874L818 139Q770 60 684 15T478 -30Q265 -30 161 73T57 388Q57 613 175 718T529 824Q670 824 795 783V1106H656V915L131 895Q120 959 120 1005Q120 1067 141 1117T197 1200T284 1257T386 1294T501 1315T615 1325T724 1327Q782 1327 827 1326T928
1321T1027 1308T1117 1286T1199 1253T1266 1206T1319 1141T1352 1057T1365 952V257Z" />
<glyph unicode="&#xe4;" glyph-name="adieresis" horiz-adv-x="1450" d="M1293 1765V1429H842V1765H1293ZM609 1765V1429H159V1765H609ZM629 653V200H795V653H629ZM1365 257Q1366 129 1394 1H874L818 139Q770 60 684 15T478 -30Q265 -30 161 73T57 388Q57 613
175 718T529 824Q670 824 795 783V1106H656V915L131 895Q120 959 120 1005Q120 1067 141 1117T197 1200T284 1257T386 1294T501 1315T615 1325T724 1327Q782 1327 827 1326T928 1321T1027 1308T1117 1286T1199 1253T1266 1206T1319 1141T1352 1057T1365 952V257Z"
/>
<glyph unicode="&#xe5;" glyph-name="aring" horiz-adv-x="1450" d="M723 1871Q671 1871 637 1837T602 1749Q602 1698 637 1663T723 1628Q773 1628 808 1663T844 1749Q844 1801 809 1836T723 1871ZM1058 1749Q1058 1610 963 1520T725 1429Q616 1429 536 1483T418
1624Q392 1684 392 1749Q392 1890 487 1980T725 2071Q834 2071 914 2016T1032 1875Q1058 1815 1058 1749ZM629 653V200H795V653H629ZM1365 257Q1366 129 1394 1H874L818 139Q770 60 684 15T478 -30Q265 -30 161 73T57 388Q57 613 175 718T529 824Q670 824 795 783V1106H656V915L131
895Q120 959 120 1005Q120 1067 141 1117T197 1200T284 1257T386 1294T501 1315T615 1325T724 1327Q782 1327 827 1326T928 1321T1027 1308T1117 1286T1199 1253T1266 1206T1319 1141T1352 1057T1365 952V257Z" />
<glyph unicode="&#xe6;" glyph-name="ae" horiz-adv-x="2144" d="M1359 801H1503V1055H1359V801ZM637 604V252H787V604H637ZM129 1004Q129 1066 146 1115T194 1200T269 1261T364 1302T476 1327T597 1340T725 1343Q961 1343 1074 1261L1072 1263Q1197 1345 1431
1345Q1719 1345 1877 1279Q1981 1235 2028 1162T2075 956V606H1359V252H1503V501H2074V354Q2073 283 2055 226T2006 128T1928 58T1829 11T1709 -18T1575 -32T1427 -36Q1223 -36 1079 77Q882 -36 577 -36Q339 -36 204 68T69 388Q69 613 186 718T538 824Q674 824
787 783V1054H664V915Q576 912 402 905T140 894Q129 958 129 1004Z" />
<glyph unicode="&#xe7;" glyph-name="ccedilla" horiz-adv-x="1448" d="M641 -14H818V-84Q932 -84 990 -118T1048 -242V-337Q1048 -387 1029 -419T973 -468T895 -489T795 -495Q669 -495 605 -463T541 -337V-281L768 -253V-385H831V-194H641V-14ZM1384 539L1385
352Q1385 293 1372 244T1338 158T1283 92T1213 44T1128 10T1035 -11T935 -23T834 -29T731 -30Q655 -30 597 -28T467 -16T342 9T236 54T150 123T95 222T74 355V955Q74 1013 87 1061T123 1145T181 1209T253 1256T339 1288T433 1309T535 1321T636 1326T737 1327Q812
1327 855 1326T975 1319T1100 1300T1208 1262T1302 1200T1360 1107T1384 978V787H813V1105H646V199H813V539H1384Z" />
<glyph unicode="&#xe8;" glyph-name="egrave" horiz-adv-x="1450" d="M1034 1538Q1068 1508 1068 1478Q1068 1457 1050 1443T1005 1429Q987 1429 973 1434Q922 1450 812 1481T634 1532T489 1580T377 1628Q319 1662 290 1710T261 1810Q261 1883 310 1935T435 1988Q496
1988 560 1951Q595 1931 657 1880T769 1783T909 1654T1034 1538ZM646 777H814V1105H646V777ZM1384 483Q1392 422 1392 380Q1392 156 1233 63T731 -30Q672 -30 628 -29T526 -24T425 -12T333 10T248 43T178 92T122 157T87 244T74 353V953Q74 1026 96 1084T152 1181T242
1248T350 1291T475 1314T601 1325T729 1327Q786 1327 829 1326T929 1321T1029 1310T1122 1289T1208 1256T1279 1209T1335 1145T1370 1061T1384 954V604H646V199H813V483H1384Z" />
<glyph unicode="&#xe9;" glyph-name="eacute" horiz-adv-x="1450" d="M688 1538Q723 1570 813 1653T952 1782T1064 1879T1162 1951Q1226 1988 1287 1988Q1362 1988 1411 1936T1461 1810Q1461 1758 1432 1710T1345 1628Q1309 1607 1233 1580T1089 1533T910 1481T749
1434Q735 1429 717 1429Q690 1429 672 1443T654 1478Q654 1508 688 1538ZM646 777H814V1105H646V777ZM1384 483Q1392 422 1392 380Q1392 156 1233 63T731 -30Q672 -30 628 -29T526 -24T425 -12T333 10T248 43T178 92T122 157T87 244T74 353V953Q74 1026 96 1084T152
1181T242 1248T350 1291T475 1314T601 1325T729 1327Q786 1327 829 1326T929 1321T1029 1310T1122 1289T1208 1256T1279 1209T1335 1145T1370 1061T1384 954V604H646V199H813V483H1384Z" />
<glyph unicode="&#xea;" glyph-name="ecircumflex" horiz-adv-x="1450" d="M328 1545L591 1954Q613 1989 652 2007T734 2026Q828 2026 875 1954L1138 1545Q1156 1516 1156 1492Q1156 1465 1138 1447T1093 1429Q1064 1429 1036 1451L733 1686L430 1451Q404 1431
376 1431T329 1448T310 1493Q310 1516 328 1545ZM646 777H814V1105H646V777ZM1384 483Q1392 422 1392 380Q1392 156 1233 63T731 -30Q672 -30 628 -29T526 -24T425 -12T333 10T248 43T178 92T122 157T87 244T74 353V953Q74 1026 96 1084T152 1181T242 1248T350
1291T475 1314T601 1325T729 1327Q786 1327 829 1326T929 1321T1029 1310T1122 1289T1208 1256T1279 1209T1335 1145T1370 1061T1384 954V604H646V199H813V483H1384Z" />
<glyph unicode="&#xeb;" glyph-name="edieresis" horiz-adv-x="1450" d="M1300 1765V1429H849V1765H1300ZM616 1765V1429H166V1765H616ZM646 777H814V1105H646V777ZM1384 483Q1392 422 1392 380Q1392 156 1233 63T731 -30Q672 -30 628 -29T526 -24T425 -12T333
10T248 43T178 92T122 157T87 244T74 353V953Q74 1026 96 1084T152 1181T242 1248T350 1291T475 1314T601 1325T729 1327Q786 1327 829 1326T929 1321T1029 1310T1122 1289T1208 1256T1279 1209T1335 1145T1370 1061T1384 954V604H646V199H813V483H1384Z" />
<glyph unicode="&#xec;" glyph-name="igrave" horiz-adv-x="744" d="M430 1538Q464 1508 464 1478Q464 1457 446 1443T401 1429Q383 1429 369 1434Q318 1450 208 1481T30 1532T-115 1580T-227 1628Q-285 1662 -314 1710T-343 1810Q-343 1883 -294 1935T-169 1988Q-108
1988 -44 1951Q-9 1931 53 1880T165 1783T305 1654T430 1538ZM669 0H100V1298H669V0Z" />
<glyph unicode="&#xed;" glyph-name="iacute" horiz-adv-x="744" d="M339 1538Q374 1570 464 1653T603 1782T715 1879T813 1951Q877 1988 938 1988Q1013 1988 1062 1936T1112 1810Q1112 1758 1083 1710T996 1628Q960 1607 884 1580T740 1533T561 1481T400 1434Q386
1429 368 1429Q341 1429 323 1443T305 1478Q305 1508 339 1538ZM669 0H100V1298H669V0Z" />
<glyph unicode="&#xee;" glyph-name="icircumflex" horiz-adv-x="744" d="M236 1545L499 1954Q521 1989 560 2007T642 2026Q736 2026 783 1954L1046 1545Q1064 1516 1064 1492Q1064 1465 1046 1447T1001 1429Q972 1429 944 1451L641 1686L338 1451Q312 1431 284
1431T237 1448T218 1493Q218 1516 236 1545ZM669 0H100V1298H669V0Z" />
<glyph unicode="&#xef;" glyph-name="idieresis" horiz-adv-x="744" d="M951 1765V1429H500V1765H951ZM267 1765V1429H-183V1765H267ZM669 0H100V1298H669V0Z" />
<glyph unicode="&#xf0;" glyph-name="eth" horiz-adv-x="1395" d="M762 828H640V238H762V828ZM991 1578Q1065 1506 1123 1432T1231 1262T1309 1051T1337 807Q1337 707 1335 641T1327 490T1306 346T1268 226T1207 121T1119 45Q984 -37 708 -37Q590 -37 501 -26T331
13T196 93T112 221Q72 327 72 525Q72 717 112 838T258 1021Q386 1097 623 1097H763Q763 1133 751 1166T714 1231T672 1279T624 1324L372 1151L302 1275L507 1416Q406 1482 353 1510L286 1546L510 1887L511 1889Q711 1806 880 1674L1088 1817L1159 1694L991 1578Z"
/>
<glyph unicode="&#xf1;" glyph-name="ntilde" horiz-adv-x="1489" d="M1391 1455H1098Q1098 1525 1072 1572T988 1619Q968 1619 947 1610T916 1594T885 1570Q799 1501 718 1465T518 1429Q347 1429 260 1504T138 1735Q111 1829 111 1980H407Q407 1907 433 1860T519
1812Q526 1812 533 1813T547 1816T559 1819T572 1825T583 1832T595 1839T606 1846T617 1854T627 1862Q680 1901 703 1916T775 1957T875 1994T985 2005Q1061 2005 1120 1993T1223 1958T1296 1898T1344 1818T1373 1716T1387 1596T1391 1455ZM984 1327Q1189 1326 1297
1229T1405 944V0H834V1105H667V0H96V1300H606L643 1188Q688 1251 780 1289T984 1327Z" />
<glyph unicode="&#xf2;" glyph-name="ograve" horiz-adv-x="1457" d="M1030 1538Q1064 1508 1064 1478Q1064 1457 1046 1443T1001 1429Q983 1429 969 1434Q918 1450 808 1481T630 1532T485 1580T373 1628Q315 1662 286 1710T257 1810Q257 1883 306 1935T431 1988Q492
1988 556 1951Q591 1931 653 1880T765 1783T905 1654T1030 1538ZM732 -30Q670 -30 625 -29T521 -24T420 -13T328 9T244 42T175 90T120 155T87 240T74 348V953Q74 1016 89 1068T135 1158T203 1223T293 1270T393 1300T505 1317T619 1325T733 1327Q811 1327 870 1325T1001
1313T1123 1288T1226 1244T1310 1177T1363 1081T1383 952V347Q1383 270 1362 210T1309 111T1222 44T1118 2T993 -19T866 -28T732 -30ZM645 228H811V1105H645V228Z" />
<glyph unicode="&#xf3;" glyph-name="oacute" horiz-adv-x="1457" d="M683 1538Q718 1570 808 1653T947 1782T1059 1879T1157 1951Q1221 1988 1282 1988Q1357 1988 1406 1936T1456 1810Q1456 1758 1427 1710T1340 1628Q1304 1607 1228 1580T1084 1533T905 1481T744
1434Q730 1429 712 1429Q685 1429 667 1443T649 1478Q649 1508 683 1538ZM732 -30Q670 -30 625 -29T521 -24T420 -13T328 9T244 42T175 90T120 155T87 240T74 348V953Q74 1016 89 1068T135 1158T203 1223T293 1270T393 1300T505 1317T619 1325T733 1327Q811 1327
870 1325T1001 1313T1123 1288T1226 1244T1310 1177T1363 1081T1383 952V347Q1383 270 1362 210T1309 111T1222 44T1118 2T993 -19T866 -28T732 -30ZM645 228H811V1105H645V228Z" />
<glyph unicode="&#xf4;" glyph-name="ocircumflex" horiz-adv-x="1457" d="M324 1545L587 1954Q609 1989 648 2007T730 2026Q824 2026 871 1954L1134 1545Q1152 1516 1152 1492Q1152 1465 1134 1447T1089 1429Q1060 1429 1032 1451L729 1686L426 1451Q400 1431
372 1431T325 1448T306 1493Q306 1516 324 1545ZM732 -30Q670 -30 625 -29T521 -24T420 -13T328 9T244 42T175 90T120 155T87 240T74 348V953Q74 1016 89 1068T135 1158T203 1223T293 1270T393 1300T505 1317T619 1325T733 1327Q811 1327 870 1325T1001 1313T1123
1288T1226 1244T1310 1177T1363 1081T1383 952V347Q1383 270 1362 210T1309 111T1222 44T1118 2T993 -19T866 -28T732 -30ZM645 228H811V1105H645V228Z" />
<glyph unicode="&#xf5;" glyph-name="otilde" horiz-adv-x="1457" d="M1369 1455H1076Q1076 1525 1050 1572T966 1619Q946 1619 925 1610T894 1594T863 1570Q777 1501 696 1465T496 1429Q325 1429 238 1504T116 1735Q89 1829 89 1980H385Q385 1907 411 1860T497
1812Q504 1812 511 1813T525 1816T537 1819T550 1825T561 1832T573 1839T584 1846T595 1854T605 1862Q658 1901 681 1916T753 1957T853 1994T963 2005Q1039 2005 1098 1993T1201 1958T1274 1898T1322 1818T1351 1716T1365 1596T1369 1455ZM732 -30Q670 -30 625
-29T521 -24T420 -13T328 9T244 42T175 90T120 155T87 240T74 348V953Q74 1016 89 1068T135 1158T203 1223T293 1270T393 1300T505 1317T619 1325T733 1327Q811 1327 870 1325T1001 1313T1123 1288T1226 1244T1310 1177T1363 1081T1383 952V347Q1383 270 1362 210T1309
111T1222 44T1118 2T993 -19T866 -28T732 -30ZM645 228H811V1105H645V228Z" />
<glyph unicode="&#xf6;" glyph-name="odieresis" horiz-adv-x="1457" d="M1295 1765V1429H844V1765H1295ZM611 1765V1429H161V1765H611ZM732 -30Q670 -30 625 -29T521 -24T420 -13T328 9T244 42T175 90T120 155T87 240T74 348V953Q74 1016 89 1068T135 1158T203
1223T293 1270T393 1300T505 1317T619 1325T733 1327Q811 1327 870 1325T1001 1313T1123 1288T1226 1244T1310 1177T1363 1081T1383 952V347Q1383 270 1362 210T1309 111T1222 44T1118 2T993 -19T866 -28T732 -30ZM645 228H811V1105H645V228Z" />
<glyph unicode="&#xf7;" glyph-name="divide" horiz-adv-x="1286" d="M1229 908V670H67V908H1229ZM901 1000H394V1497H901V1000ZM901 92H394V559H901V92Z" />
<glyph unicode="&#xf8;" glyph-name="oslash" horiz-adv-x="1465" d="M657 636L823 806V1106H657V636ZM657 234H823V689L657 519V234ZM86 952Q86 1025 104 1082T154 1180T234 1251T336 1298T460 1326T596 1339T745 1343L744 1344Q917 1344 1041 1323T1255 1249L1348
1344L1406 1286L1320 1198Q1395 1122 1395 952V352Q1395 220 1347 145T1197 27Q1037 -39 744 -39Q562 -39 434 -17T215 65L114 -39L56 19L153 118Q86 194 86 352V952Z" />
<glyph unicode="&#xf9;" glyph-name="ugrave" horiz-adv-x="1490" d="M1040 1538Q1074 1508 1074 1478Q1074 1457 1056 1443T1011 1429Q993 1429 979 1434Q928 1450 818 1481T640 1532T495 1580T383 1628Q325 1662 296 1710T267 1810Q267 1883 316 1935T441 1988Q502
1988 566 1951Q601 1931 663 1880T775 1783T915 1654T1040 1538ZM508 -30Q303 -30 194 67T84 360V1300H656V233H822V1300H1394V0H877L840 112Q800 47 707 9T508 -30Z" />
<glyph unicode="&#xfa;" glyph-name="uacute" horiz-adv-x="1490" d="M694 1538Q729 1570 819 1653T958 1782T1070 1879T1168 1951Q1232 1988 1293 1988Q1368 1988 1417 1936T1467 1810Q1467 1758 1438 1710T1351 1628Q1315 1607 1239 1580T1095 1533T916 1481T755
1434Q741 1429 723 1429Q696 1429 678 1443T660 1478Q660 1508 694 1538ZM508 -30Q303 -30 194 67T84 360V1300H656V233H822V1300H1394V0H877L840 112Q800 47 707 9T508 -30Z" />
<glyph unicode="&#xfb;" glyph-name="ucircumflex" horiz-adv-x="1490" d="M334 1545L597 1954Q619 1989 658 2007T740 2026Q834 2026 881 1954L1144 1545Q1162 1516 1162 1492Q1162 1465 1144 1447T1099 1429Q1070 1429 1042 1451L739 1686L436 1451Q410 1431
382 1431T335 1448T316 1493Q316 1516 334 1545ZM508 -30Q303 -30 194 67T84 360V1300H656V233H822V1300H1394V0H877L840 112Q800 47 707 9T508 -30Z" />
<glyph unicode="&#xfc;" glyph-name="udieresis" horiz-adv-x="1490" d="M1306 1765V1429H855V1765H1306ZM622 1765V1429H172V1765H622ZM508 -30Q303 -30 194 67T84 360V1300H656V233H822V1300H1394V0H877L840 112Q800 47 707 9T508 -30Z" />
<glyph unicode="&#xfd;" glyph-name="yacute" horiz-adv-x="1337" d="M621 1538Q656 1570 746 1653T885 1782T997 1879T1095 1951Q1159 1988 1220 1988Q1295 1988 1344 1936T1394 1810Q1394 1758 1365 1710T1278 1628Q1242 1607 1166 1580T1022 1533T843 1481T682
1434Q668 1429 650 1429Q623 1429 605 1443T587 1478Q587 1508 621 1538ZM488 -411Q568 -411 634 -400T763 -360T875 -286T963 -169T1028 -3L1338 1300H804L700 376H692L522 1300H-5L366 41Q375 11 375 -10Q375 -77 287 -77Q220 -77 65 -33L22 -344Q116 -371 257
-391T488 -411Z" />
<glyph unicode="&#xfe;" glyph-name="thorn" horiz-adv-x="1430" d="M674 231H788V1069H674V231ZM675 1227Q702 1283 770 1303T948 1323Q1144 1323 1248 1245T1360 995Q1362 933 1362 908V390Q1362 262 1335 180T1239 48Q1140 -24 948 -24Q854 -24 793 -10T701
44Q697 49 688 60T675 78V-409H104V1602H675V1227Z" />
<glyph unicode="&#xff;" glyph-name="ydieresis" horiz-adv-x="1337" d="M1233 1765V1429H782V1765H1233ZM549 1765V1429H99V1765H549ZM488 -411Q568 -411 634 -400T763 -360T875 -286T963 -169T1028 -3L1338 1300H804L700 376H692L522 1300H-5L366 41Q375 11
375 -10Q375 -77 287 -77Q220 -77 65 -33L22 -344Q116 -371 257 -391T488 -411Z" />
<glyph unicode="&#x2013;" glyph-name="endash" horiz-adv-x="1005" d="M920 897V461H87V897H920Z" />
<glyph unicode="&#x2014;" glyph-name="emdash" horiz-adv-x="1857" d="M1772 897V461H87V897H1772Z" />
<glyph unicode="&#x2018;" glyph-name="quoteleft" horiz-adv-x="722" d="M569 1187Q569 1093 512 1040T375 987Q267 987 211 1055T155 1227Q155 1297 178 1367T245 1497T355 1593T502 1630Q524 1630 546 1627V1518Q483 1517 439 1485T390 1396Q465 1388 517 1334T569
1187Z" />
<glyph unicode="&#x2019;" glyph-name="quoteright" horiz-adv-x="706" d="M154 1430Q154 1524 214 1577T358 1630Q461 1630 514 1562T568 1390Q568 1320 545 1250T478 1120T368 1024T221 987Q200 987 177 990V1099Q240 1100 284 1132T333 1221Q258 1229 206 1283T154
1430Z" />
<glyph unicode="&#x201a;" glyph-name="quotesinglbase" horiz-adv-x="648" d="M253 -350Q237 -282 201 -153T142 69T120 208Q120 292 175 337T306 383Q384 383 442 336T501 206Q501 158 478 65T417 -155T363 -350Q357 -378 342 -393T308 -409Q291 -409 276 -394T253
-350Z" />
<glyph unicode="&#x201c;" glyph-name="quotedblleft" horiz-adv-x="1339" d="M668 1187Q668 1093 608 1040T464 987Q361 987 308 1055T254 1227Q254 1297 277 1367T344 1497T454 1593T601 1630Q622 1630 645 1627V1518Q582 1517 538 1485T489 1396Q564 1388 616
1334T668 1187ZM1171 1187Q1171 1093 1111 1040T967 987Q864 987 811 1055T757 1227Q757 1297 780 1367T847 1497T957 1593T1104 1630Q1126 1630 1148 1627V1518Q1085 1517 1041 1485T992 1396Q1067 1388 1119 1334T1171 1187Z" />
<glyph unicode="&#x201d;" glyph-name="quotedblright" horiz-adv-x="1327" d="M757 1430Q757 1524 817 1577T961 1630Q1064 1630 1117 1562T1171 1390Q1171 1320 1148 1250T1081 1120T971 1024T824 987Q802 987 780 990V1099Q843 1100 887 1132T936 1221Q861
1229 809 1283T757 1430ZM254 1430Q254 1524 314 1577T458 1630Q561 1630 614 1562T668 1390Q668 1320 645 1250T578 1120T468 1024T321 987Q300 987 277 990V1099Q340 1100 384 1132T433 1221Q358 1229 306 1283T254 1430Z" />
<glyph unicode="&#x201e;" glyph-name="quotedblbase" horiz-adv-x="1229" d="M786 -350Q770 -282 734 -153T675 69T653 208Q653 292 708 337T839 383Q917 383 975 336T1034 206Q1034 158 1011 65T950 -155T896 -350Q890 -378 874 -393T841 -409T809 -394T786
-350ZM289 -350Q273 -282 237 -153T178 69T156 208Q156 292 211 337T342 383Q420 383 478 336T537 206Q537 158 514 65T453 -155T399 -350Q393 -378 378 -393T344 -409Q327 -409 312 -394T289 -350Z" />
<glyph unicode="&#x2022;" glyph-name="bullet" horiz-adv-x="1120" d="M1053 726Q1053 600 1030 507T954 342T807 232T577 195Q430 195 331 228T175 332T95 496T71 726Q71 1009 188 1131T579 1254Q830 1254 941 1125T1053 726Z" />
<glyph unicode="&#x2039;" glyph-name="guilsinglleft" horiz-adv-x="1036" d="M760 213L234 593Q190 624 167 673T144 775Q145 830 168 880T234 961L760 1341Q792 1364 826 1364T883 1339T906 1278Q906 1241 882 1209L548 777L882 345Q904 317 904 277Q904 241
881 216T824 190Q791 190 760 213Z" />
<glyph unicode="&#x203a;" glyph-name="guilsinglright" horiz-adv-x="1034" d="M816 593L290 213Q259 190 226 190Q192 190 169 215T146 277Q146 317 168 345L502 777L168 1209Q144 1241 144 1278Q144 1314 167 1339T224 1364T290 1341L816 961Q858 930 881 880T906
775Q906 722 883 673T816 593Z" />
</font>
</defs>
</svg>
