<?xml version="1.0" standalone="no"?>
<!DOCTYPE svg PUBLIC "-//W3C//DTD SVG 1.1//EN" "http://www.w3.org/Graphics/SVG/1.1/DTD/svg11.dtd">
<svg xmlns="http://www.w3.org/2000/svg">
<defs >
<font id="CormorantGaramond" horiz-adv-x="445" ><font-face
    font-family="Cormorant Garamond Light"
    units-per-em="1000"
    panose-1="0 0 0 0 0 0 0 0 0 0"
    ascent="924"
    descent="-287"
    alphabetic="0" />
<glyph unicode=" " horiz-adv-x="234" />
<glyph unicode="!" horiz-adv-x="219" d="M113 191Q112 186 107 187T102 192Q110 258 119 332T135 481T144 621Q144 625 157 629T186 633Q202 633 215 629T227 621Q204 555 184 481T146 332T113 191ZM80 -10Q60 -10 49 1T37 32Q37 51 48 62T80 73Q100 73 111 62T122
32Q122 -10 80 -10Z" />
<glyph unicode="&quot;" horiz-adv-x="319" d="M86 304L128 609Q129 617 141 623T168 634T195 640T206 637L97 306Q96 303 91 303T86 304ZM231 304L274 609Q275 617 287 623T314 634T340 640T351 637L243 306Q242 303 237 303T231 304Z" />
<glyph unicode="#" horiz-adv-x="435" d="M65 -82Q65 -85 57 -84T42 -80T36 -74L222 483Q223 486 230 484T245 479T251 473L65 -82ZM27 76Q25 76 24 86T24 106T27 116H344Q347 116 347 106T346 86T343 76H27ZM216 -82Q216 -85 208 -84T193 -80T187 -74L373 483Q374
486 381 484T396 479T402 473L216 -82ZM94 275Q92 275 91 285T91 304T94 314H411Q413 314 413 305T413 285T409 275H94Z" />
<glyph unicode="$" horiz-adv-x="374" d="M128 -101L245 563Q247 570 256 569T264 560L148 -103Q147 -110 137 -109T128 -101ZM142 381Q137 351 148 330T180 292T226 259Q251 244 273 226T308 183T314 119Q308 83 285 53T225 6T141 -12Q111 -12 85 -3T40 24Q35
27 34 31T34 43L42 142Q42 147 47 147T52 141Q54 105 67 74T105 23T161 4Q180 4 200 12T236 41T258 93Q265 127 253 150T220 191T174 225Q150 241 128 259T95 301T90 363Q97 401 120 427T177 467T246 480Q266 480 288 475T330 456Q338 452 340 449T342 439L333
351Q332 347 328 348T323 353Q323 371 318 390T300 426T271 454T230 465Q194 465 171 441T142 381Z" />
<glyph unicode="%" horiz-adv-x="519" d="M62 -6Q61 -7 56 -5T46 1T42 7L471 551Q473 553 478 550T488 543T491 537L62 -6ZM351 -5Q304 -5 280 33T265 125Q271 160 290 189T336 235T395 253Q442 253 465 215T479 123Q469 69 434 32T351 -5ZM359 8Q392 8 405 39T425
116Q436 177 426 208T388 240Q356 240 341 208T318 129Q308 78 316 43T359 8ZM155 303Q108 303 84 340T70 433Q76 468 95 497T142 543T201 560Q248 560 271 522T284 430Q274 377 238 340T155 303ZM164 315Q196 315 209 346T230 423Q241 484 232 516T193 548Q161
548 146 515T123 436Q114 385 121 350T164 315Z" />
<glyph unicode="&amp;" horiz-adv-x="751" d="M308 -12Q248 -12 201 12T123 77T80 171T79 278Q91 333 125 375T205 441T298 465Q323 465 345 458T386 431L331 381Q315 416 291 427T247 438Q220 438 198 421T159 374T134 310Q123 248 136 196T180 106T253 48T341
27Q404 27 454 59T534 153T569 309L586 303Q578 198 541 128T443 23T308 -12ZM117 195L107 205Q142 234 185 268T274 338T356 412T417 485T440 554Q440 574 435 584T421 601T407 614T401 634Q401 649 410 657T433 666Q455 666 469 647T483 594Q483 551 459 508T394
423T305 341T207 265T117 195ZM393 229Q382 229 374 236T366 261Q366 288 382 311T425 349T480 364Q507 364 535 353T591 326T646 299T694 287Q708 287 716 292T724 306Q724 315 719 322T708 338T702 357Q702 369 708 374T728 380Q738 380 745 374T753 349Q753
324 740 301T704 262T654 247Q629 247 601 259T543 287T485 315T432 328Q417 328 409 322T401 307Q401 297 405 289T413 272T417 253Q417 246 412 238T393 229Z" />
<glyph unicode="&apos;" horiz-adv-x="129" d="M65 304L108 609Q108 617 120 623T147 634T174 640T185 637L76 306Q75 303 70 303T65 304Z" />
<glyph unicode="(" horiz-adv-x="280" d="M194 -117Q140 -80 109 -17T72 128T81 304Q98 398 134 480T223 625T342 725Q345 727 348 723T348 717Q268 645 218 543T145 304Q122 172 135 70T201 -109Q203 -111 200 -114T194 -117Z" />
<glyph unicode=")" horiz-adv-x="280" d="M126 725Q180 689 211 626T249 480T240 304Q224 211 187 129T97 -17T-22 -117Q-25 -118 -28 -114T-28 -109Q52 -37 102 65T175 304Q199 436 186 538T119 717Q118 719 121 723T126 725Z" />
<glyph unicode="*" horiz-adv-x="448" d="M178 381Q175 375 161 377T131 384T106 396T99 404L246 491Q248 493 252 490T254 485L178 381ZM311 315L273 481Q272 483 276 486T281 488L357 383Q362 378 356 365T340 339T321 319T311 315ZM243 511L121 550Q114 553
112 566T109 597T112 625T118 633L247 520Q249 519 248 515T243 511ZM461 488L291 503Q289 503 288 507T288 513L411 553Q418 555 428 546T448 523T461 499T461 488ZM265 529L266 658Q265 666 277 672T306 683T333 689T343 686L276 529Q275 526 270 526T265 529Z"
/>
<glyph unicode="+" horiz-adv-x="398" d="M34 170Q31 170 30 180T30 199T33 209H364Q367 209 368 200T368 180T364 170H34ZM219 25Q219 22 209 21T189 20T179 23V354Q179 357 189 358T209 358T219 354V25Z" />
<glyph unicode="," horiz-adv-x="224" d="M10 -179Q6 -182 3 -177T3 -170Q37 -138 56 -105T81 -36Q86 -9 82 3T71 20L99 29Q100 11 90 2T64 -8Q45 -8 35 4T25 33Q26 51 38 61T72 71Q101 71 116 49T124 -18Q116 -65 86 -104T10 -179Z" />
<glyph unicode="-" horiz-adv-x="305" d="M32 167Q29 167 28 177T27 199T30 212L280 258Q283 259 283 248T284 226T280 214L32 167Z" />
<glyph unicode="." horiz-adv-x="197" d="M68 -10Q48 -10 37 1T25 32Q25 51 36 62T68 73Q88 73 99 62T110 32Q110 -10 68 -10Z" />
<glyph unicode="/" horiz-adv-x="305" d="M-8 -167Q-9 -170 -18 -168T-34 -162T-41 -156L343 731Q345 735 353 733T369 727T374 718L-8 -167Z" />
<glyph unicode="0" horiz-adv-x="438" d="M183 -13Q131 -13 93 14T40 88T34 196Q45 256 77 301T157 373T257 399Q311 399 347 373T400 300T405 193Q394 133 362 87T283 14T183 -13ZM197 1Q235 1 263 24T311 88T339 181Q350 250 341 295T306 363T246 385Q191 385
152 334T99 204Q89 147 97 101T131 28T197 1Z" />
<glyph unicode="1" horiz-adv-x="291" d="M14 0Q10 0 10 6T14 12Q50 12 69 17T98 37T113 81L147 270Q153 308 152 323T131 336T67 311Q63 309 61 314T63 322L214 396Q216 398 219 396T221 392L165 81Q160 52 163 37T185 17T242 12Q245 12 245 6T242 0Q219 0 191
1T129 2Q97 2 67 1T14 0Z" />
<glyph unicode="2" horiz-adv-x="363" d="M5 14Q67 62 112 100T188 171T236 232T258 289Q264 327 248 352T196 377Q159 377 130 346T74 256Q73 253 67 255T62 261L120 409Q122 412 126 411T130 406Q125 390 128 385T137 379Q151 379 176 389T233 399Q278 399 301
371T315 297Q309 269 293 244T249 190T179 129T81 53Q78 51 79 50T83 49Q149 49 190 50T255 58T292 78T313 116Q315 120 320 119T325 113L293 9Q292 5 290 3T284 0Q220 0 149 0T10 0Q6 0 4 5T5 14Z" />
<glyph unicode="3" horiz-adv-x="342" d="M-29 -276Q-33 -277 -34 -271T-34 -264Q51 -237 102 -194T180 -104T213 -16Q218 16 213 44T189 90T133 108Q123 108 112 106T89 101Q85 100 83 107T85 115Q160 135 196 172T243 272Q252 319 239 348T185 377Q145 377 113
349T53 257Q51 254 46 256T41 262L101 407Q103 410 108 408T111 401Q104 386 108 382T119 377Q133 377 158 388T216 399Q252 399 273 383T301 339T302 282Q296 246 275 212T221 153T146 119L161 132Q210 131 237 111T275 57T278 -13Q270 -59 233 -109T131 -203T-29
-276Z" />
<glyph unicode="4" horiz-adv-x="423" d="M201 -188Q191 -193 192 -182L281 319L309 339L37 49Q31 42 41 42Q109 42 162 43T263 45T361 48Q364 48 363 37T359 14T353 2Q305 5 254 6T139 8T-12 9Q-16 9 -17 13T-15 21L334 398Q336 401 342 400T347 394L249 -158Q247
-169 240 -172L201 -188Z" />
<glyph unicode="5" horiz-adv-x="374" d="M-23 -275Q-27 -276 -29 -271T-28 -264Q59 -221 110 -179T187 -94T220 -8Q234 73 192 120T54 167Q44 167 48 179L108 357Q110 364 112 365T122 368Q202 378 246 384T310 395T338 406T350 423Q352 426 357 424T360 419L330
350Q324 337 318 335T301 332L129 328Q118 328 112 313L66 174L69 196Q157 196 208 172T277 106T285 9Q275 -48 240 -94T140 -184T-23 -275Z" />
<glyph unicode="6" horiz-adv-x="420" d="M192 -13Q106 -13 64 44T43 208Q55 277 89 345T175 475T296 584T443 661Q447 662 448 657T447 649Q351 605 280 535T164 384T106 226Q94 165 103 116T143 36T221 6Q259 6 285 34T320 116Q330 174 314 214T249 255Q226
255 205 245T154 211Q152 208 149 211T146 218Q206 282 283 282Q328 282 352 262T383 209T385 142Q377 99 349 64T280 8T192 -13Z" />
<glyph unicode="7" horiz-adv-x="387" d="M0 -275Q-1 -276 -3 -273T-5 -268L343 331Q348 338 340 338Q245 338 191 336T109 327T70 306T47 269Q46 265 40 267T35 273L91 415Q92 418 98 416T103 412Q97 395 103 391T140 386Q154 386 182 386T245 386T315 386T379
386Q384 386 385 382T385 373L83 -220Q74 -237 60 -244L0 -275Z" />
<glyph unicode="8" horiz-adv-x="440" d="M193 -13Q135 -13 96 10T41 70T32 149Q40 196 71 236T146 306T228 349L233 340Q177 317 142 274T97 175Q90 132 102 93T144 30T221 5Q265 5 300 38T345 132Q354 180 341 213T301 269T245 312T188 350T147 395T138 456Q145
496 169 522T227 561T292 574Q334 574 360 556T397 511T402 460Q396 428 361 394T275 333L271 339Q305 364 324 390T347 448Q353 477 345 502T319 542T272 558Q242 558 220 538T192 483Q187 448 202 423T245 377T303 338T360 295T400 240T406 161Q397 110 365 71T287
9T193 -13Z" />
<glyph unicode="9" horiz-adv-x="420" d="M-23 -275Q-27 -276 -28 -270T-27 -263Q46 -230 103 -181T203 -75T273 43T313 160Q326 215 317 265T278 347T200 380Q165 380 138 357T101 282Q93 242 101 208T130 152T183 131Q204 131 223 142T265 175Q268 177 272 175T275
169Q248 137 216 121T149 104Q103 104 76 128T39 188T35 256Q43 296 71 328T141 380T229 399Q285 399 322 372T374 295T377 178Q365 109 332 41T246 -89T125 -198T-23 -275Z" />
<glyph unicode=":" horiz-adv-x="197" d="M68 -10Q48 -10 37 1T25 32Q25 51 36 62T68 73Q88 73 99 62T110 32Q110 -10 68 -10ZM105 271Q85 271 74 282T62 313Q62 332 73 343T105 354Q125 354 136 343T147 313Q147 271 105 271Z" />
<glyph unicode=";" horiz-adv-x="222" d="M10 -179Q6 -182 3 -177T3 -170Q37 -138 56 -105T81 -36Q86 -9 82 3T71 20L99 29Q100 11 90 2T64 -8Q45 -8 35 4T25 33Q26 51 38 61T72 71Q101 71 116 49T124 -18Q116 -65 86 -104T10 -179ZM105 271Q85 271 74 282T62
313Q62 332 73 343T105 354Q125 354 136 343T147 313Q147 271 105 271Z" />
<glyph unicode="&lt;" horiz-adv-x="407" d="M370 354Q375 357 376 348T377 328T370 314L77 189V192L370 66Q375 64 376 53T377 33T370 25L36 173Q31 176 31 190T36 207L370 354Z" />
<glyph unicode="=" horiz-adv-x="468" d="M34 240Q31 240 30 250T30 269T33 279H434Q437 279 438 270T438 250T434 240H34ZM34 100Q31 100 30 109T30 129T33 139H434Q437 139 438 129T438 110T434 100H34Z" />
<glyph unicode="&gt;" horiz-adv-x="407" d="M37 25Q33 23 32 32T31 52T37 65L330 190V187L37 313Q33 315 32 326T31 347T37 354L371 206Q376 203 376 189T371 172L37 25Z" />
<glyph unicode="?" horiz-adv-x="295" d="M137 190Q128 218 126 253T128 309Q134 345 154 367T199 408T245 451T274 517Q279 545 274 566T253 599T214 611Q185 611 175 596T158 565Q156 556 152 546T140 529T119 522Q103 522 96 533T92 558Q95 577 114 592T162
616T221 625Q279 625 311 594T332 505Q326 471 309 447T271 405T232 372Q191 338 174 311T151 248Q148 236 148 222T148 191Q148 187 143 187T137 190ZM112 -10Q92 -10 81 1T69 32Q69 51 80 62T112 73Q132 73 143 62T154 32Q154 -10 112 -10Z" />
<glyph unicode="@" horiz-adv-x="719" d="M361 -97Q281 -97 216 -65T112 28T73 175Q73 247 99 305T171 405T275 470T396 493Q474 493 530 462T617 379T648 265Q648 208 623 160T557 81T466 51Q431 51 419 75T414 138L432 229L450 242Q427 187 396 143T330 74T266
49Q242 49 226 67T215 129Q221 170 242 210T292 283T354 335T417 355Q437 355 455 344T476 306L446 325Q456 327 468 337T482 362Q484 364 492 364T500 361L459 137Q454 108 458 90T493 71Q519 71 546 90T592 146T611 236Q611 301 579 354T491 438T365 470Q285
470 230 434T146 335T117 199Q117 119 151 60T248 -33T393 -66Q439 -66 476 -57T559 -20Q561 -18 564 -22T565 -28Q510 -72 456 -84T361 -97ZM293 88Q313 88 335 104T379 146T416 205T438 270Q443 296 433 314T396 332Q371 332 344 308T297 246T268 161Q262 127
267 108T293 88Z" />
<glyph unicode="A" horiz-adv-x="600" d="M-34 0Q-38 0 -38 6T-34 12Q-8 12 25 35T96 123L382 635Q384 639 391 638T400 633L488 84Q492 57 498 41T519 19T563 12Q567 12 567 6T563 0Q540 0 516 2T462 4Q433 4 411 2T365 0Q362 0 362 6T365 12Q412 12 423 27T429
84L353 557L378 586L129 132Q101 82 99 56T113 21T163 12Q167 12 167 6T162 0Q142 0 114 2T58 4Q29 4 11 2T-34 0ZM193 275L208 295H423L425 275H193Z" />
<glyph unicode="B" horiz-adv-x="521" d="M300 342L312 353Q371 353 410 331T466 269T474 180Q464 130 432 88T352 21T249 -4Q220 -4 184 -1T117 2Q87 2 59 1T10 0Q7 0 7 6T10 12Q43 12 61 17T88 38T102 82L184 545Q191 589 180 601T119 613Q115 613 115 619T119
625Q142 625 169 624T224 622Q249 622 280 625T332 628Q391 628 424 610T469 562T473 492Q460 436 416 398T300 342ZM312 614Q291 614 277 610T255 589T241 540L207 346L179 354Q208 352 227 352T247 351Q323 351 364 392T415 492Q422 526 415 553T384 597T312
614ZM236 13Q312 13 354 55T407 164Q420 239 387 284T273 330Q250 331 227 330T178 325L204 336L159 79Q153 43 166 28T236 13Z" />
<glyph unicode="C" horiz-adv-x="586" d="M317 -13Q232 -13 178 16T97 95T63 202T66 318Q80 390 115 448T202 549T313 613T434 636Q475 636 515 627T579 601Q586 596 587 592T587 577L577 466Q576 462 571 462T566 466Q559 546 513 580T396 614Q331 614 277 581T187
488T138 346Q125 275 133 213T166 103T231 28T323 1Q379 1 433 38T532 151Q534 154 539 152T542 147L512 40Q509 27 506 23T494 16Q447 0 401 -6T317 -13Z" />
<glyph unicode="D" horiz-adv-x="612" d="M236 -4Q212 -4 177 -1T113 2Q82 2 57 1T11 0Q8 0 8 6T11 12Q42 12 59 17T84 37T97 81L179 544Q187 587 176 600T118 613Q116 613 116 619T118 625Q139 625 165 624T222 622Q249 622 280 624T335 627Q427 627 490 588T580
479T591 323Q578 248 544 188T460 85T353 19T236 -4ZM230 10Q300 10 359 43T460 142T519 301Q531 364 525 420T496 519T434 588T338 613Q288 613 266 600T236 542L157 92Q149 50 162 30T230 10Z" />
<glyph unicode="E" horiz-adv-x="514" d="M16 0Q14 0 14 6T16 12Q48 12 64 17T88 37T101 81L183 544Q191 587 180 600T123 613Q120 613 120 619T123 625H506Q514 625 512 616Q509 598 506 575T499 529T493 492Q492 488 486 489T481 493Q487 545 467 577T405 610H323Q292
610 276 605T253 586T240 543L159 85Q152 43 163 31T219 19H329Q367 19 402 55T458 149Q459 152 465 151T469 147Q461 121 453 84T438 15Q435 0 422 0H16ZM411 232Q410 228 404 228T399 233Q407 277 393 296T338 315H174L177 336H345Q384 336 402 352T428 406Q429
410 435 410T440 404Q436 376 432 360T425 325Q421 302 419 280T411 232Z" />
<glyph unicode="F" horiz-adv-x="483" d="M13 0Q11 0 11 6T13 12Q44 12 60 17T85 37T99 81L180 544Q188 586 178 599T120 613Q118 613 118 619T120 625H504Q512 625 509 616Q507 598 504 575T497 529T491 492Q490 488 484 489T479 493Q485 545 465 577T403 610H320Q289
610 273 605T250 586T237 543L157 85Q152 55 156 40T182 18T252 12Q254 12 254 6T252 0Q227 0 192 1T113 2Q85 2 60 1T13 0ZM394 220Q393 216 387 216T382 221Q390 265 376 284T321 303H162L165 324H328Q367 324 386 340T411 394Q412 399 418 398T423 393Q419 364
416 348T409 313Q405 290 402 268T394 220Z" />
<glyph unicode="G" horiz-adv-x="631" d="M330 -12Q230 -12 166 31T77 147T68 310Q81 382 117 442T207 545T326 612T464 636Q505 636 541 627T601 600Q607 593 607 589T606 577L597 466Q596 462 591 462T585 466Q579 538 538 576T424 614Q349 614 291 581T194
488T140 346Q123 245 145 168T222 49T356 6Q397 6 423 15T464 50T486 126Q495 174 493 196T472 226T407 233Q402 233 402 241T407 249Q460 245 505 245T600 247Q603 247 604 240T600 233Q580 234 570 227T554 194T538 116Q533 83 532 67T530 44T529 28Q528 22 526
20T517 16Q471 4 423 -4T330 -12Z" />
<glyph unicode="H" horiz-adv-x="671" d="M11 0Q8 0 8 6T11 12Q42 12 59 17T84 37T97 81L179 544Q187 587 176 600T118 613Q116 613 116 619T118 625Q139 625 164 624T218 622Q247 622 274 623T321 625Q323 625 323 619T321 613Q290 613 274 607T250 586T236 542L154
81Q147 38 157 25T214 12Q217 12 217 6T214 0Q194 0 168 1T111 2Q82 2 57 1T11 0ZM162 315L165 336H548L545 315H162ZM391 0Q389 0 389 6T391 12Q423 12 439 17T463 37T476 81L557 542Q565 585 555 599T498 613Q495 613 495 619T498 625Q517 625 543 624T598 622Q626
622 653 623T700 625Q702 625 702 619T700 613Q670 613 653 608T628 588T615 544L533 81Q526 38 537 25T594 12Q597 12 597 6T594 0Q575 0 549 1T494 2Q465 2 438 1T391 0Z" />
<glyph unicode="I" horiz-adv-x="308" d="M20 0Q17 0 17 6T20 12Q51 12 67 17T91 37T104 81L186 544Q194 587 183 600T125 613Q122 613 122 619T125 625Q146 625 171 624T226 622Q258 622 284 623T330 625Q332 625 332 619T330 613Q299 613 283 607T259 586T245
542L163 81Q156 38 167 25T225 12Q227 12 227 6T225 0Q204 0 179 1T122 2Q93 2 67 1T20 0Z" />
<glyph unicode="J" horiz-adv-x="280" d="M-20 -193Q-22 -194 -25 -189T-26 -182Q21 -154 47 -98T88 40L177 544Q185 587 174 600T115 613Q113 613 113 619T115 625Q135 625 161 624T216 622Q249 622 274 623T319 625Q322 625 322 619T319 613Q288 613 272 607T248
586T235 542L151 67Q137 -11 117 -59T64 -138T-20 -193Z" />
<glyph unicode="K" horiz-adv-x="595" d="M11 0Q8 0 8 6T11 12Q42 12 59 17T84 37T97 81L179 544Q187 587 176 600T118 613Q116 613 116 619T118 625Q139 625 164 624T218 622Q247 622 274 623T321 625Q323 625 323 619T321 613Q290 613 274 607T250 586T236 542L154
81Q149 52 149 37T160 17T205 12Q208 12 208 6T205 0Q184 0 163 1T111 2Q82 2 57 1T11 0ZM465 0Q445 0 434 0T416 7T401 29T379 72T339 148L227 348L276 386L379 202Q417 133 441 94T483 38T516 17T550 12Q553 12 553 6T550 0Q516 0 496 0T465 0ZM152 288L437 545Q476
582 474 597T428 613Q426 613 426 619T428 625Q448 625 472 624T530 622Q563 622 582 623T619 625Q622 625 622 619T619 613Q588 613 545 597T458 539L174 288H152Z" />
<glyph unicode="L" horiz-adv-x="496" d="M12 0Q10 0 10 6T12 12Q43 12 59 17T84 37T97 81L179 544Q187 587 176 600T118 613Q116 613 116 619T118 625Q139 625 164 624T218 622Q247 622 274 623T321 625Q323 625 323 619T321 613Q290 613 274 608T250 587T236
543L155 85Q148 43 158 31T212 19H313Q371 19 407 55T465 152Q465 155 471 154T477 150Q469 123 460 85T445 15Q442 0 429 0H12Z" />
<glyph unicode="M" horiz-adv-x="732" d="M466 0Q463 0 463 6T466 12Q498 12 514 17T538 37T550 81L626 587L651 613L330 7Q328 3 323 3T316 8L203 542Q197 574 184 589T155 608T126 613Q124 613 124 619T126 625Q139 625 154 624T181 623Q196 623 207 624T225
625Q236 625 242 615T255 573L360 86L326 36L624 600Q639 625 657 625Q662 625 675 624T699 623Q721 623 735 624T765 625Q767 625 767 619T765 613Q726 613 704 601T676 546L607 81Q601 38 612 25T669 12Q672 12 672 6T669 0Q649 0 623 1T567 2Q538 2 512 1T466
0ZM18 0Q15 0 15 6T18 12Q53 12 73 34T103 109L194 602L212 600L123 109Q115 57 125 35T171 12Q174 12 174 6T171 0Q155 0 137 1T95 2Q74 2 55 1T18 0Z" />
<glyph unicode="N" horiz-adv-x="651" d="M491 -11L203 543Q181 584 161 598T120 613Q117 613 117 619T120 625Q135 625 153 624T185 623Q198 623 210 624T228 625Q239 625 242 614T258 573L513 81L506 -10Q506 -14 500 -14T491 -11ZM12 0Q9 0 9 6T12 12Q48 12
69 34T98 106L186 602L204 600L119 106Q110 56 121 34T170 12Q172 12 172 6T170 0Q153 0 135 1T91 2Q70 2 50 1T12 0ZM506 -10L493 27L579 518Q588 568 577 590T529 613Q526 613 526 619T529 625Q545 625 564 624T607 622Q628 622 648 623T687 625Q689 625 689
619T687 613Q651 613 630 591T600 518L506 -10Z" />
<glyph unicode="O" horiz-adv-x="651" d="M284 -12Q203 -12 149 32T75 150T69 313Q81 384 113 443T191 545T293 612T409 636Q495 636 549 592T623 475T628 313Q615 240 582 181T502 78T399 12T284 -12ZM326 14Q412 14 475 77T561 260Q577 334 571 397T538 509T469
585T369 612Q279 612 218 546T135 366Q121 296 127 233T158 120T225 43T326 14Z" />
<glyph unicode="P" horiz-adv-x="503" d="M13 0Q10 0 10 6T13 12Q44 12 60 17T85 37T99 81L180 544Q188 587 178 600T120 613Q118 613 118 619T120 625Q140 625 165 624T219 622Q242 622 274 625T342 628Q395 628 436 610T498 553T507 453Q498 403 472 367T409
307T334 273T261 262Q249 262 240 263T220 267Q217 268 219 275T224 281Q232 279 239 278T254 277Q292 277 330 294T398 345T438 433Q448 491 434 531T389 592T321 613Q291 613 275 610T251 591T236 542L155 81Q148 38 159 25T216 12Q218 12 218 6T216 0Q196 0
170 1T112 2Q84 2 58 1T13 0Z" />
<glyph unicode="Q" horiz-adv-x="651" d="M601 -196Q563 -196 521 -173T438 -104T365 7L429 33Q448 -13 474 -51T530 -118T589 -162T646 -177Q655 -177 664 -176T681 -173Q684 -172 685 -177T685 -184Q663 -190 642 -193T601 -196ZM284 -12Q203 -12 149 32T75
150T69 313Q81 384 113 443T191 545T293 612T409 636Q495 636 549 592T623 475T628 313Q615 240 582 181T502 78T399 12T284 -12ZM326 14Q412 14 475 77T561 260Q577 334 571 397T538 509T469 585T369 612Q279 612 218 546T135 366Q121 296 127 233T158 120T225
43T326 14Z" />
<glyph unicode="R" horiz-adv-x="613" d="M15 0Q11 0 11 6T15 12Q48 12 66 17T94 37T108 81L190 544Q195 573 193 587T175 607T126 613Q122 613 122 619T126 625Q147 625 174 624T231 622Q254 622 286 625T338 628Q422 628 457 593T479 491Q469 438 433 396T346
330T238 306Q230 306 218 306T200 308L203 334Q215 332 230 331T257 329Q327 329 363 359T413 459Q425 518 415 551T379 599T317 613Q295 613 282 610T261 592T247 542L165 81Q160 52 162 37T179 17T228 12Q232 12 232 6T229 0Q206 0 180 1T122 2Q93 2 65 1T15
0ZM480 0Q465 0 438 37T374 147T294 322L342 339Q398 217 439 146T515 43T588 12Q592 12 592 6T588 0Q546 0 520 0T480 0Z" />
<glyph unicode="S" horiz-adv-x="462" d="M183 -12Q151 -12 120 -5T53 22Q49 25 48 29T47 41L61 173Q61 178 66 178T72 173Q73 130 86 91T130 28T208 4Q238 4 265 15T314 52T342 121Q351 167 337 199T294 256T234 302Q203 324 176 347T134 403T127 481Q138 533
169 567T243 619T330 636Q355 636 382 631T438 612Q451 605 450 595L437 484Q437 480 432 480T425 484Q423 517 413 548T380 600T314 621Q275 621 250 604T210 562T190 508Q182 467 196 438T238 386T296 342Q329 321 358 297T403 239T411 158Q403 111 374 73T297
11T183 -12Z" />
<glyph unicode="T" horiz-adv-x="553" d="M142 0Q139 0 139 6T142 12Q175 12 192 17T217 37T231 81L313 544Q320 584 311 596T262 608H238Q198 608 170 593T123 547T88 464Q87 461 81 462T76 466Q80 479 86 502T99 553T111 605T120 647Q122 650 127 650T132 646Q130
631 145 628T171 625Q208 624 257 623T354 622Q414 622 455 623T530 625Q558 625 573 629T596 650Q598 653 603 653T607 648Q603 634 597 609T585 555T574 503T567 466Q566 463 561 463T556 468Q565 518 560 548T531 593T465 608H441Q402 608 390 595T370 542L289
81Q284 52 287 37T306 17T356 12Q358 12 358 6T356 0Q334 0 308 1T248 2Q218 2 191 1T142 0Z" />
<glyph unicode="U" horiz-adv-x="618" d="M563 518Q571 566 556 589T502 613Q499 613 499 619T502 625Q523 625 544 624T592 622Q614 622 635 623T674 625Q678 625 678 619T674 613Q637 613 615 588T583 514L533 225Q519 149 483 96T394 15T275 -13Q209 -13 165
15T104 96T98 221L156 545Q164 589 152 601T92 613Q89 613 89 619T92 625Q114 625 141 624T197 622Q229 622 256 623T303 625Q307 625 307 619T303 613Q270 613 252 607T226 585T213 540L161 252Q140 134 179 76T299 17Q381 17 437 73T511 227L563 518Z" />
<glyph unicode="V" horiz-adv-x="593" d="M260 1L143 542Q135 581 121 597T81 613Q79 613 79 619T81 625Q99 625 119 624T158 622Q190 622 214 623T258 625Q262 625 262 619T258 613Q227 613 211 601T202 552L309 67L270 23L539 542Q558 579 547 596T490 613Q487
613 487 619T490 625Q510 625 529 624T581 622Q605 622 620 623T659 625Q663 625 663 619T659 613Q642 613 625 607T592 585T559 536L282 1Q279 -3 270 -3T260 1Z" />
<glyph unicode="W" horiz-adv-x="823" d="M490 1L372 542Q364 581 352 597T313 613Q310 613 310 619T313 625Q330 625 349 624T388 622Q410 622 426 623T455 625Q460 625 460 619T455 613Q430 613 427 603T431 552L538 67L498 12L770 542Q789 578 779 595T723
613Q719 613 719 619T723 625Q743 625 762 624T811 622Q835 622 850 623T889 625Q893 625 893 619T889 613Q872 613 855 607T823 585T790 536L511 1Q509 -3 500 -3T490 1ZM260 1L143 542Q135 581 121 597T81 613Q78 613 78 619T81 625Q99 625 119 624T158 622Q188
622 211 623T254 625Q258 625 258 619T254 613Q225 613 210 601T201 552L309 67L269 12L439 344L450 326L282 1Q279 -3 270 -3T260 1ZM459 326L447 344L548 542Q568 580 565 596T530 613Q527 613 527 619T530 625Q544 625 556 624T589 622Q612 622 627 623T664
625Q667 625 667 619T664 613Q647 613 631 607T600 585T567 536L459 326Z" />
<glyph unicode="X" horiz-adv-x="579" d="M332 0Q328 0 328 6T332 12Q354 12 366 15T382 28T380 51L190 542Q176 581 158 597T109 613Q105 613 105 619T109 625Q124 625 141 624T173 622Q209 622 239 623T291 625Q295 625 295 619T291 613Q260 613 249 604T247
573L437 83Q451 43 472 28T528 12Q532 12 532 6T528 0Q511 0 490 1T444 2Q411 2 382 1T332 0ZM-13 0Q-17 0 -17 6T-13 12Q16 12 50 33T119 98L286 309L298 297L139 94Q117 67 112 49T119 21T157 12Q161 12 161 6T157 0Q135 0 112 1T56 2Q35 2 21 1T-13 0ZM320 316L309
327L462 524Q486 554 491 574T486 603T448 613Q444 613 444 619T448 625Q470 625 493 624T550 622Q570 622 584 623T617 625Q622 625 622 619T617 613Q587 613 553 589T482 519L320 316Z" />
<glyph unicode="Y" horiz-adv-x="529" d="M288 269L277 279L449 524Q479 567 475 590T434 613Q430 613 430 619T434 625Q457 625 479 624T533 622Q554 622 567 623T600 625Q604 625 604 619T600 613Q569 613 536 590T469 519L288 269ZM131 0Q127 0 127 6T131 12Q163
12 180 17T206 37T219 81L259 310L318 319L276 81Q269 38 279 25T339 12Q343 12 343 6T339 0Q318 0 293 1T236 2Q205 2 179 1T131 0ZM270 271L155 542Q139 580 122 596T75 613Q71 613 71 619T75 625Q90 625 108 624T144 622Q176 622 206 623T259 625Q262 625 261
619T256 613Q222 613 213 604T212 573L318 317L270 271Z" />
<glyph unicode="Z" horiz-adv-x="547" d="M460 -2Q393 -1 317 -1T166 0T22 0Q18 0 17 4T18 13L485 600Q490 605 490 606T483 608Q393 608 335 607T241 599T184 581T148 548T117 494Q116 490 111 491T107 497L171 655Q172 657 178 656T182 651Q177 634 185 630T227
625Q282 625 361 625T560 625Q565 625 566 620T565 612L103 27Q99 22 99 21T105 19Q176 19 229 19T317 19Q364 19 396 30T452 67T492 136Q494 140 499 139T504 134L469 8Q469 5 466 2T460 -2Z" />
<glyph unicode="[" horiz-adv-x="248" d="M32 -117Q27 -117 26 -115T27 -106L172 715Q173 722 174 723T181 725Q215 725 251 725T308 725Q312 725 312 719T308 713Q273 713 254 707T226 686T212 642L93 -34Q85 -77 97 -91T162 -105Q167 -105 167 -111T162 -117Q141
-117 104 -117T32 -117Z" />
<glyph unicode="\" horiz-adv-x="305" d="M186 -163L114 723Q113 728 121 730T139 733T150 727L222 -159Q223 -163 214 -165T196 -168T186 -163Z" />
<glyph unicode="]" horiz-adv-x="248" d="M255 725Q260 725 261 724T261 714L116 -107Q115 -114 113 -115T106 -117Q74 -117 38 -117T-21 -117Q-25 -117 -25 -111T-21 -105Q15 -105 34 -99T62 -78T76 -34L195 642Q203 685 191 699T125 713Q121 713 121 719T125
725Q147 725 184 725T255 725Z" />
<glyph unicode="^" horiz-adv-x="353" d="M96 375Q93 373 89 375T85 380L243 629Q245 634 253 634T263 629L333 380Q333 378 329 376T323 377L238 543L96 375Z" />
<glyph unicode="_" horiz-adv-x="363" d="M-7 -76Q-10 -76 -11 -66T-11 -46T-8 -36H311Q314 -36 315 -46T315 -66T311 -76H-7Z" />
<glyph unicode="`" horiz-adv-x="166" d="M172 475L130 727Q129 731 137 731T157 730T177 723T186 716L181 476Q181 474 177 473T172 475Z" />
<glyph unicode="a" horiz-adv-x="434" d="M81 -13Q48 -13 31 11T21 91Q29 145 55 199T120 299T202 371T284 399Q303 399 320 393T351 371T366 330L323 357Q336 359 352 373T374 407Q376 410 381 409T386 406L328 89Q318 31 343 31Q354 31 371 43T409 77Q412 80
416 76T417 69Q385 32 358 12T305 -9Q281 -9 274 13T277 89L301 229L318 246Q288 170 248 112T165 20T81 -13ZM117 36Q145 36 175 58T232 115T280 193T309 277Q317 314 302 339T250 364Q215 363 179 333T115 252T77 136Q70 86 79 61T117 36Z" />
<glyph unicode="b" horiz-adv-x="434" d="M147 -13Q97 -13 70 11T50 77L152 619Q158 655 144 664T83 651Q79 649 77 655T79 662L207 725Q212 727 216 723T219 717L105 96Q99 59 122 36T188 13Q220 13 252 37T311 107T348 220Q356 257 354 287T337 335T294 354Q253
354 215 322T149 231T105 96L99 116Q108 173 131 224T186 315T257 376T335 399Q382 399 404 358T413 251Q400 186 370 137T301 54T222 4T147 -13Z" />
<glyph unicode="c" horiz-adv-x="345" d="M157 -13Q114 -13 87 6T45 57T29 127T35 202Q48 265 82 308T161 375T249 399Q273 399 293 392T325 371T335 340Q334 327 326 318T302 308Q288 308 280 317T266 340Q263 352 251 364T214 377Q181 377 157 358T119 306T96
233Q86 178 92 130T125 52T199 22Q232 22 258 36T305 67Q308 69 312 65T313 58Q272 21 233 4T157 -13Z" />
<glyph unicode="d" horiz-adv-x="444" d="M105 -13Q80 -13 59 0T29 44T27 126Q37 182 63 231T127 318T208 377T295 399Q323 399 347 384T374 332L332 246Q302 171 266 113T189 21T105 -13ZM137 35Q170 35 201 61T257 126T300 207T323 278Q331 320 313 342T259
364Q196 363 148 313T82 166Q71 100 87 68T137 35ZM316 -9Q290 -9 284 13T288 89L388 619Q394 655 379 664T318 651Q314 649 312 655T314 662L444 725Q447 727 451 723T454 717L338 89Q332 59 337 45T355 31Q366 31 383 43T421 77Q424 81 428 77T429 69Q395 32
369 12T316 -9Z" />
<glyph unicode="e" horiz-adv-x="343" d="M155 -12Q102 -12 72 16T32 89T32 185Q38 222 58 260T110 330T179 380T260 399Q297 399 314 385T328 345Q323 321 300 299T241 260T161 229T68 211L70 224Q147 235 199 259T261 324Q268 351 252 361T216 372Q182 372 157
351T116 295T93 218Q82 162 90 118T125 48T193 22Q217 22 243 29T294 55Q297 57 300 53T301 46Q263 15 227 2T155 -12Z" />
<glyph unicode="f" horiz-adv-x="262" d="M-40 -275Q-75 -275 -90 -262T-103 -232Q-102 -219 -92 -210T-67 -201Q-51 -201 -44 -209T-34 -229T-27 -248T-10 -257Q2 -257 10 -242T28 -181T50 -47L101 306Q105 331 103 342T87 357T46 361Q42 361 43 367T47 373Q83
373 98 383T117 418Q132 509 149 568T190 662T244 711T319 726Q355 726 374 711T391 674Q388 659 378 652T356 645Q340 645 334 655T323 678T311 701T288 711Q249 711 221 643T173 439L106 -21Q92 -116 74 -172T29 -251T-40 -275ZM240 342Q229 344 212 346T174
351T131 353L133 376Q155 376 183 378T236 381T267 383Q272 383 273 381T274 374Q272 366 262 354T240 342Z" />
<glyph unicode="g" horiz-adv-x="379" d="M107 -281Q53 -281 18 -264T-33 -220T-42 -161Q-32 -117 13 -84T118 -18L125 -26Q102 -40 78 -55T36 -90T14 -138Q9 -170 25 -196T74 -238T155 -253Q209 -253 238 -231T269 -175Q270 -148 255 -128T214 -93T162 -64T111
-36T74 -4T65 38Q70 60 88 80T134 123L144 115Q133 109 124 96T112 68Q109 47 123 31T163 2T215 -25T267 -55T306 -94T317 -146Q314 -182 284 -212T208 -262T107 -281ZM151 98Q112 98 87 118T54 172T54 246Q62 288 86 321T146 373T221 392Q261 392 285 372T317
319T317 246Q308 201 282 168T222 117T151 98ZM176 117Q205 117 230 144T263 219Q269 251 265 287T244 348T196 374Q166 374 141 345T108 271Q102 236 107 200T130 141T176 117ZM258 346L257 353Q287 371 321 382T384 394Q389 394 389 386T388 367T382 350T376
345Q353 357 320 357T258 346Z" />
<glyph unicode="h" d="M62 -8Q48 -8 44 -7T39 -2Q39 2 44 25T54 74L156 619Q163 655 148 664T88 651Q84 649 82 655T83 662L212 725Q216 727 220 723T223 717L94 7Q92 -8 62 -8ZM317 -9Q291 -9 285 13T288 89L317 248Q328 305 319 332T280 360Q248 360 213 319T147
199T94 7L82 8Q103 125 138 213T218 350T313 399Q356 399 369 368T371 267L338 89Q333 59 337 45T355 31Q366 31 383 43T421 77Q425 81 429 77T429 69Q397 32 370 12T317 -9Z" />
<glyph unicode="i" horiz-adv-x="247" d="M109 -9Q85 -9 77 12T80 89L121 297Q132 356 104 356Q93 356 75 344T35 310Q32 306 28 310T27 318Q61 357 89 376T143 395Q168 395 175 374T171 299L131 89Q125 59 130 45T147 31Q158 31 176 42T215 75Q219 79 223 75T223
67Q190 30 163 11T109 -9ZM172 513Q152 513 141 524T129 556Q129 575 140 586T172 597Q193 597 203 586T214 556Q214 513 172 513Z" />
<glyph unicode="j" horiz-adv-x="239" d="M-23 -275Q-56 -275 -71 -262T-84 -232Q-82 -216 -72 -209T-51 -201Q-38 -201 -32 -210T-24 -230T-17 -251T-1 -260Q13 -260 23 -241T44 -178T67 -61L129 297Q139 356 112 356Q87 356 43 310Q40 306 36 310T35 318Q70
357 98 376T152 395Q176 395 182 374T180 299L122 -38Q106 -129 88 -181T44 -254T-23 -275ZM183 513Q163 513 152 524T140 556Q140 575 151 586T183 597Q204 597 215 586T226 556Q226 513 183 513Z" />
<glyph unicode="k" horiz-adv-x="417" d="M62 -8Q48 -8 44 -7T39 -2Q39 2 44 25T54 74L156 619Q163 655 148 664T88 651Q84 649 82 655T83 662L212 725Q216 727 220 723T223 717L131 207L94 7Q92 -8 62 -8ZM307 -9Q285 -9 268 5T228 58L170 159Q158 178 148 183T113
182L204 212L273 92Q294 56 308 45T338 34Q350 34 367 44T404 75Q408 79 412 75T413 67Q346 -9 307 -9ZM113 182V195Q179 210 220 226T282 265T309 321Q314 344 306 356T281 369Q230 369 189 326T131 207L104 243Q128 288 163 323T240 378T325 399Q351 399 363
388T378 363T379 339Q374 309 339 279T246 224T113 182Z" />
<glyph unicode="l" horiz-adv-x="237" d="M91 -9Q65 -9 59 13T61 89L160 619Q167 655 153 664T94 651Q90 649 88 655T89 662L218 725Q222 727 226 723T229 717L113 89Q107 59 112 45T129 31Q140 31 157 43T195 77Q199 81 203 77T203 69Q171 32 144 12T91 -9Z" />
<glyph unicode="m" horiz-adv-x="676" d="M547 -9Q522 -9 516 13T519 89L548 248Q558 305 550 332T514 360Q484 360 450 320T385 200T333 7L322 8Q342 125 376 213T455 350T547 399Q587 399 600 368T601 267L569 89Q564 59 568 45T585 31Q597 31 613 43T651 77Q655
81 659 77T659 69Q627 32 600 12T547 -9ZM82 -8Q67 -8 63 -7T59 -2Q59 2 64 24T73 69L115 297Q125 356 98 356Q87 356 69 344T29 310Q26 306 22 310T21 318Q55 357 83 376T138 395Q162 395 168 374T166 299L114 7Q110 -8 82 -8ZM302 -8Q288 -8 284 -7T279 -2Q279
2 284 26T294 74L327 248Q335 305 328 332T294 360Q264 360 230 319T165 199T114 7L101 8Q121 125 155 213T234 350T327 399Q365 399 379 369T380 267L333 7Q331 -8 302 -8Z" />
<glyph unicode="n" horiz-adv-x="465" d="M337 -9Q311 -9 305 13T308 89L337 248Q360 360 300 360Q268 360 233 319T167 199T114 7L102 8Q123 125 158 213T238 350T333 399Q376 399 390 368T391 267L358 89Q353 59 358 45T375 31Q386 31 403 43T441 77Q444 81
448 77T449 69Q417 32 390 12T337 -9ZM82 -8Q68 -8 64 -7T59 -2Q59 2 64 25T74 74L115 297Q125 356 98 356Q87 356 69 344T29 310Q26 306 22 310T21 318Q55 357 83 376T138 395Q162 395 168 374T166 299L114 7Q112 -8 82 -8Z" />
<glyph unicode="o" horiz-adv-x="398" d="M154 -14Q106 -14 75 14T33 89T33 193Q44 252 75 298T150 372T243 399Q295 399 326 371T368 296T367 193Q355 130 322 83T244 11T154 -14ZM189 11Q230 11 264 47T311 149Q318 186 316 225T302 299T268 354T214 375Q172
375 137 338T89 236Q81 197 84 158T99 86T134 32T189 11Z" />
<glyph unicode="p" horiz-adv-x="407" d="M-57 -275Q-61 -276 -62 -270T-59 -263Q-37 -259 -26 -253T-9 -232T2 -185L104 386Q104 389 111 395T128 410T146 432T157 459Q159 463 164 462T168 457L55 -178Q48 -219 59 -231T113 -238Q117 -236 118 -242T115 -249L-57
-275ZM145 -1Q108 -1 90 2T57 8L67 60Q86 47 111 37T173 27Q218 27 248 52T298 121T323 220Q328 254 324 285T302 337T243 357Q197 357 151 330T42 256Q39 254 35 259T35 265Q95 318 159 355T285 393Q341 393 365 357T380 253Q373 202 350 156T295 75T223 19T145
-1Z" />
<glyph unicode="q" horiz-adv-x="415" d="M168 -275Q164 -276 163 -270T166 -263Q189 -259 200 -253T217 -232T229 -185L297 199L308 200Q283 132 248 85T174 12T98 -13Q60 -13 39 19T24 103Q31 162 55 215T116 310T196 375T286 399Q304 399 322 393T352 371T367
330L325 357Q337 359 353 373T376 407Q377 410 382 409T387 406L282 -178Q275 -215 287 -230T342 -239Q345 -237 347 -243T344 -250L168 -275ZM129 36Q170 36 206 65T269 144T306 253Q317 311 302 338T248 364Q189 363 141 309T79 147Q77 122 78 102T86 67T102
44T129 36Z" />
<glyph unicode="r" horiz-adv-x="340" d="M111 7L101 8Q109 53 123 105T157 209T198 302T243 369T289 395Q303 395 316 388T337 368T343 341Q340 328 332 321T311 314Q296 314 289 322T276 338T260 347Q246 347 229 324T194 262T160 178T130 87T111 7ZM79 -8Q65
-8 61 -7T57 -2Q57 2 62 26T72 74L105 259Q113 299 111 319T102 348T87 356Q73 356 57 344T26 319Q24 316 20 320T18 327Q48 361 74 378T126 395Q144 395 154 384T165 343T156 261L111 7Q108 -8 79 -8Z" />
<glyph unicode="s" horiz-adv-x="302" d="M101 -11Q63 -11 35 7T11 51Q13 65 22 72T41 79Q54 79 60 69T74 45T94 22T131 11Q158 11 174 26T195 72Q199 103 186 125T151 166T107 202T73 244T66 298Q72 329 92 351T141 384T199 396Q235 396 259 382T280 346Q277
332 268 326T249 319Q235 319 227 327T212 346T194 365T163 374Q144 374 129 364T111 334Q106 304 119 282T155 241T199 203T233 159T241 103Q236 74 217 48T167 5T101 -11Z" />
<glyph unicode="t" horiz-adv-x="295" d="M121 -12Q102 -12 85 -5T59 21T56 73L99 306Q106 343 101 352T65 361Q61 361 62 367T66 373Q101 373 126 395T159 450Q160 453 168 453T176 450L114 104Q106 63 117 44T160 25Q189 25 212 38T256 70Q258 72 262 68T264
62Q219 22 185 5T121 -12ZM265 342Q263 342 243 344T197 349T145 352L147 376Q173 376 203 378T258 381T290 383Q295 383 296 381T297 374Q296 366 286 354T265 342Z" />
<glyph unicode="u" horiz-adv-x="465" d="M132 -13Q89 -13 74 18T73 119L109 297Q115 328 110 341T93 355Q82 355 65 343T27 309Q23 305 19 309T19 317Q52 355 79 375T132 395Q156 395 163 373T160 297L128 138Q115 80 125 53T164 26Q197 26 232 67T298 187T350
379L363 378Q343 261 308 173T227 36T132 -13ZM327 -9Q302 -9 296 12T299 87L350 379Q353 394 382 394Q397 394 401 392T406 388Q406 384 401 361T391 312L350 89Q340 30 366 30Q378 30 396 42T436 76Q439 80 443 76T444 68Q409 29 382 10T327 -9Z" />
<glyph unicode="v" horiz-adv-x="432" d="M185 -13Q152 -13 130 7T100 60T95 125Q102 170 125 218T169 310Q175 324 173 330T159 336H108Q82 336 69 332T48 317T33 283Q31 279 26 281T22 288Q37 331 48 352T75 380T121 387H210Q219 387 220 385T218 375Q195 322
174 263T147 157Q139 100 158 68T213 36Q243 36 272 55T325 111T361 195Q373 240 370 266T357 305T340 324Q335 329 326 338T316 362Q316 381 329 388T355 396Q378 396 388 374T399 317T396 245Q388 186 366 139T312 57T248 5T185 -13Z" />
<glyph unicode="w" horiz-adv-x="618" d="M185 -13Q151 -13 130 7T101 61T98 130Q106 174 128 222T169 310Q175 324 173 330T159 336H108Q82 336 69 332T48 317T33 283Q31 279 26 281T22 288Q37 331 48 352T75 380T121 387H210Q219 387 220 385T218 375Q195 322
176 263T150 157Q143 100 160 67T213 33Q239 33 265 50T314 97T354 167T378 255Q383 290 377 310T354 330Q338 330 330 308T317 261Q311 216 314 175T331 102T367 52T419 33Q443 33 470 53T518 109T548 195Q555 237 552 262T539 303T521 329Q514 337 509 344T503
362Q503 381 516 388T542 396Q565 396 575 374T586 317T582 245Q574 186 554 139T505 57T447 5T391 -13Q362 -13 341 8T307 64T291 144T297 237Q304 281 316 316T343 371T375 392Q399 392 407 361T407 284Q395 212 371 157T315 64T250 6T185 -13Z" />
<glyph unicode="x" horiz-adv-x="421" d="M284 -9Q265 -9 250 2T224 53L153 292Q142 333 128 342T102 352Q90 352 73 342T36 311Q33 307 29 311T28 319Q63 357 89 376T137 395Q156 395 172 381T201 325L271 85Q282 49 295 41T318 33Q332 33 348 43T384 75Q388
79 392 75T393 67Q359 29 332 10T284 -9ZM49 -9Q29 -9 13 5T-1 40Q1 51 8 57T28 63Q40 63 46 59T58 49T73 44Q83 44 94 50T117 73L198 195L206 185L130 63Q111 33 99 18T75 -3T49 -9ZM210 187L202 198L282 323Q301 354 313 369T337 389T362 395Q383 395 399 381T413
346Q412 335 404 329T385 322Q373 322 367 327T355 337T339 342Q330 342 319 335T296 312L210 187Z" />
<glyph unicode="y" horiz-adv-x="443" d="M-18 -281Q-36 -281 -48 -272T-58 -239Q-51 -213 -18 -213Q3 -213 23 -212T63 -206T101 -188Q123 -173 152 -137T213 -53T274 45T323 139T351 211Q358 240 356 264T348 306T337 339T332 363Q332 378 342 387T368 396Q389
396 397 381T406 341Q406 305 390 255T347 145T284 27T209 -88T128 -187T50 -255T-18 -281ZM182 -113Q188 108 158 229T69 351Q56 351 43 343T19 314Q17 310 12 311T7 317Q26 355 49 375T100 395Q135 395 162 361T206 268T230 131T232 -35L182 -113Z" />
<glyph unicode="z" horiz-adv-x="344" d="M1 -7Q-1 -8 -4 -4T-7 2L308 360L302 349Q289 331 278 325T246 318Q225 318 197 324T142 336T100 342Q83 342 74 330T53 294Q52 290 46 292T42 299Q58 344 68 364T91 389T125 394Q160 392 206 381T291 367Q307 367 319
373T346 396Q349 398 352 394T354 387L40 29L44 41Q57 59 69 65T102 71Q127 71 159 66T222 54T271 48Q288 48 297 58T316 94Q317 96 322 95T327 90Q313 46 303 26T281 0T249 -5Q221 -4 188 2T120 14T56 22Q40 22 28 16T1 -7Z" />
<glyph unicode="{" horiz-adv-x="261" d="M174 -117Q133 -117 110 -110T77 -81T69 -22T82 80Q92 137 95 184T87 262T43 298Q41 298 41 304T43 311Q79 316 101 346T137 424T161 529Q172 592 184 631T214 690T256 717T320 725Q323 725 323 719T320 713Q285 713 263
686T231 607Q215 527 203 476T176 393T138 342T76 305Q111 287 127 267T147 214T143 131T124 1Q115 -50 128 -77T174 -105Q177 -105 177 -111T174 -117Z" />
<glyph unicode="|" horiz-adv-x="152" d="M34 -154Q33 -159 24 -159T6 -158T-1 -151L153 731Q155 736 164 736T181 735T189 727L34 -154Z" />
<glyph unicode="}" horiz-adv-x="261" d="M126 725Q167 725 190 718T223 689T231 630T218 528Q208 472 205 425T212 347T256 310Q259 310 259 304T256 297Q221 293 199 263T163 184T138 79Q127 16 115 -23T86 -82T44 -109T-20 -117Q-23 -117 -23 -111T-20 -105Q15
-105 37 -78T69 1Q85 81 97 132T124 215T162 266T224 303Q189 321 173 341T153 394T157 477T176 607Q185 658 172 685T126 713Q123 713 123 719T126 725Z" />
<glyph unicode="~" horiz-adv-x="443" d="M53 152Q52 151 49 154T46 159Q60 177 77 193T114 221T158 232Q181 232 207 223T260 206T314 197Q346 197 362 209T391 235Q393 237 396 234T398 228Q363 185 341 170T291 155Q263 155 237 164T184 181T128 190Q98 190
85 180T53 152Z" />
<glyph unicode="&#xa0;" horiz-adv-x="234" />
<glyph unicode="&#xa1;" horiz-adv-x="220" d="M108 163Q109 168 114 168T119 162Q111 96 102 22T86 -126T77 -267Q77 -271 64 -275T35 -279Q19 -279 6 -275T-6 -267Q17 -201 37 -127T75 23T108 163ZM141 364Q161 364 172 353T184 322Q184 303 173 292T141 281Q121
281 110 292T99 322Q99 364 141 364Z" />
<glyph unicode="&#xa2;" horiz-adv-x="489" d="M199 -101L316 563Q317 570 326 569T335 560L218 -103Q217 -110 208 -109T199 -101ZM329 480Q362 480 399 472T460 450Q468 446 469 443T469 432L459 331Q459 326 454 326T449 331Q446 400 409 432T309 465Q261 465
219 437T147 360T106 248Q98 204 102 161T122 81T171 24T250 2Q304 2 348 34T422 140Q424 145 429 144T434 138L403 32Q402 24 400 21T389 14Q347 0 309 -6T241 -12Q172 -12 130 11T66 73T39 156T41 240Q53 309 94 363T197 448T329 480Z" />
<glyph unicode="&#xa3;" horiz-adv-x="388" d="M0 0Q-4 0 -4 6T0 13Q35 22 54 35T84 67T98 113Q104 150 103 178T99 231T94 280T99 336Q108 387 135 418T199 465T275 480Q293 480 313 476T353 462Q367 456 366 444L354 342Q353 339 347 339T342 344Q342 371 336
399T312 447T264 466Q231 466 209 451T175 411T157 359Q150 322 153 288T160 220T156 144Q147 95 124 71T75 29L67 42H204Q242 42 263 48T297 72T323 124Q325 128 330 127T334 120Q328 100 320 70T306 11Q305 4 302 2T291 0H0ZM56 219Q52 219 51 224T50 235T56
241H258Q263 241 264 236T265 225T259 219H56Z" />
<glyph unicode="&#xa4;" horiz-adv-x="375" d="M100 93L45 36L28 59L85 114L100 93ZM113 289L74 343L104 368L140 312L113 289ZM265 118L305 63L275 36L239 95L265 118ZM281 310L338 365L354 343L297 289L281 310ZM158 65Q118 65 94 85T62 138T59 206Q67 250 93
278T153 321T215 335Q268 335 298 296T317 197Q310 155 284 126T225 81T158 65ZM175 83Q207 83 231 109T264 184Q270 218 265 248T242 297T195 317Q165 317 142 293T110 220Q105 189 108 157T128 104T175 83Z" />
<glyph unicode="&#xa5;" horiz-adv-x="433" d="M228 197L218 203L332 368Q359 408 357 432T326 456Q322 456 322 462T326 468Q349 468 368 467T418 465Q437 465 448 466T475 468Q479 468 479 462T475 456Q445 456 414 432T350 365L228 197ZM78 0Q75 0 75 6T78
12Q112 12 129 17T155 38T169 82L180 145H236L224 79Q219 51 221 37T240 17T288 12Q292 12 292 6T288 0Q266 0 240 1T183 2Q155 2 127 1T78 0ZM83 130Q77 130 77 140T83 151H329Q336 151 336 141T330 130H83ZM93 192Q87 192 87 202T93 213H341Q347 213 347 203T341
192H93ZM191 204L194 228L252 237L246 204H191ZM202 197L124 386Q108 424 92 440T48 456Q45 456 45 462T48 468Q62 468 78 467T106 465Q128 465 149 466T189 467T221 468Q224 468 224 462T221 456Q192 456 181 445T180 412L253 235L202 197Z" />
<glyph unicode="&#xa6;" horiz-adv-x="152" d="M124 357Q124 352 115 352T98 353T89 360L153 731Q154 736 163 736T181 735T189 727L124 357ZM33 -158Q32 -162 23 -163T6 -162T-2 -154L62 216Q63 221 72 221T90 220T98 213L33 -158Z" />
<glyph unicode="&#xa7;" horiz-adv-x="390" d="M121 -188Q96 -188 77 -184T44 -171Q40 -168 38 -164T37 -154L48 -55Q50 -52 55 -52T59 -55Q59 -72 66 -91T86 -126T117 -154T159 -165Q183 -165 203 -148T231 -92Q237 -58 226 -34T193 11T148 51T103 93T72 147T68
222Q74 264 98 298T174 373L179 364Q150 342 137 315T118 257Q110 212 121 181T152 127T197 86T242 47T274 2T278 -60Q271 -105 247 -133T189 -175T121 -188ZM234 11L229 20Q256 41 270 68T289 126Q296 172 286 203T255 256T210 298T165 337T132 382T128 444Q137
489 161 517T219 558T287 572Q312 572 331 568T363 554Q366 552 368 548T370 538L358 438Q358 436 353 436T348 438Q348 455 341 474T321 510T290 537T247 548Q224 548 204 532T177 476Q171 441 182 417T214 373T260 334T305 292T336 238T340 162Q333 121 309 87T234
11Z" />
<glyph unicode="&#xa8;" horiz-adv-x="275" d="M270 478Q227 478 227 519Q227 538 238 549T270 560Q290 560 300 549T311 519Q311 478 270 478ZM119 478Q77 478 77 519Q77 538 88 549T119 560Q139 560 149 549T160 519Q160 478 119 478Z" />
<glyph unicode="&#xa9;" horiz-adv-x="725" d="M370 -102Q320 -102 268 -84T172 -30T102 61T75 190Q75 259 101 315T174 413T278 476T399 498Q477 498 532 467T618 384T649 270Q649 208 617 156T530 71T403 39Q340 39 301 62T243 122T225 195Q225 249 251 287T316
344T396 364Q420 364 441 358T477 341T492 314Q492 302 484 294T463 285Q451 285 442 294T427 311Q417 326 406 336T370 347Q324 347 306 313T288 221Q288 180 302 145T348 87T437 65Q481 65 520 83T585 141T611 241Q611 306 579 359T492 443T368 475Q289 475 234
440T150 345T121 213Q121 141 146 87T213 -2T303 -54T398 -71Q435 -71 465 -68T527 -54T595 -25Q598 -24 600 -27T601 -32Q543 -76 487 -89T370 -102Z" />
<glyph unicode="&#xaa;" horiz-adv-x="276" d="M94 361Q72 361 62 377T56 431Q61 466 78 502T120 567T173 615T227 633Q245 633 262 623T280 588L253 605Q261 607 270 616T283 639Q284 641 288 640T293 637L255 428Q248 390 265 390Q273 390 283 399T307 423Q309
425 313 422T316 416Q294 391 276 378T241 364Q224 364 220 378T222 428L238 521L252 532Q232 481 205 442T150 382T94 361ZM44 287Q42 287 41 293T40 306T43 313H269Q272 313 273 307T273 294T269 287H44ZM116 392Q132 392 151 407T189 445T223 497T244 554Q249
577 239 594T205 610Q182 610 158 590T116 536T92 461Q87 427 93 410T116 392Z" />
<glyph unicode="&#xab;" horiz-adv-x="424" d="M242 364Q244 366 248 362T250 356L112 201L196 47Q198 44 194 41T188 40L53 189Q49 194 49 200T56 212L242 364ZM389 364Q392 366 396 362T397 356L259 201L344 47Q346 44 342 41T335 40L200 189Q197 194 197 200T204
212L389 364Z" />
<glyph unicode="&#xac;" horiz-adv-x="397" d="M35 228Q32 228 31 238T31 258T34 268H365V228H35ZM325 77V268H365V78Q365 75 355 74T335 74T325 77Z" />
<glyph unicode="&#xad;" horiz-adv-x="305" d="M32 167Q29 167 28 177T27 199T30 212L280 258Q283 259 283 248T284 226T280 214L32 167Z" />
<glyph unicode="&#xae;" horiz-adv-x="762" d="M411 138Q358 138 306 156T211 212T143 303T117 428Q117 493 143 547T214 641T318 703T439 725Q526 725 589 688T687 588T721 451Q721 385 697 328T630 229T531 162T411 138ZM438 166Q513 166 568 197T653 286T683
422Q683 502 647 565T549 665T406 702Q326 702 271 668T188 576T160 454Q160 384 185 331T250 241T340 185T438 166ZM256 278Q254 278 255 283T258 289Q291 289 300 296T315 334L354 549Q359 576 352 584T311 593Q310 593 311 599T313 605Q328 605 347 605T384
604Q403 604 427 605T467 607Q512 607 532 592T547 542Q541 507 517 482T454 446T366 437L369 456Q425 446 457 458T498 518Q505 559 491 576T449 594Q424 594 413 588T395 547L358 334Q353 304 361 297T402 289Q404 289 403 284T400 278Q385 278 367 278T327 279Q310
279 289 279T256 278ZM504 278Q494 278 475 322T431 441L476 455Q496 397 510 361T541 306T584 286Q586 285 585 282T582 278Q552 278 532 278T504 278Z" />
<glyph unicode="&#xaf;" horiz-adv-x="333" d="M100 479Q97 479 95 486T95 500T100 507H338Q342 507 343 500T344 486T338 479H100Z" />
<glyph unicode="&#xb0;" horiz-adv-x="299" d="M184 373Q136 373 109 396T73 452T71 515Q78 545 99 571T153 613T226 630Q273 630 299 608T334 554T336 489Q324 438 282 406T184 373ZM194 387Q224 387 241 400T266 434T280 482Q292 549 279 583T220 617Q174 617
155 588T127 518Q121 484 122 454T140 405T194 387Z" />
<glyph unicode="&#xb1;" horiz-adv-x="398" d="M34 1Q31 1 30 10T30 28T33 37H364Q367 37 368 28T368 10T364 1H34ZM34 233Q31 233 30 243T30 262T33 272H364Q367 272 368 263T368 243T364 233H34ZM219 88Q219 85 209 84T189 84T179 87V418Q179 421 189 421T209
422T219 418V88Z" />
<glyph unicode="&#xb2;" horiz-adv-x="228" d="M73 403Q66 403 71 412Q83 439 107 468T156 529T202 591T227 653Q231 678 221 692T191 707Q169 707 150 690T121 648Q119 645 114 646T109 652Q123 682 147 705T209 729Q246 729 260 707T270 654Q265 627 244 599T196
544T144 491T107 443Q106 440 108 440Q150 440 173 441T208 447T226 464T242 496Q244 501 249 500T254 493L237 406Q237 403 234 403Q199 403 155 403T73 403Z" />
<glyph unicode="&#xb3;" horiz-adv-x="228" d="M175 568L174 576Q196 574 215 565T244 537T249 491Q245 469 231 447T194 411T140 397Q103 397 88 418T69 466Q68 470 74 471T81 468Q84 457 89 445T105 424T136 415Q160 415 179 432T204 488Q211 530 194 547T151
565Q148 565 148 571T151 577Q170 577 185 589T209 619T222 653Q226 676 216 691T185 707Q164 707 146 691T118 651Q117 648 112 650T107 655Q121 685 145 707T205 729Q239 729 255 707T265 653Q261 632 248 615T216 585T175 568Z" />
<glyph unicode="&#xb4;" horiz-adv-x="212" d="M119 473Q118 470 113 472T109 476L202 716Q204 719 214 723T237 729T259 731T266 727L119 473Z" />
<glyph unicode="&#xb6;" horiz-adv-x="594" d="M257 -193Q225 -193 210 -180T197 -150Q199 -134 210 -126T232 -118Q248 -118 253 -126T261 -144T270 -161T294 -169Q314 -169 326 -156T348 -104T371 8L392 125Q356 122 313 122Q264 122 217 135T135 179T84 260T82
386Q105 507 186 567T386 628Q417 628 448 625T519 622Q545 622 571 623T619 625Q624 625 624 619T619 613Q580 613 555 592T522 532L439 55Q416 -74 372 -133T257 -193Z" />
<glyph unicode="&#xb7;" horiz-adv-x="200" d="M101 162Q81 162 70 173T58 204Q58 223 69 234T101 245Q121 245 132 234T143 204Q143 162 101 162Z" />
<glyph unicode="&#xb8;" horiz-adv-x="196" d="M1 -275Q-23 -275 -40 -264T-54 -228Q-52 -218 -44 -213T-25 -207Q-13 -207 -7 -214T4 -231T13 -248T29 -256Q58 -256 66 -218Q68 -201 58 -181T28 -138Q15 -122 13 -102T22 -60L52 0H64Q53 -24 51 -41T55 -73T73
-104Q89 -126 99 -146T104 -188Q102 -205 89 -225T55 -260T1 -275Z" />
<glyph unicode="&#xb9;" horiz-adv-x="237" d="M82 403Q78 403 78 408T82 414Q110 414 123 418T143 437T156 483L177 601Q184 645 185 663T173 680T121 660Q117 659 115 664T116 671L230 729Q234 731 236 728T238 722L197 483Q191 452 192 437T204 418T242 414Q246
414 246 409T242 403Q226 403 207 404T165 405Q143 405 121 404T82 403Z" />
<glyph unicode="&#xba;" horiz-adv-x="269" d="M151 359Q119 359 98 378T69 429T68 498Q76 542 98 571T151 615T209 630Q243 630 263 611T292 562T294 495Q287 456 265 425T212 377T151 359ZM49 287Q46 287 45 293T45 306T48 313H269Q272 313 273 307T273 294T269
287H49ZM171 377Q198 377 221 401T253 475Q260 515 254 546T231 595T188 613Q159 613 138 590T108 518Q98 460 115 419T171 377Z" />
<glyph unicode="&#xbb;" horiz-adv-x="423" d="M184 37Q181 36 177 39T175 46L313 200L229 354Q228 357 232 360T237 361L373 212Q377 208 377 201T370 189L184 37ZM36 37Q34 36 30 39T28 46L166 200L82 354Q81 357 85 360T90 361L226 212Q230 208 230 201T223
189L36 37Z" />
<glyph unicode="&#xbc;" horiz-adv-x="548" d="M64 309Q60 309 60 314T64 320Q92 320 105 324T125 343T138 389L159 507Q166 551 167 569T155 586T103 566Q99 565 97 570T98 577L212 635Q216 637 218 634T220 628L179 389Q173 358 174 343T186 324T224 320Q228
320 228 315T224 309Q208 309 189 310T147 311Q125 311 103 310T64 309ZM152 -3Q151 -5 145 -3T134 3T128 7L466 625Q468 628 474 626T486 620T490 613L152 -3ZM365 -2Q361 -2 361 4T365 10Q397 10 407 15T421 41L459 267L479 284L355 114Q351 110 357 110Q392
110 416 111T462 113T510 116Q512 116 512 109T510 95T506 87Q469 90 427 91T317 93Q316 93 315 95T316 99L497 325Q499 327 503 326T506 320L458 41Q454 22 458 16T492 10Q497 10 497 4T492 -2Q479 -2 467 -1T436 0Q416 0 398 -1T365 -2Z" />
<glyph unicode="&#xbd;" horiz-adv-x="563" d="M64 309Q60 309 60 314T64 320Q92 320 105 324T125 343T138 389L159 507Q166 551 167 569T155 586T103 566Q99 565 97 570T98 577L212 635Q216 637 218 634T220 628L179 389Q173 358 174 343T186 324T224 320Q228
320 228 315T224 309Q208 309 189 310T147 311Q125 311 103 310T64 309ZM152 -3Q151 -5 145 -3T134 3T128 7L466 625Q468 628 474 626T486 620T490 613L152 -3ZM338 0Q330 0 335 9Q348 36 371 65T420 126T466 188T491 250Q495 275 485 289T456 304Q434 304 415
287T385 245Q384 242 378 243T373 249Q387 279 411 302T473 326Q510 326 524 304T534 251Q529 224 508 196T460 141T408 88T371 40Q370 37 372 37Q414 37 437 38T472 44T491 61T506 93Q508 98 513 97T518 90L501 3Q501 0 498 0Q463 0 419 0T338 0Z" />
<glyph unicode="&#xbe;" horiz-adv-x="540" d="M157 474L156 482Q178 480 197 471T226 443T231 397Q227 375 213 353T176 317T122 303Q85 303 70 324T51 372Q50 376 56 377T63 374Q66 363 71 351T87 330T118 321Q142 321 161 338T186 394Q193 436 176 453T133
471Q130 471 130 477T133 483Q152 483 167 495T191 525T204 559Q208 582 198 597T167 613Q146 613 128 597T100 557Q99 554 94 556T89 561Q103 591 127 613T187 635Q221 635 237 613T247 559Q243 538 230 521T198 491T157 474ZM143 -3Q142 -5 136 -3T125 3T119
7L457 625Q459 628 465 626T477 620T481 613L143 -3ZM356 -2Q352 -2 352 4T356 10Q388 10 398 15T412 41L450 267L470 284L347 114Q343 110 349 110Q383 110 407 111T453 113T502 116Q504 116 503 109T501 95T497 87Q460 90 418 91T308 93Q307 93 306 95T307 99L488
325Q490 327 494 326T497 320L449 41Q445 22 449 16T483 10Q488 10 488 4T483 -2Q470 -2 458 -1T427 0Q408 0 390 -1T356 -2Z" />
<glyph unicode="&#xbf;" horiz-adv-x="304" d="M181 160Q190 132 192 97T190 41Q184 5 164 -17T119 -58T73 -101T44 -167Q40 -195 45 -216T65 -249T104 -261Q133 -261 144 -246T160 -215Q162 -206 166 -196T179 -179T199 -172Q216 -172 222 -183T227 -208Q224
-227 205 -242T157 -266T97 -275Q39 -275 7 -244T-14 -155Q-7 -121 10 -97T47 -55T86 -22Q127 13 144 40T167 102Q170 114 170 128T170 159Q170 164 175 164T181 160ZM207 360Q226 360 237 349T249 318Q249 299 238 288T207 277Q186 277 175 288T164 318Q164 360
207 360Z" />
<glyph unicode="&#xc0;" horiz-adv-x="600" d="M-34 0Q-38 0 -38 6T-34 12Q-8 12 25 35T96 123L382 635Q384 639 391 638T400 633L488 84Q492 57 498 41T519 19T563 12Q567 12 567 6T563 0Q540 0 516 2T462 4Q433 4 411 2T365 0Q362 0 362 6T365 12Q412 12 423
27T429 84L353 557L378 586L129 132Q101 82 99 56T113 21T163 12Q167 12 167 6T162 0Q142 0 114 2T58 4Q29 4 11 2T-34 0ZM193 275L208 295H423L425 275H193ZM487 679Q435 701 382 720T264 756Q258 758 265 763T286 774T312 783T328 784Q365 760 404 737T491 689Q495
688 493 683T487 679Z" />
<glyph unicode="&#xc1;" horiz-adv-x="600" d="M-34 0Q-38 0 -38 6T-34 12Q-8 12 25 35T96 123L382 635Q384 639 391 638T400 633L488 84Q492 57 498 41T519 19T563 12Q567 12 567 6T563 0Q540 0 516 2T462 4Q433 4 411 2T365 0Q362 0 362 6T365 12Q412 12 423
27T429 84L353 557L378 586L129 132Q101 82 99 56T113 21T163 12Q167 12 167 6T162 0Q142 0 114 2T58 4Q29 4 11 2T-34 0ZM193 275L208 295H423L425 275H193ZM291 678Q287 677 285 682T286 689Q333 713 371 737T448 783Q452 786 464 783T490 773T511 762T513 756Q446
739 394 720T291 678Z" />
<glyph unicode="&#xc2;" horiz-adv-x="600" d="M-34 0Q-38 0 -38 6T-34 12Q-8 12 25 35T96 123L382 635Q384 639 391 638T400 633L488 84Q492 57 498 41T519 19T563 12Q567 12 567 6T563 0Q540 0 516 2T462 4Q433 4 411 2T365 0Q362 0 362 6T365 12Q412 12 423
27T429 84L353 557L378 586L129 132Q101 82 99 56T113 21T163 12Q167 12 167 6T162 0Q142 0 114 2T58 4Q29 4 11 2T-34 0ZM193 275L208 295H423L425 275H193ZM304 664Q303 663 300 666T298 671L405 768Q409 773 414 773T423 768L497 671Q499 669 496 666T490 664L405
721L304 664Z" />
<glyph unicode="&#xc3;" horiz-adv-x="600" d="M-34 0Q-38 0 -38 6T-34 12Q-8 12 25 35T96 123L382 635Q384 639 391 638T400 633L488 84Q492 57 498 41T519 19T563 12Q567 12 567 6T563 0Q540 0 516 2T462 4Q433 4 411 2T365 0Q362 0 362 6T365 12Q412 12 423
27T429 84L353 557L378 586L129 132Q101 82 99 56T113 21T163 12Q167 12 167 6T162 0Q142 0 114 2T58 4Q29 4 11 2T-34 0ZM193 275L208 295H423L425 275H193ZM281 719Q279 718 276 720T274 726Q283 737 296 751T326 776T361 787Q378 787 398 781T440 769T486 763Q507
763 518 771T538 790Q540 792 543 789T545 783Q517 745 500 733T464 721Q442 721 422 727T380 740T333 746Q312 746 302 738T281 719Z" />
<glyph unicode="&#xc4;" horiz-adv-x="600" d="M-34 0Q-38 0 -38 6T-34 12Q-8 12 25 35T96 123L382 635Q384 639 391 638T400 633L488 84Q492 57 498 41T519 19T563 12Q567 12 567 6T563 0Q540 0 516 2T462 4Q433 4 411 2T365 0Q362 0 362 6T365 12Q412 12 423
27T429 84L353 557L378 586L129 132Q101 82 99 56T113 21T163 12Q167 12 167 6T162 0Q142 0 114 2T58 4Q29 4 11 2T-34 0ZM193 275L208 295H423L425 275H193ZM325 717Q305 717 294 727T282 758Q282 777 293 788T325 799Q345 799 355 788T366 758Q366 717 325 717ZM500
717Q458 717 458 758Q458 777 469 788T500 799Q541 799 541 758Q541 717 500 717Z" />
<glyph unicode="&#xc5;" horiz-adv-x="600" d="M-34 0Q-38 0 -38 6T-34 12Q-8 12 25 35T96 123L382 635Q384 639 391 638T400 633L488 84Q492 57 498 41T519 19T563 12Q567 12 567 6T563 0Q540 0 516 2T462 4Q433 4 411 2T365 0Q362 0 362 6T365 12Q412 12 423
27T429 84L353 557L378 586L129 132Q101 82 99 56T113 21T163 12Q167 12 167 6T162 0Q142 0 114 2T58 4Q29 4 11 2T-34 0ZM193 275L208 295H423L425 275H193ZM395 671Q358 671 338 695T317 751Q317 777 330 794T364 819T404 828Q437 828 460 805T483 748Q483 724
470 707T437 680T395 671ZM410 681Q440 681 440 731Q440 766 424 791T385 817Q359 817 359 771Q359 750 365 730T383 695T410 681Z" />
<glyph unicode="&#xc6;" horiz-adv-x="769" d="M-56 0Q-60 0 -60 6T-56 12Q-31 12 -8 22T42 58T105 133L433 575Q446 594 447 601T434 611T380 613Q376 613 376 619T380 625H758Q767 625 765 616Q762 598 759 575T752 529T746 492Q745 488 740 489T735 493Q740
546 718 578T647 611H609Q571 611 550 606T521 586T508 543L451 85Q448 57 450 43T467 23T513 18H582Q622 18 657 54T713 149Q714 152 719 151T724 147Q716 121 707 84T692 15Q689 0 676 0H303Q299 0 299 6T303 12Q351 12 368 25T391 81L460 613L485 602L127 123Q87
68 91 40T154 12Q159 12 159 6T154 0Q136 0 119 1T82 3T40 4Q9 4 -10 2T-56 0ZM264 315L282 336H467L470 315H264ZM667 232Q666 230 661 231T656 234Q664 279 649 297T590 315H457L460 336H597Q638 336 658 353T686 408Q686 412 692 411T697 406Q693 376 689 360T682
325Q678 302 675 280T667 232Z" />
<glyph unicode="&#xc7;" horiz-adv-x="586" d="M317 -13Q232 -13 178 16T97 95T63 202T66 318Q80 390 115 448T202 549T313 613T434 636Q475 636 515 627T579 601Q586 596 587 592T587 577L577 466Q576 462 571 462T566 466Q559 546 513 580T396 614Q331 614 277
581T187 488T138 346Q125 275 133 213T166 103T231 28T323 1Q379 1 433 38T532 151Q534 154 539 152T542 147L512 40Q509 27 506 23T494 16Q447 0 401 -6T317 -13ZM260 -275Q236 -275 219 -264T205 -228Q207 -218 215 -213T234 -207Q246 -207 252 -214T263 -231T272
-248T288 -256Q317 -256 324 -218Q326 -201 316 -181T287 -138Q274 -122 272 -102T281 -60L311 0H323Q312 -24 310 -41T313 -73T331 -104Q348 -126 358 -146T363 -188Q361 -205 348 -225T313 -260T260 -275Z" />
<glyph unicode="&#xc8;" horiz-adv-x="514" d="M16 0Q14 0 14 6T16 12Q48 12 64 17T88 37T101 81L183 544Q191 587 180 600T123 613Q120 613 120 619T123 625H506Q514 625 512 616Q509 598 506 575T499 529T493 492Q492 488 486 489T481 493Q487 545 467 577T405
610H323Q292 610 276 605T253 586T240 543L159 85Q152 43 163 31T219 19H329Q367 19 402 55T458 149Q459 152 465 151T469 147Q461 121 453 84T438 15Q435 0 422 0H16ZM411 232Q410 228 404 228T399 233Q407 277 393 296T338 315H174L177 336H345Q384 336 402 352T428
406Q429 410 435 410T440 404Q436 376 432 360T425 325Q421 302 419 280T411 232ZM427 682Q398 697 369 709T309 733T239 756Q234 757 239 760T256 769T279 777T302 783T314 784Q343 760 370 738T433 691Q437 690 434 685T427 682Z" />
<glyph unicode="&#xc9;" horiz-adv-x="514" d="M16 0Q14 0 14 6T16 12Q48 12 64 17T88 37T101 81L183 544Q191 587 180 600T123 613Q120 613 120 619T123 625H506Q514 625 512 616Q509 598 506 575T499 529T493 492Q492 488 486 489T481 493Q487 545 467 577T405
610H323Q292 610 276 605T253 586T240 543L159 85Q152 43 163 31T219 19H329Q367 19 402 55T458 149Q459 152 465 151T469 147Q461 121 453 84T438 15Q435 0 422 0H16ZM411 232Q410 228 404 228T399 233Q407 277 393 296T338 315H174L177 336H345Q384 336 402 352T428
406Q429 410 435 410T440 404Q436 376 432 360T425 325Q421 302 419 280T411 232ZM285 679Q281 677 279 682T280 689Q327 713 365 737T442 784Q446 787 458 783T483 773T505 762T507 756Q440 740 388 721T285 679Z" />
<glyph unicode="&#xca;" horiz-adv-x="514" d="M16 0Q14 0 14 6T16 12Q48 12 64 17T88 37T101 81L183 544Q191 587 180 600T123 613Q120 613 120 619T123 625H506Q514 625 512 616Q509 598 506 575T499 529T493 492Q492 488 486 489T481 493Q487 545 467 577T405
610H323Q292 610 276 605T253 586T240 543L159 85Q152 43 163 31T219 19H329Q367 19 402 55T458 149Q459 152 465 151T469 147Q461 121 453 84T438 15Q435 0 422 0H16ZM411 232Q410 228 404 228T399 233Q407 277 393 296T338 315H174L177 336H345Q384 336 402 352T428
406Q429 410 435 410T440 404Q436 376 432 360T425 325Q421 302 419 280T411 232ZM251 664Q250 663 247 666T245 671L352 768Q356 773 361 773T370 768L445 671Q447 669 444 666T438 664L352 721L251 664Z" />
<glyph unicode="&#xcb;" horiz-adv-x="514" d="M16 0Q14 0 14 6T16 12Q48 12 64 17T88 37T101 81L183 544Q191 587 180 600T123 613Q120 613 120 619T123 625H506Q514 625 512 616Q509 598 506 575T499 529T493 492Q492 488 486 489T481 493Q487 545 467 577T405
610H323Q292 610 276 605T253 586T240 543L159 85Q152 43 163 31T219 19H329Q367 19 402 55T458 149Q459 152 465 151T469 147Q461 121 453 84T438 15Q435 0 422 0H16ZM411 232Q410 228 404 228T399 233Q407 277 393 296T338 315H174L177 336H345Q384 336 402 352T428
406Q429 410 435 410T440 404Q436 376 432 360T425 325Q421 302 419 280T411 232ZM434 717Q391 717 391 758Q391 777 402 788T434 799Q454 799 464 788T475 758Q475 717 434 717ZM283 717Q241 717 241 758Q241 777 252 788T283 799Q303 799 313 788T324 758Q324
717 283 717Z" />
<glyph unicode="&#xcc;" horiz-adv-x="308" d="M20 0Q17 0 17 6T20 12Q51 12 67 17T91 37T104 81L186 544Q194 587 183 600T125 613Q122 613 122 619T125 625Q146 625 171 624T226 622Q258 622 284 623T330 625Q332 625 332 619T330 613Q299 613 283 607T259 586T245
542L163 81Q156 38 167 25T225 12Q227 12 227 6T225 0Q204 0 179 1T122 2Q93 2 67 1T20 0ZM318 682Q289 697 261 709T201 733T131 756Q126 757 131 760T147 769T171 777T194 783T206 784Q235 760 262 738T325 691Q329 690 326 685T318 682Z" />
<glyph unicode="&#xcd;" horiz-adv-x="308" d="M20 0Q17 0 17 6T20 12Q51 12 67 17T91 37T104 81L186 544Q194 587 183 600T125 613Q122 613 122 619T125 625Q146 625 171 624T226 622Q258 622 284 623T330 625Q332 625 332 619T330 613Q299 613 283 607T259 586T245
542L163 81Q156 38 167 25T225 12Q227 12 227 6T225 0Q204 0 179 1T122 2Q93 2 67 1T20 0ZM177 679Q173 677 171 682T172 689Q219 713 257 737T334 784Q338 787 350 783T375 773T397 762T399 756Q332 740 280 721T177 679Z" />
<glyph unicode="&#xce;" horiz-adv-x="308" d="M20 0Q17 0 17 6T20 12Q51 12 67 17T91 37T104 81L186 544Q194 587 183 600T125 613Q122 613 122 619T125 625Q146 625 171 624T226 622Q258 622 284 623T330 625Q332 625 332 619T330 613Q299 613 283 607T259 586T245
542L163 81Q156 38 167 25T225 12Q227 12 227 6T225 0Q204 0 179 1T122 2Q93 2 67 1T20 0ZM143 664Q142 663 139 666T137 671L244 768Q248 773 253 773T262 768L336 671Q338 669 335 666T329 664L244 721L143 664Z" />
<glyph unicode="&#xcf;" horiz-adv-x="308" d="M20 0Q17 0 17 6T20 12Q51 12 67 17T91 37T104 81L186 544Q194 587 183 600T125 613Q122 613 122 619T125 625Q146 625 171 624T226 622Q258 622 284 623T330 625Q332 625 332 619T330 613Q299 613 283 607T259 586T245
542L163 81Q156 38 167 25T225 12Q227 12 227 6T225 0Q204 0 179 1T122 2Q93 2 67 1T20 0ZM184 717Q164 717 153 727T141 758Q141 777 152 788T184 799Q205 799 215 788T226 758Q226 717 184 717ZM317 717Q275 717 275 758Q275 799 317 799Q337 799 347 788T358
758Q358 717 317 717Z" />
<glyph unicode="&#xd0;" horiz-adv-x="612" d="M56 301Q53 301 52 306T52 316T56 321H318Q321 321 321 316T322 306T318 301H56ZM236 -4Q212 -4 177 -1T113 2Q82 2 57 1T11 0Q8 0 8 6T11 12Q42 12 59 17T84 37T97 81L179 544Q187 587 176 600T118 613Q116 613
116 619T118 625Q139 625 165 624T222 622Q249 622 280 624T335 627Q427 627 490 588T580 479T591 323Q578 248 544 188T460 85T353 19T236 -4ZM230 10Q300 10 359 43T460 142T519 301Q531 364 525 420T496 519T434 588T338 613Q288 613 266 600T236 542L157 92Q149
50 162 30T230 10Z" />
<glyph unicode="&#xd1;" horiz-adv-x="651" d="M491 -11L203 543Q181 584 161 598T120 613Q117 613 117 619T120 625Q135 625 153 624T185 623Q198 623 210 624T228 625Q239 625 242 614T258 573L513 81L506 -10Q506 -14 500 -14T491 -11ZM12 0Q9 0 9 6T12 12Q48
12 69 34T98 106L186 602L204 600L119 106Q110 56 121 34T170 12Q172 12 172 6T170 0Q153 0 135 1T91 2Q70 2 50 1T12 0ZM506 -10L493 27L579 518Q588 568 577 590T529 613Q526 613 526 619T529 625Q545 625 564 624T607 622Q628 622 648 623T687 625Q689 625 689
619T687 613Q651 613 630 591T600 518L506 -10ZM287 695Q285 694 282 697T280 702Q288 714 301 728T332 753T367 764Q384 764 403 758T445 746T492 739Q512 739 523 747T544 766Q546 768 549 765T551 759Q523 722 506 710T469 698Q447 698 427 704T385 716T339
722Q317 722 308 714T287 695Z" />
<glyph unicode="&#xd2;" horiz-adv-x="651" d="M284 -12Q203 -12 149 32T75 150T69 313Q81 384 113 443T191 545T293 612T409 636Q495 636 549 592T623 475T628 313Q615 240 582 181T502 78T399 12T284 -12ZM326 14Q412 14 475 77T561 260Q577 334 571 397T538
509T469 585T369 612Q279 612 218 546T135 366Q121 296 127 233T158 120T225 43T326 14ZM491 682Q462 697 433 709T373 733T304 756Q299 757 304 760T320 769T343 777T366 783T379 784Q407 760 434 738T498 691Q501 690 498 685T491 682Z" />
<glyph unicode="&#xd3;" horiz-adv-x="651" d="M284 -12Q203 -12 149 32T75 150T69 313Q81 384 113 443T191 545T293 612T409 636Q495 636 549 592T623 475T628 313Q615 240 582 181T502 78T399 12T284 -12ZM326 14Q412 14 475 77T561 260Q577 334 571 397T538
509T469 585T369 612Q279 612 218 546T135 366Q121 296 127 233T158 120T225 43T326 14ZM349 679Q345 677 343 682T344 689Q391 713 429 737T507 784Q510 787 522 783T548 773T569 762T571 756Q504 740 452 721T349 679Z" />
<glyph unicode="&#xd4;" horiz-adv-x="651" d="M284 -12Q203 -12 149 32T75 150T69 313Q81 384 113 443T191 545T293 612T409 636Q495 636 549 592T623 475T628 313Q615 240 582 181T502 78T399 12T284 -12ZM326 14Q412 14 475 77T561 260Q577 334 571 397T538
509T469 585T369 612Q279 612 218 546T135 366Q121 296 127 233T158 120T225 43T326 14ZM315 664Q314 663 311 666T309 671L417 768Q421 773 426 773T435 768L509 671Q511 669 508 666T502 664L417 721L315 664Z" />
<glyph unicode="&#xd5;" horiz-adv-x="651" d="M284 -12Q203 -12 149 32T75 150T69 313Q81 384 113 443T191 545T293 612T409 636Q495 636 549 592T623 475T628 313Q615 240 582 181T502 78T399 12T284 -12ZM326 14Q412 14 475 77T561 260Q577 334 571 397T538
509T469 585T369 612Q279 612 218 546T135 366Q121 296 127 233T158 120T225 43T326 14ZM294 695Q292 694 289 697T287 702Q296 714 309 728T339 753T374 764Q392 764 411 758T453 746T499 739Q520 739 531 747T551 766Q553 768 556 765T558 759Q530 722 513 710T477
698Q455 698 435 704T393 716T346 722Q325 722 315 714T294 695Z" />
<glyph unicode="&#xd6;" horiz-adv-x="651" d="M284 -12Q203 -12 149 32T75 150T69 313Q81 384 113 443T191 545T293 612T409 636Q495 636 549 592T623 475T628 313Q615 240 582 181T502 78T399 12T284 -12ZM326 14Q412 14 475 77T561 260Q577 334 571 397T538
509T469 585T369 612Q279 612 218 546T135 366Q121 296 127 233T158 120T225 43T326 14ZM498 717Q455 717 455 758Q455 777 466 788T498 799Q518 799 528 788T539 758Q539 717 498 717ZM347 717Q305 717 305 758Q305 777 316 788T347 799Q367 799 377 788T388 758Q388
717 347 717Z" />
<glyph unicode="&#xd7;" horiz-adv-x="398" d="M96 59Q94 57 86 63T72 77T67 86L301 320Q303 322 310 316T325 302T329 291L96 59ZM68 293Q66 295 72 302T86 316T95 321L330 88Q332 86 325 78T311 64T301 59L68 293Z" />
<glyph unicode="&#xd8;" horiz-adv-x="651" d="M48 -8Q46 -10 42 -8T34 0T33 7L648 630Q650 632 654 630T662 624T663 618L48 -8ZM284 -12Q203 -12 149 32T75 150T69 313Q81 384 113 443T191 545T293 612T409 636Q495 636 549 592T623 475T628 313Q615 240 582
181T502 78T399 12T284 -12ZM326 14Q412 14 475 77T561 260Q577 334 571 397T538 509T469 585T369 612Q279 612 218 546T135 366Q121 296 127 233T158 120T225 43T326 14Z" />
<glyph unicode="&#xd9;" horiz-adv-x="618" d="M563 518Q571 566 556 589T502 613Q499 613 499 619T502 625Q523 625 544 624T592 622Q614 622 635 623T674 625Q678 625 678 619T674 613Q637 613 615 588T583 514L533 225Q519 149 483 96T394 15T275 -13Q209 -13
165 15T104 96T98 221L156 545Q164 589 152 601T92 613Q89 613 89 619T92 625Q114 625 141 624T197 622Q229 622 256 623T303 625Q307 625 307 619T303 613Q270 613 252 607T226 585T213 540L161 252Q140 134 179 76T299 17Q381 17 437 73T511 227L563 518ZM503
679Q452 701 399 720T281 756Q275 758 282 763T303 774T329 783T345 784Q382 760 421 737T507 689Q511 688 510 683T503 679Z" />
<glyph unicode="&#xda;" horiz-adv-x="618" d="M563 518Q571 566 556 589T502 613Q499 613 499 619T502 625Q523 625 544 624T592 622Q614 622 635 623T674 625Q678 625 678 619T674 613Q637 613 615 588T583 514L533 225Q519 149 483 96T394 15T275 -13Q209 -13
165 15T104 96T98 221L156 545Q164 589 152 601T92 613Q89 613 89 619T92 625Q114 625 141 624T197 622Q229 622 256 623T303 625Q307 625 307 619T303 613Q270 613 252 607T226 585T213 540L161 252Q140 134 179 76T299 17Q381 17 437 73T511 227L563 518ZM307
678Q303 677 301 682T302 689Q349 713 387 737T465 783Q468 786 481 783T507 773T528 762T529 756Q462 739 410 720T307 678Z" />
<glyph unicode="&#xdb;" horiz-adv-x="618" d="M563 518Q571 566 556 589T502 613Q499 613 499 619T502 625Q523 625 544 624T592 622Q614 622 635 623T674 625Q678 625 678 619T674 613Q637 613 615 588T583 514L533 225Q519 149 483 96T394 15T275 -13Q209 -13
165 15T104 96T98 221L156 545Q164 589 152 601T92 613Q89 613 89 619T92 625Q114 625 141 624T197 622Q229 622 256 623T303 625Q307 625 307 619T303 613Q270 613 252 607T226 585T213 540L161 252Q140 134 179 76T299 17Q381 17 437 73T511 227L563 518ZM321
664Q319 663 316 666T315 671L422 768Q426 773 431 773T440 768L514 671Q516 669 513 666T507 664L422 721L321 664Z" />
<glyph unicode="&#xdc;" horiz-adv-x="618" d="M563 518Q571 566 556 589T502 613Q499 613 499 619T502 625Q523 625 544 624T592 622Q614 622 635 623T674 625Q678 625 678 619T674 613Q637 613 615 588T583 514L533 225Q519 149 483 96T394 15T275 -13Q209 -13
165 15T104 96T98 221L156 545Q164 589 152 601T92 613Q89 613 89 619T92 625Q114 625 141 624T197 622Q229 622 256 623T303 625Q307 625 307 619T303 613Q270 613 252 607T226 585T213 540L161 252Q140 134 179 76T299 17Q381 17 437 73T511 227L563 518ZM341
717Q322 717 310 727T298 758Q298 777 310 788T341 799Q362 799 372 788T383 758Q383 717 341 717ZM517 717Q474 717 474 758Q474 777 485 788T517 799Q558 799 558 758Q558 717 517 717Z" />
<glyph unicode="&#xdd;" horiz-adv-x="529" d="M288 269L277 279L449 524Q479 567 475 590T434 613Q430 613 430 619T434 625Q457 625 479 624T533 622Q554 622 567 623T600 625Q604 625 604 619T600 613Q569 613 536 590T469 519L288 269ZM131 0Q127 0 127 6T131
12Q163 12 180 17T206 37T219 81L259 310L318 319L276 81Q269 38 279 25T339 12Q343 12 343 6T339 0Q318 0 293 1T236 2Q205 2 179 1T131 0ZM270 271L155 542Q139 580 122 596T75 613Q71 613 71 619T75 625Q90 625 108 624T144 622Q176 622 206 623T259 625Q262
625 261 619T256 613Q222 613 213 604T212 573L318 317L270 271ZM294 679Q290 677 288 682T289 689Q336 713 374 737T452 784Q455 787 467 783T493 773T514 762T516 756Q449 740 397 721T294 679Z" />
<glyph unicode="&#xde;" horiz-adv-x="534" d="M13 0Q10 0 10 6T13 12Q44 12 60 17T85 37T99 81L180 544Q188 587 178 600T120 613Q118 613 118 619T120 625Q140 625 165 624T219 622Q259 622 291 623T347 625Q349 625 349 619T347 613Q303 613 282 609T251 589T236
542L155 81Q150 52 153 37T176 17T239 12Q241 12 241 6T239 0Q214 0 182 1T112 2Q84 2 58 1T13 0ZM239 124Q228 124 218 125T198 128Q196 129 197 136T203 143Q217 139 232 139Q276 139 321 155T400 204T446 292Q459 351 442 394T385 461T294 485Q255 485 232 481T189
469L183 483Q212 492 247 495T319 499Q381 499 431 480T505 419T516 312Q506 262 477 227T406 169T322 135T239 124Z" />
<glyph unicode="&#xdf;" horiz-adv-x="448" d="M-50 -275Q-86 -275 -100 -262T-114 -232Q-113 -219 -103 -210T-77 -201Q-61 -201 -55 -209T-45 -229T-38 -248T-20 -257Q-9 -257 -1 -241T16 -180T40 -47L118 442Q132 531 163 594T241 692T343 726Q382 726 402
711T429 673T431 628Q426 593 407 565T364 512T322 463T299 410Q294 380 304 353T331 299T365 245T391 188T396 122Q392 92 375 62T329 10T261 -11Q225 -11 208 6T190 42Q190 55 198 64T222 74Q237 74 244 65T255 44T267 22T293 13Q317 13 332 31T350 82Q354 116
344 144T317 198T284 250T258 304T255 366Q261 402 278 428T314 478T350 531T373 600Q377 624 375 649T361 692T319 710Q268 710 229 641T169 445L96 -21Q81 -116 63 -172T18 -251T-50 -275Z" />
<glyph unicode="&#xe0;" horiz-adv-x="434" d="M81 -13Q48 -13 31 11T21 91Q29 145 55 199T120 299T202 371T284 399Q303 399 320 393T351 371T366 330L323 357Q336 359 352 373T374 407Q376 410 381 409T386 406L328 89Q318 31 343 31Q354 31 371 43T409 77Q412
80 416 76T417 69Q385 32 358 12T305 -9Q281 -9 274 13T277 89L301 229L318 246Q288 170 248 112T165 20T81 -13ZM117 36Q145 36 175 58T232 115T280 193T309 277Q317 314 302 339T250 364Q215 363 179 333T115 252T77 136Q70 86 79 61T117 36ZM292 475L251 727Q250
731 258 731T277 730T297 723T306 716L301 476Q301 474 297 473T292 475Z" />
<glyph unicode="&#xe1;" horiz-adv-x="434" d="M81 -13Q48 -13 31 11T21 91Q29 145 55 199T120 299T202 371T284 399Q303 399 320 393T351 371T366 330L323 357Q336 359 352 373T374 407Q376 410 381 409T386 406L328 89Q318 31 343 31Q354 31 371 43T409 77Q412
80 416 76T417 69Q385 32 358 12T305 -9Q281 -9 274 13T277 89L301 229L318 246Q288 170 248 112T165 20T81 -13ZM117 36Q145 36 175 58T232 115T280 193T309 277Q317 314 302 339T250 364Q215 363 179 333T115 252T77 136Q70 86 79 61T117 36ZM281 473Q280 470
275 472T271 476L365 716Q367 719 377 723T399 729T421 731T428 727L281 473Z" />
<glyph unicode="&#xe2;" horiz-adv-x="434" d="M81 -13Q48 -13 31 11T21 91Q29 145 55 199T120 299T202 371T284 399Q303 399 320 393T351 371T366 330L323 357Q336 359 352 373T374 407Q376 410 381 409T386 406L328 89Q318 31 343 31Q354 31 371 43T409 77Q412
80 416 76T417 69Q385 32 358 12T305 -9Q281 -9 274 13T277 89L301 229L318 246Q288 170 248 112T165 20T81 -13ZM117 36Q145 36 175 58T232 115T280 193T309 277Q317 314 302 339T250 364Q215 363 179 333T115 252T77 136Q70 86 79 61T117 36ZM346 726L364 477Q364
475 359 475T353 476L321 630L233 474Q232 471 227 473T223 477L328 726Q330 731 338 731T346 726Z" />
<glyph unicode="&#xe3;" horiz-adv-x="434" d="M81 -13Q48 -13 31 11T21 91Q29 145 55 199T120 299T202 371T284 399Q303 399 320 393T351 371T366 330L323 357Q336 359 352 373T374 407Q376 410 381 409T386 406L328 89Q318 31 343 31Q354 31 371 43T409 77Q412
80 416 76T417 69Q385 32 358 12T305 -9Q281 -9 274 13T277 89L301 229L318 246Q288 170 248 112T165 20T81 -13ZM117 36Q145 36 175 58T232 115T280 193T309 277Q317 314 302 339T250 364Q215 363 179 333T115 252T77 136Q70 86 79 61T117 36ZM168 480Q166 479
163 481T161 487Q169 498 183 512T213 537T248 548Q265 548 284 542T326 530T373 524Q393 524 404 532T425 551Q427 553 430 550T432 544Q404 506 387 494T350 482Q328 482 308 488T266 501T220 507Q198 507 189 499T168 480Z" />
<glyph unicode="&#xe4;" horiz-adv-x="434" d="M81 -13Q48 -13 31 11T21 91Q29 145 55 199T120 299T202 371T284 399Q303 399 320 393T351 371T366 330L323 357Q336 359 352 373T374 407Q376 410 381 409T386 406L328 89Q318 31 343 31Q354 31 371 43T409 77Q412
80 416 76T417 69Q385 32 358 12T305 -9Q281 -9 274 13T277 89L301 229L318 246Q288 170 248 112T165 20T81 -13ZM117 36Q145 36 175 58T232 115T280 193T309 277Q317 314 302 339T250 364Q215 363 179 333T115 252T77 136Q70 86 79 61T117 36ZM373 478Q331 478
331 519Q331 538 342 549T373 560Q393 560 404 549T415 519Q415 478 373 478ZM222 478Q180 478 180 519Q180 538 191 549T222 560Q242 560 253 549T264 519Q264 478 222 478Z" />
<glyph unicode="&#xe5;" horiz-adv-x="434" d="M81 -13Q48 -13 31 11T21 91Q29 145 55 199T120 299T202 371T284 399Q303 399 320 393T351 371T366 330L323 357Q336 359 352 373T374 407Q376 410 381 409T386 406L328 89Q318 31 343 31Q354 31 371 43T409 77Q412
80 416 76T417 69Q385 32 358 12T305 -9Q281 -9 274 13T277 89L301 229L318 246Q288 170 248 112T165 20T81 -13ZM117 36Q145 36 175 58T232 115T280 193T309 277Q317 314 302 339T250 364Q215 363 179 333T115 252T77 136Q70 86 79 61T117 36ZM291 468Q254 468
234 492T213 547Q213 573 227 590T261 616T301 625Q334 625 356 602T379 545Q379 521 366 504T333 477T291 468ZM307 478Q337 478 337 527Q337 562 320 588T281 614Q255 614 255 567Q255 546 261 526T279 492T307 478Z" />
<glyph unicode="&#xe6;" horiz-adv-x="541" d="M82 -13Q49 -13 32 11T21 91Q29 145 53 199T112 298T187 371T266 399Q291 399 312 385T336 336Q325 313 313 292T291 246Q265 172 230 113T157 21T82 -13ZM118 37Q140 37 165 58T214 115T256 193T282 277Q289 315
277 341T232 367Q201 366 169 336T113 253T79 136Q74 102 76 80T89 48T118 37ZM360 -12Q296 -12 273 48T271 211L307 305Q342 352 386 375T473 399Q516 399 529 379T538 337Q535 315 513 294T441 251T303 203L304 215Q338 226 376 240T442 275T476 323Q479 334
477 346T465 369T436 379Q396 379 365 333T324 215Q311 119 331 70T396 21Q420 21 440 29T480 55Q482 57 486 53T488 46Q453 15 423 2T360 -12Z" />
<glyph unicode="&#xe7;" horiz-adv-x="345" d="M157 -13Q114 -13 87 6T45 57T29 127T35 202Q48 265 82 308T161 375T249 399Q273 399 293 392T325 371T335 340Q334 327 326 318T302 308Q288 308 280 317T266 340Q263 352 251 364T214 377Q181 377 157 358T119
306T96 233Q86 178 92 130T125 52T199 22Q232 22 258 36T305 67Q308 69 312 65T313 58Q272 21 233 4T157 -13ZM106 -275Q82 -275 65 -264T51 -228Q53 -218 61 -213T80 -207Q92 -207 98 -214T109 -231T118 -248T134 -256Q163 -256 171 -218Q173 -201 163 -181T133
-138Q120 -122 118 -102T127 -60L157 0H169Q158 -24 156 -41T160 -73T178 -104Q194 -126 204 -146T209 -188Q207 -205 194 -225T160 -260T106 -275Z" />
<glyph unicode="&#xe8;" horiz-adv-x="343" d="M155 -12Q102 -12 72 16T32 89T32 185Q38 222 58 260T110 330T179 380T260 399Q297 399 314 385T328 345Q323 321 300 299T241 260T161 229T68 211L70 224Q147 235 199 259T261 324Q268 351 252 361T216 372Q182
372 157 351T116 295T93 218Q82 162 90 118T125 48T193 22Q217 22 243 29T294 55Q297 57 300 53T301 46Q263 15 227 2T155 -12ZM246 475L204 727Q203 731 211 731T231 730T250 723T259 716L255 476Q255 474 251 473T246 475Z" />
<glyph unicode="&#xe9;" horiz-adv-x="343" d="M155 -12Q102 -12 72 16T32 89T32 185Q38 222 58 260T110 330T179 380T260 399Q297 399 314 385T328 345Q323 321 300 299T241 260T161 229T68 211L70 224Q147 235 199 259T261 324Q268 351 252 361T216 372Q182
372 157 351T116 295T93 218Q82 162 90 118T125 48T193 22Q217 22 243 29T294 55Q297 57 300 53T301 46Q263 15 227 2T155 -12ZM235 473Q234 470 229 472T225 476L318 716Q320 719 330 723T353 729T374 731T381 727L235 473Z" />
<glyph unicode="&#xea;" horiz-adv-x="343" d="M155 -12Q102 -12 72 16T32 89T32 185Q38 222 58 260T110 330T179 380T260 399Q297 399 314 385T328 345Q323 321 300 299T241 260T161 229T68 211L70 224Q147 235 199 259T261 324Q268 351 252 361T216 372Q182
372 157 351T116 295T93 218Q82 162 90 118T125 48T193 22Q217 22 243 29T294 55Q297 57 300 53T301 46Q263 15 227 2T155 -12ZM289 727L307 478Q307 475 301 475T295 477L263 631L176 474Q175 472 170 473T166 478L270 727Q272 732 280 732T289 727Z" />
<glyph unicode="&#xeb;" horiz-adv-x="343" d="M155 -12Q102 -12 72 16T32 89T32 185Q38 222 58 260T110 330T179 380T260 399Q297 399 314 385T328 345Q323 321 300 299T241 260T161 229T68 211L70 224Q147 235 199 259T261 324Q268 351 252 361T216 372Q182
372 157 351T116 295T93 218Q82 162 90 118T125 48T193 22Q217 22 243 29T294 55Q297 57 300 53T301 46Q263 15 227 2T155 -12ZM327 478Q284 478 284 519Q284 538 295 549T327 560Q347 560 357 549T368 519Q368 478 327 478ZM176 478Q134 478 134 519Q134 538 145
549T176 560Q196 560 206 549T217 519Q217 478 176 478Z" />
<glyph unicode="&#xec;" horiz-adv-x="247" d="M109 -9Q85 -9 77 12T80 89L121 297Q132 356 104 356Q93 356 75 344T35 310Q32 306 28 310T27 318Q61 357 89 376T143 395Q168 395 175 374T171 299L131 89Q125 59 130 45T147 31Q158 31 176 42T215 75Q219 79 223
75T223 67Q190 30 163 11T109 -9ZM158 475L116 727Q115 731 123 731T143 730T163 723T172 716L167 476Q167 474 163 473T158 475Z" />
<glyph unicode="&#xed;" horiz-adv-x="247" d="M109 -9Q85 -9 77 12T80 89L121 297Q132 356 104 356Q93 356 75 344T35 310Q32 306 28 310T27 318Q61 357 89 376T143 395Q168 395 175 374T171 299L131 89Q125 59 130 45T147 31Q158 31 176 42T215 75Q219 79 223
75T223 67Q190 30 163 11T109 -9ZM147 473Q146 470 141 472T137 476L230 716Q232 719 242 723T265 729T287 731T294 727L147 473Z" />
<glyph unicode="&#xee;" horiz-adv-x="247" d="M109 -9Q85 -9 77 12T80 89L121 297Q132 356 104 356Q93 356 75 344T35 310Q32 306 28 310T27 318Q61 357 89 376T143 395Q168 395 175 374T171 299L131 89Q125 59 130 45T147 31Q158 31 176 42T215 75Q219 79 223
75T223 67Q190 30 163 11T109 -9ZM212 726L230 477Q230 475 225 475T218 476L186 630L99 474Q97 471 92 473T88 477L194 726Q196 731 204 731T212 726Z" />
<glyph unicode="&#xef;" horiz-adv-x="247" d="M109 -9Q85 -9 77 12T80 89L121 297Q132 356 104 356Q93 356 75 344T35 310Q32 306 28 310T27 318Q61 357 89 376T143 395Q168 395 175 374T171 299L131 89Q125 59 130 45T147 31Q158 31 176 42T215 75Q219 79 223
75T223 67Q190 30 163 11T109 -9ZM98 478Q78 478 67 488T55 519Q55 538 66 549T98 560Q118 560 128 549T139 519Q139 478 98 478ZM230 478Q188 478 188 519Q188 560 230 560Q250 560 260 549T271 519Q271 478 230 478Z" />
<glyph unicode="&#xf0;" horiz-adv-x="401" d="M154 -13Q104 -13 73 14T31 87T30 186Q43 259 79 306T160 376T242 399Q276 399 305 382T349 333L316 204Q329 278 323 355T294 502T235 627T154 712Q150 715 156 719T172 725T186 725Q239 693 280 638T346 514T380
368T375 216Q362 140 328 89T249 13T154 -13ZM181 6Q226 6 262 52T316 204Q330 288 312 334T228 380Q184 380 144 338T91 215Q82 159 89 112T120 35T181 6ZM140 496Q137 495 133 503T132 514L406 644Q409 646 414 637T414 626L140 496Z" />
<glyph unicode="&#xf1;" horiz-adv-x="465" d="M337 -9Q311 -9 305 13T308 89L337 248Q360 360 300 360Q268 360 233 319T167 199T114 7L102 8Q123 125 158 213T238 350T333 399Q376 399 390 368T391 267L358 89Q353 59 358 45T375 31Q386 31 403 43T441 77Q444
81 448 77T449 69Q417 32 390 12T337 -9ZM82 -8Q68 -8 64 -7T59 -2Q59 2 64 25T74 74L115 297Q125 356 98 356Q87 356 69 344T29 310Q26 306 22 310T21 318Q55 357 83 376T138 395Q162 395 168 374T166 299L114 7Q112 -8 82 -8ZM155 480Q153 479 150 481T148 487Q156
498 169 512T200 537T235 548Q252 548 271 542T313 530T360 524Q380 524 391 532T411 551Q413 553 416 550T418 544Q391 506 374 494T337 482Q315 482 295 488T253 501T206 507Q185 507 176 499T155 480Z" />
<glyph unicode="&#xf2;" horiz-adv-x="398" d="M154 -14Q106 -14 75 14T33 89T33 193Q44 252 75 298T150 372T243 399Q295 399 326 371T368 296T367 193Q355 130 322 83T244 11T154 -14ZM189 11Q230 11 264 47T311 149Q318 186 316 225T302 299T268 354T214 375Q172
375 137 338T89 236Q81 197 84 158T99 86T134 32T189 11ZM244 475L202 727Q201 731 209 731T229 730T248 723T257 716L253 476Q253 474 249 473T244 475Z" />
<glyph unicode="&#xf3;" horiz-adv-x="398" d="M154 -14Q106 -14 75 14T33 89T33 193Q44 252 75 298T150 372T243 399Q295 399 326 371T368 296T367 193Q355 130 322 83T244 11T154 -14ZM189 11Q230 11 264 47T311 149Q318 186 316 225T302 299T268 354T214 375Q172
375 137 338T89 236Q81 197 84 158T99 86T134 32T189 11ZM233 473Q232 470 227 472T223 476L316 716Q318 719 328 723T351 729T372 731T379 727L233 473Z" />
<glyph unicode="&#xf4;" horiz-adv-x="398" d="M154 -14Q106 -14 75 14T33 89T33 193Q44 252 75 298T150 372T243 399Q295 399 326 371T368 296T367 193Q355 130 322 83T244 11T154 -14ZM189 11Q230 11 264 47T311 149Q318 186 316 225T302 299T268 354T214 375Q172
375 137 338T89 236Q81 197 84 158T99 86T134 32T189 11ZM287 727L305 478Q305 475 299 475T293 477L261 631L174 474Q173 472 168 473T164 478L268 727Q270 732 278 732T287 727Z" />
<glyph unicode="&#xf5;" horiz-adv-x="398" d="M154 -14Q106 -14 75 14T33 89T33 193Q44 252 75 298T150 372T243 399Q295 399 326 371T368 296T367 193Q355 130 322 83T244 11T154 -14ZM189 11Q230 11 264 47T311 149Q318 186 316 225T302 299T268 354T214 375Q172
375 137 338T89 236Q81 197 84 158T99 86T134 32T189 11ZM119 480Q117 479 114 481T112 487Q121 498 134 512T164 537T199 548Q216 548 236 542T278 530T324 524Q345 524 356 532T376 551Q378 553 381 550T383 544Q355 506 338 494T302 482Q280 482 260 488T218
501T171 507Q150 507 140 499T119 480Z" />
<glyph unicode="&#xf6;" horiz-adv-x="398" d="M154 -14Q106 -14 75 14T33 89T33 193Q44 252 75 298T150 372T243 399Q295 399 326 371T368 296T367 193Q355 130 322 83T244 11T154 -14ZM189 11Q230 11 264 47T311 149Q318 186 316 225T302 299T268 354T214 375Q172
375 137 338T89 236Q81 197 84 158T99 86T134 32T189 11ZM325 478Q282 478 282 519Q282 538 293 549T325 560Q345 560 355 549T366 519Q366 478 325 478ZM174 478Q132 478 132 519Q132 538 143 549T174 560Q194 560 204 549T215 519Q215 478 174 478Z" />
<glyph unicode="&#xf7;" horiz-adv-x="386" d="M34 172Q31 172 30 182T30 201T33 211H364Q367 211 368 202T368 182T364 172H34ZM198 -10Q178 -10 167 1T155 32Q155 51 166 62T198 73Q218 73 229 62T240 32Q240 -10 198 -10ZM197 318Q177 318 166 329T154 360Q154
379 165 390T197 401Q217 401 228 390T239 360Q239 318 197 318Z" />
<glyph unicode="&#xf8;" horiz-adv-x="408" d="M13 -15Q10 -18 3 -11T-1 0L386 399Q388 401 396 396T401 386L13 -15ZM154 -14Q106 -14 75 14T33 89T33 193Q44 252 75 298T150 372T243 399Q295 399 326 371T368 296T367 193Q355 130 322 83T244 11T154 -14ZM189
11Q230 11 264 47T311 149Q318 186 316 225T302 299T268 354T214 375Q172 375 137 338T89 236Q81 197 84 158T99 86T134 32T189 11Z" />
<glyph unicode="&#xf9;" horiz-adv-x="465" d="M132 -13Q89 -13 74 18T73 119L109 297Q115 328 110 341T93 355Q82 355 65 343T27 309Q23 305 19 309T19 317Q52 355 79 375T132 395Q156 395 163 373T160 297L128 138Q115 80 125 53T164 26Q197 26 232 67T298 187T350
379L363 378Q343 261 308 173T227 36T132 -13ZM327 -9Q302 -9 296 12T299 87L350 379Q353 394 382 394Q397 394 401 392T406 388Q406 384 401 361T391 312L350 89Q340 30 366 30Q378 30 396 42T436 76Q439 80 443 76T444 68Q409 29 382 10T327 -9ZM268 475L226
727Q225 731 233 731T253 730T273 723T282 716L277 476Q277 474 273 473T268 475Z" />
<glyph unicode="&#xfa;" horiz-adv-x="465" d="M132 -13Q89 -13 74 18T73 119L109 297Q115 328 110 341T93 355Q82 355 65 343T27 309Q23 305 19 309T19 317Q52 355 79 375T132 395Q156 395 163 373T160 297L128 138Q115 80 125 53T164 26Q197 26 232 67T298 187T350
379L363 378Q343 261 308 173T227 36T132 -13ZM327 -9Q302 -9 296 12T299 87L350 379Q353 394 382 394Q397 394 401 392T406 388Q406 384 401 361T391 312L350 89Q340 30 366 30Q378 30 396 42T436 76Q439 80 443 76T444 68Q409 29 382 10T327 -9ZM257 473Q256
470 251 472T247 476L340 716Q342 719 352 723T375 729T397 731T404 727L257 473Z" />
<glyph unicode="&#xfb;" horiz-adv-x="465" d="M132 -13Q89 -13 74 18T73 119L109 297Q115 328 110 341T93 355Q82 355 65 343T27 309Q23 305 19 309T19 317Q52 355 79 375T132 395Q156 395 163 373T160 297L128 138Q115 80 125 53T164 26Q197 26 232 67T298 187T350
379L363 378Q343 261 308 173T227 36T132 -13ZM327 -9Q302 -9 296 12T299 87L350 379Q353 394 382 394Q397 394 401 392T406 388Q406 384 401 361T391 312L350 89Q340 30 366 30Q378 30 396 42T436 76Q439 80 443 76T444 68Q409 29 382 10T327 -9ZM312 727L329
478Q329 475 323 475T317 477L286 631L198 474Q197 472 192 473T188 478L293 727Q295 732 303 732T312 727Z" />
<glyph unicode="&#xfc;" horiz-adv-x="465" d="M132 -13Q89 -13 74 18T73 119L109 297Q115 328 110 341T93 355Q82 355 65 343T27 309Q23 305 19 309T19 317Q52 355 79 375T132 395Q156 395 163 373T160 297L128 138Q115 80 125 53T164 26Q197 26 232 67T298 187T350
379L363 378Q343 261 308 173T227 36T132 -13ZM327 -9Q302 -9 296 12T299 87L350 379Q353 394 382 394Q397 394 401 392T406 388Q406 384 401 361T391 312L350 89Q340 30 366 30Q378 30 396 42T436 76Q439 80 443 76T444 68Q409 29 382 10T327 -9ZM349 478Q306
478 306 519Q306 538 317 549T349 560Q369 560 379 549T390 519Q390 478 349 478ZM198 478Q156 478 156 519Q156 538 167 549T198 560Q218 560 228 549T239 519Q239 478 198 478Z" />
<glyph unicode="&#xfd;" horiz-adv-x="443" d="M-18 -281Q-36 -281 -48 -272T-58 -239Q-51 -213 -18 -213Q3 -213 23 -212T63 -206T101 -188Q123 -173 152 -137T213 -53T274 45T323 139T351 211Q358 240 356 264T348 306T337 339T332 363Q332 378 342 387T368
396Q389 396 397 381T406 341Q406 305 390 255T347 145T284 27T209 -88T128 -187T50 -255T-18 -281ZM182 -113Q188 108 158 229T69 351Q56 351 43 343T19 314Q17 310 12 311T7 317Q26 355 49 375T100 395Q135 395 162 361T206 268T230 131T232 -35L182 -113ZM239
473Q238 470 233 472T229 476L322 716Q324 719 334 723T357 729T378 731T385 727L239 473Z" />
<glyph unicode="&#xfe;" horiz-adv-x="409" d="M-57 -275Q-61 -276 -62 -270T-59 -263Q-37 -259 -27 -253T-10 -232T2 -185L148 619Q155 655 141 664T80 651Q76 649 74 655T75 662L205 725Q209 727 213 723T216 717L55 -178Q48 -219 59 -231T113 -238Q117 -236
118 -242T115 -249L-57 -275ZM145 -1Q108 -1 90 2T57 8L67 60Q86 47 111 37T173 27Q218 27 248 50T296 117T325 220Q330 255 325 286T302 337T248 357Q202 357 153 330T42 256Q39 254 36 258T35 264Q95 317 161 355T294 393Q347 393 372 353T387 251Q376 192 350
145T288 66T215 16T145 -1Z" />
<glyph unicode="&#xff;" horiz-adv-x="443" d="M-18 -281Q-36 -281 -48 -272T-58 -239Q-51 -213 -18 -213Q3 -213 23 -212T63 -206T101 -188Q123 -173 152 -137T213 -53T274 45T323 139T351 211Q358 240 356 264T348 306T337 339T332 363Q332 378 342 387T368
396Q389 396 397 381T406 341Q406 305 390 255T347 145T284 27T209 -88T128 -187T50 -255T-18 -281ZM182 -113Q188 108 158 229T69 351Q56 351 43 343T19 314Q17 310 12 311T7 317Q26 355 49 375T100 395Q135 395 162 361T206 268T230 131T232 -35L182 -113ZM331
478Q288 478 288 519Q288 538 299 549T331 560Q351 560 361 549T372 519Q372 478 331 478ZM180 478Q138 478 138 519Q138 538 149 549T180 560Q200 560 210 549T221 519Q221 478 180 478Z" />
<glyph unicode="&#x2013;" horiz-adv-x="515" d="M34 170Q31 170 30 180T30 199T33 209H481Q484 209 485 200T485 180T481 170H34Z" />
<glyph unicode="&#x2014;" horiz-adv-x="830" d="M34 170Q31 170 30 180T30 199T33 209H796Q799 209 800 200T800 180T796 170H34Z" />
<glyph unicode="&#x2018;" horiz-adv-x="184" d="M204 633Q208 636 211 631T211 624Q177 593 158 560T133 490Q128 464 132 452T143 435L115 425Q114 443 123 452T149 462Q169 462 179 450T188 421Q188 404 176 394T141 383Q113 383 98 405T90 472Q99 519 129
558T204 633Z" />
<glyph unicode="&#x2019;" horiz-adv-x="184" d="M92 384Q88 381 85 386T85 393Q119 425 138 458T163 527Q168 554 164 566T153 583L181 592Q182 574 173 565T147 555Q127 555 117 567T107 596Q108 614 120 624T155 634Q183 634 198 612T206 545Q198 498 168 459T92 384Z" />
<glyph unicode="&#x201a;" horiz-adv-x="175" d="M-11 -179Q-15 -182 -18 -177T-18 -170Q16 -138 35 -105T60 -36Q65 -9 61 3T50 20L78 29Q79 11 70 2T44 -8Q24 -8 14 4T4 33Q5 51 17 61T52 71Q80 71 95 49T103 -18Q95 -65 65 -104T-11 -179Z" />
<glyph unicode="&#x201c;" horiz-adv-x="329" d="M200 633Q204 636 207 631T207 624Q174 593 155 560T129 490Q124 464 128 452T140 435L111 425Q110 443 120 452T146 462Q166 462 176 450T185 421Q184 404 172 394T138 383Q110 383 95 405T87 472Q95 519 125
558T200 633ZM345 633Q349 636 352 631T352 624Q318 593 299 560T274 490Q269 464 273 452T284 435L256 425Q255 443 264 452T290 462Q310 462 320 450T330 421Q329 404 317 394T282 383Q254 383 239 405T231 472Q240 519 270 558T345 633Z" />
<glyph unicode="&#x201d;" horiz-adv-x="329" d="M240 384Q236 381 233 386T233 393Q267 425 286 458T311 527Q316 554 312 566T301 583L329 592Q330 574 321 565T295 555Q275 555 265 567T255 596Q256 614 268 624T303 634Q331 634 346 612T354 545Q346 498 316
459T240 384ZM95 384Q91 381 88 386T88 393Q122 425 141 458T167 527Q171 554 167 566T156 583L184 592Q185 574 176 565T150 555Q130 555 120 567T111 596Q112 614 124 624T158 634Q186 634 201 612T209 545Q202 498 172 459T95 384Z" />
<glyph unicode="&#x201e;" horiz-adv-x="329" d="M137 -179Q133 -182 130 -177T130 -170Q164 -138 183 -105T208 -36Q213 -9 209 3T198 20L226 29Q227 11 218 2T192 -8Q172 -8 162 4T152 33Q153 51 165 61T200 71Q228 71 243 49T251 -18Q243 -65 213 -104T137
-179ZM-8 -179Q-12 -182 -15 -177T-15 -170Q19 -138 38 -105T64 -36Q68 -9 64 3T53 20L81 29Q82 11 73 2T47 -8Q27 -8 17 4T8 33Q9 51 21 61T55 71Q83 71 98 49T106 -18Q99 -65 69 -104T-8 -179Z" />
<glyph unicode="&#x2022;" horiz-adv-x="303" d="M161 151Q135 151 113 163T78 198T64 248Q64 274 77 296T113 331T161 344Q188 344 209 331T244 296T258 248Q258 221 245 199T210 164T161 151Z" />
<glyph unicode="&#x2039;" horiz-adv-x="277" d="M242 364Q244 366 248 362T250 356L112 201L196 47Q198 44 194 41T188 40L53 189Q49 194 49 200T56 212L242 364Z" />
<glyph unicode="&#x203a;" horiz-adv-x="276" d="M37 37Q35 36 31 39T29 46L167 200L83 354Q82 357 86 360T91 361L227 212Q231 208 231 201T224 189L37 37Z" />
</font>
</defs>
</svg>
