<?xml version="1.0" standalone="no"?>
<!DOCTYPE svg PUBLIC "-//W3C//DTD SVG 1.1//EN" "http://www.w3.org/Graphics/SVG/1.1/DTD/svg11.dtd">
<svg xmlns="http://www.w3.org/2000/svg">
<defs >
<font id="Courgette" horiz-adv-x="1107" ><font-face
    font-family="Courgette"
    units-per-em="2048"
    panose-1="2 0 6 3 7 4 0 6 0 4"
    ascent="2000"
    descent="-560"
    alphabetic="0" />
<glyph unicode=" " glyph-name="space" horiz-adv-x="629" />
<glyph unicode="!" glyph-name="exclam" horiz-adv-x="855" d="M377 386Q328 386 328 525Q328 717 429 1018Q519 1287 633 1444Q695 1529 756 1546Q788 1554 815 1554T864 1550T901 1538Q936 1522 936 1497T916 1444T852 1348T749 1170Q607 906 472 546Q458 510
449 481T429 430Q408 386 377 386ZM188 56T175 84T162 150T176 217T213 265Q252 297 295 297T369 291T426 272Q489 240 489 180Q489 105 440 49Q394 -3 345 -8T264 -1T211 34Z" />
<glyph unicode="&quot;" glyph-name="quotedbl" horiz-adv-x="895" d="M755 1156Q742 1156 733 1167T716 1198Q703 1239 703 1291T710 1392T732 1489Q781 1650 870 1678Q900 1687 928 1687T978 1683T1018 1670Q1056 1652 1056 1622Q1056 1598 1042 1584T1013 1552T975
1504Q924 1435 887 1361L834 1256Q787 1156 755 1156ZM335 1156Q322 1156 313 1167T296 1198Q283 1239 283 1291T290 1392T312 1489Q361 1650 450 1678Q480 1687 508 1687T558 1683T598 1670Q636 1652 636 1622Q636 1598 622 1584T593 1552T555 1504Q504 1435 467
1361L414 1256Q367 1156 335 1156Z" />
<glyph unicode="#" glyph-name="numbersign" horiz-adv-x="1486" d="M736 -10Q703 -10 703 20Q703 41 716 73T744 148L830 419H587L476 106Q447 30 390 0Q369 -10 336 -10T303 20Q303 41 316 73T344 148L430 419H166Q108 419 108 462Q108 503 140 536Q197 596
239 594H486L558 819H296Q238 819 238 862Q238 903 270 936Q327 996 369 994H614L757 1442Q780 1500 821 1527T915 1555T968 1512Q968 1486 954 1446L791 994H1014L1157 1442Q1180 1500 1221 1527T1315 1555T1368 1512Q1368 1486 1354 1446L1191 994H1415Q1460
994 1460 954Q1460 911 1429 879Q1372 819 1322 819H1129L1049 594H1285Q1330 594 1330 554Q1330 511 1299 479Q1242 419 1192 419H987L876 106Q832 -10 736 -10ZM886 594L958 819H729L649 594H886Z" />
<glyph unicode="$" glyph-name="dollar" horiz-adv-x="1118" d="M1034 1804Q1075 1831 1130 1831T1186 1795Q1186 1775 1162 1740Q1101 1651 1030 1509Q1192 1412 1192 1189Q1192 1060 1119 946Q1029 805 912 805Q861 805 832 826Q784 862 784 889T805 937L861
990Q1003 1127 1008 1253Q1010 1331 970 1374T858 1417T727 1385T624 1297Q531 1180 531 1018Q531 924 604 805Q636 754 672 703T740 597Q814 469 814 373T782 212T696 99Q584 -1 430 -9Q363 -154 350 -203T319 -262T279 -271T238 -263T215 -242T216 -202T228 -142Q242
-82 276 13Q157 59 124 176Q116 207 116 245T131 320T167 384Q206 431 242 440Q321 461 321 389L312 312Q312 191 394 147Q421 132 460 132T530 145T582 181Q623 226 623 284T599 390T539 485T460 581T380 689Q296 823 296 969Q296 1116 374 1256Q490 1464 702
1534Q770 1556 820 1556T894 1553L926 1640Q971 1764 1034 1804Z" />
<glyph unicode="%" glyph-name="percent" horiz-adv-x="1795" d="M404 52T365 24T274 -4T222 31Q222 60 249 98T291 155T352 232Q1286 1384 1339 1445Q1423 1558 1528 1558Q1577 1558 1577 1526Q1577 1482 1481 1356L1296 1126L686 388L449 110Q404 52 365 24ZM587
841T533 821T420 800T313 816T228 866Q154 937 154 1076Q154 1244 283 1396Q418 1555 594 1555Q771 1555 829 1401Q849 1348 849 1285T834 1166T790 1057T723 958T635 876ZM416 910Q468 910 526 985Q611 1093 644 1250Q654 1298 654 1329T652 1379T642 1414Q625
1445 594 1445T537 1427T485 1376T433 1301T388 1210Q346 1104 346 1007T416 910ZM974 142Q954 194 954 257T969 376T1014 486T1083 586T1172 668Q1278 745 1394 745Q1571 745 1629 591Q1649 538 1649 475T1634 356T1590 247T1523 148T1435 66Q1331 -10 1219 -10Q1030
-10 974 142ZM1216 100Q1268 100 1326 175Q1411 283 1444 440Q1454 488 1454 519T1452 569T1442 604Q1425 635 1394 635T1337 617T1285 566T1233 491T1188 400Q1146 294 1146 197T1216 100Z" />
<glyph unicode="&amp;" glyph-name="ampersand" horiz-adv-x="1154" d="M1011 1313Q1011 1417 870 1417Q708 1417 564 1262Q479 1170 444 1062Q426 1010 426 968T435 900T460 856Q491 819 532 828Q581 848 618 848T678 839T716 815Q744 787 744 761Q744 710 710
708Q667 705 607 679T490 613T390 521Q290 407 290 289Q290 166 387 126Q419 112 466 112T557 132T635 184Q706 252 708 327Q710 422 630 446Q609 452 597 459T589 484T612 518Q654 564 705 564Q728 564 774 554Q860 535 899 535Q981 535 1028 546T1106 566Q1159
581 1159 541T1137 468T1078 409Q998 356 882 358Q885 343 885 328Q885 272 848 212T748 102Q605 -10 421 -10Q239 -10 144 92Q69 173 69 282Q69 500 249 669Q310 727 365 749Q258 794 222 924Q211 966 211 1022T233 1143T295 1269T392 1381T518 1472Q669 1556
835 1556Q1003 1556 1092 1456Q1165 1375 1165 1259Q1165 1137 1062 1017Q962 899 870 899Q818 899 776 943Q738 983 738 1014T755 1054Q930 1149 989 1243Q1011 1278 1011 1313Z" />
<glyph unicode="&apos;" glyph-name="quotesingle" horiz-adv-x="475" d="M335 1156Q322 1156 313 1167T296 1198Q283 1239 283 1291T290 1392T312 1489Q361 1650 450 1678Q480 1687 508 1687T558 1683T598 1670Q636 1652 636 1622Q636 1598 622 1584T593 1552T555
1504Q504 1435 467 1361L414 1256Q367 1156 335 1156Z" />
<glyph unicode="(" glyph-name="parenleft" horiz-adv-x="980" d="M1194 1823Q1236 1823 1236 1791Q1236 1771 1192 1736L1110 1673Q1073 1645 1032 1610Q888 1471 800 1343T652 1101T545 854Q444 562 444 246Q444 8 515 -180Q580 -350 671 -411Q690 -423 690
-437T684 -463T668 -484Q644 -504 609 -504T528 -475T438 -393T355 -268T287 -108Q224 79 224 258T255 591T340 884T463 1145T610 1369Q753 1558 916 1687Q1090 1823 1194 1823Z" />
<glyph unicode=")" glyph-name="parenright" horiz-adv-x="980" d="M-161 -504Q-203 -504 -203 -472Q-203 -452 -158 -417L-77 -354Q-40 -326 1 -291Q225 -79 381 218Q588 611 588 1073Q588 1309 518 1498Q455 1666 362 1730Q343 1742 343 1756T349 1782T366 1803Q389
1823 424 1823T505 1794T595 1712T678 1587T746 1428Q809 1240 809 1061T778 728T693 435T570 174T423 -50Q280 -239 117 -368Q-57 -504 -161 -504Z" />
<glyph unicode="*" glyph-name="asterisk" horiz-adv-x="1061" d="M974 1139Q830 1146 699 1072L750 1024Q866 911 866 864Q866 807 795 779Q777 772 757 772T727 788L666 892Q631 951 590 1011Q538 983 492 944L410 870Q374 836 347 816T300 808T279 848T295
903T340 962Q394 1022 476 1082Q347 1169 316 1263Q291 1341 358 1386Q392 1410 399 1391T423 1346T460 1294Q510 1228 555 1183V1202Q555 1358 604 1474Q617 1507 634 1523Q670 1557 744 1557Q820 1557 850 1522Q859 1510 859 1492T844 1456L810 1414Q727 1309
656 1165L708 1203Q810 1277 913 1299Q958 1308 992 1270Q1021 1237 1021 1187T974 1139Z" />
<glyph unicode="+" glyph-name="plus" horiz-adv-x="1265" d="M618 244Q571 244 571 300V684H211Q142 684 142 733Q142 767 164 790Q206 831 244 829H571V1156Q569 1194 593 1218Q633 1258 667 1258Q716 1258 716 1189V829H1100Q1156 829 1156 782Q1156 747 1134
724Q1093 684 1047 684H716V353Q716 307 692 284Q653 244 618 244Z" />
<glyph unicode="," glyph-name="comma" horiz-adv-x="641" d="M132 -258T94 -274T27 -291T-3 -269T18 -224L66 -174Q158 -80 158 -7Q158 56 117 124Q103 148 94 166T97 216T149 271T231 294T302 282T348 248Q385 205 385 141T367 25T318 -73T250 -160T172 -229Z" />
<glyph unicode="-" glyph-name="hyphen" horiz-adv-x="926" d="M228 540Q171 540 171 584Q171 624 200 659Q252 722 281 720H743Q787 720 787 680Q787 638 758 603Q707 540 670 540H228Z" />
<glyph unicode="." glyph-name="period" horiz-adv-x="553" d="M75 56T62 84T49 150T63 217T100 265Q139 297 182 297T256 291T314 272Q376 240 376 180Q376 105 327 49Q281 -3 232 -8T151 -1T98 34Z" />
<glyph unicode="/" glyph-name="slash" horiz-adv-x="831" d="M21 -297T-17 -322T-107 -348T-160 -312Q-160 -282 -136 -245L-57 -110L805 1436L902 1604Q943 1675 970 1719Q1036 1823 1134 1823Q1182 1823 1182 1784Q1182 1735 1107 1621Q1090 1595 1055 1536Q86
-188 54 -242Z" />
<glyph unicode="0" glyph-name="zero" horiz-adv-x="1273" d="M451 -10Q296 -10 216 86T135 369Q135 369 135 402Q135 523 176 681T274 963T406 1196T572 1384Q766 1555 973 1555Q1192 1555 1257 1341Q1279 1269 1279 1204T1273 1056T1231 838T1139 580T1008 348T844
160Q653 -10 451 -10ZM1080 1258Q1080 1425 953 1425Q833 1425 688 1242Q553 1070 452 814Q347 548 331 321Q325 227 358 174T448 120T557 149T659 231T760 353T854 506T937 680T1006 864Q1080 1097 1080 1238V1258Z" />
<glyph unicode="1" glyph-name="one" horiz-adv-x="831" d="M229 16Q197 -9 170 -9T142 18Q142 38 154 66Q316 443 369 581Q568 1120 600 1279Q520 1194 390 1170Q358 1164 336 1164T299 1171T273 1189Q254 1210 254 1235T270 1274T322 1305T394 1346T464 1399L532
1456Q648 1558 683 1558T746 1546T793 1515Q838 1472 836 1423T818 1296T773 1127T706 930T622 716Q381 135 229 16Z" />
<glyph unicode="2" glyph-name="two" horiz-adv-x="1074" d="M885 252Q915 252 915 195T898 102T851 41Q790 -10 689 -10Q619 -10 530 18T394 60T307 73T243 65T198 45T158 20Q118 -8 104 -8T75 0T49 21Q21 51 21 68T39 129T114 250T238 403T382 553Q604 771 670
841T788 980Q899 1129 899 1249Q899 1376 808 1413Q780 1424 736 1424T646 1399T570 1334Q506 1255 506 1163Q506 1079 554 1059Q574 1050 574 1033Q574 997 539 967Q474 911 428 911T354 928T307 973Q269 1029 269 1094T285 1212T331 1313T404 1407T500 1484Q617
1556 729 1556T907 1526T1014 1448Q1090 1356 1090 1214Q1090 981 864 743Q745 618 623 520L433 367Q278 239 219 157Q296 191 346 194T427 197T494 192Q586 184 641 184T736 194T802 218T845 241T885 252Z" />
<glyph unicode="3" glyph-name="three" horiz-adv-x="1100" d="M464 595Q425 595 425 625Q425 695 474 744Q490 760 536 773T656 830T790 936Q925 1077 925 1257Q925 1335 886 1379T787 1424T678 1399T591 1334Q512 1252 512 1163Q512 1079 560 1059Q580 1050
580 1033Q580 997 545 967Q480 911 435 911T362 925T314 964Q275 1016 275 1083T293 1203T343 1306T422 1402T526 1482Q648 1556 764 1556T946 1526T1052 1448Q1126 1359 1126 1214Q1126 978 910 773Q830 697 756 660Q842 634 874 518Q884 482 884 436T867 335T819
231T743 137T642 60Q521 -10 380 -10Q235 -10 154 66Q84 131 84 224Q84 297 130 358Q185 428 273 428Q322 428 343 407Q380 370 362 349T330 310T307 274Q289 240 289 212T294 168T310 138Q336 109 390 109T495 143T586 230Q669 343 669 473T560 604L464 595Z"
/>
<glyph unicode="4" glyph-name="four" horiz-adv-x="1084" d="M1038 1016Q1038 907 904 635Q943 638 963 638T1001 627T1034 598Q1068 558 1068 535T1058 504T1020 500Q972 507 926 507H866Q853 507 839 506Q723 293 665 196Q542 -9 460 -9Q419 -9 419 28Q419
67 455 126Q496 202 540 297L627 491Q443 475 387 475Q280 475 243 486T185 516T148 560Q115 613 116 645T140 722L272 966Q431 1271 453 1520Q457 1556 509 1556Q565 1556 601 1528Q669 1474 669 1416T651 1294T603 1161T534 1018T454 874Q345 700 296 629Q335
607 424 607Q555 607 679 616L724 732Q790 900 804 975Q827 1059 836 1102T862 1146Q926 1146 983 1103Q1038 1061 1038 1016Z" />
<glyph unicode="5" glyph-name="five" d="M484 972Q593 1033 674 1033T813 1015T914 956Q1007 869 1007 694Q1007 535 923 370Q839 206 699 102Q548 -10 378 -10Q236 -10 148 74Q69 150 69 263Q69 342 121 404Q174 467 248 467Q298 467 317 454Q350 430 335 406L308
362Q264 294 264 233Q264 109 383 109Q482 109 578 209Q665 300 722 439Q777 575 777 694Q777 843 676 871Q647 879 615 879T549 862T482 819T420 763L366 709Q351 697 333 697Q297 697 274 724Q232 772 236 807Q238 833 274 909Q402 1172 436 1259T481 1386T500
1448T522 1490Q550 1535 581 1535T645 1528T721 1511Q836 1487 907 1487T1012 1492T1072 1505T1117 1522L1152 1538Q1187 1555 1210 1555Q1240 1553 1240 1487Q1240 1436 1213 1396T1170 1339T1132 1312Q1093 1293 1038 1293T940 1299T852 1318Q751 1342 662 1380Q640
1263 544 1080L484 972Z" />
<glyph unicode="6" glyph-name="six" horiz-adv-x="1136" d="M175 195T157 273T139 466T171 725T259 993T390 1221T551 1399Q732 1555 914 1555Q1042 1555 1112 1478Q1174 1410 1174 1309T1120 1127Q1068 1047 991 1035Q930 1026 888 1064Q851 1098 851 1143Q851
1178 876 1190Q1014 1258 1014 1349Q1014 1381 994 1404T925 1427T824 1401T722 1328T623 1218T534 1080Q449 930 406 759Q501 874 644 912Q693 925 748 925T854 904T946 840Q1032 746 1032 582Q1032 414 942 272Q863 145 730 66Q604 -10 496 -10T322 29T216 132ZM415
572T387 479T358 320T364 226T384 170Q415 110 478 110Q555 110 636 188Q763 307 808 500Q822 562 822 611T815 691T792 745Q759 795 696 795T572 754T463 643Z" />
<glyph unicode="7" glyph-name="seven" horiz-adv-x="970" d="M226 90Q213 125 221 205T277 404T392 641T540 870L695 1080L834 1257Q898 1337 935 1392Q749 1311 570 1274Q514 1263 476 1263T407 1269T352 1288Q307 1311 275 1360Q251 1391 251 1457Q251 1533
283 1535Q305 1536 330 1526T391 1502Q485 1467 574 1467T723 1477T832 1501L918 1524Q956 1535 982 1535T1035 1519T1082 1480Q1130 1427 1117 1393T1068 1304T982 1180Q811 945 751 855T633 667T530 469Q433 249 429 70Q429 28 422 15Q399 -29 317 0Q253 24 226
90Z" />
<glyph unicode="8" glyph-name="eight" horiz-adv-x="1074" d="M734 689Q846 504 846 362Q846 197 718 90Q596 -10 430 -10Q256 -10 166 96Q98 177 98 282Q98 472 313 610Q381 653 458 682Q318 882 318 1079Q318 1280 450 1419Q577 1554 764 1556Q937 1558 1036
1454Q1128 1359 1128 1208Q1128 873 737 691L734 689ZM661 803Q907 933 907 1182Q907 1315 848 1378Q794 1436 709 1427Q631 1421 574 1354Q512 1282 512 1182Q512 1089 545 1014T605 894L661 803ZM535 579Q304 500 304 302Q304 167 407 118Q442 102 482 102T556
116T616 156Q675 213 675 290Q675 359 645 415T588 506L535 579Z" />
<glyph unicode="9" glyph-name="nine" horiz-adv-x="1136" d="M131 70T117 107T102 182T115 251T150 308Q200 362 269 362Q317 362 335 343Q366 311 349 288Q305 227 303 186T307 130T324 106Q343 89 371 89Q507 89 632 250Q757 411 831 681Q766 620 680 583T523
546T403 562T313 618Q223 704 223 874Q223 1164 410 1364Q524 1486 666 1532Q736 1555 815 1555T957 1524T1058 1440Q1132 1343 1132 1188Q1132 1179 1132 1170T1131 1152Q1101 654 874 315Q730 100 544 18Q450 -23 368 -23T239 -6T162 41ZM790 1415Q708 1415 624
1334Q501 1216 457 1004Q443 937 443 885T449 800T470 742Q499 686 552 686T650 707T735 766T810 856T869 972Q922 1104 922 1259T790 1415Z" />
<glyph unicode=":" glyph-name="colon" horiz-adv-x="641" d="M390 642Q357 639 326 651T272 686Q224 733 224 786T238 869T275 917Q314 949 357 949T431 943T488 924Q551 892 551 832Q551 757 502 701Q457 649 390 642ZM90 56T77 84T64 150T78 217T115 265Q154
297 197 297T271 291T328 272Q391 240 391 180Q391 105 342 49Q296 -3 247 -8T166 -1T113 34Z" />
<glyph unicode=";" glyph-name="semicolon" horiz-adv-x="641" d="M396 642Q362 639 331 651T278 686Q229 733 229 786T243 869T280 917Q319 949 362 949T436 943T494 924Q556 892 556 832Q556 757 507 701Q462 649 396 642ZM132 -258T94 -274T27 -291T-3 -269T18
-224L66 -174Q158 -80 158 -7Q158 56 117 124Q103 148 94 166T97 216T149 271T231 294T302 282T348 248Q385 205 385 141T367 25T318 -73T250 -160T172 -229Z" />
<glyph unicode="&lt;" glyph-name="less" horiz-adv-x="1305" d="M1118 1177Q1162 1177 1162 1119Q1162 1055 1107 1023L411 618L1126 203Q1161 183 1161 162T1154 128T1136 106Q1111 85 1079 85T1023 99L216 544Q135 592 135 619T196 678L1083 1167Q1102 1177
1118 1177Z" />
<glyph unicode="=" glyph-name="equal" horiz-adv-x="1265" d="M1126 1032Q1182 1032 1182 985Q1182 950 1160 928Q1119 887 1073 887H237Q168 887 168 936Q168 970 190 992Q232 1034 270 1032H1126ZM1106 632Q1162 632 1162 585Q1162 550 1140 528Q1099 487 1053
487H217Q148 487 148 536Q148 570 170 592Q212 634 250 632H1106Z" />
<glyph unicode="&gt;" glyph-name="greater" horiz-adv-x="1242" d="M193 88Q149 88 149 146Q149 210 204 242L899 647L185 1062Q150 1082 150 1103T157 1137T176 1160Q200 1180 232 1180T288 1166L1095 721Q1176 673 1176 646T1115 587L228 98Q209 88 193 88Z" />
<glyph unicode="?" glyph-name="question" horiz-adv-x="1058" d="M435 414T421 401T388 388T352 417T335 506T361 625T429 735T525 834L745 1011Q935 1162 935 1296Q935 1364 898 1401T809 1438T722 1420T664 1373Q619 1318 619 1256Q619 1214 633 1184T648 1143T638
1114T609 1080Q564 1044 521 1044T457 1058T422 1096Q397 1138 397 1199T424 1324T502 1440Q616 1555 797 1555Q934 1555 1022 1470Q1108 1385 1108 1255Q1108 1028 902 870L777 776Q607 651 523 546Q500 515 483 487T450 436ZM251 297T294 297T368 291T426 272Q488
240 488 180Q488 105 439 49Q387 -10 322 -10H315Q251 -10 204 38Q161 84 161 136Q161 223 206 260Z" />
<glyph unicode="@" glyph-name="at" horiz-adv-x="1854" d="M1219 311Q1219 264 1268 264Q1333 264 1417 324Q1562 429 1622 618Q1649 702 1649 745V797Q1649 1003 1511 1124Q1376 1243 1140 1243Q874 1243 674 1120Q399 952 321 604Q297 497 297 389T327 186T421
17Q560 -142 826 -142Q996 -142 1178 -77Q1215 -63 1215 -96Q1215 -181 998 -236Q883 -266 760 -266T512 -227T295 -108Q101 60 101 361Q101 648 254 892Q399 1122 640 1258Q883 1394 1152 1394Q1477 1394 1652 1234Q1816 1084 1816 823V802Q1816 628 1714 458Q1583
236 1366 163Q1297 140 1246 140T1162 149T1106 178Q1054 220 1054 302Q1054 333 1063 373Q957 207 838 150Q795 130 752 130T670 147T602 197Q539 267 539 365T560 541T619 685T705 808T810 902Q926 984 1040 984T1213 867Q1263 970 1306 981Q1318 984 1334 984T1374
976T1414 954Q1453 923 1434 886Q1308 629 1277 542Q1219 379 1219 311ZM1149 725Q1126 864 1029 864Q968 864 901 790Q799 676 762 496Q750 438 750 381Q750 269 816 269Q942 269 1108 629Q1131 680 1149 725ZM1103 512Q1103 512 1103 511V512Z" />
<glyph unicode="A" glyph-name="A" horiz-adv-x="1261" d="M744 227Q744 362 821 641Q580 635 452 627Q413 556 381 492L319 369Q196 127 98 50Q23 -10 -61 -10Q-125 -10 -158 32Q-170 49 -172 64T-165 85Q-50 128 22 216Q85 295 148 409L261 611L198 602Q138
591 138 621Q138 651 174 678Q237 725 297 740L340 750Q504 1021 590 1129T748 1309T899 1436Q1072 1555 1240 1555Q1291 1555 1309 1534Q1339 1501 1328 1464T1292 1356Q1132 920 1097 816Q1113 817 1126 817H1148Q1260 817 1268 795Q1270 788 1270 770T1259 727T1221
686Q1168 650 1043 644Q975 409 966 319T971 198T1015 166T1062 171T1094 184L1120 196Q1130 202 1140 202T1158 189T1165 153T1147 101T1098 46Q1028 -10 940 -10Q805 -10 760 110Q744 152 744 185V227ZM544 785Q722 808 874 812Q902 898 934 982L996 1142Q1028
1218 1059 1286L1117 1409Q909 1355 706 1050Q663 986 622 918L544 785Z" />
<glyph unicode="B" glyph-name="B" horiz-adv-x="1130" d="M112 148Q91 204 93 283T115 475T178 715Q275 1012 442 1240Q471 1279 502 1279T564 1265T618 1232Q676 1184 656 1154Q515 928 425 746Q652 762 825 890Q1014 1029 1014 1228Q1014 1363 880 1400Q839
1411 783 1411T666 1400T549 1368Q438 1327 346 1260Q320 1241 298 1241T250 1252T204 1281Q126 1347 226 1418Q371 1520 654 1550Q707 1555 795 1555T976 1526T1125 1448Q1228 1356 1228 1192Q1228 1044 1111 900Q1004 767 835 684Q916 648 956 584T995 445T966
308T892 195T784 106T654 42Q515 -10 372 -10Q171 -10 112 148ZM354 584Q278 395 274 255Q272 187 307 151T405 114T533 141T654 214Q780 320 784 454Q787 576 674 620Q640 633 601 637Q554 635 470 613T354 584Z" />
<glyph unicode="C" glyph-name="C" horiz-adv-x="1093" d="M98 420L99 449Q110 748 250 1014Q379 1257 575 1407Q769 1555 953 1555Q1093 1555 1174 1458Q1243 1374 1243 1252Q1243 1106 1136 964Q1074 882 1004 846Q971 828 943 828T890 840T848 870Q811 909
811 940T827 983Q991 1101 1050 1226Q1073 1274 1073 1320Q1073 1417 981 1417Q837 1417 684 1260Q541 1115 444 896Q343 671 337 483L336 445Q336 220 431 150Q465 125 512 125T602 137T686 170Q754 205 860 291Q892 316 913 284Q931 258 931 224Q931 167 916
147T863 98T771 46Q645 -10 524 -10T329 19T204 104Q98 220 98 420Z" />
<glyph unicode="D" glyph-name="D" horiz-adv-x="1291" d="M83 236Q92 301 121 415T197 660Q302 958 446 1191Q466 1223 497 1228Q541 1234 574 1234T634 1227T676 1207Q706 1182 686 1154Q505 881 370 488Q319 338 309 280T295 200T290 162Q290 129 332 129T426
148T538 203T662 290T789 404T906 542T1002 698Q1093 878 1093 1053Q1093 1293 898 1372Q830 1399 757 1399T632 1390T534 1363Q439 1329 374 1272Q357 1262 333 1262T282 1276T232 1311Q182 1360 192 1405Q203 1469 384 1516Q536 1555 690 1555T967 1513T1168
1400Q1312 1266 1312 1041Q1312 743 1106 466Q917 209 656 76Q487 -10 345 -10Q234 -10 154 55Q68 124 83 236Z" />
<glyph unicode="E" glyph-name="E" horiz-adv-x="1044" d="M1043 1333Q1043 1417 943 1417Q752 1417 596 1240Q504 1136 467 1015Q449 956 449 911T459 840T486 796Q520 760 565 768Q614 788 651 788T711 779T748 755Q777 727 777 701Q777 650 743 648Q691 643
634 619T519 557T416 470Q313 360 313 249Q313 196 338 169Q380 122 438 122T551 144T652 199Q720 248 784 324Q816 362 840 362T876 334T889 273Q889 207 864 176T802 113T712 54Q587 -10 444 -10Q203 -10 114 148Q82 207 82 269T100 384T148 482T213 564T284
628Q353 682 398 689Q285 734 246 864Q234 906 234 966T257 1098T322 1237T422 1362T550 1463Q701 1555 868 1555Q1043 1555 1129 1468Q1198 1398 1198 1289Q1198 1165 1094 1038Q1031 962 981 935T902 906T849 912T806 938Q765 975 765 1005Q765 1042 791 1062L881
1126Q1043 1245 1043 1333Z" />
<glyph unicode="F" glyph-name="F" horiz-adv-x="1062" d="M957 655Q928 656 897 658T822 662Q728 664 618 654Q593 568 536 443T422 230Q302 44 178 0Q160 -7 142 -7T108 -1T83 16Q62 35 62 58T77 92Q219 195 369 611Q358 608 347 605T328 599T310 596T287 602T264
618Q242 638 242 657T259 692T303 724Q351 752 424 776L478 944Q573 1239 660 1353Q578 1360 539 1360Q421 1360 369 1327Q318 1294 298 1256T276 1202Q273 1174 258 1167T222 1159T177 1174T139 1214Q107 1263 114 1324T154 1430T234 1503Q319 1555 413 1555T592
1546T761 1524Q984 1494 1045 1494T1135 1501T1186 1522T1215 1540T1243 1545Q1273 1545 1269 1500T1247 1422T1200 1368Q1141 1325 1050 1325T829 1337Q796 1270 766 1161L674 831Q768 846 817 846T899 836T956 808Q1014 769 1013 712T957 655Z" />
<glyph unicode="G" glyph-name="G" horiz-adv-x="1225" d="M103 419L104 449Q115 748 256 1014Q382 1255 582 1407Q776 1555 960 1555Q1100 1555 1180 1458Q1250 1374 1250 1252Q1250 1106 1143 964Q1081 882 1012 846Q978 828 950 828T897 840T856 870Q818 909
818 940T834 983Q998 1101 1058 1226Q1080 1274 1080 1320Q1080 1417 988 1417Q842 1417 686 1252Q541 1099 440 868Q338 631 332 433Q322 222 432 150Q470 125 526 125T632 152T720 220Q798 310 800 407Q802 480 748 508Q726 519 701 525T659 539T650 571T680
620Q738 684 807 684Q830 684 876 674Q962 655 992 655T1039 656T1075 662Q1116 671 1152 684Q1211 704 1211 658T1192 570T1140 500Q1069 436 964 438Q975 373 918 270Q817 85 628 15Q561 -10 478 -10T324 19T204 104Q103 218 103 419Z" />
<glyph unicode="H" glyph-name="H" horiz-adv-x="1370" d="M1005 735Q882 746 765 746T521 731Q362 287 180 96Q113 25 41 0Q23 -7 5 -7T-28 -1T-52 16Q-73 36 -73 58T-58 92Q101 206 279 685Q271 683 264 681T247 676T223 682T198 706Q172 742 191 759Q226 790
325 818Q459 1233 464 1406Q423 1404 388 1384L312 1341Q281 1324 230 1368Q180 1410 186 1448Q193 1505 346 1542Q400 1555 431 1555T492 1554T548 1546Q648 1522 671 1460Q681 1432 681 1393T673 1300T650 1178Q618 1030 565 862Q783 888 1016 888H1059L1114
1052Q1206 1329 1227 1471Q1240 1555 1311 1555Q1357 1555 1387 1532Q1443 1491 1441 1444T1424 1337T1385 1205T1330 1048L1267 879L1291 877Q1306 875 1319 874T1343 868Q1364 860 1364 841T1353 800T1320 759Q1269 713 1202 711Q1080 390 1060 318T1040 219Q1040
165 1083 165Q1123 165 1148 178L1184 196Q1195 201 1205 201Q1226 201 1226 180Q1226 91 1123 31Q1055 -9 982 -9Q880 -9 840 82Q826 113 826 141Q826 206 846 272T890 408L1005 735Z" />
<glyph unicode="I" glyph-name="I" horiz-adv-x="671" d="M-8 92Q165 219 341 746Q443 1053 483 1300Q494 1369 494 1406Q453 1404 418 1384L343 1341Q312 1324 261 1368T213 1442T247 1492T316 1526Q398 1555 453 1555T551 1547T629 1518Q709 1472 711 1386Q715
1237 610 880Q444 315 220 86Q159 23 93 0Q75 -7 57 -7T23 -1T-2 16Q-23 35 -23 58T-8 92Z" />
<glyph unicode="J" glyph-name="J" horiz-adv-x="805" d="M-351 -512Q-351 -482 -312 -468Q-34 -360 244 192Q462 624 586 1102Q635 1291 635 1375Q635 1406 621 1406Q489 1406 287 1204Q267 1184 243 1184T195 1194T152 1220Q107 1255 107 1291T130 1359T192
1419T281 1472T386 1516Q502 1555 564 1555T674 1548T764 1522Q868 1477 868 1393Q868 1243 774 914Q674 566 512 233Q278 -235 18 -440Q-134 -560 -270 -560Q-321 -560 -344 -533Q-351 -524 -351 -512Z" />
<glyph unicode="K" glyph-name="K" horiz-adv-x="1262" d="M1231 147Q1249 147 1249 125T1235 81T1192 39Q1123 -9 1046 -9T920 14T831 75T756 164T692 268L633 376Q530 572 459 605Q256 60 24 0Q9 -4 -9 -4T-43 2T-70 18Q-93 37 -93 58T-77 92Q96 219 272 746Q374
1053 414 1300Q425 1369 425 1406Q384 1404 349 1385T288 1350T247 1334T213 1344T179 1369Q144 1404 144 1431T160 1476T202 1507T257 1529T317 1544Q372 1555 412 1555T496 1543T572 1506Q642 1455 642 1380Q642 1221 546 876Q515 764 476 652Q718 839 769 881T883
984T992 1108Q1094 1248 1094 1389Q1094 1441 1067 1480Q1059 1493 1059 1505T1068 1527T1092 1544Q1118 1555 1158 1555T1231 1538T1286 1493Q1329 1438 1329 1362T1298 1214T1216 1079T1097 959T958 850L812 746Q740 696 678 646Q751 589 848 447L925 332Q1008
205 1059 166T1143 126T1198 136T1231 147Z" />
<glyph unicode="L" glyph-name="L" horiz-adv-x="1060" d="M899 1420Q765 1420 628 1092L462 672Q304 271 159 145Q367 218 646 242Q686 246 724 246T805 234T881 196Q950 142 950 44Q950 -10 910 -10Q888 -10 867 1T820 22T758 41Q678 62 594 62T431 51T284 26L155
1Q96 -10 66 -10T19 3T-12 38Q-42 84 -42 113Q-42 160 -20 173Q66 219 174 530Q274 818 310 916T391 1107T486 1283T600 1426Q733 1558 893 1558Q1006 1558 1083 1461Q1153 1372 1153 1255Q1153 1096 1035 926Q966 827 886 782Q847 761 816 761T760 773T718 804Q681
843 681 874T697 916Q818 991 902 1096Q993 1209 993 1314T899 1420Z" />
<glyph unicode="M" glyph-name="M" horiz-adv-x="1908" d="M1798 202Q1823 202 1823 167T1810 108T1780 66T1737 30Q1676 -10 1609 -10T1502 6T1433 56Q1371 125 1371 247Q1371 377 1421 564T1517 885T1613 1140L1703 1369Q1555 1236 1328 810L1086 352Q892 -10
809 -10Q728 -10 698 60Q671 127 671 287T696 595T761 884Q829 1133 937 1378Q832 1319 704 1115Q606 952 566 877L308 402Q147 109 49 40Q-22 -10 -104 -10Q-174 -10 -205 34Q-217 52 -217 67T-208 85Q-146 102 -121 120T-70 158T3 241T107 394T224 595L351 829Q527
1169 719 1374Q787 1447 853 1487Q919 1534 1006 1550Q1030 1555 1050 1555T1096 1549T1141 1530Q1185 1500 1167 1450Q1159 1420 1136 1360L1082 1217Q893 695 875 267Q928 358 982 466L1095 689L1214 916Q1489 1426 1725 1500Q1774 1516 1807 1516T1859 1508T1893
1486Q1928 1454 1917 1421T1888 1335L1743 912L1691 746Q1605 458 1589 304Q1583 239 1603 203T1660 166T1716 171T1752 184L1778 196Q1789 202 1798 202Z" />
<glyph unicode="N" glyph-name="N" horiz-adv-x="1450" d="M1071 103L1072 70Q1072 36 1053 17T1002 -2T929 25T844 116T755 290T682 526Q624 774 624 1045Q624 1180 639 1302L626 1284Q440 1018 296 486Q228 238 202 19Q198 -11 153 -11Q82 -11 50 62Q39 88 39
135T56 272T105 472T180 703T276 944T389 1171T514 1362Q656 1544 780 1550Q848 1554 866 1529Q886 1501 870 1433Q841 1316 841 1201T846 1007T862 849T886 691T918 542Q957 386 997 296Q1029 379 1067 462L1216 790Q1340 1068 1340 1236Q1340 1394 1275 1427Q1259
1434 1256 1453T1262 1491T1290 1524Q1330 1557 1378 1557T1468 1537T1536 1482Q1587 1417 1587 1329T1557 1146T1478 949T1371 740L1256 530Q1119 280 1078 150Q1071 130 1071 103Z" />
<glyph unicode="O" glyph-name="O" horiz-adv-x="1342" d="M118 456Q122 576 155 708T247 964T384 1195T559 1383Q763 1555 987 1555Q1259 1555 1342 1308Q1372 1221 1369 1094T1330 834T1234 579T1092 349T916 162Q713 -10 510 -10Q328 -10 221 109Q112 231 118
456ZM393 724T362 603T328 398T337 267T373 188Q421 120 496 120T648 169T795 300T931 489T1045 712Q1187 1049 1149 1268Q1123 1420 983 1420Q855 1420 698 1246Q550 1084 444 840Q393 724 362 603Z" />
<glyph unicode="P" glyph-name="P" horiz-adv-x="1134" d="M218 132T147 63T8 -7Q-26 -7 -43 9Q-72 35 -72 58T-57 92Q94 201 278 732L337 900Q439 1188 510 1257Q535 1276 562 1276T609 1268T644 1246Q678 1216 678 1176Q678 1161 664 1133T632 1060L505 707Q748
751 906 908Q1054 1055 1054 1210Q1054 1357 922 1403Q877 1419 818 1419T696 1404T574 1365Q453 1316 376 1250Q356 1231 332 1231T287 1241T250 1267Q213 1302 213 1338T239 1404T308 1456T407 1498T522 1530Q642 1555 760 1555T977 1526T1140 1446Q1269 1346
1269 1192V1176Q1260 987 1126 843Q1009 718 824 646Q657 580 508 580H482Q469 580 457 582Q367 355 293 244Z" />
<glyph unicode="Q" glyph-name="Q" horiz-adv-x="1342" d="M455 -10L334 -21Q292 -21 277 9T276 55T324 86T409 116T522 162T658 252T801 393T934 571T1044 773Q1147 1003 1147 1203Q1147 1425 977 1425Q850 1425 706 1290Q571 1165 478 973Q382 778 382 607Q382
517 404 470Q433 410 487 346Q490 340 490 329T480 299T452 266Q409 228 366 228T286 254T220 326Q157 423 157 547T187 794T270 1029T399 1237T566 1404Q760 1555 977 1555Q1240 1555 1326 1304Q1356 1216 1356 1103T1327 886T1247 685T1132 497T994 332Q849 180
712 110Q798 84 894 27L1043 -64Q1165 -140 1232 -163T1335 -186T1386 -179T1412 -164L1432 -148Q1441 -141 1451 -141Q1478 -141 1478 -180T1464 -248T1422 -300Q1361 -354 1268 -354T1103 -329T970 -265T854 -182T738 -99Q599 -10 455 -10Z" />
<glyph unicode="R" glyph-name="R" horiz-adv-x="1276" d="M1071 1210Q1071 1409 808 1409Q643 1409 474 1309Q425 1280 398 1256T345 1231T297 1243T256 1275Q190 1348 270 1416Q390 1519 668 1549Q724 1555 810 1555T991 1524T1152 1440Q1282 1333 1282 1167Q1282
970 1102 808Q946 666 733 605Q791 557 842 467L922 324Q1027 129 1110 112Q1139 107 1170 114T1210 121T1223 104T1215 64T1176 19Q1113 -31 1038 -26T917 5T834 70T769 157T716 255L671 353Q650 401 632 435T601 498T572 550Q538 602 485 616Q275 76 58 0Q40
-7 22 -7T-12 -1T-37 16Q-58 35 -58 58T-43 92Q107 201 290 728L350 897Q453 1189 524 1257Q549 1276 576 1276T623 1268T658 1246Q692 1216 692 1185T679 1130T648 1061Q599 933 572 856L521 712Q734 740 898 879Q1071 1025 1071 1210Z" />
<glyph unicode="S" glyph-name="S" horiz-adv-x="971" d="M252 389L243 312Q243 191 324 147Q352 132 391 132T461 145T512 181Q554 226 554 285T530 392T470 488L390 586Q293 702 260 797T227 973T246 1124T301 1260T385 1379T494 1472Q619 1556 742 1556T934
1522T1045 1436Q1123 1338 1123 1199Q1123 1070 1050 956Q983 852 900 824Q882 815 851 815T798 824T760 850Q725 885 725 926Q725 954 742 963Q818 1004 874 1082Q935 1167 938 1251T898 1376T782 1417T652 1385T552 1297Q462 1179 462 1018Q462 911 536 792Q567
741 603 692T672 590Q745 469 745 373T711 211T619 96Q496 -10 339 -10Q191 -10 111 78Q47 149 47 232Q47 322 98 384Q137 431 173 440Q252 461 252 389Z" />
<glyph unicode="T" glyph-name="T" horiz-adv-x="966" d="M1190 1346T1152 1336T1049 1325T881 1334Q857 1269 832 1182L717 790Q504 86 263 0Q246 -7 220 -7T177 -1T149 16Q127 34 127 52T136 76L162 92Q306 186 426 592L498 836Q595 1165 679 1353Q600 1360
559 1360Q441 1360 389 1327Q338 1294 318 1256T296 1202Q293 1174 278 1167T242 1159T197 1174T159 1214Q127 1263 134 1324T174 1430T254 1503Q339 1555 433 1555T612 1546T781 1524Q1004 1494 1065 1494T1155 1501T1206 1522T1235 1540T1263 1545Q1293 1545
1289 1500T1267 1422T1220 1368Z" />
<glyph unicode="U" glyph-name="U" horiz-adv-x="1279" d="M1031 262Q1031 166 1102 166Q1144 166 1178 184T1223 202Q1244 202 1244 180Q1244 92 1150 32Q1086 -10 1028 -10T935 3T873 46Q818 106 818 225Q818 319 853 443T904 619L800 461Q477 -10 255 -10Q104
-10 56 116Q41 157 41 188V226Q41 352 182 688L390 1172Q450 1316 450 1350T438 1401T411 1428L384 1448Q372 1456 372 1472T388 1504T430 1532Q482 1555 532 1555T610 1545T656 1518Q691 1485 691 1439T674 1329T628 1192T562 1034L410 700Q265 381 265 278V263Q265
168 337 168Q469 168 680 499Q743 597 806 706L928 930Q1190 1437 1230 1508Q1250 1544 1287 1544T1349 1534T1392 1506Q1434 1466 1413 1426Q1318 1245 1182 847Q1031 409 1031 262Z" />
<glyph unicode="V" glyph-name="V" horiz-adv-x="1203" d="M140 138T129 186T118 288T136 430T187 615T261 815T352 1014Q450 1216 547 1364H536Q417 1364 315 1310Q290 1291 267 1291Q219 1291 174 1338Q70 1448 298 1520Q405 1555 470 1555T576 1535T644 1486Q688
1442 706 1399T725 1324T706 1237T656 1120L588 988Q552 919 516 843T444 691T380 543Q319 382 319 270Q319 202 332 158Q376 228 440 304L580 461Q823 723 896 809Q1067 1010 1158 1188Q1195 1259 1195 1317Q1195 1424 1136 1478Q1115 1499 1130 1529T1162 1574Q1201
1609 1250 1609T1333 1589T1388 1538Q1431 1477 1431 1387T1393 1195T1292 998T1150 811T987 638L685 353Q548 215 502 164Q414 66 389 35T344 -2T290 -8T221 22T163 95Z" />
<glyph unicode="W" glyph-name="W" horiz-adv-x="1928" d="M354 21Q334 -8 284 -8T198 20T140 90Q94 174 94 258T112 430T163 615T237 815T328 1014Q426 1216 523 1364H512Q393 1364 291 1310Q266 1291 243 1291Q195 1291 150 1338Q46 1448 274 1520Q381 1555
446 1555T552 1535T620 1486Q664 1442 682 1399T701 1324T682 1237T632 1120L564 988Q528 919 492 843T420 691T356 543Q295 382 295 270Q295 208 307 163L412 338Q732 854 1044 1114Q1132 1188 1218 1230Q1232 1237 1251 1237T1291 1233T1332 1219Q1376 1198 1376
1168Q1376 1154 1366 1142L1331 1104Q1131 892 1062 512Q1040 395 1040 327T1044 233T1060 186Q1087 136 1141 136T1261 176T1394 286T1525 450T1638 653Q1748 892 1748 1109Q1748 1276 1674 1392Q1654 1422 1713 1470Q1773 1520 1848 1520Q1947 1520 1982 1344Q1994
1286 1994 1192T1971 985T1907 765T1809 558T1685 373T1543 217T1390 96Q1229 -10 1085 -10Q953 -10 888 94Q831 184 831 323Q831 553 920 770Q837 677 758 578Q562 322 485 211L354 21Z" />
<glyph unicode="X" glyph-name="X" horiz-adv-x="1132" d="M860 -10Q590 -10 479 504Q366 333 219 176Q43 -9 -59 -9Q-117 -9 -141 10Q-205 61 -141 92Q-105 108 -26 174T129 319Q313 508 431 707Q392 883 380 1052T368 1262Q368 1327 373 1362T399 1434T453 1498Q519
1555 601 1555Q618 1555 623 1546T629 1520Q629 1494 619 1425Q599 1289 599 1189Q599 1043 612 911L797 1168Q1043 1506 1220 1546Q1231 1548 1244 1551T1278 1555T1324 1549T1371 1533Q1417 1509 1399 1478Q1396 1472 1383 1466T1348 1447Q1282 1411 1221 1362Q1058
1244 795 898L654 706Q743 303 875 192Q906 166 935 166T982 171T1015 184L1039 196Q1050 202 1060 202Q1081 202 1081 180Q1081 94 991 32Q930 -10 860 -10Z" />
<glyph unicode="Y" glyph-name="Y" horiz-adv-x="1189" d="M259 263Q259 168 331 168Q463 168 674 499Q737 597 800 706L922 930Q1184 1437 1224 1508Q1244 1544 1281 1544T1343 1534T1386 1506Q1428 1466 1407 1426Q1337 1296 1277 1135L1027 438Q987 332 944
234T848 38T733 -147T605 -310T468 -442Q319 -560 183 -560Q157 -560 132 -548T102 -514T109 -484T141 -468Q417 -365 662 82Q734 214 795 357Q865 542 885 599L784 445Q469 -10 249 -10Q100 -10 50 120Q35 161 35 190V228Q35 349 176 688L384 1172Q444 1317 444
1350T432 1401T405 1428L378 1448Q366 1456 366 1472T382 1504T424 1532Q476 1555 526 1555T604 1545T650 1518Q685 1485 685 1439T668 1329T622 1192T556 1034L404 700Q259 381 259 278V263Z" />
<glyph unicode="Z" glyph-name="Z" horiz-adv-x="1027" d="M959 34Q959 -10 922 -10Q900 -10 875 4Q798 74 624 74Q451 74 298 32L221 12Q137 -10 95 -10T35 4T4 41Q-25 90 -25 125T-14 190T43 290T151 443T293 620L454 807L778 1166L1016 1423L882 1372Q622 1273
524 1273T372 1292T288 1358Q260 1395 260 1507Q260 1553 286 1554T333 1546T383 1522Q461 1487 560 1487T735 1497T872 1521L978 1544Q1024 1555 1054 1555T1114 1536T1168 1490Q1225 1428 1225 1392T1188 1299T1088 1169T943 1011Q498 556 417 466Q234 264 167
143Q356 227 614 262Q685 271 725 271T793 267T845 249Q893 223 933 153Q959 105 959 34Z" />
<glyph unicode="[" glyph-name="bracketleft" horiz-adv-x="812" d="M423 -287Q423 -348 158 -348Q62 -348 36 -333T4 -302T-3 -268Q-3 -240 9 -208T44 -112L652 1650L694 1763Q717 1823 843 1823Q1034 1823 1063 1796Q1074 1785 1074 1771T1062 1750T1031 1737T989
1726T940 1710Q890 1689 863 1630Q847 1595 818 1516L668 1090Q293 -28 275 -76Q240 -174 240 -211Q240 -240 297 -240Q378 -240 412 -266Q423 -275 423 -287Z" />
<glyph unicode="\" glyph-name="backslash" horiz-adv-x="951" d="M778 -302Q778 -348 742 -348Q631 -348 602 -234L106 1722Q96 1764 96 1788Q96 1823 126 1823Q178 1823 221 1797T276 1724Q758 -186 768 -232T778 -302Z" />
<glyph unicode="]" glyph-name="bracketright" horiz-adv-x="808" d="M527 1762Q527 1823 792 1823Q888 1823 914 1808T946 1777T953 1744Q953 1715 941 1683T906 1587L298 -174L256 -288Q233 -348 107 -348Q-84 -348 -113 -320Q-124 -310 -124 -296T-110 -275T-76
-262T-31 -251T20 -234Q70 -214 97 -155Q113 -120 142 -41L292 386Q667 1503 685 1551Q720 1649 720 1686Q720 1715 663 1715Q578 1715 540 1742Q527 1750 527 1762Z" />
<glyph unicode="^" glyph-name="asciicircum" d="M302 730Q288 710 268 710T230 716T198 732Q165 756 177 773L586 1535Q598 1555 646 1555Q694 1555 706 1535L1065 773Q1077 756 1053 739Q1012 710 983 710T940 730L641 1244L302 730Z" />
<glyph unicode="_" glyph-name="underscore" horiz-adv-x="1087" d="M-262 -348Q-329 -348 -329 -298Q-329 -259 -302 -231Q-254 -180 -213 -180L966 -176Q1020 -176 1020 -225Q1020 -266 994 -295Q947 -348 897 -348H-262Z" />
<glyph unicode="`" glyph-name="grave" horiz-adv-x="449" d="M308 1563Q299 1396 299 1374Q299 1294 328 1226Q362 1172 362 1156T350 1131T311 1121T243 1151T164 1230Q77 1346 75 1463Q75 1519 104 1550Q159 1607 230 1607Q282 1607 301 1584Q308 1575 308 1563Z" />
<glyph unicode="a" glyph-name="a" horiz-adv-x="1109" d="M838 266Q838 174 903 174Q948 174 977 188T1017 202Q1038 202 1038 180Q1038 94 948 32Q853 -33 754 0Q689 23 658 99Q643 138 643 170Q643 222 653 280Q560 90 422 18Q367 -10 305 -10T198 15T120 86Q55
180 61 322Q67 500 166 671Q257 831 396 932Q535 1035 656 1035T851 924Q920 1035 973 1035Q1030 1035 1059 1014Q1114 974 1098 944Q847 430 840 304Q838 286 838 266ZM283 262Q283 142 360 142Q419 142 505 242Q631 389 728 638Q759 716 780 794Q776 862 723
894Q705 905 670 905T587 879T495 808T412 702T344 568Q283 414 283 262Z" />
<glyph unicode="b" glyph-name="b" horiz-adv-x="1077" d="M81 284Q81 342 89 395T111 502T142 610L254 952Q387 1368 421 1602Q432 1686 503 1686Q545 1686 574 1664Q627 1621 626 1573T612 1465T580 1335T535 1188Q468 990 435 902L378 753Q465 888 520 938Q630
1035 749 1035Q924 1035 982 852Q1001 789 1001 695T974 509T899 337T790 193T658 84Q512 -10 375 -10Q237 -10 158 74Q81 158 81 284ZM361 120Q455 120 552 204Q700 332 751 570Q768 648 768 732T749 851T691 885T608 853T518 769T425 648T342 506Q261 345 261
233T361 120Z" />
<glyph unicode="c" glyph-name="c" horiz-adv-x="953" d="M64 345Q66 432 91 518T159 682T260 824T388 936Q532 1035 691 1035Q855 1035 914 904Q935 857 934 798T914 689T869 600Q808 512 746 512Q677 512 644 550Q615 583 626 627Q629 640 644 650T682 684Q747
752 750 843Q752 905 674 905Q590 905 498 811Q364 674 309 460Q261 274 327 188Q366 138 433 138Q546 138 651 218Q683 243 703 269T740 295T768 279T780 236Q780 177 727 120Q591 -10 400 -10Q237 -10 148 83Q60 175 64 345Z" />
<glyph unicode="d" glyph-name="d" horiz-adv-x="1141" d="M1071 202Q1092 202 1092 180Q1092 94 1003 32Q944 -10 892 -10T808 2T752 40Q696 100 696 205Q696 226 704 272Q623 147 565 96Q448 -10 336 -10Q159 -10 104 150Q84 209 84 298T111 478T184 651T292
803T422 926Q568 1035 686 1035T875 939Q1049 1535 1137 1642Q1174 1686 1215 1686Q1283 1686 1318 1647Q1329 1634 1329 1621T1313 1573T1266 1460Q1177 1225 1141 1116Q1049 837 1017 732L962 547Q891 300 891 233T940 166Q985 166 1012 178L1050 196Q1061 202
1071 202ZM384 140Q487 140 620 341Q759 549 814 794Q810 862 757 894Q739 905 703 905T618 879T524 807T439 702T370 573Q307 425 307 283T384 140Z" />
<glyph unicode="e" glyph-name="e" horiz-adv-x="966" d="M76 350Q80 437 105 516T172 670T270 811T393 928Q536 1035 682 1035Q853 1035 910 894Q930 846 929 781T904 660T838 559T737 477T609 416Q467 366 305 364Q301 350 300 322T306 260T330 198Q366 138
434 138Q550 138 660 206Q699 229 723 253T766 278T797 257T811 208Q811 155 781 116Q655 -10 406 -10Q259 -10 170 78Q70 178 76 350ZM660 902Q555 902 458 758Q376 634 326 464Q493 481 616 596Q729 704 729 803T660 902Z" />
<glyph unicode="f" glyph-name="f" horiz-adv-x="806" d="M-41 -220Q-41 -199 -10 -137T59 23T131 225T200 450L278 714L174 686Q135 686 110 727Q104 738 104 753T128 788T187 827Q257 863 331 882L340 910Q367 994 391 1084T443 1261T506 1424T588 1560Q692
1686 849 1686Q965 1686 1033 1624T1101 1456Q1101 1346 1038 1265Q985 1198 920 1198Q839 1198 810 1272Q802 1291 802 1304Q802 1326 832 1344Q887 1386 909 1456Q916 1478 916 1499Q916 1581 852 1581Q764 1581 690 1382Q668 1321 646 1248L552 929Q643 943
684 943T758 934T816 907Q875 868 875 811T819 754L692 759Q588 759 500 750L418 460Q337 165 287 31T188 -196Q143 -281 51 -281T-41 -220Z" />
<glyph unicode="g" glyph-name="g" horiz-adv-x="1079" d="M658 218Q506 -10 321 -10Q154 -10 96 168Q76 229 76 318T101 496T171 666T274 813T402 930Q544 1035 684 1035T884 904Q896 917 906 930T928 956Q954 982 973 982T1014 975T1056 956Q1105 927 1093 902Q1038
783 1001 668L853 196Q678 -341 409 -498Q338 -540 286 -546T211 -547T170 -530Q131 -505 131 -485Q131 -450 177 -442T275 -405T372 -333Q561 -158 658 218ZM332 493T317 418T302 294T305 221T317 177Q337 135 376 135T453 162T533 238T617 351T697 491Q781 657
815 808Q810 836 781 865Q724 920 678 920T586 892T499 815T421 702T359 565Z" />
<glyph unicode="h" glyph-name="h" horiz-adv-x="1137" d="M794 846Q739 846 597 678L514 576L354 367Q296 257 263 184L209 68Q188 25 173 8T131 -10T80 -1T37 24Q-1 56 -1 94Q-1 109 20 153L60 234Q247 619 399 1210Q455 1428 480 1602Q491 1686 562 1686Q608
1686 638 1664Q696 1621 694 1572T680 1462T649 1330T606 1179Q540 978 508 889Q410 620 387 574Q402 592 426 623Q608 862 651 908T724 980Q787 1035 884 1035Q963 1035 1011 982Q1056 931 1056 871T1043 762T1008 663T962 560L912 455Q842 296 842 219Q842 165
886 165Q928 165 962 183T1007 201Q1028 201 1028 180Q1028 91 938 31Q876 -10 825 -10T741 0T681 35Q622 89 622 194Q622 307 696 478L804 708Q835 772 835 809T794 846Z" />
<glyph unicode="i" glyph-name="i" horiz-adv-x="586" d="M590 1246T562 1232T503 1214T445 1223T397 1260Q354 1310 354 1361T370 1437T412 1479Q460 1510 502 1510T568 1504T612 1484Q661 1451 661 1404T648 1325T612 1270ZM407 187Q433 187 433 153Q433 108
392 60Q332 -10 231 -10Q115 -10 72 84Q56 117 56 164T72 268T113 389T167 518L220 644Q278 785 278 830T269 889T248 912L228 926Q218 933 218 950T231 984T267 1012Q312 1035 372 1035Q519 1035 519 958Q519 868 472 753T392 566L332 428Q266 276 266 209Q266
165 310 165Q353 165 375 176T407 187Z" />
<glyph unicode="j" glyph-name="j" horiz-adv-x="576" d="M535 1246T507 1232T448 1214T390 1223T342 1260Q299 1310 299 1361T315 1437T357 1479Q405 1510 447 1510T513 1504T558 1484Q606 1451 606 1404T593 1325T557 1270ZM360 1035Q497 1035 497 958Q497 749
387 385Q263 -25 72 -286Q-78 -490 -242 -550Q-258 -557 -283 -557T-331 -542T-354 -506Q-354 -468 -327 -460Q-179 -412 -18 -100Q124 176 204 503Q256 711 256 844Q256 890 226 912L206 926Q196 933 196 950T210 984T248 1012Q297 1035 360 1035Z" />
<glyph unicode="k" glyph-name="k" horiz-adv-x="1019" d="M734 -9Q507 -9 372 422Q319 324 284 244L224 108Q198 52 176 21T125 -10T74 -1T34 24Q-1 56 -1 94Q-1 109 20 153L60 234Q247 619 399 1210Q455 1428 480 1602Q491 1686 562 1686Q604 1686 632 1664Q686
1621 684 1572T671 1460T640 1325T597 1171Q532 962 500 873L406 614Q388 568 378 547Q610 639 726 755Q796 825 796 886Q796 917 776 931T748 952T746 979T784 1017T859 1035T932 1027T984 1002Q1033 967 1033 903T1006 786T922 682Q809 586 560 496Q591 363 674
262Q753 166 819 166Q854 166 879 178L915 196Q926 202 936 202Q961 202 961 172Q961 146 952 127T927 85T884 42Q819 -9 734 -9Z" />
<glyph unicode="l" glyph-name="l" horiz-adv-x="572" d="M96 66T81 106T65 200T89 344T152 549L236 798Q415 1318 443 1602Q452 1686 525 1686Q571 1686 601 1664Q659 1620 657 1566T638 1435T594 1266T532 1072L394 666Q275 320 275 219Q275 165 319 165Q361
165 395 183T440 201Q461 201 461 180Q461 91 370 31Q309 -10 259 -10T177 2T121 40Z" />
<glyph unicode="m" glyph-name="m" horiz-adv-x="1669" d="M826 846Q768 846 614 678Q499 547 447 481L357 367Q299 257 266 184L212 68Q191 25 176 8T134 -10T83 -1T40 24Q2 56 2 94Q2 109 24 153L62 234Q80 270 104 326L160 463Q278 758 278 844Q278 890 248
912L228 926Q218 933 218 950T231 984T267 1012Q312 1035 357 1035T429 1025T474 998Q512 963 512 925T502 849T477 771T445 694Q405 608 396 589T390 574Q573 811 610 854Q687 943 730 976Q809 1035 879 1035T992 991T1034 875Q1034 812 1002 727T959 608L1106
802L1188 900Q1262 983 1318 1009T1409 1035T1479 1022T1538 985Q1589 936 1589 855Q1589 777 1553 695T1490 561T1438 455Q1365 296 1365 219Q1365 165 1409 165Q1451 165 1485 183T1530 201Q1551 201 1551 180Q1551 91 1460 31Q1399 -10 1349 -10T1267 2T1211
40Q1155 98 1155 185T1177 345T1229 486T1289 612T1336 704Q1368 774 1368 807Q1368 846 1327 846Q1273 846 1133 667Q1027 528 986 467L917 367Q859 257 828 184L777 68Q758 25 744 8T705 -10T657 -2T616 19Q577 48 577 80T598 169T652 296L792 592Q867 757 867
801T826 846ZM925 564Q926 564 926 565L927 567Q925 565 925 564Z" />
<glyph unicode="n" glyph-name="n" horiz-adv-x="1149" d="M793 846Q762 846 705 787T606 678L521 576L357 367Q299 257 266 184L212 68Q191 25 176 8T134 -10T83 -1T40 24Q2 56 2 94Q2 109 24 153L62 234Q80 270 104 326L160 463Q278 758 278 844Q278 890 248
912L228 926Q218 933 218 950T231 984T267 1012Q312 1035 357 1035T428 1025T470 998Q507 963 507 925T498 849T474 771T443 693T414 627L394 584Q386 568 390 574Q501 728 536 772L606 856Q683 946 727 975Q816 1035 867 1035T953 1022T1014 985Q1069 934 1069
855T1033 690T971 551T920 442Q845 275 845 199Q845 165 899 165Q941 165 975 183T1020 201Q1041 201 1041 180Q1041 91 950 31Q889 -10 838 -10T754 1T694 36Q635 89 635 184Q635 300 708 474Q761 593 783 637L817 708Q848 772 848 809T793 846Z" />
<glyph unicode="o" glyph-name="o" horiz-adv-x="1053" d="M122 108T98 169T73 315T93 485T154 651T249 801T372 923Q518 1035 675 1035Q881 1035 954 854Q1006 723 960 537Q918 366 806 223Q695 80 544 20Q468 -10 395 -10T264 9T164 68ZM325 479T308 401T291
254T312 145T379 105T469 136T556 220T635 340T700 482Q761 643 759 768Q759 878 714 908Q696 920 664 920T589 891T505 811T424 694T355 553Z" />
<glyph unicode="p" glyph-name="p" horiz-adv-x="1128" d="M251 95Q249 80 208 -63T138 -290Q75 -478 34 -524Q1 -560 -46 -560Q-103 -560 -133 -504Q-142 -488 -142 -469T-112 -384Q-33 -219 99 266Q152 458 169 527L201 652Q232 776 237 820T232 883T207 911T181
928T171 953T187 987T224 1014Q269 1035 314 1035T386 1024T429 994Q465 955 461 918Q451 841 439 786Q614 1035 802 1035Q973 1035 1031 858Q1051 796 1051 707T1024 529T951 359T844 212T715 94Q571 -10 443 -10T251 95ZM369 451T347 381T324 253T349 158T423
120T520 146T614 218T699 323T768 452Q831 600 831 733Q831 805 812 845T754 885T671 855T581 774T488 658T406 522Z" />
<glyph unicode="q" glyph-name="q" horiz-adv-x="1092" d="M891 902Q961 962 1008 962Q1036 962 1065 941Q1119 901 1110 872Q1107 861 1101 846L1088 812Q1074 772 1058 739T1018 652Q849 250 804 115T738 -95Q692 -261 692 -334Q692 -438 703 -471T712 -519T697
-542Q675 -560 641 -560T581 -548T534 -510Q488 -451 492 -341Q494 -195 630 120L695 270Q614 146 557 94Q441 -10 329 -10Q158 -10 103 168Q84 229 84 318T110 496T182 666T288 813T417 930Q561 1035 690 1035T891 902ZM377 140Q480 140 614 341Q752 549 807 794Q803
862 750 894Q732 905 696 905T611 879T518 807T434 702T366 573Q304 428 304 284T377 140ZM882 894Q880 894 879 891L882 894Z" />
<glyph unicode="r" glyph-name="r" horiz-adv-x="835" d="M55 39T43 57T30 89T35 122T53 170Q257 672 257 844Q254 892 224 912L204 926Q195 933 195 950T207 984T241 1012Q284 1035 329 1035T400 1025T444 998Q482 962 482 922T474 841T451 761T425 686T408 633Q400
598 402 589Q426 610 431 630L470 704Q600 938 724 1014Q760 1035 810 1035T892 1000T924 921T919 850T896 796Q863 740 816 740Q803 740 792 749L770 768Q737 797 707 797T633 757T542 654Q384 445 284 186L240 70Q223 27 210 9T172 -10T121 -1T75 24Z" />
<glyph unicode="s" glyph-name="s" horiz-adv-x="867" d="M24 176Q24 207 37 233T71 278Q113 317 159 317Q199 317 199 276Q199 172 268 131Q293 116 320 116T366 122T401 141Q437 170 437 210T419 283T374 354L317 434Q197 594 197 729Q197 841 292 932Q400 1035
569 1035Q717 1035 800 962Q868 903 868 827Q868 748 808 701Q754 659 700 670Q676 675 663 694T658 739T666 791T656 841T629 880Q594 913 556 913T492 905T448 880Q409 844 409 792T427 701T471 625T529 548T586 466Q649 365 649 289T617 161T534 72Q425 -9 290
-9Q161 -9 86 53Q24 105 24 176Z" />
<glyph unicode="t" glyph-name="t" horiz-adv-x="735" d="M603 262Q632 262 632 223Q632 190 612 159Q585 101 504 49Q412 -10 319 -10Q158 -10 115 134Q64 305 268 859Q153 869 143 899Q140 908 140 918T149 943T174 970Q209 999 245 999H324Q432 1252 478 1287Q500
1303 527 1303T572 1296T604 1276Q636 1246 636 1209Q636 1189 624 1163L550 1002H574Q636 1002 674 1003Q674 1003 731 1004Q750 1005 778 1005T807 984Q807 852 495 852H487L419 676Q304 364 304 239Q304 204 320 185T380 165T460 180T523 213T569 247T603 262Z"
/>
<glyph unicode="u" glyph-name="u" horiz-adv-x="1133" d="M1005 197Q1028 197 1028 174Q1028 87 942 28Q884 -10 806 -10Q742 -10 708 20Q647 74 647 152Q647 251 730 455Q576 247 514 179T406 72Q306 -10 225 -10Q101 -10 60 97Q48 130 48 172T62 267T100 377T150
494L204 614Q308 845 281 888Q269 907 236 926Q224 933 224 950T238 984T276 1012Q325 1035 374 1035T448 1025T490 998Q523 965 523 925T510 836T476 728T430 608Q361 446 337 394L300 317Q269 248 269 220T278 181T310 169T365 191T433 250T510 335T588 436Q663
538 698 600Q910 975 924 992Q956 1035 989 1035T1048 1028T1091 1006Q1133 975 1118 944Q874 435 855 304Q850 259 850 242Q850 166 896 166Q939 166 967 181T1005 197Z" />
<glyph unicode="v" glyph-name="v" horiz-adv-x="1046" d="M76 97Q61 130 61 175T75 274T111 386T160 502L211 618Q310 847 284 888Q272 907 238 926Q227 933 227 950T241 984T280 1012Q328 1035 377 1035T451 1025T494 998Q526 965 526 918T508 812T463 688T404
555L345 424Q282 279 282 232Q282 140 347 140Q514 140 660 338Q745 453 782 588Q799 652 799 704T796 792T784 854Q771 902 740 937Q719 963 759 998Q803 1035 884 1035Q934 1035 972 988Q1020 932 1020 828T989 623T904 430T777 257T618 118Q436 -10 254 -10Q123
-10 76 97Z" />
<glyph unicode="w" glyph-name="w" horiz-adv-x="1538" d="M267 -6T190 -6T82 74Q71 102 71 126Q71 191 91 252T132 366L220 593Q271 732 282 787T279 861T247 895T212 921T195 950T209 984T248 1012Q296 1035 347 1035T428 1025T477 998Q514 965 514 919T499
814T460 691T407 556L352 418Q287 251 273 168Q367 200 522 398Q691 615 821 893Q836 928 858 938Q894 955 949 953Q1036 950 1039 899Q1041 868 1023 831T992 768L953 688Q836 451 836 303Q836 200 892 162Q908 150 941 150T1019 173T1105 238T1181 333T1243 450Q1298
581 1298 682Q1298 855 1233 937Q1211 963 1246 998Q1283 1035 1362 1035Q1459 1035 1494 926Q1508 885 1508 803T1479 621T1401 428T1287 255T1151 116Q999 -10 869 -10Q646 -10 646 278Q646 344 658 407Q540 235 404 115Z" />
<glyph unicode="x" glyph-name="x" horiz-adv-x="957" d="M115 22Q72 -9 49 -9T10 -3T-19 14Q-49 39 -49 59T-27 97Q-27 97 34 146Q198 281 305 439Q218 683 225 845Q229 925 294 983Q354 1035 422 1035Q442 1035 448 1021T454 981T452 925T451 863T456 792Q466
690 475 633L508 688Q622 869 774 975Q860 1035 922 1035Q978 1035 1009 1019Q1067 989 1048 958Q1045 953 1036 950L1011 938Q853 869 608 600Q557 544 519 493L554 376Q619 166 708 166Q747 166 772 178L808 194Q819 199 829 199Q850 199 850 178Q850 90 760
30Q700 -10 624 -10Q477 -10 358 293Q232 108 115 22Z" />
<glyph unicode="y" glyph-name="y" horiz-adv-x="1126" d="M70 97Q58 130 58 172T72 267T110 377T160 494L214 614Q318 845 291 888Q279 907 246 926Q234 933 234 950T248 984T286 1012Q335 1035 384 1035T458 1025T500 998Q533 965 533 925T520 836T486 728T440
608Q371 446 347 394L310 317Q279 248 279 220T288 181T320 169T372 187T434 235T502 304T572 387Q661 497 704 576Q920 974 933 992Q966 1035 999 1035T1058 1028T1101 1006Q1141 977 1126 941T1088 842Q898 291 842 155T743 -63T645 -230T524 -383Q378 -539 250
-550Q201 -554 172 -536Q122 -506 122 -479Q122 -452 167 -442T261 -400T355 -326Q487 -200 560 -52Q622 78 660 194L738 432Q709 397 674 350L602 254Q508 135 446 85Q328 -10 235 -10Q111 -10 70 97Z" />
<glyph unicode="z" glyph-name="z" horiz-adv-x="881" d="M230 161Q398 217 540 217Q635 217 687 164Q734 116 734 34Q734 15 722 3T690 -10Q670 -10 648 1T597 25Q408 110 181 10Q152 -3 131 -8T84 -2T35 30Q-22 80 -5 129T50 237T139 354T247 468Q400 611 468
668Q624 801 658 833T705 884Q617 844 473 829Q436 825 412 825Q309 825 266 862T222 973Q222 1002 235 1018T265 1035T311 1025T381 1001Q488 967 569 967T682 975T739 992L785 1010Q806 1018 827 1018T864 1005T895 972Q925 929 925 890T883 796T775 679T629
552L471 421Q287 265 230 161ZM217 134Q220 136 219 136Q217 136 217 134Z" />
<glyph unicode="{" glyph-name="braceleft" horiz-adv-x="870" d="M301 -348Q104 -348 104 -173Q104 -54 200 192L250 322Q303 457 303 540Q303 682 212 702Q199 706 199 726T204 763T218 797Q241 834 274 836Q451 847 554 1138Q584 1222 603 1298Q603 1298 637
1436Q691 1656 773 1745Q844 1823 950 1823Q1099 1823 1120 1799Q1128 1790 1128 1778Q1128 1723 1038 1723Q988 1723 952 1679T888 1564T838 1408L796 1238Q673 741 383 731Q504 682 504 517Q504 405 442 253Q321 -42 321 -164Q321 -250 380 -250Q454 -250 454
-294Q454 -348 301 -348Z" />
<glyph unicode="|" glyph-name="bar" horiz-adv-x="628" d="M441 996L440 526V-194Q440 -263 396 -308Q355 -348 305 -348Q259 -348 256 -267Q255 -242 255 -212V1670Q255 1730 295 1777Q334 1823 387 1823Q423 1823 433 1776Q441 1736 441 1666V996Z" />
<glyph unicode="}" glyph-name="braceright" horiz-adv-x="870" d="M-131 -303Q-131 -248 -41 -248Q80 -248 158 67L201 237Q324 734 614 744Q493 793 493 958Q493 1070 556 1222Q676 1517 676 1639Q676 1725 617 1725Q543 1725 543 1769Q543 1823 696 1823Q893
1823 893 1648Q893 1529 797 1284L747 1153Q694 1018 694 935Q694 793 785 773Q798 769 798 749T793 712T778 678Q756 641 723 639Q502 626 390 161Q375 100 360 39T326 -79T282 -185T224 -270Q152 -348 47 -348Q-102 -348 -123 -324Q-131 -315 -131 -303Z" />
<glyph unicode="~" glyph-name="asciitilde" horiz-adv-x="1279" d="M154 524T140 538T127 588T146 667T191 748T256 821T336 882Q427 938 500 938T618 920T696 876T756 818T808 760Q867 697 916 697T998 715T1057 762Q1100 809 1123 858T1161 916T1191 925T1222
911T1235 860T1217 781T1172 700T1106 627T1026 566Q934 510 860 510T743 528T665 572T605 630T554 688Q495 751 447 751T366 733T308 686T262 623L223 557Q205 524 180 524Z" />
<glyph unicode="&#xa0;" glyph-name="nbspace" horiz-adv-x="601" />
<glyph unicode="&#xa1;" glyph-name="exclamdown" horiz-adv-x="855" d="M470 1062Q515 1173 630 1180Q694 1180 740 1132Q784 1086 784 1034T770 953T733 905Q694 873 651 873T577 879T520 898Q457 930 457 990Q457 1029 470 1062ZM335 571Q389 662 440 713T515
764T548 751T557 718T543 662T483 496T392 204T322 -82Q289 -243 273 -405Q268 -463 222 -463Q151 -463 102 -391Q56 -325 56 -252Q56 -102 134 131T335 571Z" />
<glyph unicode="&#xa2;" glyph-name="cent" horiz-adv-x="999" d="M796 1073Q796 1135 729 1135Q650 1135 565 1041Q442 905 394 690Q380 624 380 547T420 419T529 368T656 404T778 503Q793 518 811 518T842 496T856 446Q856 384 812 346Q669 220 507 220H490Q433
93 422 50T393 -2T353 -11T312 -3T290 17Q282 68 343 250Q154 329 154 571Q154 828 310 1032Q409 1162 548 1224Q616 1254 691 1262L726 1360Q794 1561 920 1561Q990 1561 990 1525Q990 1505 966 1470Q914 1393 838 1246Q974 1188 974 1009Q974 910 915 824Q858
742 794 742Q744 742 708 780Q672 818 678 857Q680 870 695 880T732 914Q796 983 796 1073Z" />
<glyph unicode="&#xa3;" glyph-name="sterling" horiz-adv-x="1363" d="M747 629L691 628L628 463Q597 384 565 315L646 270Q787 189 916 189Q1082 189 1147 267Q1159 282 1176 282T1206 262T1222 201T1204 118T1143 46Q1066 -10 966 -10T804 8T690 55T590 118L495
185Q404 41 248 0Q207 -10 159 -10T70 4T3 44Q-48 93 -48 152T-28 254T30 332Q111 409 226 409Q292 409 368 390Q388 441 408 498L448 615Q389 608 349 599T293 601T269 628T261 662T270 687T301 703T352 720Q414 737 494 749Q669 1263 846 1437Q972 1561 1125
1561Q1264 1561 1330 1468Q1385 1391 1385 1265Q1385 1120 1284 970Q1224 880 1157 840Q1124 821 1095 821T1042 833T1000 864Q963 903 963 934T979 976Q1144 1079 1204 1209Q1225 1253 1225 1295Q1225 1423 1127 1423Q997 1423 836 1016L745 777Q781 779 819 779T890
769T947 742Q992 709 999 674Q1012 610 938 620Q870 629 747 629ZM314 265Q264 279 220 280T155 272T119 249Q92 222 92 189T109 135T165 113Q239 113 314 265Z" />
<glyph unicode="&#xa4;" glyph-name="currency" horiz-adv-x="1172" d="M700 277Q608 230 508 230T338 271L264 191Q231 153 216 130Q193 98 167 98Q129 98 108 130Q93 153 150 236L194 297Q218 330 246 364Q204 444 204 533T222 690T273 822Q342 957 454 1047Q420
1158 420 1202T431 1275T458 1326Q493 1370 524 1372T569 1362T586 1314Q594 1217 610 1133Q674 1155 747 1155T883 1125Q912 1157 940 1184L992 1235Q1062 1298 1136 1298Q1182 1298 1204 1282T1227 1251Q1227 1223 1189 1197Q1101 1135 989 1029Q1039 946 1039
825Q1039 635 910 459Q869 404 819 359Q831 321 842 289Q889 159 891 138T889 107T875 90Q855 73 836 73Q801 73 786 101L700 277ZM416 491Q416 340 506 340Q573 340 650 436Q764 575 810 775Q824 836 824 878T821 948T808 998Q788 1045 734 1045Q676 1045 600
954Q478 810 432 616Q416 551 416 491Z" />
<glyph unicode="&#xa5;" glyph-name="yen" horiz-adv-x="1195" d="M854 384Q877 385 904 385T931 364Q931 247 648 233Q628 174 615 128L597 65Q578 -9 478 -9Q439 -9 421 5T408 56Q415 118 451 233Q208 241 190 276Q184 286 184 297T193 323T218 350Q253 379
294 379H388Q443 379 497 380Q520 460 524 513Q278 521 260 556Q254 566 254 577T263 603T288 630Q323 659 362 659H448Q496 659 545 660Q531 884 410 1142Q343 1285 298 1334T232 1383T200 1379T181 1370Q163 1359 147 1359T123 1369T115 1395T132 1438T178 1492Q248
1551 313 1551T422 1518T502 1427T566 1292T616 1128Q659 957 674 772L790 988Q962 1294 1139 1458Q1226 1539 1268 1551T1335 1564T1382 1557T1422 1538Q1460 1514 1459 1494T1453 1464T1439 1445T1415 1425T1368 1384T1265 1284T1116 1120Q926 894 810 662Q835
662 855 662L932 664Q951 665 976 665T1001 644Q1001 564 848 530Q801 519 746 515Q734 486 722 452Q722 452 697 382Q742 382 787 383Q787 383 854 384Z" />
<glyph unicode="&#xa6;" glyph-name="brokenbar" horiz-adv-x="599" d="M411 1496L410 1204V1006Q410 937 366 892Q325 852 275 852Q229 852 226 933Q225 958 225 988V1670Q225 1730 265 1777Q304 1823 357 1823Q393 1823 403 1776Q411 1736 411 1647V1496ZM411
296L410 4V-194Q410 -263 366 -308Q325 -348 275 -348Q229 -348 226 -267Q225 -242 225 -212V470Q225 530 265 577Q304 623 357 623Q393 623 403 576Q411 536 411 447V296Z" />
<glyph unicode="&#xa7;" glyph-name="section" horiz-adv-x="1196" d="M649 116Q688 18 688 -69T658 -222T576 -337Q464 -439 302 -439Q168 -439 85 -366Q10 -301 10 -207Q10 -116 62 -55Q117 10 182 5Q236 1 225 -50Q216 -76 216 -119T222 -194T244 -252Q277
-307 331 -307T413 -292T458 -253Q487 -210 487 -146T465 -30T410 74T339 181T267 298Q190 443 190 590Q190 728 291 840Q393 954 540 980Q470 1129 470 1236T503 1423T594 1558Q716 1677 896 1677Q1068 1677 1160 1567Q1236 1478 1236 1350Q1236 1242 1162 1151Q1085
1056 986 1056Q936 1056 910 1080Q868 1121 868 1157Q868 1179 888 1195Q888 1195 936 1233Q1087 1350 1044 1470Q1011 1558 911 1558Q821 1558 762 1477Q705 1399 705 1289Q705 1172 856 896T1008 473Q1008 337 900 234Q797 137 649 116ZM589 238Q607 233 638
233T698 249T746 292Q787 344 787 404T770 521T724 636T662 754L594 874Q518 858 466 788Q415 718 415 652T431 535T472 436T529 338T589 238Z" />
<glyph unicode="&#xa8;" glyph-name="dieresis" horiz-adv-x="845" d="M777 1243T749 1229T690 1211T632 1220T584 1256Q541 1307 541 1358T557 1434T599 1476Q647 1507 689 1507T755 1501T800 1481Q848 1448 848 1401T835 1322T799 1267ZM317 1243T289 1229T230
1211T172 1220T124 1256Q81 1307 81 1358T97 1434T139 1476Q187 1507 229 1507T295 1501T340 1481Q388 1448 388 1401T375 1322T339 1267Z" />
<glyph unicode="&#xa9;" glyph-name="copyright" horiz-adv-x="1785" d="M256 239T207 361T158 619T190 874T280 1098T420 1290T599 1441Q807 1575 1041 1575Q1336 1575 1522 1393Q1709 1209 1709 913Q1709 668 1587 447Q1468 232 1269 104Q1061 -30 826 -30Q530
-30 344 152Q256 239 207 361ZM330 640Q330 534 363 440T460 276Q594 128 817 128Q1010 128 1181 239Q1344 345 1440 522Q1537 702 1537 901Q1537 1125 1408 1270Q1274 1418 1050 1418Q856 1418 686 1306Q524 1200 428 1024Q330 845 330 640ZM1134 534Q1168 534
1168 474Q1168 402 1060 344Q978 300 889 300T738 323T632 390Q543 477 543 619Q543 891 718 1089Q822 1205 948 1250Q1010 1271 1073 1271T1183 1250T1257 1194Q1308 1131 1308 1048T1287 908T1232 808Q1159 711 1087 711Q1043 711 1019 738Q979 782 979 809T992
846Q1111 919 1154 1014Q1168 1046 1168 1075Q1168 1153 1090 1153Q1011 1153 927 1062Q807 930 762 732Q749 671 749 623T757 540T782 478Q818 425 880 425Q985 425 1089 511Q1116 534 1134 534Z" />
<glyph unicode="&#xaa;" glyph-name="ordfeminine" horiz-adv-x="1156" d="M913 829Q913 744 971 744Q1009 744 1035 756T1071 769Q1089 769 1089 750Q1089 672 1006 618Q949 582 903 582T832 591T786 622Q740 669 740 763Q740 780 749 839Q667 672 546 608Q497
582 442 582T346 604T277 666Q218 750 221 853T250 1034T315 1181T409 1310T520 1412Q645 1502 753 1502T923 1404Q983 1502 1030 1502Q1080 1502 1106 1484Q1156 1449 1142 1422Q921 969 914 858L913 829ZM484 727Q568 727 682 904Q793 1076 849 1278Q845 1344
799 1376Q783 1387 755 1387T690 1363T615 1298T543 1202T482 1086Q424 952 424 840T484 727Z" />
<glyph unicode="&#xab;" glyph-name="guillemotleft" horiz-adv-x="1356" d="M1237 1057Q1262 1057 1262 1026Q1262 952 1197 903L868 648L1135 350Q1152 332 1152 315T1144 286T1122 265Q1093 246 1062 246Q1006 246 973 279L695 571Q650 619 650 651T676 711T753
770L1202 1044Q1222 1057 1237 1057ZM727 1057Q752 1057 752 1026Q752 952 687 903L358 648L625 350Q642 332 642 315T634 286T612 265Q583 246 552 246Q496 246 463 279L185 571Q140 619 140 651T166 711T243 770L692 1044Q712 1057 727 1057Z" />
<glyph unicode="&#xac;" glyph-name="logicalnot" horiz-adv-x="1495" d="M227 639Q158 639 158 691Q158 726 180 751Q221 796 260 794H1246Q1297 792 1302 750Q1313 733 1313 705L1293 239Q1293 193 1252 160Q1213 130 1168 130Q1108 130 1108 186L1136 639H227Z" />
<glyph unicode="&#xad;" glyph-name="uni00AD" horiz-adv-x="1707" />
<glyph unicode="&#xae;" glyph-name="registered" horiz-adv-x="1520" d="M728 230Q618 230 517 269T344 380Q190 532 190 777Q190 978 291 1160Q389 1337 553 1444Q723 1554 917 1554Q1159 1554 1313 1404Q1467 1253 1467 1008Q1467 807 1366 624Q1270 448 1104
340Q934 230 728 230ZM726 361Q814 361 890 385T1033 452T1153 555T1246 686Q1327 833 1327 998Q1327 1185 1220 1302Q1110 1423 925 1423Q680 1423 504 1230Q331 1039 331 787Q331 600 438 482Q547 361 726 361ZM648 592T615 565T538 537T493 562Q493 581 523
634T574 755T612 883T645 991T688 1066Q738 1115 774 1115T810 1095Q810 1093 813 1091T813 1075Q785 982 767 914Q935 928 974 1030Q986 1059 986 1086T978 1129T957 1157Q890 1214 764 1161Q736 1149 711 1134L666 1106Q659 1102 648 1102T624 1108T598 1124Q572
1147 572 1168T597 1212T663 1253Q762 1299 844 1299T978 1286T1066 1247Q1143 1193 1143 1090Q1143 1009 1075 934Q1006 857 901 827Q920 805 937 774L971 714Q1013 642 1039 636T1077 625T1089 610T1079 585T1054 562Q1018 539 980 539T915 556T871 601T839 663L814
730Q782 811 755 834Q728 721 688 657ZM864 854Q864 854 865 854Q864 854 864 854Z" />
<glyph unicode="&#xaf;" glyph-name="overscore" horiz-adv-x="803" d="M138 1228Q138 1267 167 1299Q222 1358 274 1358L800 1368Q856 1370 856 1327Q856 1287 822 1250Q762 1183 727 1183T649 1183T557 1184T452 1186L344 1190Q222 1193 180 1196T138 1228Z" />
<glyph unicode="&#xb0;" glyph-name="degree" horiz-adv-x="831" d="M491 890Q226 890 226 1139Q226 1148 226 1157Q226 1234 260 1307T347 1434Q466 1555 633 1555Q814 1555 868 1418Q887 1369 887 1330V1283Q887 1210 854 1137T770 1010Q654 890 491 890ZM495
990Q571 990 632 1099Q688 1199 695 1292T681 1420T623 1455T552 1432T490 1366Q425 1273 415 1132T495 990Z" />
<glyph unicode="&#xb1;" glyph-name="plusminus" horiz-adv-x="1265" d="M616 324Q569 324 569 380V764H209Q140 764 140 813Q140 847 162 870Q204 911 242 909H569V1236Q567 1274 591 1298Q631 1338 665 1338Q714 1338 714 1269V909H1098Q1154 909 1154 862Q1154
827 1132 804Q1091 764 1045 764H714V433Q714 387 690 364Q651 324 616 324ZM1098 145Q1154 145 1154 98Q1154 63 1132 40Q1091 0 1045 0H209Q140 0 140 49Q140 83 162 106Q204 147 242 145H1098Z" />
<glyph unicode="&#xb2;" glyph-name="twosuperior" horiz-adv-x="938" d="M372 626Q428 655 479 655H619Q719 655 787 713Q798 723 812 713T827 675Q827 585 780 535T651 485Q608 485 554 500Q452 528 419 528T362 523T317 510Q280 497 263 488Q241 477 231 477T206
487T178 512Q149 546 154 578T188 651T263 735T364 824Q526 959 584 1013T684 1120Q778 1236 778 1337Q778 1415 709 1438Q689 1444 663 1444T610 1431T565 1396Q525 1353 525 1310Q525 1223 553 1199Q573 1189 573 1176T563 1148T537 1122Q498 1091 473 1091Q445
1091 418 1099Q328 1140 328 1261Q328 1370 420 1458Q521 1556 667 1556Q827 1556 908 1468Q969 1402 969 1305T933 1135T841 1003T715 897L580 806Q513 763 458 720T372 626Z" />
<glyph unicode="&#xb3;" glyph-name="threesuperior" horiz-adv-x="882" d="M704 984Q806 922 806 812Q806 691 692 589Q571 480 402 480Q291 480 220 546Q156 606 156 684Q156 740 182 774Q231 838 285 838T361 820T374 779T352 731T341 660Q341 579 407 579Q482
579 543 661Q601 738 601 824Q601 895 555 910Q543 914 532 914L455 905Q427 905 427 935Q427 995 476 1036Q492 1050 523 1059T600 1093T682 1153Q767 1233 767 1337Q767 1397 739 1425T675 1454T615 1442T573 1410Q534 1367 534 1323Q534 1270 553 1259T572 1235T562
1208T536 1182Q497 1151 465 1151T413 1162T382 1190Q357 1225 357 1275T382 1376T450 1467Q546 1556 676 1556Q827 1556 902 1482Q968 1417 968 1314Q968 1195 876 1098Q804 1023 704 984Z" />
<glyph unicode="&#xb4;" glyph-name="acute" horiz-adv-x="660" d="M282 1138Q243 1123 215 1122T178 1133Q157 1159 180 1180L226 1224Q374 1365 431 1575Q441 1615 506 1608Q559 1600 592 1554Q665 1452 527 1308Q416 1192 282 1138Z" />
<glyph unicode="&#xb5;" glyph-name="mu" horiz-adv-x="1266" d="M333 -10Q244 -10 196 48Q145 -154 113 -476Q104 -560 31 -560Q-5 -560 -29 -538Q-75 -495 -71 -439Q-39 34 188 564Q275 766 338 866Q446 1035 485 1035Q538 1035 569 1012Q623 971 610 944L516
760Q337 395 337 238Q337 169 402 169Q470 169 584 300Q677 409 768 568Q996 972 1011 991Q1044 1035 1077 1035T1136 1028T1179 1006Q1221 975 1206 944Q954 422 947 304Q945 282 945 252Q945 166 993 166Q1035 166 1069 184T1114 202Q1135 202 1135 180Q1135
94 1044 32Q947 -35 851 2Q785 28 754 108Q739 148 739 195Q739 278 758 352L698 272Q484 -10 333 -10Z" />
<glyph unicode="&#xb6;" glyph-name="paragraph" horiz-adv-x="1514" d="M1061 -36T1006 -86T906 -136T861 -105Q861 -89 872 -67Q964 81 1082 450Q1166 728 1198 845Q1261 1088 1280 1169L1306 1279Q1336 1442 1371 1490Q1344 1498 1312 1498Q1240 1492 1196
1468T1121 1389T1065 1244T1018 1062L980 896Q836 255 610 15Q474 -130 310 -130Q185 -130 118 -65Q58 -7 58 87Q58 175 126 254Q201 341 307 341Q356 341 381 320Q428 280 405 251Q392 235 374 223T336 192Q288 149 268 81Q251 27 296 0Q310 -8 342 -8T412 24T482
111T543 239T597 396T647 566L696 738Q559 767 472 869Q386 968 386 1073T422 1257T522 1399T676 1513T874 1596Q1095 1665 1356 1665Q1590 1665 1708 1662Q1738 1661 1738 1635Q1738 1592 1706 1553Q1644 1478 1586 1483H1577Q1527 1218 1390 799L1302 538Q1203
261 1117 75Q1061 -36 1006 -86ZM1428 1418L1427 1428Q1428 1423 1428 1418Z" />
<glyph unicode="&#xb7;" glyph-name="middot" horiz-adv-x="724" d="M412 530Q379 527 348 539T294 574Q246 621 246 674T260 757T297 805Q336 837 379 837T453 831T510 812Q573 780 573 720Q573 645 524 589Q479 537 412 530Z" />
<glyph unicode="&#xb8;" glyph-name="cedilla" horiz-adv-x="618" d="M332 -102Q332 -17 261 14Q261 36 272 54T311 73T371 48T428 -15Q484 -100 484 -175T464 -300T412 -386Q347 -460 262 -460Q215 -460 189 -433Q146 -388 146 -342Q146 -309 170 -304Q182 -301
197 -299T234 -283T273 -248T305 -203Q332 -153 332 -102Z" />
<glyph unicode="&#xb9;" glyph-name="onesuperior" horiz-adv-x="827" d="M384 503Q349 475 319 475T274 487T260 516Q260 541 306 621T396 794T474 974Q537 1137 576 1278Q484 1199 378 1179Q352 1174 325 1174T275 1192T252 1230T256 1255T268 1265T289 1273T329
1289T391 1325T462 1380T530 1439L590 1493Q653 1548 668 1548Q774 1548 813 1472Q824 1450 824 1424T813 1349T782 1242T739 1120T688 995L636 880Q506 601 384 503Z" />
<glyph unicode="&#xba;" glyph-name="ordmasculine" horiz-adv-x="1021" d="M643 608Q577 582 511 582T392 599T300 651Q217 726 215 869Q213 1015 286 1164Q357 1309 476 1403Q602 1502 740 1502Q931 1502 1000 1342Q1047 1230 1007 1063Q971 913 872 787Q772
660 643 608ZM498 694Q569 694 646 790Q762 931 806 1130Q825 1217 818 1272T800 1348Q780 1390 742 1390T668 1366T598 1300T531 1203T473 1085Q417 946 419 820T498 694Z" />
<glyph unicode="&#xbb;" glyph-name="guillemotright" horiz-adv-x="1363" d="M651 234Q626 234 626 264Q626 339 691 388L1019 642L753 941Q736 959 736 976T744 1005T766 1026Q795 1045 826 1045Q882 1045 915 1012L1193 720Q1238 672 1238 640T1212 580T1135
521L686 247Q666 234 651 234ZM141 234Q116 234 116 264Q116 339 181 388L509 642L243 941Q226 959 226 976T234 1005T256 1026Q285 1045 316 1045Q372 1045 405 1012L683 720Q728 672 728 640T702 580T625 521L176 247Q156 234 141 234Z" />
<glyph unicode="&#xbc;" glyph-name="onequarter" horiz-adv-x="2024" d="M589 41T551 16T461 -10T408 26Q408 56 432 93Q471 158 500 209L1128 1317L1260 1539Q1330 1652 1429 1652Q1477 1652 1477 1613Q1477 1564 1402 1450Q1381 1418 1344 1355L626 104Q589
41 551 16ZM1497 308Q1419 300 1370 300Q1284 300 1252 308T1197 334T1156 375Q1116 427 1118 468Q1118 482 1134 512L1226 684Q1338 897 1353 1071Q1355 1097 1385 1097T1441 1089T1490 1064Q1543 1024 1543 972T1519 849T1459 704Q1392 565 1303 437L1313 447Q1341
432 1395 432T1483 434L1550 438Q1616 612 1635 689T1659 781Q1669 808 1690 808T1739 799T1788 775Q1838 743 1838 709Q1838 630 1762 454Q1795 450 1819 423Q1861 375 1861 352Q1861 311 1818 317Q1768 324 1698 322Q1557 58 1440 2Q1416 -10 1398 -10T1368 2T1357
39T1384 100Q1437 173 1497 308ZM344 503Q309 475 279 475T234 487T220 516Q220 541 266 621T356 794T434 974Q497 1137 536 1278Q444 1199 338 1179Q312 1174 285 1174T235 1192T212 1230T216 1255T228 1265T249 1273T289 1289T351 1325T422 1380T490 1439L550
1493Q613 1548 628 1548Q734 1548 773 1472Q784 1450 784 1424T773 1349T742 1242T699 1120T648 995L596 880Q466 601 344 503Z" />
<glyph unicode="&#xbd;" glyph-name="onehalf" horiz-adv-x="2024" d="M589 41T551 16T461 -10T408 26Q408 56 432 93Q471 158 500 209L1128 1317L1260 1539Q1330 1652 1429 1652Q1477 1652 1477 1613Q1477 1564 1402 1450Q1381 1418 1344 1355L626 104Q589 41
551 16ZM1302 136Q1358 165 1409 165H1549Q1649 165 1717 223Q1728 233 1742 223T1757 185Q1757 95 1710 45T1581 -5Q1538 -5 1484 10Q1382 38 1349 38T1292 33T1247 20Q1210 7 1193 -2Q1171 -13 1161 -13T1136 -3T1108 22Q1079 56 1084 88T1118 161T1193 245T1294
334Q1456 469 1514 523T1614 630Q1708 746 1708 847Q1708 925 1639 948Q1619 954 1593 954T1540 941T1495 906Q1455 863 1455 820Q1455 733 1483 709Q1503 699 1503 686T1493 658T1467 632Q1428 601 1403 601Q1375 601 1348 609Q1258 650 1258 771Q1258 880 1350
968Q1451 1066 1597 1066Q1757 1066 1838 978Q1899 912 1899 815T1863 645T1771 513T1645 407L1510 316Q1443 273 1388 230T1302 136ZM344 503Q309 475 279 475T234 487T220 516Q220 541 266 621T356 794T434 974Q497 1137 536 1278Q444 1199 338 1179Q312 1174
285 1174T235 1192T212 1230T216 1255T228 1265T249 1273T289 1289T351 1325T422 1380T490 1439L550 1493Q613 1548 628 1548Q734 1548 773 1472Q784 1450 784 1424T773 1349T742 1242T699 1120T648 995L596 880Q466 601 344 503Z" />
<glyph unicode="&#xbe;" glyph-name="threequarters" horiz-adv-x="2064" d="M689 41T651 16T561 -10T508 26Q508 56 532 93Q571 158 600 209L1228 1317L1360 1539Q1430 1652 1529 1652Q1577 1652 1577 1613Q1577 1564 1502 1450Q1481 1418 1444 1355L726 104Q689
41 651 16ZM1578 309Q1497 300 1456 300Q1384 300 1352 308T1297 334T1256 375Q1216 427 1218 468Q1218 482 1234 512L1326 684Q1438 897 1453 1071Q1455 1097 1482 1097T1533 1089T1576 1064Q1623 1025 1623 972T1599 849T1539 704Q1472 565 1383 437Q1407 424
1455 424Q1521 424 1630 437Q1695 609 1714 688T1739 781Q1754 823 1816 798Q1865 779 1881 752T1898 709Q1898 625 1820 450Q1868 431 1894 372Q1901 357 1901 344Q1901 311 1867 316Q1803 324 1758 322Q1617 58 1500 2Q1476 -10 1457 -10Q1428 -10 1428 21T1460
94Q1518 173 1578 309ZM628 984Q730 922 730 812Q730 691 616 589Q495 480 326 480Q215 480 144 546Q80 606 80 684Q80 740 106 774Q155 838 209 838T285 820T298 779T276 731T265 660Q265 579 331 579Q406 579 467 661Q525 738 525 824Q525 895 479 910Q467 914
456 914L379 905Q351 905 351 935Q351 995 400 1036Q416 1050 447 1059T524 1093T606 1153Q691 1233 691 1337Q691 1397 663 1425T599 1454T539 1442T497 1410Q458 1367 458 1323Q458 1270 477 1259T496 1235T486 1208T460 1182Q421 1151 389 1151T337 1162T306
1190Q281 1225 281 1275T306 1376T374 1467Q470 1556 600 1556Q751 1556 826 1482Q892 1417 892 1314Q892 1195 800 1098Q728 1023 628 984Z" />
<glyph unicode="&#xbf;" glyph-name="questiondown" horiz-adv-x="1058" d="M680 756T694 769T727 782T763 753T780 664T754 545T686 435T590 336L370 159Q180 8 180 -126Q180 -194 217 -231T306 -268T393 -250T451 -203Q496 -148 496 -86Q496 -44 482 -14T467
27T477 56T506 90Q551 126 594 126T658 112T693 74Q718 32 718 -29T691 -154T613 -270Q499 -385 318 -385Q181 -385 93 -300Q7 -215 7 -85Q7 142 213 300L338 394Q508 519 592 624Q615 655 632 683T665 734ZM864 873T821 873T747 879T689 898Q627 930 627 990Q627
1065 676 1121Q728 1180 793 1180H800Q864 1180 911 1132Q954 1086 954 1034Q954 947 909 910Z" />
<glyph unicode="&#xc0;" glyph-name="Agrave" horiz-adv-x="1261" d="M744 227Q744 362 821 641Q580 635 452 627Q413 556 381 492L319 369Q196 127 98 50Q23 -10 -61 -10Q-125 -10 -158 32Q-170 49 -172 64T-165 85Q-50 128 22 216Q85 295 148 409L261 611L198
602Q138 591 138 621Q138 651 174 678Q237 725 297 740L340 750Q504 1021 590 1129T748 1309T899 1436Q1072 1555 1240 1555Q1291 1555 1309 1534Q1339 1501 1328 1464T1292 1356Q1132 920 1097 816Q1113 817 1126 817H1148Q1260 817 1268 795Q1270 788 1270 770T1259
727T1221 686Q1168 650 1043 644Q975 409 966 319T971 198T1015 166T1062 171T1094 184L1120 196Q1130 202 1140 202T1158 189T1165 153T1147 101T1098 46Q1028 -10 940 -10Q805 -10 760 110Q744 152 744 185V227ZM544 785Q722 808 874 812Q902 898 934 982L996
1142Q1028 1218 1059 1286L1117 1409Q909 1355 706 1050Q663 986 622 918L544 785ZM1265 1670Q1265 1633 1223 1633Q1119 1633 1015 1698Q901 1768 898 1855Q898 1909 928 1941Q981 1999 1043 1999Q1082 1999 1092 1955Q1123 1810 1231 1718Q1265 1689 1265 1670Z"
/>
<glyph unicode="&#xc1;" glyph-name="Aacute" horiz-adv-x="1261" d="M744 227Q744 362 821 641Q580 635 452 627Q413 556 381 492L319 369Q196 127 98 50Q23 -10 -61 -10Q-125 -10 -158 32Q-170 49 -172 64T-165 85Q-50 128 22 216Q85 295 148 409L261 611L198
602Q138 591 138 621Q138 651 174 678Q237 725 297 740L340 750Q504 1021 590 1129T748 1309T899 1436Q1072 1555 1240 1555Q1291 1555 1309 1534Q1339 1501 1328 1464T1292 1356Q1132 920 1097 816Q1113 817 1126 817H1148Q1260 817 1268 795Q1270 788 1270 770T1259
727T1221 686Q1168 650 1043 644Q975 409 966 319T971 198T1015 166T1062 171T1094 184L1120 196Q1130 202 1140 202T1158 189T1165 153T1147 101T1098 46Q1028 -10 940 -10Q805 -10 760 110Q744 152 744 185V227ZM544 785Q722 808 874 812Q902 898 934 982L996
1142Q1028 1218 1059 1286L1117 1409Q909 1355 706 1050Q663 986 622 918L544 785ZM1257 1671T1201 1651T1109 1629T1063 1640Q1044 1666 1066 1687L1112 1731Q1206 1817 1240 1910L1259 1965Q1272 2005 1334 1998Q1387 1992 1420 1952T1444 1865T1397 1778T1308
1704Z" />
<glyph unicode="&#xc2;" glyph-name="Acircumflex" horiz-adv-x="1261" d="M744 227Q744 362 821 641Q580 635 452 627Q413 556 381 492L319 369Q196 127 98 50Q23 -10 -61 -10Q-125 -10 -158 32Q-170 49 -172 64T-165 85Q-50 128 22 216Q85 295 148 409L261 611L198
602Q138 591 138 621Q138 651 174 678Q237 725 297 740L340 750Q504 1021 590 1129T748 1309T899 1436Q1072 1555 1240 1555Q1291 1555 1309 1534Q1339 1501 1328 1464T1292 1356Q1132 920 1097 816Q1113 817 1126 817H1148Q1260 817 1268 795Q1270 788 1270 770T1259
727T1221 686Q1168 650 1043 644Q975 409 966 319T971 198T1015 166T1062 171T1094 184L1120 196Q1130 202 1140 202T1158 189T1165 153T1147 101T1098 46Q1028 -10 940 -10Q805 -10 760 110Q744 152 744 185V227ZM544 785Q722 808 874 812Q902 898 934 982L996
1142Q1028 1218 1059 1286L1117 1409Q909 1355 706 1050Q663 986 622 918L544 785ZM1178 1793Q1048 1683 931 1641Q913 1633 890 1633T851 1639T822 1654Q796 1675 796 1698T823 1730T890 1758T980 1808Q1093 1879 1212 1992Q1225 2005 1260 1986Q1326 1952 1331
1924T1349 1864T1381 1800Q1414 1743 1459 1687Q1472 1667 1438 1648Q1404 1628 1351 1632T1248 1676T1178 1793Z" />
<glyph unicode="&#xc3;" glyph-name="Atilde" horiz-adv-x="1261" d="M744 227Q744 362 821 641Q580 635 452 627Q413 556 381 492L319 369Q196 127 98 50Q23 -10 -61 -10Q-125 -10 -158 32Q-170 49 -172 64T-165 85Q-50 128 22 216Q85 295 148 409L261 611L198
602Q138 591 138 621Q138 651 174 678Q237 725 297 740L340 750Q504 1021 590 1129T748 1309T899 1436Q1072 1555 1240 1555Q1291 1555 1309 1534Q1339 1501 1328 1464T1292 1356Q1132 920 1097 816Q1113 817 1126 817H1148Q1260 817 1268 795Q1270 788 1270 770T1259
727T1221 686Q1168 650 1043 644Q975 409 966 319T971 198T1015 166T1062 171T1094 184L1120 196Q1130 202 1140 202T1158 189T1165 153T1147 101T1098 46Q1028 -10 940 -10Q805 -10 760 110Q744 152 744 185V227ZM544 785Q722 808 874 812Q902 898 934 982L996
1142Q1028 1218 1059 1286L1117 1409Q909 1355 706 1050Q663 986 622 918L544 785ZM816 1656Q767 1656 770 1708T800 1807T871 1892Q967 1980 1067 1980Q1151 1980 1215 1904L1247 1868Q1282 1829 1313 1829T1366 1839T1407 1864Q1432 1885 1463 1933Q1476 1967
1500 1967Q1552 1967 1548 1905Q1542 1815 1443 1729Q1343 1642 1240 1642Q1155 1642 1093 1718L1062 1754Q1028 1793 997 1793T946 1783T910 1758Q885 1734 862 1695T816 1656Z" />
<glyph unicode="&#xc4;" glyph-name="Adieresis" horiz-adv-x="1261" d="M744 227Q744 362 821 641Q580 635 452 627Q413 556 381 492L319 369Q196 127 98 50Q23 -10 -61 -10Q-125 -10 -158 32Q-170 49 -172 64T-165 85Q-50 128 22 216Q85 295 148 409L261 611L198
602Q138 591 138 621Q138 651 174 678Q237 725 297 740L340 750Q504 1021 590 1129T748 1309T899 1436Q1072 1555 1240 1555Q1291 1555 1309 1534Q1339 1501 1328 1464T1292 1356Q1132 920 1097 816Q1113 817 1126 817H1148Q1260 817 1268 795Q1270 788 1270 770T1259
727T1221 686Q1168 650 1043 644Q975 409 966 319T971 198T1015 166T1062 171T1094 184L1120 196Q1130 202 1140 202T1158 189T1165 153T1147 101T1098 46Q1028 -10 940 -10Q805 -10 760 110Q744 152 744 185V227ZM544 785Q722 808 874 812Q902 898 934 982L996
1142Q1028 1218 1059 1286L1117 1409Q909 1355 706 1050Q663 986 622 918L544 785ZM1471 1693T1443 1679T1384 1661T1326 1670T1278 1706Q1235 1757 1235 1808T1251 1884T1293 1926Q1341 1957 1383 1957T1449 1951T1494 1931Q1542 1898 1542 1851T1529 1772T1493
1717ZM1011 1693T983 1679T924 1661T866 1670T818 1706Q775 1757 775 1808T791 1884T833 1926Q881 1957 923 1957T989 1951T1034 1931Q1082 1898 1082 1851T1069 1772T1033 1717Z" />
<glyph unicode="&#xc5;" glyph-name="Aring" horiz-adv-x="1261" d="M744 227Q744 362 821 641Q580 635 452 627Q413 556 381 492L319 369Q196 127 98 50Q23 -10 -61 -10Q-125 -10 -158 32Q-170 49 -172 64T-165 85Q-50 128 22 216Q85 295 148 409L261 611L198
602Q138 591 138 621Q138 651 174 678Q237 725 297 740L340 750Q504 1021 590 1129T748 1309T899 1436Q1072 1555 1240 1555Q1291 1555 1309 1534Q1339 1501 1328 1464T1292 1356Q1132 920 1097 816Q1113 817 1126 817H1148Q1260 817 1268 795Q1270 788 1270 770T1259
727T1221 686Q1168 650 1043 644Q975 409 966 319T971 198T1015 166T1062 171T1094 184L1120 196Q1130 202 1140 202T1158 189T1165 153T1147 101T1098 46Q1028 -10 940 -10Q805 -10 760 110Q744 152 744 185V227ZM544 785Q722 808 874 812Q902 898 934 982L996
1142Q1028 1218 1059 1286L1117 1409Q909 1355 706 1050Q663 986 622 918L544 785ZM1317 1535T1258 1510T1138 1484T1033 1495T958 1531Q892 1582 892 1680Q892 1798 982 1885Q1080 1979 1222 1979Q1379 1979 1430 1869Q1447 1831 1447 1778T1424 1671T1359 1577ZM1104
1582Q1117 1574 1141 1574T1190 1593T1234 1642Q1273 1706 1273 1784Q1273 1889 1202 1889Q1151 1889 1109 1828Q1064 1764 1064 1675Q1064 1609 1104 1582Z" />
<glyph unicode="&#xc6;" glyph-name="AE" horiz-adv-x="1800" d="M1799 1333Q1799 1417 1699 1417Q1508 1417 1352 1240Q1260 1136 1223 1015Q1205 956 1205 911T1215 840T1242 796Q1276 760 1321 768Q1370 788 1407 788T1467 779T1504 755Q1533 727 1533 701Q1533
650 1499 648Q1447 643 1390 619T1275 557T1172 470Q1069 360 1069 249Q1069 196 1094 169Q1167 88 1308 144Q1433 195 1540 324Q1572 362 1596 362T1632 334T1645 273Q1645 207 1620 176T1558 113T1468 54Q1343 -10 1200 -10Q959 -10 870 148Q838 207 838 265T853
372T892 462Q936 539 1009 603H989Q745 603 465 587L328 352Q266 245 224 187L162 102Q77 -10 -43 -10Q-107 -10 -140 32Q-152 49 -154 64T-147 85Q-90 106 -67 123L-30 150Q12 189 66 274L243 566L216 562Q156 551 156 581Q156 611 192 638Q256 686 328 703L368
766Q389 797 412 829L543 1031Q793 1404 994 1507Q1081 1553 1186 1553T1353 1488Q1483 1555 1601 1555T1783 1531T1885 1468Q1954 1398 1954 1289Q1954 1165 1850 1038Q1787 962 1737 935T1658 906T1605 912T1562 938Q1521 975 1521 1005Q1521 1042 1547 1062L1637
1126Q1799 1245 1799 1333ZM1182 1366Q1162 1370 1132 1370Q998 1370 768 1062Q667 928 565 756L558 745Q747 772 837 772T966 773L1045 775Q990 851 990 954Q990 1117 1102 1274Q1138 1323 1182 1366Z" />
<glyph unicode="&#xc7;" glyph-name="Ccedilla" horiz-adv-x="1093" d="M390 -102Q390 -17 319 14V24Q208 72 151 181T99 447T145 748T250 1013T398 1236T575 1407Q769 1555 953 1555Q1093 1555 1174 1458Q1243 1374 1243 1252Q1243 1106 1136 964Q1074 882 1004
846Q971 828 943 828T890 840T848 870Q811 909 811 940T827 983Q991 1101 1050 1226Q1073 1274 1073 1320Q1073 1417 981 1417Q837 1417 684 1260Q541 1115 444 896Q343 671 337 483L336 445Q336 220 431 150Q465 125 512 125T602 137T686 170Q754 205 860 291Q892
316 913 284Q931 258 931 224Q931 167 916 147T863 98T771 46Q645 -10 496 -10Q492 -10 489 -10T483 -9Q542 -98 542 -174T522 -300T470 -386Q405 -460 320 -460Q273 -460 247 -433Q204 -388 204 -342Q204 -309 228 -304Q240 -301 255 -299T292 -283T331 -248T363
-203Q390 -153 390 -102Z" />
<glyph unicode="&#xc8;" glyph-name="Egrave" horiz-adv-x="1044" d="M1043 1333Q1043 1417 943 1417Q752 1417 596 1240Q504 1136 467 1015Q449 956 449 911T459 840T486 796Q520 760 565 768Q614 788 651 788T711 779T748 755Q777 727 777 701Q777 650 743 648Q691
643 634 619T519 557T416 470Q313 360 313 249Q313 196 338 169Q380 122 438 122T551 144T652 199Q720 248 784 324Q816 362 840 362T876 334T889 273Q889 207 864 176T802 113T712 54Q587 -10 444 -10Q203 -10 114 148Q82 207 82 269T100 384T148 482T213 564T284
628Q353 682 398 689Q285 734 246 864Q234 906 234 966T257 1098T322 1237T422 1362T550 1463Q701 1555 868 1555Q1043 1555 1129 1468Q1198 1398 1198 1289Q1198 1165 1094 1038Q1031 962 981 935T902 906T849 912T806 938Q765 975 765 1005Q765 1042 791 1062L881
1126Q1043 1245 1043 1333ZM1041 1670Q1041 1633 999 1633Q895 1633 791 1698Q677 1768 674 1855Q674 1909 704 1941Q757 1999 819 1999Q858 1999 868 1955Q899 1810 1007 1718Q1041 1689 1041 1670Z" />
<glyph unicode="&#xc9;" glyph-name="Eacute" horiz-adv-x="1044" d="M1043 1333Q1043 1417 943 1417Q752 1417 596 1240Q504 1136 467 1015Q449 956 449 911T459 840T486 796Q520 760 565 768Q614 788 651 788T711 779T748 755Q777 727 777 701Q777 650 743 648Q691
643 634 619T519 557T416 470Q313 360 313 249Q313 196 338 169Q380 122 438 122T551 144T652 199Q720 248 784 324Q816 362 840 362T876 334T889 273Q889 207 864 176T802 113T712 54Q587 -10 444 -10Q203 -10 114 148Q82 207 82 269T100 384T148 482T213 564T284
628Q353 682 398 689Q285 734 246 864Q234 906 234 966T257 1098T322 1237T422 1362T550 1463Q701 1555 868 1555Q1043 1555 1129 1468Q1198 1398 1198 1289Q1198 1165 1094 1038Q1031 962 981 935T902 906T849 912T806 938Q765 975 765 1005Q765 1042 791 1062L881
1126Q1043 1245 1043 1333ZM1033 1671T977 1651T885 1629T839 1640Q820 1666 842 1687L888 1731Q982 1817 1016 1910L1035 1965Q1048 2005 1110 1998Q1163 1992 1196 1952T1220 1865T1173 1778T1084 1704Z" />
<glyph unicode="&#xca;" glyph-name="Ecircumflex" horiz-adv-x="1044" d="M1043 1333Q1043 1417 943 1417Q752 1417 596 1240Q504 1136 467 1015Q449 956 449 911T459 840T486 796Q520 760 565 768Q614 788 651 788T711 779T748 755Q777 727 777 701Q777 650
743 648Q691 643 634 619T519 557T416 470Q313 360 313 249Q313 196 338 169Q380 122 438 122T551 144T652 199Q720 248 784 324Q816 362 840 362T876 334T889 273Q889 207 864 176T802 113T712 54Q587 -10 444 -10Q203 -10 114 148Q82 207 82 269T100 384T148
482T213 564T284 628Q353 682 398 689Q285 734 246 864Q234 906 234 966T257 1098T322 1237T422 1362T550 1463Q701 1555 868 1555Q1043 1555 1129 1468Q1198 1398 1198 1289Q1198 1165 1094 1038Q1031 962 981 935T902 906T849 912T806 938Q765 975 765 1005Q765
1042 791 1062L881 1126Q1043 1245 1043 1333ZM954 1793Q824 1683 707 1641Q689 1633 666 1633T627 1639T598 1654Q572 1675 572 1698T599 1730T666 1758T756 1808Q869 1879 988 1992Q1001 2005 1036 1986Q1102 1952 1107 1924T1125 1864T1157 1800Q1190 1743 1235
1687Q1248 1667 1214 1648Q1180 1628 1127 1632T1024 1676T954 1793Z" />
<glyph unicode="&#xcb;" glyph-name="Edieresis" horiz-adv-x="1044" d="M1043 1333Q1043 1417 943 1417Q752 1417 596 1240Q504 1136 467 1015Q449 956 449 911T459 840T486 796Q520 760 565 768Q614 788 651 788T711 779T748 755Q777 727 777 701Q777 650 743
648Q691 643 634 619T519 557T416 470Q313 360 313 249Q313 196 338 169Q380 122 438 122T551 144T652 199Q720 248 784 324Q816 362 840 362T876 334T889 273Q889 207 864 176T802 113T712 54Q587 -10 444 -10Q203 -10 114 148Q82 207 82 269T100 384T148 482T213
564T284 628Q353 682 398 689Q285 734 246 864Q234 906 234 966T257 1098T322 1237T422 1362T550 1463Q701 1555 868 1555Q1043 1555 1129 1468Q1198 1398 1198 1289Q1198 1165 1094 1038Q1031 962 981 935T902 906T849 912T806 938Q765 975 765 1005Q765 1042
791 1062L881 1126Q1043 1245 1043 1333ZM1247 1693T1219 1679T1160 1661T1102 1670T1054 1706Q1011 1757 1011 1808T1027 1884T1069 1926Q1117 1957 1159 1957T1225 1951T1270 1931Q1318 1898 1318 1851T1305 1772T1269 1717ZM787 1693T759 1679T700 1661T642
1670T594 1706Q551 1757 551 1808T567 1884T609 1926Q657 1957 699 1957T765 1951T810 1931Q858 1898 858 1851T845 1772T809 1717Z" />
<glyph unicode="&#xcc;" glyph-name="Igrave" horiz-adv-x="671" d="M-8 92Q165 219 341 746Q443 1053 483 1300Q494 1369 494 1406Q453 1404 418 1384L343 1341Q312 1324 261 1368T213 1442T247 1492T316 1526Q398 1555 453 1555T551 1547T629 1518Q709 1472
711 1386Q715 1237 610 880Q444 315 220 86Q159 23 93 0Q75 -7 57 -7T23 -1T-2 16Q-23 35 -23 58T-8 92ZM764 1670Q764 1633 722 1633Q618 1633 514 1698Q400 1768 397 1855Q397 1909 427 1941Q480 1999 542 1999Q581 1999 591 1955Q622 1810 730 1718Q764 1689
764 1670Z" />
<glyph unicode="&#xcd;" glyph-name="Iacute" horiz-adv-x="671" d="M-8 92Q165 219 341 746Q443 1053 483 1300Q494 1369 494 1406Q453 1404 418 1384L343 1341Q312 1324 261 1368T213 1442T247 1492T316 1526Q398 1555 453 1555T551 1547T629 1518Q709 1472
711 1386Q715 1237 610 880Q444 315 220 86Q159 23 93 0Q75 -7 57 -7T23 -1T-2 16Q-23 35 -23 58T-8 92ZM756 1671T700 1651T608 1629T562 1640Q543 1666 565 1687L611 1731Q705 1817 739 1910L758 1965Q771 2005 833 1998Q886 1992 919 1952T943 1865T896 1778T807
1704Z" />
<glyph unicode="&#xce;" glyph-name="Icircumflex" horiz-adv-x="671" d="M-8 92Q165 219 341 746Q443 1053 483 1300Q494 1369 494 1406Q453 1404 418 1384L343 1341Q312 1324 261 1368T213 1442T247 1492T316 1526Q398 1555 453 1555T551 1547T629 1518Q709
1472 711 1386Q715 1237 610 880Q444 315 220 86Q159 23 93 0Q75 -7 57 -7T23 -1T-2 16Q-23 35 -23 58T-8 92ZM677 1793Q547 1683 430 1641Q412 1633 389 1633T350 1639T321 1654Q295 1675 295 1698T322 1730T389 1758T479 1808Q592 1879 711 1992Q724 2005 759
1986Q825 1952 830 1924T848 1864T880 1800Q913 1743 958 1687Q971 1667 937 1648Q903 1628 850 1632T747 1676T677 1793Z" />
<glyph unicode="&#xcf;" glyph-name="Idieresis" horiz-adv-x="671" d="M-8 92Q165 219 341 746Q443 1053 483 1300Q494 1369 494 1406Q453 1404 418 1384L343 1341Q312 1324 261 1368T213 1442T247 1492T316 1526Q398 1555 453 1555T551 1547T629 1518Q709 1472
711 1386Q715 1237 610 880Q444 315 220 86Q159 23 93 0Q75 -7 57 -7T23 -1T-2 16Q-23 35 -23 58T-8 92ZM970 1693T942 1679T883 1661T825 1670T777 1706Q734 1757 734 1808T750 1884T792 1926Q840 1957 882 1957T948 1951T993 1931Q1041 1898 1041 1851T1028 1772T992
1717ZM510 1693T482 1679T423 1661T365 1670T317 1706Q274 1757 274 1808T290 1884T332 1926Q380 1957 422 1957T488 1951T533 1931Q581 1898 581 1851T568 1772T532 1717Z" />
<glyph unicode="&#xd0;" glyph-name="Eth" horiz-adv-x="1291" d="M788 934Q832 934 832 894Q832 852 804 817Q752 754 715 754L477 762Q343 455 304 250Q299 221 295 200T290 162Q290 129 332 129T426 148T538 203T662 290T789 404T906 542T1002 698Q1093 878
1093 1053Q1093 1293 898 1372Q830 1399 757 1399T632 1390T534 1363Q439 1329 374 1272Q357 1262 333 1262T282 1276T232 1311Q182 1360 192 1405Q203 1469 384 1516Q536 1555 690 1555T967 1513T1168 1400Q1312 1266 1312 1041Q1312 743 1106 466Q917 209 656
76Q487 -10 345 -10Q234 -10 154 55Q68 124 81 221Q116 461 238 770L113 774Q56 774 56 813Q56 848 85 879Q137 936 166 934H309Q434 1200 474 1220Q504 1234 556 1234T634 1227T676 1207Q706 1182 686 1154Q620 1056 558 934H788Z" />
<glyph unicode="&#xd1;" glyph-name="Ntilde" horiz-adv-x="1450" d="M1071 103L1072 70Q1072 36 1053 17T1002 -2T929 25T844 116T755 290T682 526Q624 774 624 1045Q624 1180 639 1302L626 1284Q440 1018 296 486Q228 238 202 19Q198 -11 153 -11Q82 -11 50
62Q39 88 39 135T56 272T105 472T180 703T276 944T389 1171T514 1362Q656 1544 780 1550Q848 1554 866 1529Q886 1501 870 1433Q841 1316 841 1201T846 1007T862 849T886 691T918 542Q957 386 997 296Q1029 379 1067 462L1216 790Q1340 1068 1340 1236Q1340 1394
1275 1427Q1259 1434 1256 1453T1262 1491T1290 1524Q1330 1557 1378 1557T1468 1537T1536 1482Q1587 1417 1587 1329T1557 1146T1478 949T1371 740L1256 530Q1119 280 1078 150Q1071 130 1071 103ZM905 1656Q856 1656 859 1708T889 1807T960 1892Q1056 1980 1156
1980Q1240 1980 1304 1904L1336 1868Q1371 1829 1402 1829T1455 1839T1496 1864Q1521 1885 1552 1933Q1565 1967 1589 1967Q1641 1967 1637 1905Q1631 1815 1532 1729Q1432 1642 1329 1642Q1244 1642 1182 1718L1151 1754Q1117 1793 1086 1793T1035 1783T999 1758Q974
1734 951 1695T905 1656Z" />
<glyph unicode="&#xd2;" glyph-name="Ograve" horiz-adv-x="1342" d="M118 456Q122 576 155 708T247 964T384 1195T559 1383Q763 1555 987 1555Q1259 1555 1342 1308Q1372 1221 1369 1094T1330 834T1234 579T1092 349T916 162Q713 -10 510 -10Q328 -10 221 109Q112
231 118 456ZM393 724T362 603T328 398T337 267T373 188Q421 120 496 120T648 169T795 300T931 489T1045 712Q1187 1049 1149 1268Q1123 1420 983 1420Q855 1420 698 1246Q550 1084 444 840Q393 724 362 603ZM1220 1670Q1220 1633 1178 1633Q1074 1633 970 1698Q856
1768 853 1855Q853 1909 883 1941Q936 1999 998 1999Q1037 1999 1047 1955Q1078 1810 1186 1718Q1220 1689 1220 1670Z" />
<glyph unicode="&#xd3;" glyph-name="Oacute" horiz-adv-x="1342" d="M118 456Q122 576 155 708T247 964T384 1195T559 1383Q763 1555 987 1555Q1259 1555 1342 1308Q1372 1221 1369 1094T1330 834T1234 579T1092 349T916 162Q713 -10 510 -10Q328 -10 221 109Q112
231 118 456ZM393 724T362 603T328 398T337 267T373 188Q421 120 496 120T648 169T795 300T931 489T1045 712Q1187 1049 1149 1268Q1123 1420 983 1420Q855 1420 698 1246Q550 1084 444 840Q393 724 362 603ZM1212 1671T1156 1651T1064 1629T1018 1640Q999 1666
1021 1687L1067 1731Q1161 1817 1195 1910L1214 1965Q1227 2005 1289 1998Q1342 1992 1375 1952T1399 1865T1352 1778T1263 1704Z" />
<glyph unicode="&#xd4;" glyph-name="Ocircumflex" horiz-adv-x="1342" d="M118 456Q122 576 155 708T247 964T384 1195T559 1383Q763 1555 987 1555Q1259 1555 1342 1308Q1372 1221 1369 1094T1330 834T1234 579T1092 349T916 162Q713 -10 510 -10Q328 -10 221
109Q112 231 118 456ZM393 724T362 603T328 398T337 267T373 188Q421 120 496 120T648 169T795 300T931 489T1045 712Q1187 1049 1149 1268Q1123 1420 983 1420Q855 1420 698 1246Q550 1084 444 840Q393 724 362 603ZM1133 1793Q1003 1683 886 1641Q868 1633 845
1633T806 1639T777 1654Q751 1675 751 1698T778 1730T845 1758T935 1808Q1048 1879 1167 1992Q1180 2005 1215 1986Q1281 1952 1286 1924T1304 1864T1336 1800Q1369 1743 1414 1687Q1427 1667 1393 1648Q1359 1628 1306 1632T1203 1676T1133 1793Z" />
<glyph unicode="&#xd5;" glyph-name="Otilde" horiz-adv-x="1342" d="M118 456Q122 576 155 708T247 964T384 1195T559 1383Q763 1555 987 1555Q1259 1555 1342 1308Q1372 1221 1369 1094T1330 834T1234 579T1092 349T916 162Q713 -10 510 -10Q328 -10 221 109Q112
231 118 456ZM393 724T362 603T328 398T337 267T373 188Q421 120 496 120T648 169T795 300T931 489T1045 712Q1187 1049 1149 1268Q1123 1420 983 1420Q855 1420 698 1246Q550 1084 444 840Q393 724 362 603ZM771 1656Q722 1656 725 1708T755 1807T826 1892Q922
1980 1022 1980Q1106 1980 1170 1904L1202 1868Q1237 1829 1268 1829T1321 1839T1362 1864Q1387 1885 1418 1933Q1431 1967 1455 1967Q1507 1967 1503 1905Q1497 1815 1398 1729Q1298 1642 1195 1642Q1110 1642 1048 1718L1017 1754Q983 1793 952 1793T901 1783T865
1758Q840 1734 817 1695T771 1656Z" />
<glyph unicode="&#xd6;" glyph-name="Odieresis" horiz-adv-x="1342" d="M118 456Q122 576 155 708T247 964T384 1195T559 1383Q763 1555 987 1555Q1259 1555 1342 1308Q1372 1221 1369 1094T1330 834T1234 579T1092 349T916 162Q713 -10 510 -10Q328 -10 221
109Q112 231 118 456ZM393 724T362 603T328 398T337 267T373 188Q421 120 496 120T648 169T795 300T931 489T1045 712Q1187 1049 1149 1268Q1123 1420 983 1420Q855 1420 698 1246Q550 1084 444 840Q393 724 362 603ZM1426 1693T1398 1679T1339 1661T1281 1670T1233
1706Q1190 1757 1190 1808T1206 1884T1248 1926Q1296 1957 1338 1957T1404 1951T1449 1931Q1497 1898 1497 1851T1484 1772T1448 1717ZM966 1693T938 1679T879 1661T821 1670T773 1706Q730 1757 730 1808T746 1884T788 1926Q836 1957 878 1957T944 1951T989 1931Q1037
1898 1037 1851T1024 1772T988 1717Z" />
<glyph unicode="&#xd7;" glyph-name="multiply" horiz-adv-x="1174" d="M529 704L232 1019Q212 1040 212 1062T235 1099T284 1114Q336 1114 369 1081L629 804L906 1081Q939 1114 978 1114T1040 1099T1064 1062T1043 1019L725 702L1005 405Q1033 377 1033 353T1010
314T961 300Q910 300 883 329L625 602L352 329Q325 300 287 300T226 314T202 352T230 405L529 704Z" />
<glyph unicode="&#xd8;" glyph-name="Oslash" horiz-adv-x="1342" d="M120 -122Q124 -64 226 103Q50 292 156 708Q223 976 384 1195Q549 1418 762 1509Q871 1555 987 1555Q1037 1555 1087 1544L1132 1608Q1190 1687 1232 1706T1302 1725Q1345 1725 1380 1712T1416
1675T1391 1627T1326 1559L1245 1466Q1376 1346 1369 1095Q1361 838 1234 579Q1107 322 916 162Q713 -10 510 -10Q425 -10 352 18L292 -68Q264 -109 252 -133Q232 -170 200 -170Q158 -170 128 -138Q120 -130 120 -122ZM1023 1416Q1005 1420 983 1420Q855 1420 698
1246Q550 1084 444 840Q333 587 327 371Q325 309 338 264Q364 300 398 352L478 480L1023 1416ZM416 145Q451 120 511 120T648 169T795 300T931 489T1045 712Q1150 962 1156 1168Q1160 1266 1130 1332Q751 740 716 680Q458 224 416 145Z" />
<glyph unicode="&#xd9;" glyph-name="Ugrave" horiz-adv-x="1279" d="M1031 262Q1031 166 1102 166Q1144 166 1178 184T1223 202Q1244 202 1244 180Q1244 92 1150 32Q1086 -10 1028 -10T935 3T873 46Q818 106 818 225Q818 319 853 443T904 619L800 461Q477 -10
255 -10Q104 -10 56 116Q41 157 41 188V226Q41 352 182 688L390 1172Q450 1316 450 1350T438 1401T411 1428L384 1448Q372 1456 372 1472T388 1504T430 1532Q482 1555 532 1555T610 1545T656 1518Q691 1485 691 1439T674 1329T628 1192T562 1034L410 700Q265 381
265 278V263Q265 168 337 168Q469 168 680 499Q743 597 806 706L928 930Q1190 1437 1230 1508Q1250 1544 1287 1544T1349 1534T1392 1506Q1434 1466 1413 1426Q1318 1245 1182 847Q1031 409 1031 262ZM1110 1670Q1110 1633 1068 1633Q964 1633 860 1698Q746 1768
743 1855Q743 1909 773 1941Q826 1999 888 1999Q927 1999 937 1955Q968 1810 1076 1718Q1110 1689 1110 1670Z" />
<glyph unicode="&#xda;" glyph-name="Uacute" horiz-adv-x="1279" d="M1031 262Q1031 166 1102 166Q1144 166 1178 184T1223 202Q1244 202 1244 180Q1244 92 1150 32Q1086 -10 1028 -10T935 3T873 46Q818 106 818 225Q818 319 853 443T904 619L800 461Q477 -10
255 -10Q104 -10 56 116Q41 157 41 188V226Q41 352 182 688L390 1172Q450 1316 450 1350T438 1401T411 1428L384 1448Q372 1456 372 1472T388 1504T430 1532Q482 1555 532 1555T610 1545T656 1518Q691 1485 691 1439T674 1329T628 1192T562 1034L410 700Q265 381
265 278V263Q265 168 337 168Q469 168 680 499Q743 597 806 706L928 930Q1190 1437 1230 1508Q1250 1544 1287 1544T1349 1534T1392 1506Q1434 1466 1413 1426Q1318 1245 1182 847Q1031 409 1031 262ZM1102 1671T1046 1651T954 1629T908 1640Q889 1666 911 1687L957
1731Q1051 1817 1085 1910L1104 1965Q1117 2005 1179 1998Q1232 1992 1265 1952T1289 1865T1242 1778T1153 1704Z" />
<glyph unicode="&#xdb;" glyph-name="Ucircumflex" horiz-adv-x="1279" d="M1031 262Q1031 166 1102 166Q1144 166 1178 184T1223 202Q1244 202 1244 180Q1244 92 1150 32Q1086 -10 1028 -10T935 3T873 46Q818 106 818 225Q818 319 853 443T904 619L800 461Q477
-10 255 -10Q104 -10 56 116Q41 157 41 188V226Q41 352 182 688L390 1172Q450 1316 450 1350T438 1401T411 1428L384 1448Q372 1456 372 1472T388 1504T430 1532Q482 1555 532 1555T610 1545T656 1518Q691 1485 691 1439T674 1329T628 1192T562 1034L410 700Q265
381 265 278V263Q265 168 337 168Q469 168 680 499Q743 597 806 706L928 930Q1190 1437 1230 1508Q1250 1544 1287 1544T1349 1534T1392 1506Q1434 1466 1413 1426Q1318 1245 1182 847Q1031 409 1031 262ZM1023 1793Q893 1683 776 1641Q758 1633 735 1633T696 1639T667
1654Q641 1675 641 1698T668 1730T735 1758T825 1808Q938 1879 1057 1992Q1070 2005 1105 1986Q1171 1952 1176 1924T1194 1864T1226 1800Q1259 1743 1304 1687Q1317 1667 1283 1648Q1249 1628 1196 1632T1093 1676T1023 1793Z" />
<glyph unicode="&#xdc;" glyph-name="Udieresis" horiz-adv-x="1279" d="M1031 262Q1031 166 1102 166Q1144 166 1178 184T1223 202Q1244 202 1244 180Q1244 92 1150 32Q1086 -10 1028 -10T935 3T873 46Q818 106 818 225Q818 319 853 443T904 619L800 461Q477
-10 255 -10Q104 -10 56 116Q41 157 41 188V226Q41 352 182 688L390 1172Q450 1316 450 1350T438 1401T411 1428L384 1448Q372 1456 372 1472T388 1504T430 1532Q482 1555 532 1555T610 1545T656 1518Q691 1485 691 1439T674 1329T628 1192T562 1034L410 700Q265
381 265 278V263Q265 168 337 168Q469 168 680 499Q743 597 806 706L928 930Q1190 1437 1230 1508Q1250 1544 1287 1544T1349 1534T1392 1506Q1434 1466 1413 1426Q1318 1245 1182 847Q1031 409 1031 262ZM1316 1693T1288 1679T1229 1661T1171 1670T1123 1706Q1080
1757 1080 1808T1096 1884T1138 1926Q1186 1957 1228 1957T1294 1951T1339 1931Q1387 1898 1387 1851T1374 1772T1338 1717ZM856 1693T828 1679T769 1661T711 1670T663 1706Q620 1757 620 1808T636 1884T678 1926Q726 1957 768 1957T834 1951T879 1931Q927 1898
927 1851T914 1772T878 1717Z" />
<glyph unicode="&#xdd;" glyph-name="Yacute" horiz-adv-x="1189" d="M259 263Q259 168 331 168Q463 168 674 499Q737 597 800 706L922 930Q1184 1437 1224 1508Q1244 1544 1281 1544T1343 1534T1386 1506Q1428 1466 1407 1426Q1337 1296 1277 1135L1027 438Q987
332 944 234T848 38T733 -147T605 -310T468 -442Q319 -560 183 -560Q157 -560 132 -548T102 -514T109 -484T141 -468Q417 -365 662 82Q734 214 795 357Q865 542 885 599L784 445Q469 -10 249 -10Q100 -10 50 120Q35 161 35 190V228Q35 349 176 688L384 1172Q444
1317 444 1350T432 1401T405 1428L378 1448Q366 1456 366 1472T382 1504T424 1532Q476 1555 526 1555T604 1545T650 1518Q685 1485 685 1439T668 1329T622 1192T556 1034L404 700Q259 381 259 278V263ZM1088 1671T1032 1651T940 1629T894 1640Q875 1666 897 1687L943
1731Q1037 1817 1071 1910L1090 1965Q1103 2005 1165 1998Q1218 1992 1251 1952T1275 1865T1228 1778T1139 1704Z" />
<glyph unicode="&#xde;" glyph-name="Thorn" horiz-adv-x="1081" d="M804 424T683 395T472 365T337 369Q261 219 204 151Q70 -7 -19 -7Q-72 -7 -92 37Q-98 49 -98 65T-83 92Q90 219 266 746Q368 1053 408 1300Q419 1369 419 1406Q378 1404 344 1384L268 1341Q237
1324 185 1368Q69 1464 246 1526Q330 1556 372 1556T444 1554T500 1546Q545 1537 595 1501Q652 1459 629 1294Q621 1236 606 1162Q855 1168 988 1064Q1103 975 1103 847T1047 631T898 483ZM393 489Q614 507 752 606Q891 707 891 850Q891 970 796 1010Q760 1024
720 1024Q654 1024 619 1016T579 1007T569 1005Q495 721 393 489Z" />
<glyph unicode="&#xdf;" glyph-name="germandbls" horiz-adv-x="1066" d="M-15 -280Q-103 -280 -103 -219Q-103 -198 -74 -141T-6 29T66 267T132 524L196 788Q268 1072 318 1201T413 1414T514 1558Q631 1687 784 1687Q961 1687 1042 1582Q1102 1506 1102 1402T1076
1230T1012 1110T928 1018T844 937T779 853T753 761T770 674T814 598T871 521T928 441Q990 346 990 276T958 156T875 68Q767 -9 632 -9Q503 -9 430 54Q370 107 370 173Q370 241 417 282Q456 317 505 317Q545 317 545 276Q545 214 572 179Q621 115 695 115Q767 115
794 165Q803 183 803 208T785 264T739 330L680 406Q556 559 556 692Q556 813 650 946Q690 1002 737 1057T824 1171Q918 1310 918 1436T821 1562Q687 1562 586 1342Q503 1164 421 822L355 548Q233 34 126 -195Q99 -250 35 -272Q12 -280 -15 -280Z" />
<glyph unicode="&#xe0;" glyph-name="agrave" horiz-adv-x="1109" d="M838 266Q838 174 903 174Q948 174 977 188T1017 202Q1038 202 1038 180Q1038 94 948 32Q853 -33 754 0Q689 23 658 99Q643 138 643 170Q643 222 653 280Q560 90 422 18Q367 -10 305 -10T198
15T120 86Q55 180 61 322Q67 500 166 671Q257 831 396 932Q535 1035 656 1035T851 924Q920 1035 973 1035Q1030 1035 1059 1014Q1114 974 1098 944Q847 430 840 304Q838 286 838 266ZM283 262Q283 142 360 142Q419 142 505 242Q631 389 728 638Q759 716 780 794Q776
862 723 894Q705 905 670 905T587 879T495 808T412 702T344 568Q283 414 283 262ZM803 1563Q794 1396 794 1374Q794 1294 823 1226Q857 1172 857 1156T845 1131T806 1121T738 1151T659 1230Q572 1346 570 1463Q570 1519 599 1550Q654 1607 725 1607Q777 1607 796
1584Q803 1575 803 1563Z" />
<glyph unicode="&#xe1;" glyph-name="aacute" horiz-adv-x="1109" d="M838 266Q838 174 903 174Q948 174 977 188T1017 202Q1038 202 1038 180Q1038 94 948 32Q853 -33 754 0Q689 23 658 99Q643 138 643 170Q643 222 653 280Q560 90 422 18Q367 -10 305 -10T198
15T120 86Q55 180 61 322Q67 500 166 671Q257 831 396 932Q535 1035 656 1035T851 924Q920 1035 973 1035Q1030 1035 1059 1014Q1114 974 1098 944Q847 430 840 304Q838 286 838 266ZM283 262Q283 142 360 142Q419 142 505 242Q631 389 728 638Q759 716 780 794Q776
862 723 894Q705 905 670 905T587 879T495 808T412 702T344 568Q283 414 283 262ZM662 1138Q623 1123 595 1122T558 1133Q537 1159 560 1180L606 1224Q754 1365 811 1575Q821 1615 886 1608Q939 1600 972 1554Q1045 1452 907 1308Q796 1192 662 1138Z" />
<glyph unicode="&#xe2;" glyph-name="acircumflex" horiz-adv-x="1109" d="M838 266Q838 174 903 174Q948 174 977 188T1017 202Q1038 202 1038 180Q1038 94 948 32Q853 -33 754 0Q689 23 658 99Q643 138 643 170Q643 222 653 280Q560 90 422 18Q367 -10 305 -10T198
15T120 86Q55 180 61 322Q67 500 166 671Q257 831 396 932Q535 1035 656 1035T851 924Q920 1035 973 1035Q1030 1035 1059 1014Q1114 974 1098 944Q847 430 840 304Q838 286 838 266ZM283 262Q283 142 360 142Q419 142 505 242Q631 389 728 638Q759 716 780 794Q776
862 723 894Q705 905 670 905T587 879T495 808T412 702T344 568Q283 414 283 262ZM835 1367Q643 1199 519 1153Q499 1145 478 1145T439 1151T410 1167Q384 1189 384 1211T411 1243Q528 1282 739 1452Q809 1509 873 1575Q886 1588 921 1569Q987 1535 991 1511Q1028
1287 1091 1199Q1104 1179 1070 1160Q1036 1140 993 1144Q929 1148 889 1208T835 1367Z" />
<glyph unicode="&#xe3;" glyph-name="atilde" horiz-adv-x="1109" d="M838 266Q838 174 903 174Q948 174 977 188T1017 202Q1038 202 1038 180Q1038 94 948 32Q853 -33 754 0Q689 23 658 99Q643 138 643 170Q643 222 653 280Q560 90 422 18Q367 -10 305 -10T198
15T120 86Q55 180 61 322Q67 500 166 671Q257 831 396 932Q535 1035 656 1035T851 924Q920 1035 973 1035Q1030 1035 1059 1014Q1114 974 1098 944Q847 430 840 304Q838 286 838 266ZM283 262Q283 142 360 142Q419 142 505 242Q631 389 728 638Q759 716 780 794Q776
862 723 894Q705 905 670 905T587 879T495 808T412 702T344 568Q283 414 283 262ZM443 1225Q394 1225 397 1277T427 1376T498 1462Q594 1549 694 1549Q778 1549 842 1474L874 1437Q909 1398 940 1398T993 1408T1034 1433Q1059 1454 1090 1502Q1103 1536 1127 1536Q1179
1536 1175 1474Q1169 1384 1070 1298Q970 1211 867 1211Q782 1211 720 1286L689 1323Q655 1362 624 1362T573 1352T537 1327Q512 1303 489 1264T443 1225Z" />
<glyph unicode="&#xe4;" glyph-name="adieresis" horiz-adv-x="1109" d="M838 266Q838 174 903 174Q948 174 977 188T1017 202Q1038 202 1038 180Q1038 94 948 32Q853 -33 754 0Q689 23 658 99Q643 138 643 170Q643 222 653 280Q560 90 422 18Q367 -10 305 -10T198
15T120 86Q55 180 61 322Q67 500 166 671Q257 831 396 932Q535 1035 656 1035T851 924Q920 1035 973 1035Q1030 1035 1059 1014Q1114 974 1098 944Q847 430 840 304Q838 286 838 266ZM283 262Q283 142 360 142Q419 142 505 242Q631 389 728 638Q759 716 780 794Q776
862 723 894Q705 905 670 905T587 879T495 808T412 702T344 568Q283 414 283 262ZM1096 1243T1068 1229T1009 1211T951 1220T903 1256Q860 1307 860 1358T876 1434T918 1476Q966 1507 1008 1507T1074 1501T1119 1481Q1167 1448 1167 1401T1154 1322T1118 1267ZM636
1243T608 1229T549 1211T491 1220T443 1256Q400 1307 400 1358T416 1434T458 1476Q506 1507 548 1507T614 1501T659 1481Q707 1448 707 1401T694 1322T658 1267Z" />
<glyph unicode="&#xe5;" glyph-name="aring" horiz-adv-x="1109" d="M838 266Q838 174 903 174Q948 174 977 188T1017 202Q1038 202 1038 180Q1038 94 948 32Q853 -33 754 0Q689 23 658 99Q643 138 643 170Q643 222 653 280Q560 90 422 18Q367 -10 305 -10T198
15T120 86Q55 180 61 322Q67 500 166 671Q257 831 396 932Q535 1035 656 1035T851 924Q920 1035 973 1035Q1030 1035 1059 1014Q1114 974 1098 944Q847 430 840 304Q838 286 838 266ZM283 262Q283 142 360 142Q419 142 505 242Q631 389 728 638Q759 716 780 794Q776
862 723 894Q705 905 670 905T587 879T495 808T412 702T344 568Q283 414 283 262ZM933 1201T874 1176T754 1150T649 1161T574 1197Q508 1248 508 1346Q508 1464 599 1551Q696 1645 838 1645Q995 1645 1045 1535Q1063 1497 1063 1444T1040 1337T975 1243ZM720 1248Q733
1240 757 1240T806 1259T851 1308Q889 1372 889 1450Q889 1555 818 1555Q767 1555 725 1494Q680 1430 680 1341Q680 1275 720 1248Z" />
<glyph unicode="&#xe6;" glyph-name="ae" horiz-adv-x="1575" d="M1092 983Q1192 1035 1291 1035Q1462 1035 1520 894Q1539 846 1538 781T1513 660T1447 559T1346 477T1218 416Q1076 366 914 364Q910 350 909 322T915 260T938 198Q975 138 1043 138Q1159 138 1270
206Q1308 229 1332 253T1375 278T1406 257T1420 208Q1420 155 1390 116Q1264 -10 1015 -10Q839 -10 748 115Q716 158 700 218V219L694 243L678 294Q579 101 428 21Q370 -10 307 -10T198 15T120 86Q55 180 61 322Q67 500 166 671Q257 831 396 932Q535 1035 656 1035T851
924Q920 1035 973 1035Q1008 1035 1042 1021T1092 983ZM283 312Q283 142 360 142Q419 142 505 242Q631 389 728 638Q759 716 780 794Q776 862 723 894Q705 905 670 905T587 880T495 810T412 708T344 583Q283 441 283 312ZM1239 902Q1134 902 1038 758Q955 634 905
464Q1072 481 1194 596Q1308 704 1308 803T1239 902Z" />
<glyph unicode="&#xe7;" glyph-name="ccedilla" horiz-adv-x="953" d="M426 -9Q486 -96 486 -173T466 -300T414 -386Q349 -460 264 -460Q217 -460 191 -433Q148 -388 148 -342Q148 -309 172 -304Q184 -301 199 -299T235 -283T275 -248T307 -202Q334 -152 334 -110Q334
-26 279 6Q172 37 117 122T63 320T91 518T159 682T260 824T388 936Q532 1035 691 1035Q855 1035 914 904Q935 857 934 798T914 689T869 600Q808 512 746 512Q677 512 644 550Q615 583 626 627Q629 640 644 650T682 684Q747 752 750 843Q752 905 674 905Q590 905
498 811Q364 674 309 460Q261 274 327 188Q366 138 433 138Q546 138 651 218Q683 243 703 269T740 295T768 279T780 236Q780 177 727 120Q601 -1 426 -9Z" />
<glyph unicode="&#xe8;" glyph-name="egrave" horiz-adv-x="966" d="M76 350Q80 437 105 516T172 670T270 811T393 928Q536 1035 682 1035Q853 1035 910 894Q930 846 929 781T904 660T838 559T737 477T609 416Q467 366 305 364Q301 350 300 322T306 260T330 198Q366
138 434 138Q550 138 660 206Q699 229 723 253T766 278T797 257T811 208Q811 155 781 116Q655 -10 406 -10Q259 -10 170 78Q70 178 76 350ZM660 902Q555 902 458 758Q376 634 326 464Q493 481 616 596Q729 704 729 803T660 902ZM724 1563Q715 1396 715 1374Q715
1294 744 1226Q778 1172 778 1156T766 1131T727 1121T659 1151T580 1230Q493 1346 491 1463Q491 1519 520 1550Q575 1607 646 1607Q698 1607 717 1584Q724 1575 724 1563Z" />
<glyph unicode="&#xe9;" glyph-name="eacute" horiz-adv-x="966" d="M76 350Q80 437 105 516T172 670T270 811T393 928Q536 1035 682 1035Q853 1035 910 894Q930 846 929 781T904 660T838 559T737 477T609 416Q467 366 305 364Q301 350 300 322T306 260T330 198Q366
138 434 138Q550 138 660 206Q699 229 723 253T766 278T797 257T811 208Q811 155 781 116Q655 -10 406 -10Q259 -10 170 78Q70 178 76 350ZM660 902Q555 902 458 758Q376 634 326 464Q493 481 616 596Q729 704 729 803T660 902ZM583 1138Q544 1123 516 1122T479
1133Q458 1159 481 1180L527 1224Q675 1365 732 1575Q742 1615 807 1608Q860 1600 893 1554Q966 1452 828 1308Q717 1192 583 1138Z" />
<glyph unicode="&#xea;" glyph-name="ecircumflex" horiz-adv-x="966" d="M76 350Q80 437 105 516T172 670T270 811T393 928Q536 1035 682 1035Q853 1035 910 894Q930 846 929 781T904 660T838 559T737 477T609 416Q467 366 305 364Q301 350 300 322T306 260T330
198Q366 138 434 138Q550 138 660 206Q699 229 723 253T766 278T797 257T811 208Q811 155 781 116Q655 -10 406 -10Q259 -10 170 78Q70 178 76 350ZM660 902Q555 902 458 758Q376 634 326 464Q493 481 616 596Q729 704 729 803T660 902ZM756 1367Q564 1199 440
1153Q420 1145 399 1145T360 1151T331 1167Q305 1189 305 1211T332 1243Q449 1282 660 1452Q730 1509 794 1575Q807 1588 842 1569Q908 1535 912 1511Q949 1287 1012 1199Q1025 1179 991 1160Q957 1140 914 1144Q850 1148 810 1208T756 1367Z" />
<glyph unicode="&#xeb;" glyph-name="edieresis" horiz-adv-x="966" d="M76 350Q80 437 105 516T172 670T270 811T393 928Q536 1035 682 1035Q853 1035 910 894Q930 846 929 781T904 660T838 559T737 477T609 416Q467 366 305 364Q301 350 300 322T306 260T330
198Q366 138 434 138Q550 138 660 206Q699 229 723 253T766 278T797 257T811 208Q811 155 781 116Q655 -10 406 -10Q259 -10 170 78Q70 178 76 350ZM660 902Q555 902 458 758Q376 634 326 464Q493 481 616 596Q729 704 729 803T660 902ZM1017 1243T989 1229T930
1211T872 1220T824 1256Q781 1307 781 1358T797 1434T839 1476Q887 1507 929 1507T995 1501T1040 1481Q1088 1448 1088 1401T1075 1322T1039 1267ZM557 1243T529 1229T470 1211T412 1220T364 1256Q321 1307 321 1358T337 1434T379 1476Q427 1507 469 1507T535 1501T580
1481Q628 1448 628 1401T615 1322T579 1267Z" />
<glyph unicode="&#xec;" glyph-name="igrave" horiz-adv-x="586" d="M407 187Q433 187 433 153Q433 108 392 60Q332 -10 231 -10Q115 -10 72 84Q56 117 56 164T72 268T113 389T167 518L220 644Q278 785 278 830T269 889T248 912L228 926Q218 933 218 950T231 984T267
1012Q312 1035 372 1035Q519 1035 519 958Q519 868 472 753T392 566L332 428Q266 276 266 209Q266 165 310 165Q353 165 375 176T407 187ZM519 1563Q510 1396 510 1374Q510 1294 539 1226Q573 1172 573 1156T561 1131T522 1121T454 1151T375 1230Q288 1346 286
1463Q286 1519 315 1550Q370 1607 441 1607Q493 1607 512 1584Q519 1575 519 1563Z" />
<glyph unicode="&#xed;" glyph-name="iacute" horiz-adv-x="586" d="M407 187Q433 187 433 153Q433 108 392 60Q332 -10 231 -10Q115 -10 72 84Q56 117 56 164T72 268T113 389T167 518L220 644Q278 785 278 830T269 889T248 912L228 926Q218 933 218 950T231 984T267
1012Q312 1035 372 1035Q519 1035 519 958Q519 868 472 753T392 566L332 428Q266 276 266 209Q266 165 310 165Q353 165 375 176T407 187ZM378 1138Q339 1123 311 1122T274 1133Q253 1159 276 1180L322 1224Q470 1365 527 1575Q537 1615 602 1608Q655 1600 688
1554Q761 1452 623 1308Q512 1192 378 1138Z" />
<glyph unicode="&#xee;" glyph-name="icircumflex" horiz-adv-x="586" d="M407 187Q433 187 433 153Q433 108 392 60Q332 -10 231 -10Q115 -10 72 84Q56 117 56 164T72 268T113 389T167 518L220 644Q278 785 278 830T269 889T248 912L228 926Q218 933 218 950T231
984T267 1012Q312 1035 372 1035Q519 1035 519 958Q519 868 472 753T392 566L332 428Q266 276 266 209Q266 165 310 165Q353 165 375 176T407 187ZM551 1367Q359 1199 235 1153Q215 1145 194 1145T155 1151T126 1167Q100 1189 100 1211T127 1243Q244 1282 455 1452Q525
1509 589 1575Q602 1588 637 1569Q703 1535 707 1511Q744 1287 807 1199Q820 1179 786 1160Q752 1140 709 1144Q645 1148 605 1208T551 1367Z" />
<glyph unicode="&#xef;" glyph-name="idieresis" horiz-adv-x="586" d="M407 187Q433 187 433 153Q433 108 392 60Q332 -10 231 -10Q115 -10 72 84Q56 117 56 164T72 268T113 389T167 518L220 644Q278 785 278 830T269 889T248 912L228 926Q218 933 218 950T231
984T267 1012Q312 1035 372 1035Q519 1035 519 958Q519 868 472 753T392 566L332 428Q266 276 266 209Q266 165 310 165Q353 165 375 176T407 187ZM812 1243T784 1229T725 1211T667 1220T619 1256Q576 1307 576 1358T592 1434T634 1476Q682 1507 724 1507T790 1501T835
1481Q883 1448 883 1401T870 1322T834 1267ZM352 1243T324 1229T265 1211T207 1220T159 1256Q116 1307 116 1358T132 1434T174 1476Q222 1507 264 1507T330 1501T375 1481Q423 1448 423 1401T410 1322T374 1267Z" />
<glyph unicode="&#xf0;" glyph-name="eth" horiz-adv-x="1075" d="M1063 1317Q1084 1220 1084 1129T1071 943T1033 752T970 562T884 384T776 227T648 102Q502 -10 336 -10Q224 -10 154 70Q77 156 77 315Q77 469 164 639Q251 809 385 917Q531 1035 680 1035Q752
1035 799 1001T869 919Q903 1047 903 1169Q903 1224 901 1270Q788 1231 714 1193T626 1155Q599 1155 599 1183Q599 1218 641 1260T720 1329Q787 1378 881 1419Q861 1494 840 1531T809 1582L792 1606Q772 1633 772 1648Q772 1688 838 1688Q898 1688 974 1558Q997
1517 1017 1467Q1093 1489 1134 1489T1198 1481T1240 1456Q1282 1419 1282 1372Q1282 1348 1245 1344T1175 1336T1116 1328T1063 1317ZM802 745Q798 905 674 905Q589 905 498 805Q413 712 356 567Q297 420 297 282Q297 215 321 173T386 130T465 157T541 231T617
338T688 468Q754 602 802 745Z" />
<glyph unicode="&#xf1;" glyph-name="ntilde" horiz-adv-x="1149" d="M793 846Q762 846 705 787T606 678L521 576L357 367Q299 257 266 184L212 68Q191 25 176 8T134 -10T83 -1T40 24Q2 56 2 94Q2 109 24 153L62 234Q80 270 104 326L160 463Q278 758 278 844Q278
890 248 912L228 926Q218 933 218 950T231 984T267 1012Q312 1035 357 1035T428 1025T470 998Q507 963 507 925T498 849T474 771T443 693T414 627L394 584Q386 568 390 574Q501 728 536 772L606 856Q683 946 727 975Q816 1035 867 1035T953 1022T1014 985Q1069
934 1069 855T1033 690T971 551T920 442Q845 275 845 199Q845 165 899 165Q941 165 975 183T1020 201Q1041 201 1041 180Q1041 91 950 31Q889 -10 838 -10T754 1T694 36Q635 89 635 184Q635 300 708 474Q761 593 783 637L817 708Q848 772 848 809T793 846ZM450
1225Q401 1225 404 1277T434 1376T505 1462Q601 1549 701 1549Q785 1549 849 1474L881 1437Q916 1398 947 1398T1000 1408T1041 1433Q1066 1454 1097 1502Q1110 1536 1134 1536Q1186 1536 1182 1474Q1176 1384 1077 1298Q977 1211 874 1211Q789 1211 727 1286L696
1323Q662 1362 631 1362T580 1352T544 1327Q519 1303 496 1264T450 1225Z" />
<glyph unicode="&#xf2;" glyph-name="ograve" horiz-adv-x="1053" d="M122 108T98 169T73 315T93 485T154 651T249 801T372 923Q518 1035 675 1035Q881 1035 954 854Q1006 723 960 537Q918 366 806 223Q695 80 544 20Q468 -10 395 -10T264 9T164 68ZM325 479T308
401T291 254T312 145T379 105T469 136T556 220T635 340T700 482Q761 643 759 768Q759 878 714 908Q696 920 664 920T589 891T505 811T424 694T355 553ZM826 1563Q817 1396 817 1374Q817 1294 846 1226Q880 1172 880 1156T868 1131T829 1121T761 1151T682 1230Q595
1346 593 1463Q593 1519 622 1550Q677 1607 748 1607Q800 1607 819 1584Q826 1575 826 1563Z" />
<glyph unicode="&#xf3;" glyph-name="oacute" horiz-adv-x="1053" d="M122 108T98 169T73 315T93 485T154 651T249 801T372 923Q518 1035 675 1035Q881 1035 954 854Q1006 723 960 537Q918 366 806 223Q695 80 544 20Q468 -10 395 -10T264 9T164 68ZM325 479T308
401T291 254T312 145T379 105T469 136T556 220T635 340T700 482Q761 643 759 768Q759 878 714 908Q696 920 664 920T589 891T505 811T424 694T355 553ZM685 1138Q646 1123 618 1122T581 1133Q560 1159 583 1180L629 1224Q777 1365 834 1575Q844 1615 909 1608Q962
1600 995 1554Q1068 1452 930 1308Q819 1192 685 1138Z" />
<glyph unicode="&#xf4;" glyph-name="ocircumflex" horiz-adv-x="1053" d="M122 108T98 169T73 315T93 485T154 651T249 801T372 923Q518 1035 675 1035Q881 1035 954 854Q1006 723 960 537Q918 366 806 223Q695 80 544 20Q468 -10 395 -10T264 9T164 68ZM325
479T308 401T291 254T312 145T379 105T469 136T556 220T635 340T700 482Q761 643 759 768Q759 878 714 908Q696 920 664 920T589 891T505 811T424 694T355 553ZM858 1367Q666 1199 542 1153Q522 1145 501 1145T462 1151T433 1167Q407 1189 407 1211T434 1243Q551
1282 762 1452Q832 1509 896 1575Q909 1588 944 1569Q1010 1535 1014 1511Q1051 1287 1114 1199Q1127 1179 1093 1160Q1059 1140 1016 1144Q952 1148 912 1208T858 1367Z" />
<glyph unicode="&#xf5;" glyph-name="otilde" horiz-adv-x="1053" d="M122 108T98 169T73 315T93 485T154 651T249 801T372 923Q518 1035 675 1035Q881 1035 954 854Q1006 723 960 537Q918 366 806 223Q695 80 544 20Q468 -10 395 -10T264 9T164 68ZM325 479T308
401T291 254T312 145T379 105T469 136T556 220T635 340T700 482Q761 643 759 768Q759 878 714 908Q696 920 664 920T589 891T505 811T424 694T355 553ZM466 1225Q417 1225 420 1277T450 1376T521 1462Q617 1549 717 1549Q801 1549 865 1474L897 1437Q932 1398 963
1398T1016 1408T1057 1433Q1082 1454 1113 1502Q1126 1536 1150 1536Q1202 1536 1198 1474Q1192 1384 1093 1298Q993 1211 890 1211Q805 1211 743 1286L712 1323Q678 1362 647 1362T596 1352T560 1327Q535 1303 512 1264T466 1225Z" />
<glyph unicode="&#xf6;" glyph-name="odieresis" horiz-adv-x="1053" d="M122 108T98 169T73 315T93 485T154 651T249 801T372 923Q518 1035 675 1035Q881 1035 954 854Q1006 723 960 537Q918 366 806 223Q695 80 544 20Q468 -10 395 -10T264 9T164 68ZM325 479T308
401T291 254T312 145T379 105T469 136T556 220T635 340T700 482Q761 643 759 768Q759 878 714 908Q696 920 664 920T589 891T505 811T424 694T355 553ZM1119 1243T1091 1229T1032 1211T974 1220T926 1256Q883 1307 883 1358T899 1434T941 1476Q989 1507 1031 1507T1097
1501T1142 1481Q1190 1448 1190 1401T1177 1322T1141 1267ZM659 1243T631 1229T572 1211T514 1220T466 1256Q423 1307 423 1358T439 1434T481 1476Q529 1507 571 1507T637 1501T682 1481Q730 1448 730 1401T717 1322T681 1267Z" />
<glyph unicode="&#xf7;" glyph-name="divide" horiz-adv-x="1265" d="M756 1011T732 998T679 982T624 989T578 1019Q537 1060 537 1105T549 1176T580 1217Q614 1244 651 1244T714 1239T764 1222Q817 1193 817 1152T806 1082T775 1032ZM1118 829Q1174 829 1174
782Q1174 747 1152 724Q1111 684 1065 684H229Q160 684 160 733Q160 767 182 790Q224 831 262 829H1118ZM534 300T523 324T512 381T524 438T556 479Q589 506 626 506T689 501T738 484Q792 457 792 415T781 344T750 294Q710 250 668 246T600 251T554 281Z" />
<glyph unicode="&#xf8;" glyph-name="oslash" horiz-adv-x="1053" d="M100 -132Q105 -58 172 61Q75 145 73 316Q71 482 154 651Q237 819 372 923Q518 1035 675 1035Q717 1035 761 1024Q843 1144 901 1170Q935 1185 962 1185Q1005 1185 1040 1172T1076 1135T1051
1087T988 1021L909 931Q976 847 980 705Q982 540 900 372Q771 110 544 20Q468 -10 409 -10T315 -4Q286 -46 266 -80L227 -152Q212 -180 180 -180Q138 -180 108 -148Q100 -140 100 -132ZM287 194L714 911Q694 920 662 920T587 891T501 811T417 694T346 553Q279 389
281 251Q281 219 287 194ZM351 109Q364 105 395 105T471 136T560 220T641 340T708 482Q771 644 769 768Q769 794 766 817Q636 615 604 562Q384 178 351 109Z" />
<glyph unicode="&#xf9;" glyph-name="ugrave" horiz-adv-x="1133" d="M1005 197Q1028 197 1028 174Q1028 87 942 28Q884 -10 806 -10Q742 -10 708 20Q647 74 647 152Q647 251 730 455Q576 247 514 179T406 72Q306 -10 225 -10Q101 -10 60 97Q48 130 48 172T62
267T100 377T150 494L204 614Q308 845 281 888Q269 907 236 926Q224 933 224 950T238 984T276 1012Q325 1035 374 1035T448 1025T490 998Q523 965 523 925T510 836T476 728T430 608Q361 446 337 394L300 317Q269 248 269 220T278 181T310 169T365 191T433 250T510
335T588 436Q663 538 698 600Q910 975 924 992Q956 1035 989 1035T1048 1028T1091 1006Q1133 975 1118 944Q874 435 855 304Q850 259 850 242Q850 166 896 166Q939 166 967 181T1005 197ZM871 1563Q862 1396 862 1374Q862 1294 891 1226Q925 1172 925 1156T913
1131T874 1121T806 1151T727 1230Q640 1346 638 1463Q638 1519 667 1550Q722 1607 793 1607Q845 1607 864 1584Q871 1575 871 1563Z" />
<glyph unicode="&#xfa;" glyph-name="uacute" horiz-adv-x="1133" d="M1005 197Q1028 197 1028 174Q1028 87 942 28Q884 -10 806 -10Q742 -10 708 20Q647 74 647 152Q647 251 730 455Q576 247 514 179T406 72Q306 -10 225 -10Q101 -10 60 97Q48 130 48 172T62
267T100 377T150 494L204 614Q308 845 281 888Q269 907 236 926Q224 933 224 950T238 984T276 1012Q325 1035 374 1035T448 1025T490 998Q523 965 523 925T510 836T476 728T430 608Q361 446 337 394L300 317Q269 248 269 220T278 181T310 169T365 191T433 250T510
335T588 436Q663 538 698 600Q910 975 924 992Q956 1035 989 1035T1048 1028T1091 1006Q1133 975 1118 944Q874 435 855 304Q850 259 850 242Q850 166 896 166Q939 166 967 181T1005 197ZM730 1138Q691 1123 663 1122T626 1133Q605 1159 628 1180L674 1224Q822
1365 879 1575Q889 1615 954 1608Q1007 1600 1040 1554Q1113 1452 975 1308Q864 1192 730 1138Z" />
<glyph unicode="&#xfb;" glyph-name="ucircumflex" horiz-adv-x="1133" d="M1005 197Q1028 197 1028 174Q1028 87 942 28Q884 -10 806 -10Q742 -10 708 20Q647 74 647 152Q647 251 730 455Q576 247 514 179T406 72Q306 -10 225 -10Q101 -10 60 97Q48 130 48 172T62
267T100 377T150 494L204 614Q308 845 281 888Q269 907 236 926Q224 933 224 950T238 984T276 1012Q325 1035 374 1035T448 1025T490 998Q523 965 523 925T510 836T476 728T430 608Q361 446 337 394L300 317Q269 248 269 220T278 181T310 169T365 191T433 250T510
335T588 436Q663 538 698 600Q910 975 924 992Q956 1035 989 1035T1048 1028T1091 1006Q1133 975 1118 944Q874 435 855 304Q850 259 850 242Q850 166 896 166Q939 166 967 181T1005 197ZM903 1367Q711 1199 587 1153Q567 1145 546 1145T507 1151T478 1167Q452
1189 452 1211T479 1243Q596 1282 807 1452Q877 1509 941 1575Q954 1588 989 1569Q1055 1535 1059 1511Q1096 1287 1159 1199Q1172 1179 1138 1160Q1104 1140 1061 1144Q997 1148 957 1208T903 1367Z" />
<glyph unicode="&#xfc;" glyph-name="udieresis" horiz-adv-x="1133" d="M1005 197Q1028 197 1028 174Q1028 87 942 28Q884 -10 806 -10Q742 -10 708 20Q647 74 647 152Q647 251 730 455Q576 247 514 179T406 72Q306 -10 225 -10Q101 -10 60 97Q48 130 48 172T62
267T100 377T150 494L204 614Q308 845 281 888Q269 907 236 926Q224 933 224 950T238 984T276 1012Q325 1035 374 1035T448 1025T490 998Q523 965 523 925T510 836T476 728T430 608Q361 446 337 394L300 317Q269 248 269 220T278 181T310 169T365 191T433 250T510
335T588 436Q663 538 698 600Q910 975 924 992Q956 1035 989 1035T1048 1028T1091 1006Q1133 975 1118 944Q874 435 855 304Q850 259 850 242Q850 166 896 166Q939 166 967 181T1005 197ZM1164 1243T1136 1229T1077 1211T1019 1220T971 1256Q928 1307 928 1358T944
1434T986 1476Q1034 1507 1076 1507T1142 1501T1187 1481Q1235 1448 1235 1401T1222 1322T1186 1267ZM704 1243T676 1229T617 1211T559 1220T511 1256Q468 1307 468 1358T484 1434T526 1476Q574 1507 616 1507T682 1501T727 1481Q775 1448 775 1401T762 1322T726
1267Z" />
<glyph unicode="&#xfd;" glyph-name="yacute" horiz-adv-x="1126" d="M70 97Q58 130 58 172T72 267T110 377T160 494L214 614Q318 845 291 888Q279 907 246 926Q234 933 234 950T248 984T286 1012Q335 1035 384 1035T458 1025T500 998Q533 965 533 925T520 836T486
728T440 608Q371 446 347 394L310 317Q279 248 279 220T288 181T320 169T372 187T434 235T502 304T572 387Q661 497 704 576Q920 974 933 992Q966 1035 999 1035T1058 1028T1101 1006Q1141 977 1126 941T1088 842Q898 291 842 155T743 -63T645 -230T524 -383Q378
-539 250 -550Q201 -554 172 -536Q122 -506 122 -479Q122 -452 167 -442T261 -400T355 -326Q487 -200 560 -52Q622 78 660 194L738 432Q709 397 674 350L602 254Q508 135 446 85Q328 -10 235 -10Q111 -10 70 97ZM678 1138Q639 1123 611 1122T574 1133Q553 1159
576 1180L622 1224Q770 1365 827 1575Q837 1615 902 1608Q955 1600 988 1554Q1061 1452 923 1308Q812 1192 678 1138Z" />
<glyph unicode="&#xfe;" glyph-name="thorn" horiz-adv-x="1131" d="M254 96Q254 96 186 -100Q59 -465 2 -524Q-25 -551 -42 -555T-78 -560Q-139 -560 -166 -508Q-175 -492 -175 -473T-164 -429Q-51 -201 28 40T150 426L238 711Q416 1257 448 1384T490 1579T520
1666T567 1686T615 1679T652 1656Q690 1622 688 1574T675 1470T646 1348T605 1210Q542 1020 510 934L455 788Q537 907 592 950Q699 1035 808 1035Q981 1035 1036 852Q1054 789 1054 701T1027 524T954 356T846 210T716 94Q570 -10 446 -10T254 96ZM371 448T349 379T326
266T332 199T350 158Q377 120 425 120T521 146T615 218T700 323T769 452Q832 600 832 733Q832 805 813 845T755 885T672 854T583 772T490 655T408 519Z" />
<glyph unicode="&#xff;" glyph-name="ydieresis" horiz-adv-x="1126" d="M70 97Q58 130 58 172T72 267T110 377T160 494L214 614Q318 845 291 888Q279 907 246 926Q234 933 234 950T248 984T286 1012Q335 1035 384 1035T458 1025T500 998Q533 965 533 925T520
836T486 728T440 608Q371 446 347 394L310 317Q279 248 279 220T288 181T320 169T372 187T434 235T502 304T572 387Q661 497 704 576Q920 974 933 992Q966 1035 999 1035T1058 1028T1101 1006Q1141 977 1126 941T1088 842Q898 291 842 155T743 -63T645 -230T524
-383Q378 -539 250 -550Q201 -554 172 -536Q122 -506 122 -479Q122 -452 167 -442T261 -400T355 -326Q487 -200 560 -52Q622 78 660 194L738 432Q709 397 674 350L602 254Q508 135 446 85Q328 -10 235 -10Q111 -10 70 97ZM1112 1243T1084 1229T1025 1211T967 1220T919
1256Q876 1307 876 1358T892 1434T934 1476Q982 1507 1024 1507T1090 1501T1135 1481Q1183 1448 1183 1401T1170 1322T1134 1267ZM652 1243T624 1229T565 1211T507 1220T459 1256Q416 1307 416 1358T432 1434T474 1476Q522 1507 564 1507T630 1501T675 1481Q723
1448 723 1401T710 1322T674 1267Z" />
<glyph unicode="&#x2013;" glyph-name="endash" horiz-adv-x="1540" d="M235 540Q178 540 178 584Q178 624 207 659Q259 722 288 720H1354Q1398 720 1398 680Q1398 638 1370 603Q1318 540 1281 540H235Z" />
<glyph unicode="&#x2014;" glyph-name="emdash" horiz-adv-x="2185" d="M243 540Q186 540 186 584Q186 624 215 659Q267 722 296 720H2009Q2053 720 2053 680Q2053 638 2024 603Q1973 540 1936 540H243Z" />
<glyph unicode="&#x2018;" glyph-name="quoteleft" horiz-adv-x="549" d="M547 1246Q513 1166 404 1166Q348 1166 315 1215T282 1324T296 1426T334 1507T389 1580T454 1640Q526 1694 585 1694Q628 1694 632 1671Q634 1658 614 1636Q614 1636 572 1592Q488 1506
488 1440Q488 1380 513 1340T546 1282T547 1246Z" />
<glyph unicode="&#x2019;" glyph-name="quoteright" horiz-adv-x="549" d="M441 1187T407 1173T337 1158T297 1181Q295 1194 314 1216L357 1260Q441 1346 441 1412Q441 1472 416 1512T383 1570T386 1615T433 1665T525 1686T614 1637T647 1527T633 1426T595 1345T540
1272T475 1213Z" />
<glyph unicode="&#x201a;" glyph-name="quotesinglbase" horiz-adv-x="549" d="M153 9Q153 44 141 72T116 122T95 160T98 205T145 255T237 276T326 227T359 118T345 16T307 -65T252 -138T186 -198Q115 -252 56 -252Q13 -252 9 -229Q7 -216 26 -194L69 -150Q153
-64 153 9Z" />
<glyph unicode="&#x201c;" glyph-name="quotedblleft" horiz-adv-x="995" d="M809 1166Q692 1166 692 1309Q692 1450 826 1580Q943 1694 1034 1694Q1076 1694 1078 1671Q1079 1658 1057 1636L1010 1592Q880 1472 914 1370Q924 1341 934 1320T951 1282T943 1237T891
1187T809 1166ZM409 1166Q292 1166 292 1309Q292 1450 426 1580Q543 1694 634 1694Q676 1694 678 1671Q679 1658 657 1636L610 1592Q480 1472 514 1370Q524 1341 534 1320T551 1282T543 1237T491 1187T409 1166Z" />
<glyph unicode="&#x201d;" glyph-name="quotedblright" horiz-adv-x="985" d="M966 1719Q1083 1719 1083 1576Q1083 1435 949 1305Q832 1191 741 1191Q699 1191 697 1214Q696 1227 718 1248L766 1294Q858 1381 863 1434T860 1515T841 1565T824 1603T832 1648T884
1698T966 1719ZM566 1719Q683 1719 683 1576Q683 1435 549 1305Q432 1191 341 1191Q299 1191 297 1214Q296 1227 318 1248L366 1294Q493 1411 460 1516Q451 1544 441 1565T424 1603T432 1648T484 1698T566 1719Z" />
<glyph unicode="&#x201e;" glyph-name="quotedblbase" horiz-adv-x="949" d="M425 -247Q390 -235 426 -194L469 -150Q553 -64 553 2Q553 62 528 102T495 160T498 205T545 255T637 276T726 227T759 118T745 16T707 -65T652 -138T586 -198Q515 -252 456 -252Q440
-252 425 -247ZM153 9Q153 44 141 72T116 122T95 160T98 205T145 255T237 276T326 227T359 118T345 16T307 -65T252 -138T186 -198Q115 -252 56 -252Q13 -252 9 -229Q7 -216 26 -194L69 -150Q153 -64 153 9Z" />
<glyph unicode="&#x2022;" glyph-name="bullet" horiz-adv-x="895" d="M607 504T563 483T469 456T374 469T296 521Q229 590 229 670T255 798T321 876Q399 936 496 936Q646 936 700 821Q720 780 720 723T699 620T642 539Z" />
<glyph unicode="&#x2039;" glyph-name="guilsinglleft" horiz-adv-x="846" d="M727 1057Q752 1057 752 1026Q752 952 687 903L358 648L625 350Q642 332 642 315T634 286T612 265Q583 246 552 246Q496 246 463 279L185 571Q140 619 140 651T166 711T243 770L692
1044Q712 1057 727 1057Z" />
<glyph unicode="&#x203a;" glyph-name="guilsinglright" horiz-adv-x="853" d="M141 234Q116 234 116 264Q116 339 181 388L509 642L243 941Q226 959 226 976T234 1005T256 1026Q285 1045 316 1045Q372 1045 405 1012L683 720Q728 672 728 640T702 580T625 521L176
247Q156 234 141 234Z" />
</font>
</defs>
</svg>
