<?xml version="1.0" standalone="no"?>
<!DOCTYPE svg PUBLIC "-//W3C//DTD SVG 1.1//EN" "http://www.w3.org/Graphics/SVG/1.1/DTD/svg11.dtd" >
<svg xmlns="http://www.w3.org/2000/svg" xmlns:xlink="http://www.w3.org/1999/xlink" version="1.1">
<metadata>
Created by FontForge 20200306 at Fri Oct 14 23:21:38 2016
 By convertio
Copyright \(c\) 2016 by Ermin Me_edovi_. All rights reserved.
</metadata>
<defs>
<font id="FinoSans-Regular" horiz-adv-x="761" >
  <font-face 
    font-family="FinoSans-Regular"
    font-weight="400"
    font-stretch="normal"
    units-per-em="1000"
    panose-1="0 0 5 0 0 0 0 0 0 0"
    ascent="761"
    descent="-239"
    x-height="677"
    cap-height="677"
    bbox="-216 -217 1383 896"
    underline-thickness="50"
    underline-position="-186"
    stemh="18"
    stemv="91"
    unicode-range="U+000D-FB02"
  />
<missing-glyph horiz-adv-x="510" 
d="M50 677h409v-677h-409v677zM96 650l159 -285l159 285h-318zM240 338l-159 285v-570zM270 338l159 -285v570zM255 311l-158 -284h316z" />
    <glyph glyph-name="fi" unicode="fi" horiz-adv-x="571" 
d="M340 677v-18h-189v-310h144v-18h-144v-331h-86v677h275zM506 0h-86v677h86v-677z" />
    <glyph glyph-name="fl" unicode="fl" horiz-adv-x="727" 
d="M340 677v-18h-189v-310h144v-18h-144v-331h-86v677h275zM716 18v-18h-296v677h86v-659h210z" />
    <glyph glyph-name=".notdef" horiz-adv-x="510" 
d="M50 677h409v-677h-409v677zM96 650l159 -285l159 285h-318zM240 338l-159 285v-570zM270 338l159 -285v570zM255 311l-158 -284h316z" />
    <glyph glyph-name="A" unicode="A" horiz-adv-x="411" 
d="M301 0l-51 231h-159l-52 -231h-21l143 632l-10 45h89l150 -677h-89zM95 249h151l-75 338z" />
    <glyph glyph-name="Aacute" unicode="&#xc1;" horiz-adv-x="411" 
d="M324 784c-59 -30 -120 -48 -180 -56l-6 16c50 27 99 58 143 114zM301 0l-51 231h-159l-52 -231h-21l143 632l-10 45h89l150 -677h-89zM95 249h151l-75 338z" />
    <glyph glyph-name="Abreve" unicode="&#x102;" horiz-adv-x="411" 
d="M203 721c-76 0 -104 70 -105 141h14c8 -56 45 -85 91 -85s84 33 90 85h15c-1 -71 -30 -141 -105 -141zM301 0l-51 231h-159l-52 -231h-21l143 632l-10 45h89l150 -677h-89zM95 249h151l-75 338z" />
    <glyph glyph-name="uni01CD" unicode="&#x1cd;" horiz-adv-x="411" 
d="M238 725h-65l-98 122l14 14l116 -91l117 90l14 -13zM301 0l-51 231h-159l-52 -231h-21l143 632l-10 45h89l150 -677h-89zM95 249h151l-75 338z" />
    <glyph glyph-name="Acircumflex" unicode="&#xc2;" horiz-adv-x="411" 
d="M207 807l-119 -84l-12 12l96 118h71l97 -118l-13 -13zM301 0l-51 231h-159l-52 -231h-21l143 632l-10 45h89l150 -677h-89zM95 249h151l-75 338z" />
    <glyph glyph-name="Adieresis" unicode="&#xc4;" horiz-adv-x="411" 
d="M132 745c-25 0 -48 23 -48 49c0 28 23 50 48 50c29 0 48 -22 48 -50c0 -26 -19 -49 -48 -49zM278 745c-26 0 -49 23 -49 49c0 28 23 50 49 50c25 0 47 -22 47 -50c0 -26 -22 -49 -47 -49zM301 0l-51 231h-159l-52 -231h-21l143 632l-10 45h89l150 -677h-89zM95 249h151
l-75 338z" />
    <glyph glyph-name="Agrave" unicode="&#xc0;" horiz-adv-x="411" 
d="M287 740l-5 -14c-58 11 -125 34 -184 74l47 73c43 -64 89 -103 142 -133zM301 0l-51 231h-159l-52 -231h-21l143 632l-10 45h89l150 -677h-89zM95 249h151l-75 338z" />
    <glyph glyph-name="Amacron" unicode="&#x100;" horiz-adv-x="411" 
d="M320 786v-18h-231v18h231zM301 0l-51 231h-159l-52 -231h-21l143 632l-10 45h89l150 -677h-89zM95 249h151l-75 338z" />
    <glyph glyph-name="Aogonek" unicode="&#x104;" horiz-adv-x="411" 
d="M282 -181c16 0 33 5 49 16l9 -13c-25 -19 -55 -27 -84 -27c-49 0 -91 26 -91 77c0 69 72 110 136 129l-51 230h-159l-52 -231h-21l143 632l-10 45h89l150 -677h-65c-59 -30 -93 -78 -93 -125c0 -37 22 -56 50 -56zM95 249h151l-75 338z" />
    <glyph glyph-name="Aring" unicode="&#xc5;" horiz-adv-x="411" 
d="M205 721c-46 0 -76 30 -76 76c0 45 30 77 76 77c45 0 75 -31 75 -77c0 -44 -30 -76 -75 -76zM205 857c-32 0 -53 -24 -53 -60s21 -60 53 -60c31 0 52 24 52 60s-21 60 -52 60zM301 0l-51 231h-159l-52 -231h-21l143 632l-10 45h89l150 -677h-89zM95 249h151l-75 338z" />
    <glyph glyph-name="Atilde" unicode="&#xc3;" horiz-adv-x="411" 
d="M140 797c-18 0 -30 -11 -34 -50h-16c0 63 19 102 60 102c53 0 100 -50 127 -50c19 0 32 14 35 50h16c0 -64 -21 -102 -61 -102c-48 0 -99 50 -127 50zM301 0l-51 231h-159l-52 -231h-21l143 632l-10 45h89l150 -677h-89zM95 249h151l-75 338z" />
    <glyph glyph-name="AE" unicode="&#xc6;" horiz-adv-x="582" 
d="M356 18h214v-18h-300v223h-157l-88 -223h-21l267 677h280v-18h-195v-309h157v-18h-157v-314zM120 241h150v382z" />
    <glyph glyph-name="AEacute" unicode="&#x1fc;" horiz-adv-x="582" 
d="M532 784c-59 -30 -120 -48 -180 -56l-6 16c50 27 99 58 143 114zM356 18h214v-18h-300v223h-157l-88 -223h-21l267 677h280v-18h-195v-309h157v-18h-157v-314zM120 241h150v382z" />
    <glyph glyph-name="uni01E2" unicode="&#x1e2;" horiz-adv-x="582" 
d="M528 786v-18h-231v18h231zM356 18h214v-18h-300v223h-157l-88 -223h-21l267 677h280v-18h-195v-309h157v-18h-157v-314zM120 241h150v382z" />
    <glyph glyph-name="B" unicode="B" horiz-adv-x="439" 
d="M251 362c97 -10 152 -68 152 -168c0 -124 -62 -194 -173 -194h-165v677h156c103 0 156 -53 156 -157c0 -80 -40 -141 -126 -158zM151 659v-291h42c60 0 96 56 96 154c0 86 -26 137 -91 137h-47zM208 18c67 0 104 65 104 171c0 101 -40 161 -113 161h-48v-332h57z" />
    <glyph glyph-name="C" unicode="C" horiz-adv-x="640" 
d="M632 67c-62 -47 -138 -80 -237 -80c-185 0 -357 108 -357 354c0 230 177 350 374 350c65 0 136 -14 193 -46l-7 -11c-60 30 -127 38 -179 38c-179 0 -283 -119 -283 -333c0 -221 114 -332 266 -332c93 0 162 26 221 70z" />
    <glyph glyph-name="Cacute" unicode="&#x106;" horiz-adv-x="640" 
d="M514 784c-59 -30 -120 -48 -180 -56l-6 16c50 27 99 58 143 114zM632 67c-62 -47 -138 -80 -237 -80c-185 0 -357 108 -357 354c0 230 177 350 374 350c65 0 136 -14 193 -46l-7 -11c-60 30 -127 38 -179 38c-179 0 -283 -119 -283 -333c0 -221 114 -332 266 -332
c93 0 162 26 221 70z" />
    <glyph glyph-name="Ccaron" unicode="&#x10c;" horiz-adv-x="640" 
d="M428 725h-65l-98 122l14 14l116 -91l117 90l14 -13zM632 67c-62 -47 -138 -80 -237 -80c-185 0 -357 108 -357 354c0 230 177 350 374 350c65 0 136 -14 193 -46l-7 -11c-60 30 -127 38 -179 38c-179 0 -283 -119 -283 -333c0 -221 114 -332 266 -332c93 0 162 26 221 70
z" />
    <glyph glyph-name="Ccedilla" unicode="&#xc7;" horiz-adv-x="640" 
d="M410 -65c33 0 68 -23 68 -70c0 -53 -41 -79 -86 -79c-24 0 -48 7 -67 23l12 15c13 -11 28 -17 41 -17c24 0 44 19 44 57c0 31 -13 48 -34 48c-5 0 -11 -1 -17 -3l-12 10l27 68c-182 4 -348 112 -348 354c0 230 177 350 374 350c65 0 136 -14 193 -46l-7 -11
c-60 30 -127 38 -179 38c-179 0 -283 -119 -283 -333c0 -221 114 -332 266 -332c93 0 162 26 221 70l9 -10c-60 -45 -132 -77 -226 -80l-25 -58c9 4 19 6 29 6z" />
    <glyph glyph-name="Ccircumflex" unicode="&#x108;" horiz-adv-x="640" 
d="M362 853h71l97 -118l-13 -13l-120 85l-119 -84l-12 12zM632 67c-62 -47 -138 -80 -237 -80c-185 0 -357 108 -357 354c0 230 177 350 374 350c65 0 136 -14 193 -46l-7 -11c-60 30 -127 38 -179 38c-179 0 -283 -119 -283 -333c0 -221 114 -332 266 -332
c93 0 162 26 221 70z" />
    <glyph glyph-name="Cdotaccent" unicode="&#x10a;" horiz-adv-x="640" 
d="M343 792c0 29 24 53 52 53s50 -24 50 -53c0 -28 -22 -51 -50 -51s-52 23 -52 51zM632 67c-62 -47 -138 -80 -237 -80c-185 0 -357 108 -357 354c0 230 177 350 374 350c65 0 136 -14 193 -46l-7 -11c-60 30 -127 38 -179 38c-179 0 -283 -119 -283 -333
c0 -221 114 -332 266 -332c93 0 162 26 221 70z" />
    <glyph glyph-name="D" unicode="D" horiz-adv-x="677" 
d="M65 677h206c243 0 367 -113 367 -340c0 -213 -135 -337 -384 -337h-189v677zM151 18h94c201 0 295 130 295 319c0 206 -101 322 -293 322h-96v-641z" />
    <glyph glyph-name="Eth" unicode="&#xd0;" horiz-adv-x="677" 
d="M271 677c243 0 367 -113 367 -340c0 -213 -135 -337 -384 -337h-189v334h-43v18h43v325h206zM245 18c201 0 295 130 295 319c0 206 -101 322 -293 322h-96v-307h151v-18h-151v-316h94z" />
    <glyph glyph-name="Dcaron" unicode="&#x10e;" horiz-adv-x="677" 
d="M333 725h-65l-98 122l14 14l116 -91l117 90l14 -13zM65 677h206c243 0 367 -113 367 -340c0 -213 -135 -337 -384 -337h-189v677zM151 18h94c201 0 295 130 295 319c0 206 -101 322 -293 322h-96v-641z" />
    <glyph glyph-name="Dcroat" unicode="&#x110;" horiz-adv-x="677" 
d="M271 677c243 0 367 -113 367 -340c0 -213 -135 -337 -384 -337h-189v334h-43v18h43v325h206zM245 18c201 0 295 130 295 319c0 206 -101 322 -293 322h-96v-307h151v-18h-151v-316h94z" />
    <glyph glyph-name="E" unicode="E" horiz-adv-x="378" 
d="M365 18v-18h-300v677h281v-18h-195v-306h157v-18h-157v-317h214z" />
    <glyph glyph-name="Eacute" unicode="&#xc9;" horiz-adv-x="378" 
d="M330 784c-59 -30 -120 -48 -180 -56l-6 16c50 27 99 58 143 114zM365 18v-18h-300v677h281v-18h-195v-306h157v-18h-157v-317h214z" />
    <glyph glyph-name="Ebreve" unicode="&#x114;" horiz-adv-x="378" 
d="M209 721c-76 0 -104 70 -105 141h14c8 -56 45 -85 91 -85s84 33 90 85h15c-1 -71 -30 -141 -105 -141zM365 18v-18h-300v677h281v-18h-195v-306h157v-18h-157v-317h214z" />
    <glyph glyph-name="Ecaron" unicode="&#x11a;" horiz-adv-x="378" 
d="M244 725h-65l-98 122l14 14l116 -91l117 90l14 -13zM365 18v-18h-300v677h281v-18h-195v-306h157v-18h-157v-317h214z" />
    <glyph glyph-name="Ecircumflex" unicode="&#xca;" horiz-adv-x="378" 
d="M178 853h71l97 -118l-13 -13l-120 85l-119 -84l-12 12zM365 18v-18h-300v677h281v-18h-195v-306h157v-18h-157v-317h214z" />
    <glyph glyph-name="Edieresis" unicode="&#xcb;" horiz-adv-x="378" 
d="M90 794c0 28 23 50 48 50c29 0 48 -22 48 -50c0 -26 -19 -49 -48 -49c-25 0 -48 23 -48 49zM235 794c0 28 23 50 49 50c25 0 47 -22 47 -50c0 -26 -22 -49 -47 -49c-26 0 -49 23 -49 49zM365 18v-18h-300v677h281v-18h-195v-306h157v-18h-157v-317h214z" />
    <glyph glyph-name="Edotaccent" unicode="&#x116;" horiz-adv-x="378" 
d="M159 792c0 29 24 53 52 53s50 -24 50 -53c0 -28 -22 -51 -50 -51s-52 23 -52 51zM365 18v-18h-300v677h281v-18h-195v-306h157v-18h-157v-317h214z" />
    <glyph glyph-name="Egrave" unicode="&#xc8;" horiz-adv-x="378" 
d="M151 873c43 -64 89 -103 142 -133l-5 -14c-58 11 -125 34 -184 74zM365 18v-18h-300v677h281v-18h-195v-306h157v-18h-157v-317h214z" />
    <glyph glyph-name="Emacron" unicode="&#x112;" horiz-adv-x="378" 
d="M95 768v18h231v-18h-231zM365 18v-18h-300v677h281v-18h-195v-306h157v-18h-157v-317h214z" />
    <glyph glyph-name="Eogonek" unicode="&#x118;" horiz-adv-x="378" 
d="M371 -165l9 -13c-25 -19 -55 -27 -84 -27c-49 0 -91 26 -91 77c0 68 69 108 131 128h-271v677h281v-18h-195v-306h157v-18h-157v-317h214v-18c-59 -30 -93 -78 -93 -125c0 -37 22 -56 50 -56c16 0 33 5 49 16z" />
    <glyph glyph-name="uni1EBC" unicode="&#x1ebc;" horiz-adv-x="378" 
d="M334 849c0 -64 -21 -102 -61 -102c-48 0 -99 50 -127 50c-18 0 -30 -11 -34 -50h-16c0 63 19 102 60 102c53 0 100 -50 127 -50c19 0 32 14 35 50h16zM365 18v-18h-300v677h281v-18h-195v-306h157v-18h-157v-317h214z" />
    <glyph glyph-name="F" unicode="F" horiz-adv-x="355" 
d="M340 677v-18h-189v-310h144v-18h-144v-331h-86v677h275z" />
    <glyph glyph-name="G" unicode="G" horiz-adv-x="683" 
d="M447 334h195v-296c-71 -32 -153 -51 -238 -51c-206 0 -366 112 -366 343c0 246 184 361 382 361c71 0 143 -14 199 -46l-6 -11c-56 28 -121 38 -183 38c-177 0 -295 -117 -295 -337c0 -211 111 -330 278 -330c57 0 104 8 143 21v290h-109v18z" />
    <glyph glyph-name="Gbreve" unicode="&#x11e;" horiz-adv-x="683" 
d="M397 731c-93 0 -129 70 -129 141h18c7 -56 49 -85 111 -85c61 0 104 33 110 85h18c0 -71 -36 -141 -128 -141zM447 334h195v-296c-71 -32 -153 -51 -238 -51c-206 0 -366 112 -366 343c0 246 184 361 382 361c71 0 143 -14 199 -46l-6 -11c-56 28 -121 38 -183 38
c-177 0 -295 -117 -295 -337c0 -211 111 -330 278 -330c57 0 104 8 143 21v290h-109v18z" />
    <glyph glyph-name="Gcircumflex" unicode="&#x11c;" horiz-adv-x="683" 
d="M402 807l-119 -84l-12 12l96 118h71l97 -118l-13 -13zM447 334h195v-296c-71 -32 -153 -51 -238 -51c-206 0 -366 112 -366 343c0 246 184 361 382 361c71 0 143 -14 199 -46l-6 -11c-56 28 -121 38 -183 38c-177 0 -295 -117 -295 -337c0 -211 111 -330 278 -330
c57 0 104 8 143 21v290h-109v18z" />
    <glyph glyph-name="Gcommaaccent" unicode="&#x122;" horiz-adv-x="683" 
d="M447 334h195v-296c-71 -32 -153 -51 -238 -51c-206 0 -366 112 -366 343c0 246 184 361 382 361c71 0 143 -14 199 -46l-6 -11c-56 28 -121 38 -183 38c-177 0 -295 -117 -295 -337c0 -211 111 -330 278 -330c57 0 104 8 143 21v290h-109v18zM410 -53c29 0 41 -22 41 -48
c0 -37 -28 -85 -65 -116l-12 12c17 20 27 43 27 65c0 21 -10 39 -36 43c4 29 21 44 45 44z" />
    <glyph glyph-name="Gdotaccent" unicode="&#x120;" horiz-adv-x="683" 
d="M400 741c-28 0 -52 23 -52 51c0 29 24 53 52 53s50 -24 50 -53c0 -28 -22 -51 -50 -51zM447 334h195v-296c-71 -32 -153 -51 -238 -51c-206 0 -366 112 -366 343c0 246 184 361 382 361c71 0 143 -14 199 -46l-6 -11c-56 28 -121 38 -183 38c-177 0 -295 -117 -295 -337
c0 -211 111 -330 278 -330c57 0 104 8 143 21v290h-109v18z" />
    <glyph glyph-name="H" unicode="H" horiz-adv-x="494" 
d="M343 342h-192v-342h-86v677h86v-317h192v317h86v-677h-86v342z" />
    <glyph glyph-name="Hbar" unicode="&#x126;" horiz-adv-x="503" 
d="M496 507v-16h-63v-491h-86v328h-191v-328h-86v491h-63v16h63v170h86v-170h191v170h86v-170h63zM347 346v145h-191v-145h191z" />
    <glyph glyph-name="Hcircumflex" unicode="&#x124;" horiz-adv-x="494" 
d="M214 853h71l97 -118l-13 -13l-120 85l-119 -84l-12 12zM343 342h-192v-342h-86v677h86v-317h192v317h86v-677h-86v342z" />
    <glyph glyph-name="I" unicode="I" horiz-adv-x="216" 
d="M151 0h-86v677h86v-677z" />
    <glyph glyph-name="IJ" unicode="&#x132;" horiz-adv-x="517" 
d="M151 0h-86v677h86v-677zM368 677h86v-551c0 -137 -143 -168 -229 -106l10 14c53 -35 133 -38 133 53v590z" />
    <glyph glyph-name="Iacute" unicode="&#xcd;" horiz-adv-x="216" 
d="M227 784c-59 -30 -120 -48 -180 -56l-6 16c50 27 99 58 143 114zM151 0h-86v677h86v-677z" />
    <glyph glyph-name="Ibreve" unicode="&#x12c;" horiz-adv-x="216" 
d="M106 721c-76 0 -104 70 -105 141h14c8 -56 45 -85 91 -85s84 33 90 85h15c-1 -71 -30 -141 -105 -141zM151 0h-86v677h86v-677z" />
    <glyph glyph-name="uni01CF" unicode="&#x1cf;" horiz-adv-x="216" 
d="M141 725h-65l-98 122l14 14l116 -91l117 90l14 -13zM151 0h-86v677h86v-677z" />
    <glyph glyph-name="Icircumflex" unicode="&#xce;" horiz-adv-x="216" 
d="M75 853h71l97 -118l-13 -13l-120 85l-119 -84l-12 12zM151 0h-86v677h86v-677z" />
    <glyph glyph-name="Idieresis" unicode="&#xcf;" horiz-adv-x="216" 
d="M-13 794c0 28 23 50 48 50c29 0 48 -22 48 -50c0 -26 -19 -49 -48 -49c-25 0 -48 23 -48 49zM132 794c0 28 23 50 49 50c25 0 47 -22 47 -50c0 -26 -22 -49 -47 -49c-26 0 -49 23 -49 49zM151 0h-86v677h86v-677z" />
    <glyph glyph-name="Idotaccent" unicode="&#x130;" horiz-adv-x="216" 
d="M56 792c0 29 24 53 52 53s50 -24 50 -53c0 -28 -22 -51 -50 -51s-52 23 -52 51zM151 0h-86v677h86v-677z" />
    <glyph glyph-name="Igrave" unicode="&#xcc;" horiz-adv-x="216" 
d="M48 873c43 -64 89 -103 142 -133l-5 -14c-58 11 -125 34 -184 74zM151 0h-86v677h86v-677z" />
    <glyph glyph-name="Imacron" unicode="&#x12a;" horiz-adv-x="216" 
d="M-8 768v18h231v-18h-231zM151 0h-86v677h86v-677z" />
    <glyph glyph-name="Iogonek" unicode="&#x12e;" horiz-adv-x="216" 
d="M155 -165l9 -13c-25 -19 -55 -27 -84 -27c-49 0 -91 26 -91 77c0 68 69 108 131 128h-55v677h86v-677h-2c-59 -30 -93 -78 -93 -125c0 -37 22 -56 50 -56c16 0 33 5 49 16z" />
    <glyph glyph-name="Itilde" unicode="&#x128;" horiz-adv-x="216" 
d="M231 849c0 -64 -21 -102 -61 -102c-48 0 -99 50 -127 50c-18 0 -30 -11 -34 -50h-16c0 63 19 102 60 102c53 0 100 -50 127 -50c19 0 32 14 35 50h16zM151 0h-86v677h86v-677z" />
    <glyph glyph-name="J" unicode="J" horiz-adv-x="301" 
d="M152 677h86v-551c0 -137 -143 -168 -229 -106l10 14c53 -35 133 -38 133 53v590z" />
    <glyph glyph-name="Jcircumflex" unicode="&#x134;" horiz-adv-x="301" 
d="M156 853h71l97 -118l-13 -13l-120 85l-119 -84l-12 12zM152 677h86v-551c0 -137 -143 -168 -229 -106l10 14c53 -35 133 -38 133 53v590z" />
    <glyph glyph-name="K" unicode="K" horiz-adv-x="428" 
d="M65 0v677h86v-677h-86zM238 409l190 -409h-100l-152 340l198 337h21z" />
    <glyph glyph-name="Kcommaaccent" unicode="&#x136;" horiz-adv-x="428" 
d="M65 0v677h86v-677h-86zM238 409l190 -409h-100l-152 340l198 337h21zM227 -45c29 0 41 -22 41 -48c0 -37 -28 -85 -65 -116l-12 12c17 20 27 43 27 65c0 21 -10 39 -36 43c4 29 21 44 45 44z" />
    <glyph glyph-name="L" unicode="L" horiz-adv-x="372" 
d="M361 18v-18h-296v677h86v-659h210z" />
    <glyph glyph-name="Lacute" unicode="&#x139;" horiz-adv-x="372" 
d="M260 784c-59 -30 -120 -48 -180 -56l-6 16c50 27 99 58 143 114zM361 18v-18h-296v677h86v-659h210z" />
    <glyph glyph-name="Lcaron" unicode="&#x13d;" horiz-adv-x="396" 
d="M272 520c14 26 21 56 21 87c0 24 -5 49 -14 70l72 24c6 -16 8 -32 8 -49c0 -55 -31 -111 -73 -145zM361 18v-18h-296v677h86v-659h210z" />
    <glyph glyph-name="Lcommaaccent" unicode="&#x13b;" horiz-adv-x="372" 
d="M361 18v-18h-296v677h86v-659h210zM146 -197c17 20 27 43 27 65c0 21 -10 39 -36 43c4 29 21 44 45 44c29 0 41 -22 41 -48c0 -37 -28 -85 -65 -116z" />
    <glyph glyph-name="Ldot" unicode="&#x13f;" horiz-adv-x="391" 
d="M361 18v-18h-296v677h86v-659h210zM301 301c-30 0 -54 25 -54 57c0 31 24 56 54 56c31 0 55 -24 55 -56c0 -34 -24 -57 -55 -57z" />
    <glyph glyph-name="Lslash" unicode="&#x141;" horiz-adv-x="372" 
d="M151 18h210v-18h-296v288l-55 -40l-10 15l65 48v366h86v-314l97 71l10 -15l-107 -78v-323z" />
    <glyph glyph-name="M" unicode="M" horiz-adv-x="588" 
d="M440 677h82v-677h-85v594l-170 -600h-13l-168 569v-563h-20v619l-17 58h94l149 -522z" />
    <glyph glyph-name="N" unicode="N" horiz-adv-x="463" 
d="M378 677h20v-677h-89l-222 570v-570h-20v614l-25 63h91l245 -624v624z" />
    <glyph glyph-name="Nacute" unicode="&#x143;" horiz-adv-x="463" 
d="M357 784c-59 -30 -120 -48 -180 -56l-6 16c50 27 99 58 143 114zM378 677h20v-677h-89l-222 570v-570h-20v614l-25 63h91l245 -624v624z" />
    <glyph glyph-name="Ncaron" unicode="&#x147;" horiz-adv-x="463" 
d="M271 725h-65l-98 122l14 14l116 -91l117 90l14 -13zM378 677h20v-677h-89l-222 570v-570h-20v614l-25 63h91l245 -624v624z" />
    <glyph glyph-name="Ncommaaccent" unicode="&#x145;" horiz-adv-x="463" 
d="M378 677h20v-677h-89l-222 570v-570h-20v614l-25 63h91l245 -624v624zM227 -45c29 0 41 -22 41 -48c0 -37 -28 -85 -65 -116l-12 12c17 20 27 43 27 65c0 21 -10 39 -36 43c4 29 21 44 45 44z" />
    <glyph glyph-name="Ntilde" unicode="&#xd1;" horiz-adv-x="463" 
d="M173 797c-18 0 -30 -11 -34 -50h-16c0 63 19 102 60 102c53 0 100 -50 127 -50c19 0 32 14 35 50h16c0 -64 -21 -102 -61 -102c-48 0 -99 50 -127 50zM378 677h20v-677h-89l-222 570v-570h-20v614l-25 63h91l245 -624v624z" />
    <glyph glyph-name="O" unicode="O" horiz-adv-x="797" 
d="M399 -13c-215 0 -361 143 -361 351c0 210 147 353 360 353s361 -146 361 -351c0 -209 -150 -353 -360 -353zM399 3c158 0 263 133 263 335c0 205 -104 337 -264 337c-158 0 -263 -133 -263 -334c0 -204 103 -338 264 -338z" />
    <glyph glyph-name="Oacute" unicode="&#xd3;" horiz-adv-x="797" 
d="M517 784c-59 -30 -120 -48 -180 -56l-6 16c50 27 99 58 143 114zM399 -13c-215 0 -361 143 -361 351c0 210 147 353 360 353s361 -146 361 -351c0 -209 -150 -353 -360 -353zM399 3c158 0 263 133 263 335c0 205 -104 337 -264 337c-158 0 -263 -133 -263 -334
c0 -204 103 -338 264 -338z" />
    <glyph glyph-name="Obreve" unicode="&#x14e;" horiz-adv-x="797" 
d="M396 721c-76 0 -104 70 -105 141h14c8 -56 45 -85 91 -85s84 33 90 85h15c-1 -71 -30 -141 -105 -141zM399 -13c-215 0 -361 143 -361 351c0 210 147 353 360 353s361 -146 361 -351c0 -209 -150 -353 -360 -353zM399 3c158 0 263 133 263 335c0 205 -104 337 -264 337
c-158 0 -263 -133 -263 -334c0 -204 103 -338 264 -338z" />
    <glyph glyph-name="uni01D1" unicode="&#x1d1;" horiz-adv-x="797" 
d="M431 725h-65l-98 122l14 14l116 -91l117 90l14 -13zM399 -13c-215 0 -361 143 -361 351c0 210 147 353 360 353s361 -146 361 -351c0 -209 -150 -353 -360 -353zM399 3c158 0 263 133 263 335c0 205 -104 337 -264 337c-158 0 -263 -133 -263 -334
c0 -204 103 -338 264 -338z" />
    <glyph glyph-name="Ocircumflex" unicode="&#xd4;" horiz-adv-x="797" 
d="M365 853h71l97 -118l-13 -13l-120 85l-119 -84l-12 12zM399 -13c-215 0 -361 143 -361 351c0 210 147 353 360 353s361 -146 361 -351c0 -209 -150 -353 -360 -353zM399 3c158 0 263 133 263 335c0 205 -104 337 -264 337c-158 0 -263 -133 -263 -334
c0 -204 103 -338 264 -338z" />
    <glyph glyph-name="Odieresis" unicode="&#xd6;" horiz-adv-x="797" 
d="M277 794c0 28 23 50 48 50c29 0 48 -22 48 -50c0 -26 -19 -49 -48 -49c-25 0 -48 23 -48 49zM422 794c0 28 23 50 49 50c25 0 47 -22 47 -50c0 -26 -22 -49 -47 -49c-26 0 -49 23 -49 49zM399 -13c-215 0 -361 143 -361 351c0 210 147 353 360 353s361 -146 361 -351
c0 -209 -150 -353 -360 -353zM399 3c158 0 263 133 263 335c0 205 -104 337 -264 337c-158 0 -263 -133 -263 -334c0 -204 103 -338 264 -338z" />
    <glyph glyph-name="Ograve" unicode="&#xd2;" horiz-adv-x="797" 
d="M338 873c43 -64 89 -103 142 -133l-5 -14c-58 11 -125 34 -184 74zM399 -13c-215 0 -361 143 -361 351c0 210 147 353 360 353s361 -146 361 -351c0 -209 -150 -353 -360 -353zM399 3c158 0 263 133 263 335c0 205 -104 337 -264 337c-158 0 -263 -133 -263 -334
c0 -204 103 -338 264 -338z" />
    <glyph glyph-name="Ohungarumlaut" unicode="&#x150;" horiz-adv-x="797" 
d="M338 737l-13 11l74 148l65 -39zM435 726l-13 13l115 121l44 -59zM399 -13c-215 0 -361 143 -361 351c0 210 147 353 360 353s361 -146 361 -351c0 -209 -150 -353 -360 -353zM399 3c158 0 263 133 263 335c0 205 -104 337 -264 337c-158 0 -263 -133 -263 -334
c0 -204 103 -338 264 -338z" />
    <glyph glyph-name="Omacron" unicode="&#x14c;" horiz-adv-x="797" 
d="M282 768v18h231v-18h-231zM399 -13c-215 0 -361 143 -361 351c0 210 147 353 360 353s361 -146 361 -351c0 -209 -150 -353 -360 -353zM399 3c158 0 263 133 263 335c0 205 -104 337 -264 337c-158 0 -263 -133 -263 -334c0 -204 103 -338 264 -338z" />
    <glyph glyph-name="Oslash" unicode="&#xd8;" horiz-adv-x="797" 
d="M652 599c67 -63 107 -153 107 -259c0 -209 -150 -353 -360 -353c-95 0 -176 28 -237 76l-71 -77l-13 13l70 76c-70 63 -110 154 -110 263c0 210 147 353 360 353c95 0 177 -29 238 -79l73 80l15 -14zM135 341c0 -88 19 -163 54 -220l410 450c-46 66 -116 104 -201 104
c-158 0 -263 -133 -263 -334zM399 3c158 0 263 133 263 335c0 86 -18 160 -52 216l-410 -449c46 -65 114 -102 199 -102z" />
    <glyph glyph-name="Oslashacute" unicode="&#x1fe;" horiz-adv-x="797" 
d="M517 784c-59 -30 -120 -48 -180 -56l-6 16c50 27 99 58 143 114zM652 599c67 -63 107 -153 107 -259c0 -209 -150 -353 -360 -353c-95 0 -176 28 -237 76l-71 -77l-13 13l70 76c-70 63 -110 154 -110 263c0 210 147 353 360 353c95 0 177 -29 238 -79l73 80l15 -14z
M135 341c0 -88 19 -163 54 -220l410 450c-46 66 -116 104 -201 104c-158 0 -263 -133 -263 -334zM399 3c158 0 263 133 263 335c0 86 -18 160 -52 216l-410 -449c46 -65 114 -102 199 -102z" />
    <glyph glyph-name="Otilde" unicode="&#xd5;" horiz-adv-x="797" 
d="M547 849c0 -64 -27 -102 -74 -102c-60 0 -120 50 -156 50c-27 0 -42 -11 -47 -50h-17c0 63 26 102 74 102c64 0 120 -50 156 -50c27 0 43 14 47 50h17zM399 -13c-215 0 -361 143 -361 351c0 210 147 353 360 353s361 -146 361 -351c0 -209 -150 -353 -360 -353zM399 3
c158 0 263 133 263 335c0 205 -104 337 -264 337c-158 0 -263 -133 -263 -334c0 -204 103 -338 264 -338z" />
    <glyph glyph-name="OE" unicode="&#x152;" horiz-adv-x="975" 
d="M749 18h214v-18h-300v103c-63 -73 -156 -116 -264 -116c-215 0 -361 143 -361 351c0 210 147 353 360 353c109 0 202 -43 265 -116v102h281v-18h-195v-306h157v-18h-157v-317zM399 3c158 0 263 133 263 335c0 205 -104 337 -264 337c-158 0 -263 -133 -263 -334
c0 -204 103 -338 264 -338z" />
    <glyph glyph-name="P" unicode="P" horiz-adv-x="406" 
d="M65 677h133c118 0 180 -63 180 -192c0 -135 -74 -204 -196 -204h-31v-281h-86v677zM151 299h30c63 0 102 59 102 183s-35 177 -101 177h-31v-360z" />
    <glyph glyph-name="Thorn" unicode="&#xde;" horiz-adv-x="411" 
d="M151 153v-153h-86v677h86v-125h37c128 0 189 -63 189 -196s-73 -203 -195 -203h-31zM151 171h29c64 0 102 59 102 177c0 134 -37 186 -99 186h-32v-363z" />
    <glyph glyph-name="Q" unicode="Q" horiz-adv-x="797" 
d="M768 -132l13 -14c-39 -38 -92 -60 -150 -60c-91 0 -196 56 -273 195c-192 17 -320 154 -320 349c0 210 147 353 360 353s361 -146 361 -351c0 -192 -127 -329 -311 -350c61 -122 136 -172 206 -172c42 0 81 19 114 50zM135 341c0 -183 83 -310 216 -334l72 40
c6 -14 11 -28 17 -41c135 22 222 148 222 332c0 205 -100 337 -264 337c-158 0 -263 -133 -263 -334z" />
    <glyph glyph-name="R" unicode="R" horiz-adv-x="432" 
d="M357 217l56 -217h-92l-50 226c-19 76 -48 110 -90 110h-30v-336h-86v677h143c122 0 173 -72 173 -160c0 -107 -68 -163 -152 -173c63 -11 108 -49 128 -127zM151 659v-305h40c58 0 97 47 97 156c0 85 -19 149 -96 149h-41z" />
    <glyph glyph-name="Racute" unicode="&#x154;" horiz-adv-x="432" 
d="M324 784c-59 -30 -120 -48 -180 -56l-6 16c50 27 99 58 143 114zM357 217l56 -217h-92l-50 226c-19 76 -48 110 -90 110h-30v-336h-86v677h143c122 0 173 -72 173 -160c0 -107 -68 -163 -152 -173c63 -11 108 -49 128 -127zM151 659v-305h40c58 0 97 47 97 156
c0 85 -19 149 -96 149h-41z" />
    <glyph glyph-name="Rcaron" unicode="&#x158;" horiz-adv-x="432" 
d="M238 725h-65l-98 122l14 14l116 -91l117 90l14 -13zM357 217l56 -217h-92l-50 226c-19 76 -48 110 -90 110h-30v-336h-86v677h143c122 0 173 -72 173 -160c0 -107 -68 -163 -152 -173c63 -11 108 -49 128 -127zM151 659v-305h40c58 0 97 47 97 156c0 85 -19 149 -96 149
h-41z" />
    <glyph glyph-name="Rcommaaccent" unicode="&#x156;" horiz-adv-x="432" 
d="M357 217l56 -217h-92l-50 226c-19 76 -48 110 -90 110h-30v-336h-86v677h143c122 0 173 -72 173 -160c0 -107 -68 -163 -152 -173c63 -11 108 -49 128 -127zM151 659v-305h40c58 0 97 47 97 156c0 85 -19 149 -96 149h-41zM217 -45c29 0 41 -22 41 -48
c0 -37 -28 -85 -65 -116l-12 12c17 20 27 43 27 65c0 21 -10 39 -36 43c4 29 21 44 45 44z" />
    <glyph glyph-name="S" unicode="S" horiz-adv-x="364" 
d="M310 661l-7 -15c-32 15 -62 23 -97 22c-61 0 -99 -38 -99 -102c0 -73 40 -121 107 -188c91 -91 122 -135 122 -220c0 -102 -61 -168 -174 -168c-37 0 -89 10 -129 35l8 14c42 -24 82 -31 120 -31c61 0 103 25 104 101c0 68 -26 110 -107 188c-73 71 -122 131 -122 224
c0 103 70 165 168 165c39 0 75 -9 106 -25z" />
    <glyph glyph-name="Sacute" unicode="&#x15a;" horiz-adv-x="364" 
d="M311 784c-59 -30 -120 -48 -180 -56l-6 16c50 27 99 58 143 114zM310 661l-7 -15c-32 15 -62 23 -97 22c-61 0 -99 -38 -99 -102c0 -73 40 -121 107 -188c91 -91 122 -135 122 -220c0 -102 -61 -168 -174 -168c-37 0 -89 10 -129 35l8 14c42 -24 82 -31 120 -31
c61 0 103 25 104 101c0 68 -26 110 -107 188c-73 71 -122 131 -122 224c0 103 70 165 168 165c39 0 75 -9 106 -25z" />
    <glyph glyph-name="Scaron" unicode="&#x160;" horiz-adv-x="364" 
d="M225 725h-65l-98 122l14 14l116 -91l117 90l14 -13zM310 661l-7 -15c-32 15 -62 23 -97 22c-61 0 -99 -38 -99 -102c0 -73 40 -121 107 -188c91 -91 122 -135 122 -220c0 -102 -61 -168 -174 -168c-37 0 -89 10 -129 35l8 14c42 -24 82 -31 120 -31c61 0 103 25 104 101
c0 68 -26 110 -107 188c-73 71 -122 131 -122 224c0 103 70 165 168 165c39 0 75 -9 106 -25z" />
    <glyph glyph-name="Scedilla" unicode="&#x15e;" horiz-adv-x="364" 
d="M336 158c0 -95 -53 -159 -152 -167l-25 -57c9 4 19 6 29 6c33 0 68 -23 68 -70c0 -53 -41 -79 -86 -79c-24 0 -48 7 -67 23l12 15c13 -11 28 -17 41 -17c24 0 44 19 44 57c0 31 -13 48 -34 48c-5 0 -11 -1 -17 -3l-12 10l26 66h-1c-37 0 -89 10 -129 35l8 14
c42 -24 82 -31 120 -31c61 0 103 25 104 101c0 68 -26 110 -107 188c-73 71 -122 131 -122 224c0 103 70 165 168 165c39 0 75 -9 106 -25l-7 -15c-32 15 -62 23 -97 22c-61 0 -99 -38 -99 -102c0 -73 40 -121 107 -188c91 -91 122 -135 122 -220z" />
    <glyph glyph-name="Scircumflex" unicode="&#x15c;" horiz-adv-x="364" 
d="M159 853h71l97 -118l-13 -13l-120 85l-119 -84l-12 12zM310 661l-7 -15c-32 15 -62 23 -97 22c-61 0 -99 -38 -99 -102c0 -73 40 -121 107 -188c91 -91 122 -135 122 -220c0 -102 -61 -168 -174 -168c-37 0 -89 10 -129 35l8 14c42 -24 82 -31 120 -31
c61 0 103 25 104 101c0 68 -26 110 -107 188c-73 71 -122 131 -122 224c0 103 70 165 168 165c39 0 75 -9 106 -25z" />
    <glyph glyph-name="Scommaaccent" unicode="&#x218;" horiz-adv-x="364" 
d="M310 661l-7 -15c-32 15 -62 23 -97 22c-61 0 -99 -38 -99 -102c0 -73 40 -121 107 -188c91 -91 122 -135 122 -220c0 -102 -61 -168 -174 -168c-37 0 -89 10 -129 35l8 14c42 -24 82 -31 120 -31c61 0 103 25 104 101c0 68 -26 110 -107 188c-73 71 -122 131 -122 224
c0 103 70 165 168 165c39 0 75 -9 106 -25zM132 -200c17 20 27 43 27 65c0 21 -10 39 -36 43c4 29 21 44 45 44c29 0 41 -22 41 -48c0 -37 -28 -85 -65 -116z" />
    <glyph glyph-name="uni1E9E" unicode="&#x1e9e;" horiz-adv-x="497" 
d="M289 464c140 -147 183 -214 183 -304c0 -116 -81 -172 -165 -172c-36 0 -72 11 -103 30l7 14c28 -15 61 -25 91 -25c53 0 100 29 100 101c0 85 -60 161 -180 281v18l170 241c-36 15 -68 20 -97 20c-93 0 -149 -62 -149 -210v-458h-85v458c0 167 109 229 217 229
c48 0 95 -12 131 -30v-17z" />
    <glyph glyph-name="T" unicode="T" horiz-adv-x="404" 
d="M10 677h384v-18h-149v-659h-86v659h-149v18z" />
    <glyph glyph-name="Tbar" unicode="&#x166;" horiz-adv-x="418" 
d="M401 659h-149v-289h102v-18h-102v-352h-86v352h-101v18h101v289h-149v18h384v-18z" />
    <glyph glyph-name="Tcaron" unicode="&#x164;" horiz-adv-x="404" 
d="M235 725h-65l-98 122l14 14l116 -91l117 90l14 -13zM10 677h384v-18h-149v-659h-86v659h-149v18z" />
    <glyph glyph-name="uni0162" unicode="&#x162;" horiz-adv-x="404" 
d="M245 0h-27l-28 -63c9 4 19 6 29 6c33 0 68 -23 68 -70c0 -53 -41 -79 -86 -79c-24 0 -48 7 -67 23l12 15c13 -11 28 -17 41 -17c24 0 44 19 44 57c0 31 -13 48 -34 48c-5 0 -11 -1 -17 -3l-12 10l29 73h-38v659h-149v18h384v-18h-149v-659z" />
    <glyph glyph-name="uni021A" unicode="&#x21a;" horiz-adv-x="404" 
d="M10 677h384v-18h-149v-659h-86v659h-149v18zM163 -197c17 20 27 43 27 65c0 21 -10 39 -36 43c4 29 21 44 45 44c29 0 41 -22 41 -48c0 -37 -28 -85 -65 -116z" />
    <glyph glyph-name="U" unicode="U" horiz-adv-x="458" 
d="M64 677h86v-489c0 -124 32 -177 109 -177c56 0 119 21 119 180v486h20v-484c0 -155 -61 -206 -153 -206c-123 0 -181 57 -181 223v467z" />
    <glyph glyph-name="Uacute" unicode="&#xda;" horiz-adv-x="458" 
d="M362 784c-59 -30 -120 -48 -180 -56l-6 16c50 27 99 58 143 114zM64 677h86v-489c0 -124 32 -177 109 -177c56 0 119 21 119 180v486h20v-484c0 -155 -61 -206 -153 -206c-123 0 -181 57 -181 223v467z" />
    <glyph glyph-name="Ubreve" unicode="&#x16c;" horiz-adv-x="458" 
d="M241 721c-76 0 -104 70 -105 141h14c8 -56 45 -85 91 -85s84 33 90 85h15c-1 -71 -30 -141 -105 -141zM64 677h86v-489c0 -124 32 -177 109 -177c56 0 119 21 119 180v486h20v-484c0 -155 -61 -206 -153 -206c-123 0 -181 57 -181 223v467z" />
    <glyph glyph-name="uni01D3" unicode="&#x1d3;" horiz-adv-x="458" 
d="M276 725h-65l-98 122l14 14l116 -91l117 90l14 -13zM64 677h86v-489c0 -124 32 -177 109 -177c56 0 119 21 119 180v486h20v-484c0 -155 -61 -206 -153 -206c-123 0 -181 57 -181 223v467z" />
    <glyph glyph-name="Ucircumflex" unicode="&#xdb;" horiz-adv-x="458" 
d="M210 853h71l97 -118l-13 -13l-120 85l-119 -84l-12 12zM64 677h86v-489c0 -124 32 -177 109 -177c56 0 119 21 119 180v486h20v-484c0 -155 -61 -206 -153 -206c-123 0 -181 57 -181 223v467z" />
    <glyph glyph-name="Udieresis" unicode="&#xdc;" horiz-adv-x="458" 
d="M122 794c0 28 23 50 48 50c29 0 48 -22 48 -50c0 -26 -19 -49 -48 -49c-25 0 -48 23 -48 49zM267 794c0 28 23 50 49 50c25 0 47 -22 47 -50c0 -26 -22 -49 -47 -49c-26 0 -49 23 -49 49zM64 677h86v-489c0 -124 32 -177 109 -177c56 0 119 21 119 180v486h20v-484
c0 -155 -61 -206 -153 -206c-123 0 -181 57 -181 223v467z" />
    <glyph glyph-name="Ugrave" unicode="&#xd9;" horiz-adv-x="458" 
d="M183 873c43 -64 89 -103 142 -133l-5 -14c-58 11 -125 34 -184 74zM64 677h86v-489c0 -124 32 -177 109 -177c56 0 119 21 119 180v486h20v-484c0 -155 -61 -206 -153 -206c-123 0 -181 57 -181 223v467z" />
    <glyph glyph-name="Uhungarumlaut" unicode="&#x170;" horiz-adv-x="458" 
d="M183 737l-13 11l74 148l65 -39zM280 726l-13 13l115 121l44 -59zM64 677h86v-489c0 -124 32 -177 109 -177c56 0 119 21 119 180v486h20v-484c0 -155 -61 -206 -153 -206c-123 0 -181 57 -181 223v467z" />
    <glyph glyph-name="Umacron" unicode="&#x16a;" horiz-adv-x="458" 
d="M127 768v18h231v-18h-231zM64 677h86v-489c0 -124 32 -177 109 -177c56 0 119 21 119 180v486h20v-484c0 -155 -61 -206 -153 -206c-123 0 -181 57 -181 223v467z" />
    <glyph glyph-name="Uogonek" unicode="&#x172;" horiz-adv-x="458" 
d="M378 677h20v-484c0 -124 -39 -182 -102 -200c-45 -29 -70 -71 -70 -111c0 -37 22 -56 50 -56c16 0 33 5 49 16l9 -13c-25 -19 -55 -27 -84 -27c-49 0 -91 26 -91 77c0 50 38 85 82 108c-120 1 -177 59 -177 223v467h86v-489c0 -124 32 -177 109 -177c56 0 119 21 119 180
v486z" />
    <glyph glyph-name="Uring" unicode="&#x16e;" horiz-adv-x="458" 
d="M243 874c45 0 75 -31 75 -77c0 -44 -30 -76 -75 -76c-46 0 -76 30 -76 76c0 45 30 77 76 77zM295 797c0 36 -21 60 -52 60c-32 0 -53 -24 -53 -60s21 -60 53 -60c31 0 52 24 52 60zM64 677h86v-489c0 -124 32 -177 109 -177c56 0 119 21 119 180v486h20v-484
c0 -155 -61 -206 -153 -206c-123 0 -181 57 -181 223v467z" />
    <glyph glyph-name="Utilde" unicode="&#x168;" horiz-adv-x="458" 
d="M366 849c0 -64 -21 -102 -61 -102c-48 0 -99 50 -127 50c-18 0 -30 -11 -34 -50h-16c0 63 19 102 60 102c53 0 100 -50 127 -50c19 0 32 14 35 50h16zM64 677h86v-489c0 -124 32 -177 109 -177c56 0 119 21 119 180v486h20v-484c0 -155 -61 -206 -153 -206
c-123 0 -181 57 -181 223v467z" />
    <glyph glyph-name="V" unicode="V" horiz-adv-x="408" 
d="M365 677h21l-135 -677h-87l-143 677h90l131 -627z" />
    <glyph glyph-name="W" unicode="W" horiz-adv-x="578" 
d="M530 677h21l-102 -677h-80l-79 448l-82 -448h-80l-104 677h88l89 -604l79 430l-16 92h85l91 -525z" />
    <glyph glyph-name="Wacute" unicode="&#x1e82;" horiz-adv-x="578" 
d="M425 784c-59 -30 -120 -48 -180 -56l-6 16c50 27 99 58 143 114zM530 677h21l-102 -677h-80l-79 448l-82 -448h-80l-104 677h88l89 -604l79 430l-16 92h85l91 -525z" />
    <glyph glyph-name="Wcircumflex" unicode="&#x174;" horiz-adv-x="578" 
d="M308 807l-119 -84l-12 12l96 118h71l97 -118l-13 -13zM530 677h21l-102 -677h-80l-79 448l-82 -448h-80l-104 677h88l89 -604l79 430l-16 92h85l91 -525z" />
    <glyph glyph-name="Wdieresis" unicode="&#x1e84;" horiz-adv-x="578" 
d="M233 745c-25 0 -48 23 -48 49c0 28 23 50 48 50c29 0 48 -22 48 -50c0 -26 -19 -49 -48 -49zM379 745c-26 0 -49 23 -49 49c0 28 23 50 49 50c25 0 47 -22 47 -50c0 -26 -22 -49 -47 -49zM530 677h21l-102 -677h-80l-79 448l-82 -448h-80l-104 677h88l89 -604l79 430
l-16 92h85l91 -525z" />
    <glyph glyph-name="Wgrave" unicode="&#x1e80;" horiz-adv-x="578" 
d="M388 740l-5 -14c-58 11 -125 34 -184 74l47 73c43 -64 89 -103 142 -133zM530 677h21l-102 -677h-80l-79 448l-82 -448h-80l-104 677h88l89 -604l79 430l-16 92h85l91 -525z" />
    <glyph glyph-name="X" unicode="X" horiz-adv-x="385" 
d="M375 0h-97l-113 297l-129 -297h-21l141 321l-136 356h96l103 -270l113 270h21l-124 -296z" />
    <glyph glyph-name="Y" unicode="Y" horiz-adv-x="397" 
d="M373 677l-130 -377v-300h-86v289l-135 388h92l118 -349l120 349h21z" />
    <glyph glyph-name="Yacute" unicode="&#xdd;" horiz-adv-x="397" 
d="M328 784c-59 -30 -120 -48 -180 -56l-6 16c50 27 99 58 143 114zM373 677l-130 -377v-300h-86v289l-135 388h92l118 -349l120 349h21z" />
    <glyph glyph-name="Ycircumflex" unicode="&#x176;" horiz-adv-x="397" 
d="M211 807l-119 -84l-12 12l96 118h71l97 -118l-13 -13zM373 677l-130 -377v-300h-86v289l-135 388h92l118 -349l120 349h21z" />
    <glyph glyph-name="Ydieresis" unicode="&#x178;" horiz-adv-x="397" 
d="M136 745c-25 0 -48 23 -48 49c0 28 23 50 48 50c29 0 48 -22 48 -50c0 -26 -19 -49 -48 -49zM282 745c-26 0 -49 23 -49 49c0 28 23 50 49 50c25 0 47 -22 47 -50c0 -26 -22 -49 -47 -49zM373 677l-130 -377v-300h-86v289l-135 388h92l118 -349l120 349h21z" />
    <glyph glyph-name="Ygrave" unicode="&#x1ef2;" horiz-adv-x="397" 
d="M291 740l-5 -14c-58 11 -125 34 -184 74l47 73c43 -64 89 -103 142 -133zM373 677l-130 -377v-300h-86v289l-135 388h92l118 -349l120 349h21z" />
    <glyph glyph-name="uni0232" unicode="&#x232;" horiz-adv-x="397" 
d="M324 786v-18h-231v18h231zM373 677l-130 -377v-300h-86v289l-135 388h92l118 -349l120 349h21z" />
    <glyph glyph-name="Z" unicode="Z" horiz-adv-x="365" 
d="M103 18h241v-18h-326v22l236 637h-221v18h308v-16z" />
    <glyph glyph-name="Zacute" unicode="&#x179;" horiz-adv-x="365" 
d="M302 784c-59 -30 -120 -48 -180 -56l-6 16c50 27 99 58 143 114zM103 18h241v-18h-326v22l236 637h-221v18h308v-16z" />
    <glyph glyph-name="Zcaron" unicode="&#x17d;" horiz-adv-x="365" 
d="M216 725h-65l-98 122l14 14l116 -91l117 90l14 -13zM103 18h241v-18h-326v22l236 637h-221v18h308v-16z" />
    <glyph glyph-name="Zdotaccent" unicode="&#x17b;" horiz-adv-x="365" 
d="M183 741c-28 0 -52 23 -52 51c0 29 24 53 52 53s50 -24 50 -53c0 -28 -22 -51 -50 -51zM103 18h241v-18h-326v22l236 637h-221v18h308v-16z" />
    <glyph glyph-name="A.ss01" horiz-adv-x="397" 
d="M293 0l-47 187h-165l-46 -187h-21l172 688h20l178 -688h-91zM86 205h155l-78 309z" />
    <glyph glyph-name="Aacute.ss01" horiz-adv-x="397" 
d="M316 784c-59 -30 -120 -48 -180 -56l-6 16c50 27 99 58 143 114zM293 0l-47 187h-165l-46 -187h-21l172 688h20l178 -688h-91zM86 205h155l-78 309z" />
    <glyph glyph-name="Abreve.ss01" horiz-adv-x="397" 
d="M195 721c-76 0 -104 70 -105 141h14c8 -56 45 -85 91 -85s84 33 90 85h15c-1 -71 -30 -141 -105 -141zM293 0l-47 187h-165l-46 -187h-21l172 688h20l178 -688h-91zM86 205h155l-78 309z" />
    <glyph glyph-name="uni01CD.ss01" horiz-adv-x="397" 
d="M230 725h-65l-98 122l14 14l116 -91l117 90l14 -13zM293 0l-47 187h-165l-46 -187h-21l172 688h20l178 -688h-91zM86 205h155l-78 309z" />
    <glyph glyph-name="Acircumflex.ss01" horiz-adv-x="397" 
d="M199 807l-119 -84l-12 12l96 118h71l97 -118l-13 -13zM293 0l-47 187h-165l-46 -187h-21l172 688h20l178 -688h-91zM86 205h155l-78 309z" />
    <glyph glyph-name="Adieresis.ss01" horiz-adv-x="397" 
d="M124 745c-25 0 -48 23 -48 49c0 28 23 50 48 50c29 0 48 -22 48 -50c0 -26 -19 -49 -48 -49zM270 745c-26 0 -49 23 -49 49c0 28 23 50 49 50c25 0 47 -22 47 -50c0 -26 -22 -49 -47 -49zM293 0l-47 187h-165l-46 -187h-21l172 688h20l178 -688h-91zM86 205h155l-78 309z
" />
    <glyph glyph-name="Agrave.ss01" horiz-adv-x="397" 
d="M279 740l-5 -14c-58 11 -125 34 -184 74l47 73c43 -64 89 -103 142 -133zM293 0l-47 187h-165l-46 -187h-21l172 688h20l178 -688h-91zM86 205h155l-78 309z" />
    <glyph glyph-name="Amacron.ss01" horiz-adv-x="397" 
d="M312 786v-18h-231v18h231zM293 0l-47 187h-165l-46 -187h-21l172 688h20l178 -688h-91zM86 205h155l-78 309z" />
    <glyph glyph-name="Aogonek.ss01" horiz-adv-x="397" 
d="M275 -181c16 0 33 5 49 16l9 -13c-25 -19 -55 -27 -84 -27c-49 0 -91 26 -91 77c0 69 72 110 135 129l-47 186h-165l-46 -187h-21l172 688h20l178 -688h-66c-59 -30 -93 -78 -93 -125c0 -37 22 -56 50 -56zM86 205h155l-78 309z" />
    <glyph glyph-name="Aring.ss01" horiz-adv-x="397" 
d="M197 721c-46 0 -76 30 -76 76c0 45 30 77 76 77c45 0 75 -31 75 -77c0 -44 -30 -76 -75 -76zM197 857c-32 0 -53 -24 -53 -60s21 -60 53 -60c31 0 52 24 52 60s-21 60 -52 60zM293 0l-47 187h-165l-46 -187h-21l172 688h20l178 -688h-91zM86 205h155l-78 309z" />
    <glyph glyph-name="Atilde.ss01" horiz-adv-x="397" 
d="M132 797c-18 0 -30 -11 -34 -50h-16c0 63 19 102 60 102c53 0 100 -50 127 -50c19 0 32 14 35 50h16c0 -64 -21 -102 -61 -102c-48 0 -99 50 -127 50zM293 0l-47 187h-165l-46 -187h-21l172 688h20l178 -688h-91zM86 205h155l-78 309z" />
    <glyph glyph-name="N.ss01" horiz-adv-x="461" 
d="M376 677h20v-689h-18l-293 655v-643h-20v677h98l213 -488v488z" />
    <glyph glyph-name="Nacute.ss01" horiz-adv-x="461" 
d="M357 784c-59 -30 -120 -48 -180 -56l-6 16c50 27 99 58 143 114zM376 677h20v-689h-18l-293 655v-643h-20v677h98l213 -488v488z" />
    <glyph glyph-name="Ncaron.ss01" horiz-adv-x="461" 
d="M271 725h-65l-98 122l14 14l116 -91l117 90l14 -13zM376 677h20v-689h-18l-293 655v-643h-20v677h98l213 -488v488z" />
    <glyph glyph-name="Ncommaaccent.ss01" horiz-adv-x="461" 
d="M376 677h20v-689h-18l-293 655v-643h-20v677h98l213 -488v488zM225 -45c29 0 41 -22 41 -48c0 -37 -28 -85 -65 -116l-12 12c17 20 27 43 27 65c0 21 -10 39 -36 43c4 29 21 44 45 44z" />
    <glyph glyph-name="Ntilde.ss01" horiz-adv-x="461" 
d="M173 797c-18 0 -30 -11 -34 -50h-16c0 63 19 102 60 102c53 0 100 -50 127 -50c19 0 32 14 35 50h16c0 -64 -21 -102 -61 -102c-48 0 -99 50 -127 50zM376 677h20v-689h-18l-293 655v-643h-20v677h98l213 -488v488z" />
    <glyph glyph-name="V.ss01" horiz-adv-x="398" 
d="M362 677h21l-170 -689h-21l-177 689h94l125 -520z" />
    <glyph glyph-name="W.ss01" horiz-adv-x="567" 
d="M526 677h21l-127 -688h-21l-107 475l-118 -475h-20l-135 688h88l95 -491l109 434h23l101 -438z" />
    <glyph glyph-name="Wacute.ss01" horiz-adv-x="567" 
d="M424 784c-59 -30 -120 -48 -180 -56l-6 16c50 27 99 58 143 114zM526 677h21l-127 -688h-21l-107 475l-118 -475h-20l-135 688h88l95 -491l109 434h23l101 -438z" />
    <glyph glyph-name="Wcircumflex.ss01" horiz-adv-x="567" 
d="M307 807l-119 -84l-12 12l96 118h71l97 -118l-13 -13zM526 677h21l-127 -688h-21l-107 475l-118 -475h-20l-135 688h88l95 -491l109 434h23l101 -438z" />
    <glyph glyph-name="Wdieresis.ss01" horiz-adv-x="567" 
d="M232 745c-25 0 -48 23 -48 49c0 28 23 50 48 50c29 0 48 -22 48 -50c0 -26 -19 -49 -48 -49zM378 745c-26 0 -49 23 -49 49c0 28 23 50 49 50c25 0 47 -22 47 -50c0 -26 -22 -49 -47 -49zM526 677h21l-127 -688h-21l-107 475l-118 -475h-20l-135 688h88l95 -491l109 434
h23l101 -438z" />
    <glyph glyph-name="Wgrave.ss01" horiz-adv-x="567" 
d="M387 740l-5 -14c-58 11 -125 34 -184 74l47 73c43 -64 89 -103 142 -133zM526 677h21l-127 -688h-21l-107 475l-118 -475h-20l-135 688h88l95 -491l109 434h23l101 -438z" />
    <glyph glyph-name="U.ss02" horiz-adv-x="506" 
d="M355 677h86v-677h-82v76h-2c-21 -62 -64 -89 -139 -89c-105 0 -154 68 -154 223v467h86v-496c0 -127 32 -169 97 -169c40 0 108 15 108 160v505z" />
    <glyph glyph-name="Uacute.ss02" horiz-adv-x="506" 
d="M372 784c-59 -30 -120 -48 -180 -56l-6 16c50 27 99 58 143 114zM355 677h86v-677h-82v76h-2c-21 -62 -64 -89 -139 -89c-105 0 -154 68 -154 223v467h86v-496c0 -127 32 -169 97 -169c40 0 108 15 108 160v505z" />
    <glyph glyph-name="uni01D3.ss02" horiz-adv-x="506" 
d="M286 725h-65l-98 122l14 14l116 -91l117 90l14 -13zM355 677h86v-677h-82v76h-2c-21 -62 -64 -89 -139 -89c-105 0 -154 68 -154 223v467h86v-496c0 -127 32 -169 97 -169c40 0 108 15 108 160v505z" />
    <glyph glyph-name="Ucircumflex.ss02" horiz-adv-x="506" 
d="M255 807l-119 -84l-12 12l96 118h71l97 -118l-13 -13zM355 677h86v-677h-82v76h-2c-21 -62 -64 -89 -139 -89c-105 0 -154 68 -154 223v467h86v-496c0 -127 32 -169 97 -169c40 0 108 15 108 160v505z" />
    <glyph glyph-name="Udieresis.ss02" horiz-adv-x="506" 
d="M180 745c-25 0 -48 23 -48 49c0 28 23 50 48 50c29 0 48 -22 48 -50c0 -26 -19 -49 -48 -49zM326 745c-26 0 -49 23 -49 49c0 28 23 50 49 50c25 0 47 -22 47 -50c0 -26 -22 -49 -47 -49zM355 677h86v-677h-82v76h-2c-21 -62 -64 -89 -139 -89c-105 0 -154 68 -154 223
v467h86v-496c0 -127 32 -169 97 -169c40 0 108 15 108 160v505z" />
    <glyph glyph-name="Ugrave.ss02" horiz-adv-x="506" 
d="M335 740l-5 -14c-58 11 -125 34 -184 74l47 73c43 -64 89 -103 142 -133zM355 677h86v-677h-82v76h-2c-21 -62 -64 -89 -139 -89c-105 0 -154 68 -154 223v467h86v-496c0 -127 32 -169 97 -169c40 0 108 15 108 160v505z" />
    <glyph glyph-name="Uhungarumlaut.ss02" horiz-adv-x="506" 
d="M319 857l-126 -120l-13 11l74 148zM290 726l-13 13l115 121l44 -59zM355 677h86v-677h-82v76h-2c-21 -62 -64 -89 -139 -89c-105 0 -154 68 -154 223v467h86v-496c0 -127 32 -169 97 -169c40 0 108 15 108 160v505z" />
    <glyph glyph-name="Umacron.ss02" horiz-adv-x="506" 
d="M368 786v-18h-231v18h231zM355 677h86v-677h-82v76h-2c-21 -62 -64 -89 -139 -89c-105 0 -154 68 -154 223v467h86v-496c0 -127 32 -169 97 -169c40 0 108 15 108 160v505z" />
    <glyph glyph-name="Uogonek.ss02" horiz-adv-x="506" 
d="M447 -165l9 -13c-25 -19 -55 -27 -84 -27c-49 0 -91 26 -91 77c0 68 69 108 131 128h-53v76h-2c-21 -62 -64 -89 -139 -89c-105 0 -154 68 -154 223v467h86v-496c0 -127 32 -169 97 -169c40 0 108 15 108 160v505h86v-677c-59 -30 -93 -78 -93 -125c0 -37 22 -56 50 -56
c16 0 33 5 49 16z" />
    <glyph glyph-name="Uring.ss02" horiz-adv-x="506" 
d="M253 721c-46 0 -76 30 -76 76c0 45 30 77 76 77c45 0 75 -31 75 -77c0 -44 -30 -76 -75 -76zM253 857c-32 0 -53 -24 -53 -60s21 -60 53 -60c31 0 52 24 52 60s-21 60 -52 60zM355 677h86v-677h-82v76h-2c-21 -62 -64 -89 -139 -89c-105 0 -154 68 -154 223v467h86v-496
c0 -127 32 -169 97 -169c40 0 108 15 108 160v505z" />
    <glyph glyph-name="Utilde.ss02" horiz-adv-x="506" 
d="M188 797c-18 0 -30 -11 -34 -50h-16c0 63 19 102 60 102c53 0 100 -50 127 -50c19 0 32 14 35 50h16c0 -64 -21 -102 -61 -102c-48 0 -99 50 -127 50zM355 677h86v-677h-82v76h-2c-21 -62 -64 -89 -139 -89c-105 0 -154 68 -154 223v467h86v-496c0 -127 32 -169 97 -169
c40 0 108 15 108 160v505z" />
    <glyph glyph-name="Ubreve.sso2" horiz-adv-x="506" 
d="M251 721c-76 0 -104 70 -105 141h14c8 -56 45 -85 91 -85s84 33 90 85h15c-1 -71 -30 -141 -105 -141zM355 677h86v-677h-82v76h-2c-21 -62 -64 -89 -139 -89c-105 0 -154 68 -154 223v467h86v-496c0 -127 32 -169 97 -169c40 0 108 15 108 160v505z" />
    <glyph glyph-name="a" unicode="a" horiz-adv-x="411" 
d="M301 0l-51 231h-159l-52 -231h-21l143 632l-10 45h89l150 -677h-89zM95 249h151l-75 338z" />
    <glyph glyph-name="aacute" unicode="&#xe1;" horiz-adv-x="411" 
d="M324 784c-59 -30 -120 -48 -180 -56l-6 16c50 27 99 58 143 114zM301 0l-51 231h-159l-52 -231h-21l143 632l-10 45h89l150 -677h-89zM95 249h151l-75 338z" />
    <glyph glyph-name="abreve" unicode="&#x103;" horiz-adv-x="411" 
d="M203 721c-76 0 -104 70 -105 141h14c8 -56 45 -85 91 -85s84 33 90 85h15c-1 -71 -30 -141 -105 -141zM301 0l-51 231h-159l-52 -231h-21l143 632l-10 45h89l150 -677h-89zM95 249h151l-75 338z" />
    <glyph glyph-name="uni01CE" unicode="&#x1ce;" horiz-adv-x="411" 
d="M238 725h-65l-98 122l14 14l116 -91l117 90l14 -13zM301 0l-51 231h-159l-52 -231h-21l143 632l-10 45h89l150 -677h-89zM95 249h151l-75 338z" />
    <glyph glyph-name="acircumflex" unicode="&#xe2;" horiz-adv-x="411" 
d="M207 807l-119 -84l-12 12l96 118h71l97 -118l-13 -13zM301 0l-51 231h-159l-52 -231h-21l143 632l-10 45h89l150 -677h-89zM95 249h151l-75 338z" />
    <glyph glyph-name="adieresis" unicode="&#xe4;" horiz-adv-x="411" 
d="M132 745c-25 0 -48 23 -48 49c0 28 23 50 48 50c29 0 48 -22 48 -50c0 -26 -19 -49 -48 -49zM278 745c-26 0 -49 23 -49 49c0 28 23 50 49 50c25 0 47 -22 47 -50c0 -26 -22 -49 -47 -49zM301 0l-51 231h-159l-52 -231h-21l143 632l-10 45h89l150 -677h-89zM95 249h151
l-75 338z" />
    <glyph glyph-name="agrave" unicode="&#xe0;" horiz-adv-x="411" 
d="M287 740l-5 -14c-58 11 -125 34 -184 74l47 73c43 -64 89 -103 142 -133zM301 0l-51 231h-159l-52 -231h-21l143 632l-10 45h89l150 -677h-89zM95 249h151l-75 338z" />
    <glyph glyph-name="amacron" unicode="&#x101;" horiz-adv-x="411" 
d="M320 786v-18h-231v18h231zM301 0l-51 231h-159l-52 -231h-21l143 632l-10 45h89l150 -677h-89zM95 249h151l-75 338z" />
    <glyph glyph-name="aogonek" unicode="&#x105;" horiz-adv-x="411" 
d="M282 -181c16 0 33 5 49 16l9 -13c-25 -19 -55 -27 -84 -27c-49 0 -91 26 -91 77c0 69 72 110 136 129l-51 230h-159l-52 -231h-21l143 632l-10 45h89l150 -677h-65c-59 -30 -93 -78 -93 -125c0 -37 22 -56 50 -56zM95 249h151l-75 338z" />
    <glyph glyph-name="aring" unicode="&#xe5;" horiz-adv-x="411" 
d="M205 721c-46 0 -76 30 -76 76c0 45 30 77 76 77c45 0 75 -31 75 -77c0 -44 -30 -76 -75 -76zM205 857c-32 0 -53 -24 -53 -60s21 -60 53 -60c31 0 52 24 52 60s-21 60 -52 60zM301 0l-51 231h-159l-52 -231h-21l143 632l-10 45h89l150 -677h-89zM95 249h151l-75 338z" />
    <glyph glyph-name="atilde" unicode="&#xe3;" horiz-adv-x="411" 
d="M140 797c-18 0 -30 -11 -34 -50h-16c0 63 19 102 60 102c53 0 100 -50 127 -50c19 0 32 14 35 50h16c0 -64 -21 -102 -61 -102c-48 0 -99 50 -127 50zM301 0l-51 231h-159l-52 -231h-21l143 632l-10 45h89l150 -677h-89zM95 249h151l-75 338z" />
    <glyph glyph-name="ae" unicode="&#xe6;" horiz-adv-x="582" 
d="M356 18h214v-18h-300v223h-157l-88 -223h-21l267 677h280v-18h-195v-309h157v-18h-157v-314zM120 241h150v382z" />
    <glyph glyph-name="aeacute" unicode="&#x1fd;" horiz-adv-x="582" 
d="M532 784c-59 -30 -120 -48 -180 -56l-6 16c50 27 99 58 143 114zM356 18h214v-18h-300v223h-157l-88 -223h-21l267 677h280v-18h-195v-309h157v-18h-157v-314zM120 241h150v382z" />
    <glyph glyph-name="uni01E3" unicode="&#x1e3;" horiz-adv-x="582" 
d="M528 786v-18h-231v18h231zM356 18h214v-18h-300v223h-157l-88 -223h-21l267 677h280v-18h-195v-309h157v-18h-157v-314zM120 241h150v382z" />
    <glyph glyph-name="b" unicode="b" horiz-adv-x="439" 
d="M251 362c97 -10 152 -68 152 -168c0 -124 -62 -194 -173 -194h-165v677h156c103 0 156 -53 156 -157c0 -80 -40 -141 -126 -158zM151 659v-291h42c60 0 96 56 96 154c0 86 -26 137 -91 137h-47zM208 18c67 0 104 65 104 171c0 101 -40 161 -113 161h-48v-332h57z" />
    <glyph glyph-name="c" unicode="c" horiz-adv-x="423" 
d="M410 67c-40 -51 -83 -80 -148 -80c-126 0 -221 111 -221 347c0 272 126 356 231 356c44 0 85 -14 119 -42l-9 -11c-30 24 -68 35 -100 35c-87 0 -146 -88 -146 -342c0 -228 50 -321 142 -321c53 0 95 30 121 66z" />
    <glyph glyph-name="cacute" unicode="&#x107;" horiz-adv-x="423" 
d="M379 784c-59 -30 -120 -48 -180 -56l-6 16c50 27 99 58 143 114zM410 67c-40 -51 -83 -80 -148 -80c-126 0 -221 111 -221 347c0 272 126 356 231 356c44 0 85 -14 119 -42l-9 -11c-30 24 -68 35 -100 35c-87 0 -146 -88 -146 -342c0 -228 50 -321 142 -321
c53 0 95 30 121 66z" />
    <glyph glyph-name="ccaron" unicode="&#x10d;" horiz-adv-x="423" 
d="M293 725h-65l-98 122l14 14l116 -91l117 90l14 -13zM410 67c-40 -51 -83 -80 -148 -80c-126 0 -221 111 -221 347c0 272 126 356 231 356c44 0 85 -14 119 -42l-9 -11c-30 24 -68 35 -100 35c-87 0 -146 -88 -146 -342c0 -228 50 -321 142 -321c53 0 95 30 121 66z" />
    <glyph glyph-name="ccedilla" unicode="&#xe7;" horiz-adv-x="423" 
d="M410 67c-38 -49 -79 -77 -139 -80l-25 -56c9 4 19 6 29 6c33 0 68 -23 68 -70c0 -53 -41 -79 -86 -79c-24 0 -48 7 -67 23l12 15c13 -11 28 -17 41 -17c24 0 44 19 44 57c0 31 -13 48 -34 48c-5 0 -11 -1 -17 -3l-12 10l26 66c-120 7 -209 119 -209 347
c0 272 126 356 231 356c44 0 85 -14 119 -42l-9 -11c-30 24 -68 35 -100 35c-87 0 -146 -88 -146 -342c0 -228 50 -321 142 -321c53 0 95 30 121 66z" />
    <glyph glyph-name="ccircumflex" unicode="&#x109;" horiz-adv-x="423" 
d="M227 853h71l97 -118l-13 -13l-120 85l-119 -84l-12 12zM410 67c-40 -51 -83 -80 -148 -80c-126 0 -221 111 -221 347c0 272 126 356 231 356c44 0 85 -14 119 -42l-9 -11c-30 24 -68 35 -100 35c-87 0 -146 -88 -146 -342c0 -228 50 -321 142 -321c53 0 95 30 121 66z
" />
    <glyph glyph-name="cdotaccent" unicode="&#x10b;" horiz-adv-x="423" 
d="M208 792c0 29 24 53 52 53s50 -24 50 -53c0 -28 -22 -51 -50 -51s-52 23 -52 51zM410 67c-40 -51 -83 -80 -148 -80c-126 0 -221 111 -221 347c0 272 126 356 231 356c44 0 85 -14 119 -42l-9 -11c-30 24 -68 35 -100 35c-87 0 -146 -88 -146 -342
c0 -228 50 -321 142 -321c53 0 95 30 121 66z" />
    <glyph glyph-name="d" unicode="d" horiz-adv-x="493" 
d="M65 677h134c176 0 252 -112 252 -335c0 -218 -78 -342 -254 -342h-132v677zM151 18h41c118 0 165 123 165 318c0 218 -54 323 -164 323h-42v-641z" />
    <glyph glyph-name="eth" unicode="&#xf0;" horiz-adv-x="493" 
d="M199 677c176 0 252 -112 252 -335c0 -218 -78 -342 -254 -342h-132v334h-35v18h35v325h134zM192 18c118 0 165 123 165 318c0 218 -54 323 -164 323h-42v-307h104v-18h-104v-316h41z" />
    <glyph glyph-name="dcaron" unicode="&#x10f;" horiz-adv-x="493" 
d="M250 725h-65l-98 122l14 14l116 -91l117 90l14 -13zM65 677h134c176 0 252 -112 252 -335c0 -218 -78 -342 -254 -342h-132v677zM151 18h41c118 0 165 123 165 318c0 218 -54 323 -164 323h-42v-641z" />
    <glyph glyph-name="dcroat" unicode="&#x111;" horiz-adv-x="493" 
d="M199 677c176 0 252 -112 252 -335c0 -218 -78 -342 -254 -342h-132v334h-35v18h35v325h134zM192 18c118 0 165 123 165 318c0 218 -54 323 -164 323h-42v-307h104v-18h-104v-316h41z" />
    <glyph glyph-name="e" unicode="e" horiz-adv-x="378" 
d="M365 18v-18h-300v677h281v-18h-195v-306h157v-18h-157v-317h214z" />
    <glyph glyph-name="eacute" unicode="&#xe9;" horiz-adv-x="378" 
d="M330 784c-59 -30 -120 -48 -180 -56l-6 16c50 27 99 58 143 114zM365 18v-18h-300v677h281v-18h-195v-306h157v-18h-157v-317h214z" />
    <glyph glyph-name="ebreve" unicode="&#x115;" horiz-adv-x="378" 
d="M209 721c-76 0 -104 70 -105 141h14c8 -56 45 -85 91 -85s84 33 90 85h15c-1 -71 -30 -141 -105 -141zM365 18v-18h-300v677h281v-18h-195v-306h157v-18h-157v-317h214z" />
    <glyph glyph-name="ecaron" unicode="&#x11b;" horiz-adv-x="378" 
d="M244 725h-65l-98 122l14 14l116 -91l117 90l14 -13zM365 18v-18h-300v677h281v-18h-195v-306h157v-18h-157v-317h214z" />
    <glyph glyph-name="ecircumflex" unicode="&#xea;" horiz-adv-x="378" 
d="M178 853h71l97 -118l-13 -13l-120 85l-119 -84l-12 12zM365 18v-18h-300v677h281v-18h-195v-306h157v-18h-157v-317h214z" />
    <glyph glyph-name="edieresis" unicode="&#xeb;" horiz-adv-x="378" 
d="M90 794c0 28 23 50 48 50c29 0 48 -22 48 -50c0 -26 -19 -49 -48 -49c-25 0 -48 23 -48 49zM235 794c0 28 23 50 49 50c25 0 47 -22 47 -50c0 -26 -22 -49 -47 -49c-26 0 -49 23 -49 49zM365 18v-18h-300v677h281v-18h-195v-306h157v-18h-157v-317h214z" />
    <glyph glyph-name="edotaccent" unicode="&#x117;" horiz-adv-x="378" 
d="M159 792c0 29 24 53 52 53s50 -24 50 -53c0 -28 -22 -51 -50 -51s-52 23 -52 51zM365 18v-18h-300v677h281v-18h-195v-306h157v-18h-157v-317h214z" />
    <glyph glyph-name="egrave" unicode="&#xe8;" horiz-adv-x="378" 
d="M151 873c43 -64 89 -103 142 -133l-5 -14c-58 11 -125 34 -184 74zM365 18v-18h-300v677h281v-18h-195v-306h157v-18h-157v-317h214z" />
    <glyph glyph-name="emacron" unicode="&#x113;" horiz-adv-x="378" 
d="M95 768v18h231v-18h-231zM365 18v-18h-300v677h281v-18h-195v-306h157v-18h-157v-317h214z" />
    <glyph glyph-name="eogonek" unicode="&#x119;" horiz-adv-x="378" 
d="M371 -165l9 -13c-25 -19 -55 -27 -84 -27c-49 0 -91 26 -91 77c0 68 69 108 131 128h-271v677h281v-18h-195v-306h157v-18h-157v-317h214v-18c-59 -30 -93 -78 -93 -125c0 -37 22 -56 50 -56c16 0 33 5 49 16z" />
    <glyph glyph-name="uni1EBD" unicode="&#x1ebd;" horiz-adv-x="378" 
d="M334 849c0 -64 -21 -102 -61 -102c-48 0 -99 50 -127 50c-18 0 -30 -11 -34 -50h-16c0 63 19 102 60 102c53 0 100 -50 127 -50c19 0 32 14 35 50h16zM365 18v-18h-300v677h281v-18h-195v-306h157v-18h-157v-317h214z" />
    <glyph glyph-name="f" unicode="f" horiz-adv-x="355" 
d="M340 677v-18h-189v-310h144v-18h-144v-331h-86v677h275z" />
    <glyph glyph-name="g" unicode="g" horiz-adv-x="469" 
d="M263 334h165v-318c-52 -19 -102 -30 -150 -30c-149 0 -237 105 -237 342c0 295 132 363 247 363c57 0 95 -18 123 -35l-8 -11c-27 14 -59 26 -102 26c-80 0 -166 -48 -166 -336c0 -200 43 -329 158 -329c15 0 32 2 49 6v304h-79v18z" />
    <glyph glyph-name="gbreve" unicode="&#x11f;" horiz-adv-x="469" 
d="M272 721c-76 0 -104 70 -105 141h14c8 -56 45 -85 91 -85s84 33 90 85h15c-1 -71 -30 -141 -105 -141zM263 334h165v-318c-52 -19 -102 -30 -150 -30c-149 0 -237 105 -237 342c0 295 132 363 247 363c57 0 95 -18 123 -35l-8 -11c-27 14 -59 26 -102 26
c-80 0 -166 -48 -166 -336c0 -200 43 -329 158 -329c15 0 32 2 49 6v304h-79v18z" />
    <glyph glyph-name="gcircumflex" unicode="&#x11d;" horiz-adv-x="469" 
d="M272 721c-76 0 -104 70 -105 141h14c8 -56 45 -85 91 -85s84 33 90 85h15c-1 -71 -30 -141 -105 -141zM263 334h165v-318c-52 -19 -102 -30 -150 -30c-149 0 -237 105 -237 342c0 295 132 363 247 363c57 0 95 -18 123 -35l-8 -11c-27 14 -59 26 -102 26
c-80 0 -166 -48 -166 -336c0 -200 43 -329 158 -329c15 0 32 2 49 6v304h-79v18z" />
    <glyph glyph-name="gcommaaccent" unicode="&#x123;" horiz-adv-x="469" 
d="M263 334h165v-318c-52 -19 -102 -30 -150 -30c-149 0 -237 105 -237 342c0 295 132 363 247 363c57 0 95 -18 123 -35l-8 -11c-27 14 -59 26 -102 26c-80 0 -166 -48 -166 -336c0 -200 43 -329 158 -329c15 0 32 2 49 6v304h-79v18zM286 -45c29 0 41 -22 41 -48
c0 -37 -28 -85 -65 -116l-12 12c17 20 27 43 27 65c0 21 -10 39 -36 43c4 29 21 44 45 44z" />
    <glyph glyph-name="gdotaccent" unicode="&#x121;" horiz-adv-x="469" 
d="M274 741c-28 0 -52 23 -52 51c0 29 24 53 52 53s50 -24 50 -53c0 -28 -22 -51 -50 -51zM263 334h165v-318c-52 -19 -102 -30 -150 -30c-149 0 -237 105 -237 342c0 295 132 363 247 363c57 0 95 -18 123 -35l-8 -11c-27 14 -59 26 -102 26c-80 0 -166 -48 -166 -336
c0 -200 43 -329 158 -329c15 0 32 2 49 6v304h-79v18z" />
    <glyph glyph-name="h" unicode="h" horiz-adv-x="494" 
d="M343 342h-192v-342h-86v677h86v-317h192v317h86v-677h-86v342z" />
    <glyph glyph-name="hbar" unicode="&#x127;" horiz-adv-x="503" 
d="M496 507v-16h-63v-491h-86v328h-191v-328h-86v491h-63v16h63v170h86v-170h191v170h86v-170h63zM347 346v145h-191v-145h191z" />
    <glyph glyph-name="hcircumflex" unicode="&#x125;" horiz-adv-x="494" 
d="M214 853h71l97 -118l-13 -13l-120 85l-119 -84l-12 12zM343 342h-192v-342h-86v677h86v-317h192v317h86v-677h-86v342z" />
    <glyph glyph-name="i" unicode="i" horiz-adv-x="216" 
d="M151 0h-86v677h86v-677z" />
    <glyph glyph-name="dotlessi" unicode="&#x131;" horiz-adv-x="216" 
d="M151 0h-86v677h86v-677z" />
    <glyph glyph-name="iacute" unicode="&#xed;" horiz-adv-x="216" 
d="M227 784c-59 -30 -120 -48 -180 -56l-6 16c50 27 99 58 143 114zM151 0h-86v677h86v-677z" />
    <glyph glyph-name="ibreve" unicode="&#x12d;" horiz-adv-x="216" 
d="M106 721c-76 0 -104 70 -105 141h14c8 -56 45 -85 91 -85s84 33 90 85h15c-1 -71 -30 -141 -105 -141zM151 0h-86v677h86v-677z" />
    <glyph glyph-name="uni01D0" unicode="&#x1d0;" horiz-adv-x="216" 
d="M141 725h-65l-98 122l14 14l116 -91l117 90l14 -13zM151 0h-86v677h86v-677z" />
    <glyph glyph-name="icircumflex" unicode="&#xee;" horiz-adv-x="216" 
d="M75 853h71l97 -118l-13 -13l-120 85l-119 -84l-12 12zM151 0h-86v677h86v-677z" />
    <glyph glyph-name="idieresis" unicode="&#xef;" horiz-adv-x="216" 
d="M-13 794c0 28 23 50 48 50c29 0 48 -22 48 -50c0 -26 -19 -49 -48 -49c-25 0 -48 23 -48 49zM132 794c0 28 23 50 49 50c25 0 47 -22 47 -50c0 -26 -22 -49 -47 -49c-26 0 -49 23 -49 49zM151 0h-86v677h86v-677z" />
    <glyph glyph-name="i.loclTRK" horiz-adv-x="216" 
d="M56 792c0 29 24 53 52 53s50 -24 50 -53c0 -28 -22 -51 -50 -51s-52 23 -52 51zM151 0h-86v677h86v-677z" />
    <glyph glyph-name="igrave" unicode="&#xec;" horiz-adv-x="216" 
d="M48 873c43 -64 89 -103 142 -133l-5 -14c-58 11 -125 34 -184 74zM151 0h-86v677h86v-677z" />
    <glyph glyph-name="ij" unicode="&#x133;" horiz-adv-x="517" 
d="M151 0h-86v677h86v-677zM368 677h86v-551c0 -137 -143 -168 -229 -106l10 14c53 -35 133 -38 133 53v590z" />
    <glyph glyph-name="imacron" unicode="&#x12b;" horiz-adv-x="216" 
d="M-8 768v18h231v-18h-231zM151 0h-86v677h86v-677z" />
    <glyph glyph-name="iogonek" unicode="&#x12f;" horiz-adv-x="216" 
d="M155 -165l9 -13c-25 -19 -55 -27 -84 -27c-49 0 -91 26 -91 77c0 68 69 108 131 128h-55v677h86v-677h-2c-59 -30 -93 -78 -93 -125c0 -37 22 -56 50 -56c16 0 33 5 49 16z" />
    <glyph glyph-name="itilde" unicode="&#x129;" horiz-adv-x="216" 
d="M231 849c0 -64 -21 -102 -61 -102c-48 0 -99 50 -127 50c-18 0 -30 -11 -34 -50h-16c0 63 19 102 60 102c53 0 100 -50 127 -50c19 0 32 14 35 50h16zM151 0h-86v677h86v-677z" />
    <glyph glyph-name="j" unicode="j" horiz-adv-x="301" 
d="M152 677h86v-551c0 -137 -143 -168 -229 -106l10 14c53 -35 133 -38 133 53v590z" />
    <glyph glyph-name="jcircumflex" unicode="&#x135;" horiz-adv-x="301" 
d="M156 853h71l97 -118l-13 -13l-120 85l-119 -84l-12 12zM152 677h86v-551c0 -137 -143 -168 -229 -106l10 14c53 -35 133 -38 133 53v590z" />
    <glyph glyph-name="k" unicode="k" horiz-adv-x="428" 
d="M65 0v677h86v-677h-86zM238 409l190 -409h-100l-152 340l198 337h21z" />
    <glyph glyph-name="kcommaaccent" unicode="&#x137;" horiz-adv-x="428" 
d="M65 0v677h86v-677h-86zM238 409l190 -409h-100l-152 340l198 337h21zM227 -45c29 0 41 -22 41 -48c0 -37 -28 -85 -65 -116l-12 12c17 20 27 43 27 65c0 21 -10 39 -36 43c4 29 21 44 45 44z" />
    <glyph glyph-name="l" unicode="l" horiz-adv-x="372" 
d="M361 18v-18h-296v677h86v-659h210z" />
    <glyph glyph-name="lacute" unicode="&#x13a;" horiz-adv-x="372" 
d="M260 784c-59 -30 -120 -48 -180 -56l-6 16c50 27 99 58 143 114zM361 18v-18h-296v677h86v-659h210z" />
    <glyph glyph-name="lcaron" unicode="&#x13e;" horiz-adv-x="396" 
d="M272 520c14 26 21 56 21 87c0 24 -5 49 -14 70l72 24c6 -16 8 -32 8 -49c0 -55 -31 -111 -73 -145zM361 18v-18h-296v677h86v-659h210z" />
    <glyph glyph-name="lcommaaccent" unicode="&#x13c;" horiz-adv-x="372" 
d="M361 18v-18h-296v677h86v-659h210zM146 -197c17 20 27 43 27 65c0 21 -10 39 -36 43c4 29 21 44 45 44c29 0 41 -22 41 -48c0 -37 -28 -85 -65 -116z" />
    <glyph glyph-name="ldot" unicode="&#x140;" horiz-adv-x="391" 
d="M361 18v-18h-296v677h86v-659h210zM301 301c-30 0 -54 25 -54 57c0 31 24 56 54 56c31 0 55 -24 55 -56c0 -34 -24 -57 -55 -57z" />
    <glyph glyph-name="lslash" unicode="&#x142;" horiz-adv-x="372" 
d="M151 18h210v-18h-296v288l-55 -40l-10 15l65 48v366h86v-314l97 71l10 -15l-107 -78v-323z" />
    <glyph glyph-name="m" unicode="m" horiz-adv-x="588" 
d="M440 677h82v-677h-85v594l-170 -600h-13l-168 569v-563h-20v619l-17 58h94l149 -522z" />
    <glyph glyph-name="n" unicode="n" horiz-adv-x="463" 
d="M378 677h20v-677h-89l-222 570v-570h-20v614l-25 63h91l245 -624v624z" />
    <glyph glyph-name="nacute" unicode="&#x144;" horiz-adv-x="463" 
d="M357 784c-59 -30 -120 -48 -180 -56l-6 16c50 27 99 58 143 114zM378 677h20v-677h-89l-222 570v-570h-20v614l-25 63h91l245 -624v624z" />
    <glyph glyph-name="ncaron" unicode="&#x148;" horiz-adv-x="463" 
d="M271 725h-65l-98 122l14 14l116 -91l117 90l14 -13zM378 677h20v-677h-89l-222 570v-570h-20v614l-25 63h91l245 -624v624z" />
    <glyph glyph-name="ncommaaccent" unicode="&#x146;" horiz-adv-x="463" 
d="M378 677h20v-677h-89l-222 570v-570h-20v614l-25 63h91l245 -624v624zM227 -45c29 0 41 -22 41 -48c0 -37 -28 -85 -65 -116l-12 12c17 20 27 43 27 65c0 21 -10 39 -36 43c4 29 21 44 45 44z" />
    <glyph glyph-name="ntilde" unicode="&#xf1;" horiz-adv-x="463" 
d="M173 797c-18 0 -30 -11 -34 -50h-16c0 63 19 102 60 102c53 0 100 -50 127 -50c19 0 32 14 35 50h16c0 -64 -21 -102 -61 -102c-48 0 -99 50 -127 50zM378 677h20v-677h-89l-222 570v-570h-20v614l-25 63h91l245 -624v624z" />
    <glyph glyph-name="o" unicode="o" horiz-adv-x="508" 
d="M256 691c137 0 209 -120 209 -351c0 -232 -73 -353 -211 -353c-139 0 -212 120 -212 351c0 232 74 353 214 353zM253 673c-78 0 -117 -114 -117 -332c0 -221 40 -336 118 -336c77 0 117 111 117 332s-40 336 -118 336z" />
    <glyph glyph-name="oacute" unicode="&#xf3;" horiz-adv-x="508" 
d="M370 784c-59 -30 -120 -48 -180 -56l-6 16c50 27 99 58 143 114zM256 691c137 0 209 -120 209 -351c0 -232 -73 -353 -211 -353c-139 0 -212 120 -212 351c0 232 74 353 214 353zM253 673c-78 0 -117 -114 -117 -332c0 -221 40 -336 118 -336c77 0 117 111 117 332
s-40 336 -118 336z" />
    <glyph glyph-name="obreve" unicode="&#x14f;" horiz-adv-x="508" 
d="M249 721c-76 0 -104 70 -105 141h14c8 -56 45 -85 91 -85s84 33 90 85h15c-1 -71 -30 -141 -105 -141zM256 691c137 0 209 -120 209 -351c0 -232 -73 -353 -211 -353c-139 0 -212 120 -212 351c0 232 74 353 214 353zM253 673c-78 0 -117 -114 -117 -332
c0 -221 40 -336 118 -336c77 0 117 111 117 332s-40 336 -118 336z" />
    <glyph glyph-name="uni01D2" unicode="&#x1d2;" horiz-adv-x="508" 
d="M284 725h-65l-98 122l14 14l116 -91l117 90l14 -13zM256 691c137 0 209 -120 209 -351c0 -232 -73 -353 -211 -353c-139 0 -212 120 -212 351c0 232 74 353 214 353zM253 673c-78 0 -117 -114 -117 -332c0 -221 40 -336 118 -336c77 0 117 111 117 332s-40 336 -118 336z
" />
    <glyph glyph-name="ocircumflex" unicode="&#xf4;" horiz-adv-x="508" 
d="M218 853h71l97 -118l-13 -13l-120 85l-119 -84l-12 12zM256 691c137 0 209 -120 209 -351c0 -232 -73 -353 -211 -353c-139 0 -212 120 -212 351c0 232 74 353 214 353zM253 673c-78 0 -117 -114 -117 -332c0 -221 40 -336 118 -336c77 0 117 111 117 332
s-40 336 -118 336z" />
    <glyph glyph-name="odieresis" unicode="&#xf6;" horiz-adv-x="508" 
d="M130 794c0 28 23 50 48 50c29 0 48 -22 48 -50c0 -26 -19 -49 -48 -49c-25 0 -48 23 -48 49zM275 794c0 28 23 50 49 50c25 0 47 -22 47 -50c0 -26 -22 -49 -47 -49c-26 0 -49 23 -49 49zM256 691c137 0 209 -120 209 -351c0 -232 -73 -353 -211 -353
c-139 0 -212 120 -212 351c0 232 74 353 214 353zM253 673c-78 0 -117 -114 -117 -332c0 -221 40 -336 118 -336c77 0 117 111 117 332s-40 336 -118 336z" />
    <glyph glyph-name="ograve" unicode="&#xf2;" horiz-adv-x="508" 
d="M191 873c43 -64 89 -103 142 -133l-5 -14c-58 11 -125 34 -184 74zM256 691c137 0 209 -120 209 -351c0 -232 -73 -353 -211 -353c-139 0 -212 120 -212 351c0 232 74 353 214 353zM253 673c-78 0 -117 -114 -117 -332c0 -221 40 -336 118 -336c77 0 117 111 117 332
s-40 336 -118 336z" />
    <glyph glyph-name="ohungarumlaut" unicode="&#x151;" horiz-adv-x="508" 
d="M191 737l-13 11l74 148l65 -39zM288 726l-13 13l115 121l44 -59zM256 691c137 0 209 -120 209 -351c0 -232 -73 -353 -211 -353c-139 0 -212 120 -212 351c0 232 74 353 214 353zM253 673c-78 0 -117 -114 -117 -332c0 -221 40 -336 118 -336c77 0 117 111 117 332
s-40 336 -118 336z" />
    <glyph glyph-name="omacron" unicode="&#x14d;" horiz-adv-x="508" 
d="M135 768v18h231v-18h-231zM256 691c137 0 209 -120 209 -351c0 -232 -73 -353 -211 -353c-139 0 -212 120 -212 351c0 232 74 353 214 353zM253 673c-78 0 -117 -114 -117 -332c0 -221 40 -336 118 -336c77 0 117 111 117 332s-40 336 -118 336z" />
    <glyph glyph-name="oslash" unicode="&#xf8;" horiz-adv-x="508" 
d="M468 680l-51 -87c32 -59 48 -143 48 -253c0 -232 -73 -353 -211 -353c-63 0 -113 25 -148 74l-44 -75l-17 11l49 83c-35 59 -52 145 -52 258c0 232 74 353 214 353c64 0 114 -26 149 -79l47 79zM253 673c-78 0 -117 -114 -117 -332c0 -68 4 -126 11 -173l209 364
c-18 93 -53 141 -103 141zM254 5c77 0 117 111 117 332c0 64 -3 118 -10 164l-208 -364c18 -87 52 -132 101 -132z" />
    <glyph glyph-name="oslashacute" unicode="&#x1ff;" horiz-adv-x="508" 
d="M372 784c-59 -30 -120 -48 -180 -56l-6 16c50 27 99 58 143 114zM468 680l-51 -87c32 -59 48 -143 48 -253c0 -232 -73 -353 -211 -353c-63 0 -113 25 -148 74l-44 -75l-17 11l49 83c-35 59 -52 145 -52 258c0 232 74 353 214 353c64 0 114 -26 149 -79l47 79zM253 673
c-78 0 -117 -114 -117 -332c0 -68 4 -126 11 -173l209 364c-18 93 -53 141 -103 141zM254 5c77 0 117 111 117 332c0 64 -3 118 -10 164l-208 -364c18 -87 52 -132 101 -132z" />
    <glyph glyph-name="otilde" unicode="&#xf5;" horiz-adv-x="508" 
d="M374 849c0 -64 -21 -102 -61 -102c-48 0 -99 50 -127 50c-18 0 -30 -11 -34 -50h-16c0 63 19 102 60 102c53 0 100 -50 127 -50c19 0 32 14 35 50h16zM256 691c137 0 209 -120 209 -351c0 -232 -73 -353 -211 -353c-139 0 -212 120 -212 351c0 232 74 353 214 353z
M253 673c-78 0 -117 -114 -117 -332c0 -221 40 -336 118 -336c77 0 117 111 117 332s-40 336 -118 336z" />
    <glyph glyph-name="oe" unicode="&#x153;" horiz-adv-x="685" 
d="M458 18h214v-18h-300v44c-31 -38 -71 -57 -118 -57c-139 0 -212 120 -212 351c0 232 74 353 214 353c46 0 85 -19 116 -56v42h281v-18h-195v-306h157v-18h-157v-317zM254 5c77 0 117 111 117 332s-40 336 -118 336s-117 -114 -117 -332c0 -221 40 -336 118 -336z" />
    <glyph glyph-name="p" unicode="p" horiz-adv-x="406" 
d="M65 677h133c118 0 180 -63 180 -192c0 -135 -74 -204 -196 -204h-31v-281h-86v677zM151 299h30c63 0 102 59 102 183s-35 177 -101 177h-31v-360z" />
    <glyph glyph-name="thorn" unicode="&#xfe;" horiz-adv-x="411" 
d="M151 153v-153h-86v677h86v-125h37c128 0 189 -63 189 -196s-73 -203 -195 -203h-31zM151 171h29c64 0 102 59 102 177c0 134 -37 186 -99 186h-32v-363z" />
    <glyph glyph-name="q" unicode="q" horiz-adv-x="508" 
d="M529 -80l12 -11c-28 -43 -68 -61 -115 -61c-77 0 -163 54 -201 141c-120 16 -183 135 -183 349c0 232 74 353 214 353c137 0 209 -120 209 -351c0 -207 -58 -326 -169 -349c36 -76 90 -122 140 -122c34 0 65 15 93 51zM136 341c0 -189 29 -300 86 -329l51 42
c4 -14 9 -28 14 -41c55 29 84 137 84 324c0 221 -40 336 -118 336s-117 -114 -117 -332z" />
    <glyph glyph-name="r" unicode="r" horiz-adv-x="432" 
d="M357 217l56 -217h-92l-50 226c-19 76 -48 110 -90 110h-30v-336h-86v677h143c122 0 173 -72 173 -160c0 -107 -68 -163 -152 -173c63 -11 108 -49 128 -127zM151 659v-305h40c58 0 97 47 97 156c0 85 -19 149 -96 149h-41z" />
    <glyph glyph-name="racute" unicode="&#x155;" horiz-adv-x="432" 
d="M324 784c-59 -30 -120 -48 -180 -56l-6 16c50 27 99 58 143 114zM357 217l56 -217h-92l-50 226c-19 76 -48 110 -90 110h-30v-336h-86v677h143c122 0 173 -72 173 -160c0 -107 -68 -163 -152 -173c63 -11 108 -49 128 -127zM151 659v-305h40c58 0 97 47 97 156
c0 85 -19 149 -96 149h-41z" />
    <glyph glyph-name="rcaron" unicode="&#x159;" horiz-adv-x="432" 
d="M238 725h-65l-98 122l14 14l116 -91l117 90l14 -13zM357 217l56 -217h-92l-50 226c-19 76 -48 110 -90 110h-30v-336h-86v677h143c122 0 173 -72 173 -160c0 -107 -68 -163 -152 -173c63 -11 108 -49 128 -127zM151 659v-305h40c58 0 97 47 97 156c0 85 -19 149 -96 149
h-41z" />
    <glyph glyph-name="rcommaaccent" unicode="&#x157;" horiz-adv-x="432" 
d="M357 217l56 -217h-92l-50 226c-19 76 -48 110 -90 110h-30v-336h-86v677h143c122 0 173 -72 173 -160c0 -107 -68 -163 -152 -173c63 -11 108 -49 128 -127zM151 659v-305h40c58 0 97 47 97 156c0 85 -19 149 -96 149h-41zM217 -45c29 0 41 -22 41 -48
c0 -37 -28 -85 -65 -116l-12 12c17 20 27 43 27 65c0 21 -10 39 -36 43c4 29 21 44 45 44z" />
    <glyph glyph-name="s" unicode="s" horiz-adv-x="364" 
d="M310 661l-7 -15c-32 15 -62 23 -97 22c-61 0 -99 -38 -99 -102c0 -73 40 -121 107 -188c91 -91 122 -135 122 -220c0 -102 -61 -168 -174 -168c-37 0 -89 10 -129 35l8 14c42 -24 82 -31 120 -31c61 0 103 25 104 101c0 68 -26 110 -107 188c-73 71 -122 131 -122 224
c0 103 70 165 168 165c39 0 75 -9 106 -25z" />
    <glyph glyph-name="sacute" unicode="&#x15b;" horiz-adv-x="364" 
d="M311 784c-59 -30 -120 -48 -180 -56l-6 16c50 27 99 58 143 114zM310 661l-7 -15c-32 15 -62 23 -97 22c-61 0 -99 -38 -99 -102c0 -73 40 -121 107 -188c91 -91 122 -135 122 -220c0 -102 -61 -168 -174 -168c-37 0 -89 10 -129 35l8 14c42 -24 82 -31 120 -31
c61 0 103 25 104 101c0 68 -26 110 -107 188c-73 71 -122 131 -122 224c0 103 70 165 168 165c39 0 75 -9 106 -25z" />
    <glyph glyph-name="scaron" unicode="&#x161;" horiz-adv-x="364" 
d="M225 725h-65l-98 122l14 14l116 -91l117 90l14 -13zM310 661l-7 -15c-32 15 -62 23 -97 22c-61 0 -99 -38 -99 -102c0 -73 40 -121 107 -188c91 -91 122 -135 122 -220c0 -102 -61 -168 -174 -168c-37 0 -89 10 -129 35l8 14c42 -24 82 -31 120 -31c61 0 103 25 104 101
c0 68 -26 110 -107 188c-73 71 -122 131 -122 224c0 103 70 165 168 165c39 0 75 -9 106 -25z" />
    <glyph glyph-name="scedilla" unicode="&#x15f;" horiz-adv-x="364" 
d="M336 158c0 -95 -53 -159 -152 -167l-25 -57c9 4 19 6 29 6c33 0 68 -23 68 -70c0 -53 -41 -79 -86 -79c-24 0 -48 7 -67 23l12 15c13 -11 28 -17 41 -17c24 0 44 19 44 57c0 31 -13 48 -34 48c-5 0 -11 -1 -17 -3l-12 10l26 66h-1c-37 0 -89 10 -129 35l8 14
c42 -24 82 -31 120 -31c61 0 103 25 104 101c0 68 -26 110 -107 188c-73 71 -122 131 -122 224c0 103 70 165 168 165c39 0 75 -9 106 -25l-7 -15c-32 15 -62 23 -97 22c-61 0 -99 -38 -99 -102c0 -73 40 -121 107 -188c91 -91 122 -135 122 -220z" />
    <glyph glyph-name="scircumflex" unicode="&#x15d;" horiz-adv-x="364" 
d="M159 853h71l97 -118l-13 -13l-120 85l-119 -84l-12 12zM310 661l-7 -15c-32 15 -62 23 -97 22c-61 0 -99 -38 -99 -102c0 -73 40 -121 107 -188c91 -91 122 -135 122 -220c0 -102 -61 -168 -174 -168c-37 0 -89 10 -129 35l8 14c42 -24 82 -31 120 -31
c61 0 103 25 104 101c0 68 -26 110 -107 188c-73 71 -122 131 -122 224c0 103 70 165 168 165c39 0 75 -9 106 -25z" />
    <glyph glyph-name="scommaaccent" unicode="&#x219;" horiz-adv-x="364" 
d="M310 661l-7 -15c-32 15 -62 23 -97 22c-61 0 -99 -38 -99 -102c0 -73 40 -121 107 -188c91 -91 122 -135 122 -220c0 -102 -61 -168 -174 -168c-37 0 -89 10 -129 35l8 14c42 -24 82 -31 120 -31c61 0 103 25 104 101c0 68 -26 110 -107 188c-73 71 -122 131 -122 224
c0 103 70 165 168 165c39 0 75 -9 106 -25zM132 -200c17 20 27 43 27 65c0 21 -10 39 -36 43c4 29 21 44 45 44c29 0 41 -22 41 -48c0 -37 -28 -85 -65 -116z" />
    <glyph glyph-name="germandbls" unicode="&#xdf;" horiz-adv-x="497" 
d="M289 464c140 -147 183 -214 183 -304c0 -116 -81 -172 -165 -172c-36 0 -72 11 -103 30l7 14c28 -15 61 -25 91 -25c53 0 100 29 100 101c0 85 -60 161 -180 281v18l170 241c-36 15 -68 20 -97 20c-93 0 -149 -62 -149 -210v-458h-85v458c0 167 109 229 217 229
c48 0 95 -12 131 -30v-17z" />
    <glyph glyph-name="t" unicode="t" horiz-adv-x="404" 
d="M10 677h384v-18h-149v-659h-86v659h-149v18z" />
    <glyph glyph-name="tbar" unicode="&#x167;" horiz-adv-x="418" 
d="M401 659h-149v-289h102v-18h-102v-352h-86v352h-101v18h101v289h-149v18h384v-18z" />
    <glyph glyph-name="tcaron" unicode="&#x165;" horiz-adv-x="404" 
d="M235 725h-65l-98 122l14 14l116 -91l117 90l14 -13zM10 677h384v-18h-149v-659h-86v659h-149v18z" />
    <glyph glyph-name="uni0163" unicode="&#x163;" horiz-adv-x="404" 
d="M245 0h-27l-28 -63c9 4 19 6 29 6c33 0 68 -23 68 -70c0 -53 -41 -79 -86 -79c-24 0 -48 7 -67 23l12 15c13 -11 28 -17 41 -17c24 0 44 19 44 57c0 31 -13 48 -34 48c-5 0 -11 -1 -17 -3l-12 10l29 73h-38v659h-149v18h384v-18h-149v-659z" />
    <glyph glyph-name="uni021B" unicode="&#x21b;" horiz-adv-x="404" 
d="M10 677h384v-18h-149v-659h-86v659h-149v18zM163 -197c17 20 27 43 27 65c0 21 -10 39 -36 43c4 29 21 44 45 44c29 0 41 -22 41 -48c0 -37 -28 -85 -65 -116z" />
    <glyph glyph-name="u" unicode="u" horiz-adv-x="458" 
d="M64 677h86v-489c0 -124 32 -177 109 -177c56 0 119 21 119 180v486h20v-484c0 -155 -61 -206 -153 -206c-123 0 -181 57 -181 223v467z" />
    <glyph glyph-name="uacute" unicode="&#xfa;" horiz-adv-x="458" 
d="M362 784c-59 -30 -120 -48 -180 -56l-6 16c50 27 99 58 143 114zM64 677h86v-489c0 -124 32 -177 109 -177c56 0 119 21 119 180v486h20v-484c0 -155 -61 -206 -153 -206c-123 0 -181 57 -181 223v467z" />
    <glyph glyph-name="ubreve" unicode="&#x16d;" horiz-adv-x="458" 
d="M241 721c-76 0 -104 70 -105 141h14c8 -56 45 -85 91 -85s84 33 90 85h15c-1 -71 -30 -141 -105 -141zM64 677h86v-489c0 -124 32 -177 109 -177c56 0 119 21 119 180v486h20v-484c0 -155 -61 -206 -153 -206c-123 0 -181 57 -181 223v467z" />
    <glyph glyph-name="uni01D4" unicode="&#x1d4;" horiz-adv-x="458" 
d="M276 725h-65l-98 122l14 14l116 -91l117 90l14 -13zM64 677h86v-489c0 -124 32 -177 109 -177c56 0 119 21 119 180v486h20v-484c0 -155 -61 -206 -153 -206c-123 0 -181 57 -181 223v467z" />
    <glyph glyph-name="ucircumflex" unicode="&#xfb;" horiz-adv-x="458" 
d="M210 853h71l97 -118l-13 -13l-120 85l-119 -84l-12 12zM64 677h86v-489c0 -124 32 -177 109 -177c56 0 119 21 119 180v486h20v-484c0 -155 -61 -206 -153 -206c-123 0 -181 57 -181 223v467z" />
    <glyph glyph-name="udieresis" unicode="&#xfc;" horiz-adv-x="458" 
d="M122 794c0 28 23 50 48 50c29 0 48 -22 48 -50c0 -26 -19 -49 -48 -49c-25 0 -48 23 -48 49zM267 794c0 28 23 50 49 50c25 0 47 -22 47 -50c0 -26 -22 -49 -47 -49c-26 0 -49 23 -49 49zM64 677h86v-489c0 -124 32 -177 109 -177c56 0 119 21 119 180v486h20v-484
c0 -155 -61 -206 -153 -206c-123 0 -181 57 -181 223v467z" />
    <glyph glyph-name="ugrave" unicode="&#xf9;" horiz-adv-x="458" 
d="M183 873c43 -64 89 -103 142 -133l-5 -14c-58 11 -125 34 -184 74zM64 677h86v-489c0 -124 32 -177 109 -177c56 0 119 21 119 180v486h20v-484c0 -155 -61 -206 -153 -206c-123 0 -181 57 -181 223v467z" />
    <glyph glyph-name="uhungarumlaut" unicode="&#x171;" horiz-adv-x="458" 
d="M183 737l-13 11l74 148l65 -39zM280 726l-13 13l115 121l44 -59zM64 677h86v-489c0 -124 32 -177 109 -177c56 0 119 21 119 180v486h20v-484c0 -155 -61 -206 -153 -206c-123 0 -181 57 -181 223v467z" />
    <glyph glyph-name="umacron" unicode="&#x16b;" horiz-adv-x="458" 
d="M127 768v18h231v-18h-231zM64 677h86v-489c0 -124 32 -177 109 -177c56 0 119 21 119 180v486h20v-484c0 -155 -61 -206 -153 -206c-123 0 -181 57 -181 223v467z" />
    <glyph glyph-name="uogonek" unicode="&#x173;" horiz-adv-x="458" 
d="M378 677h20v-484c0 -124 -39 -182 -102 -200c-45 -29 -70 -71 -70 -111c0 -37 22 -56 50 -56c16 0 33 5 49 16l9 -13c-25 -19 -55 -27 -84 -27c-49 0 -91 26 -91 77c0 50 38 85 82 108c-120 1 -177 59 -177 223v467h86v-489c0 -124 32 -177 109 -177c56 0 119 21 119 180
v486z" />
    <glyph glyph-name="uring" unicode="&#x16f;" horiz-adv-x="458" 
d="M243 874c45 0 75 -31 75 -77c0 -44 -30 -76 -75 -76c-46 0 -76 30 -76 76c0 45 30 77 76 77zM295 797c0 36 -21 60 -52 60c-32 0 -53 -24 -53 -60s21 -60 53 -60c31 0 52 24 52 60zM64 677h86v-489c0 -124 32 -177 109 -177c56 0 119 21 119 180v486h20v-484
c0 -155 -61 -206 -153 -206c-123 0 -181 57 -181 223v467z" />
    <glyph glyph-name="utilde" unicode="&#x169;" horiz-adv-x="458" 
d="M366 849c0 -64 -21 -102 -61 -102c-48 0 -99 50 -127 50c-18 0 -30 -11 -34 -50h-16c0 63 19 102 60 102c53 0 100 -50 127 -50c19 0 32 14 35 50h16zM64 677h86v-489c0 -124 32 -177 109 -177c56 0 119 21 119 180v486h20v-484c0 -155 -61 -206 -153 -206
c-123 0 -181 57 -181 223v467z" />
    <glyph glyph-name="v" unicode="v" horiz-adv-x="408" 
d="M365 677h21l-135 -677h-87l-143 677h90l131 -627z" />
    <glyph glyph-name="w" unicode="w" horiz-adv-x="578" 
d="M530 677h21l-102 -677h-80l-79 448l-82 -448h-80l-104 677h88l89 -604l79 430l-16 92h85l91 -525z" />
    <glyph glyph-name="wacute" unicode="&#x1e83;" horiz-adv-x="578" 
d="M425 784c-59 -30 -120 -48 -180 -56l-6 16c50 27 99 58 143 114zM530 677h21l-102 -677h-80l-79 448l-82 -448h-80l-104 677h88l89 -604l79 430l-16 92h85l91 -525z" />
    <glyph glyph-name="wcircumflex" unicode="&#x175;" horiz-adv-x="578" 
d="M308 807l-119 -84l-12 12l96 118h71l97 -118l-13 -13zM530 677h21l-102 -677h-80l-79 448l-82 -448h-80l-104 677h88l89 -604l79 430l-16 92h85l91 -525z" />
    <glyph glyph-name="wdieresis" unicode="&#x1e85;" horiz-adv-x="578" 
d="M233 745c-25 0 -48 23 -48 49c0 28 23 50 48 50c29 0 48 -22 48 -50c0 -26 -19 -49 -48 -49zM379 745c-26 0 -49 23 -49 49c0 28 23 50 49 50c25 0 47 -22 47 -50c0 -26 -22 -49 -47 -49zM530 677h21l-102 -677h-80l-79 448l-82 -448h-80l-104 677h88l89 -604l79 430
l-16 92h85l91 -525z" />
    <glyph glyph-name="wgrave" unicode="&#x1e81;" horiz-adv-x="578" 
d="M388 740l-5 -14c-58 11 -125 34 -184 74l47 73c43 -64 89 -103 142 -133zM530 677h21l-102 -677h-80l-79 448l-82 -448h-80l-104 677h88l89 -604l79 430l-16 92h85l91 -525z" />
    <glyph glyph-name="x" unicode="x" horiz-adv-x="385" 
d="M375 0h-97l-113 297l-129 -297h-21l141 321l-136 356h96l103 -270l113 270h21l-124 -296z" />
    <glyph glyph-name="y" unicode="y" horiz-adv-x="397" 
d="M373 677l-130 -377v-300h-86v289l-135 388h92l118 -349l120 349h21z" />
    <glyph glyph-name="yacute" unicode="&#xfd;" horiz-adv-x="397" 
d="M328 784c-59 -30 -120 -48 -180 -56l-6 16c50 27 99 58 143 114zM373 677l-130 -377v-300h-86v289l-135 388h92l118 -349l120 349h21z" />
    <glyph glyph-name="ycircumflex" unicode="&#x177;" horiz-adv-x="397" 
d="M211 807l-119 -84l-12 12l96 118h71l97 -118l-13 -13zM373 677l-130 -377v-300h-86v289l-135 388h92l118 -349l120 349h21z" />
    <glyph glyph-name="ydieresis" unicode="&#xff;" horiz-adv-x="397" 
d="M136 745c-25 0 -48 23 -48 49c0 28 23 50 48 50c29 0 48 -22 48 -50c0 -26 -19 -49 -48 -49zM282 745c-26 0 -49 23 -49 49c0 28 23 50 49 50c25 0 47 -22 47 -50c0 -26 -22 -49 -47 -49zM373 677l-130 -377v-300h-86v289l-135 388h92l118 -349l120 349h21z" />
    <glyph glyph-name="ygrave" unicode="&#x1ef3;" horiz-adv-x="397" 
d="M291 740l-5 -14c-58 11 -125 34 -184 74l47 73c43 -64 89 -103 142 -133zM373 677l-130 -377v-300h-86v289l-135 388h92l118 -349l120 349h21z" />
    <glyph glyph-name="uni0233" unicode="&#x233;" horiz-adv-x="397" 
d="M324 786v-18h-231v18h231zM373 677l-130 -377v-300h-86v289l-135 388h92l118 -349l120 349h21z" />
    <glyph glyph-name="z" unicode="z" horiz-adv-x="365" 
d="M103 18h241v-18h-326v22l236 637h-221v18h308v-16z" />
    <glyph glyph-name="zacute" unicode="&#x17a;" horiz-adv-x="365" 
d="M302 784c-59 -30 -120 -48 -180 -56l-6 16c50 27 99 58 143 114zM103 18h241v-18h-326v22l236 637h-221v18h308v-16z" />
    <glyph glyph-name="zcaron" unicode="&#x17e;" horiz-adv-x="365" 
d="M216 725h-65l-98 122l14 14l116 -91l117 90l14 -13zM103 18h241v-18h-326v22l236 637h-221v18h308v-16z" />
    <glyph glyph-name="zdotaccent" unicode="&#x17c;" horiz-adv-x="365" 
d="M183 741c-28 0 -52 23 -52 51c0 29 24 53 52 53s50 -24 50 -53c0 -28 -22 -51 -50 -51zM103 18h241v-18h-326v22l236 637h-221v18h308v-16z" />
    <glyph glyph-name="a.ss01" horiz-adv-x="397" 
d="M293 0l-47 187h-165l-46 -187h-21l172 688h20l178 -688h-91zM86 205h155l-78 309z" />
    <glyph glyph-name="aacute.ss01" horiz-adv-x="397" 
d="M316 784c-59 -30 -120 -48 -180 -56l-6 16c50 27 99 58 143 114zM293 0l-47 187h-165l-46 -187h-21l172 688h20l178 -688h-91zM86 205h155l-78 309z" />
    <glyph glyph-name="abreve.ss01" horiz-adv-x="397" 
d="M195 721c-76 0 -104 70 -105 141h14c8 -56 45 -85 91 -85s84 33 90 85h15c-1 -71 -30 -141 -105 -141zM293 0l-47 187h-165l-46 -187h-21l172 688h20l178 -688h-91zM86 205h155l-78 309z" />
    <glyph glyph-name="uni01CE.ss01" horiz-adv-x="397" 
d="M230 725h-65l-98 122l14 14l116 -91l117 90l14 -13zM293 0l-47 187h-165l-46 -187h-21l172 688h20l178 -688h-91zM86 205h155l-78 309z" />
    <glyph glyph-name="acircumflex.ss01" horiz-adv-x="397" 
d="M199 807l-119 -84l-12 12l96 118h71l97 -118l-13 -13zM293 0l-47 187h-165l-46 -187h-21l172 688h20l178 -688h-91zM86 205h155l-78 309z" />
    <glyph glyph-name="adieresis.ss01" horiz-adv-x="397" 
d="M124 745c-25 0 -48 23 -48 49c0 28 23 50 48 50c29 0 48 -22 48 -50c0 -26 -19 -49 -48 -49zM270 745c-26 0 -49 23 -49 49c0 28 23 50 49 50c25 0 47 -22 47 -50c0 -26 -22 -49 -47 -49zM293 0l-47 187h-165l-46 -187h-21l172 688h20l178 -688h-91zM86 205h155l-78 309z
" />
    <glyph glyph-name="agrave.ss01" horiz-adv-x="397" 
d="M279 740l-5 -14c-58 11 -125 34 -184 74l47 73c43 -64 89 -103 142 -133zM293 0l-47 187h-165l-46 -187h-21l172 688h20l178 -688h-91zM86 205h155l-78 309z" />
    <glyph glyph-name="amacron.ss01" horiz-adv-x="397" 
d="M312 786v-18h-231v18h231zM293 0l-47 187h-165l-46 -187h-21l172 688h20l178 -688h-91zM86 205h155l-78 309z" />
    <glyph glyph-name="aogonek.ss01" horiz-adv-x="397" 
d="M275 -181c16 0 33 5 49 16l9 -13c-25 -19 -55 -27 -84 -27c-49 0 -91 26 -91 77c0 69 72 110 135 129l-47 186h-165l-46 -187h-21l172 688h20l178 -688h-66c-59 -30 -93 -78 -93 -125c0 -37 22 -56 50 -56zM86 205h155l-78 309z" />
    <glyph glyph-name="aring.ss01" horiz-adv-x="397" 
d="M197 721c-46 0 -76 30 -76 76c0 45 30 77 76 77c45 0 75 -31 75 -77c0 -44 -30 -76 -75 -76zM197 857c-32 0 -53 -24 -53 -60s21 -60 53 -60c31 0 52 24 52 60s-21 60 -52 60zM293 0l-47 187h-165l-46 -187h-21l172 688h20l178 -688h-91zM86 205h155l-78 309z" />
    <glyph glyph-name="atilde.ss01" horiz-adv-x="397" 
d="M132 797c-18 0 -30 -11 -34 -50h-16c0 63 19 102 60 102c53 0 100 -50 127 -50c19 0 32 14 35 50h16c0 -64 -21 -102 -61 -102c-48 0 -99 50 -127 50zM293 0l-47 187h-165l-46 -187h-21l172 688h20l178 -688h-91zM86 205h155l-78 309z" />
    <glyph glyph-name="n.ss01" horiz-adv-x="461" 
d="M376 677h20v-689h-18l-293 655v-643h-20v677h98l213 -488v488z" />
    <glyph glyph-name="nacute.ss01" horiz-adv-x="461" 
d="M357 784c-59 -30 -120 -48 -180 -56l-6 16c50 27 99 58 143 114zM376 677h20v-689h-18l-293 655v-643h-20v677h98l213 -488v488z" />
    <glyph glyph-name="ncaron.ss01" horiz-adv-x="461" 
d="M271 725h-65l-98 122l14 14l116 -91l117 90l14 -13zM376 677h20v-689h-18l-293 655v-643h-20v677h98l213 -488v488z" />
    <glyph glyph-name="ncommaaccent.ss01" horiz-adv-x="461" 
d="M376 677h20v-689h-18l-293 655v-643h-20v677h98l213 -488v488zM225 -45c29 0 41 -22 41 -48c0 -37 -28 -85 -65 -116l-12 12c17 20 27 43 27 65c0 21 -10 39 -36 43c4 29 21 44 45 44z" />
    <glyph glyph-name="ntilde.ss01" horiz-adv-x="461" 
d="M173 797c-18 0 -30 -11 -34 -50h-16c0 63 19 102 60 102c53 0 100 -50 127 -50c19 0 32 14 35 50h16c0 -64 -21 -102 -61 -102c-48 0 -99 50 -127 50zM376 677h20v-689h-18l-293 655v-643h-20v677h98l213 -488v488z" />
    <glyph glyph-name="v.ss01" horiz-adv-x="398" 
d="M362 677h21l-170 -689h-21l-177 689h94l125 -520z" />
    <glyph glyph-name="w.ss01" horiz-adv-x="567" 
d="M526 677h21l-127 -688h-21l-107 475l-118 -475h-20l-135 688h88l95 -491l109 434h23l101 -438z" />
    <glyph glyph-name="wacute.ss01" horiz-adv-x="567" 
d="M424 784c-59 -30 -120 -48 -180 -56l-6 16c50 27 99 58 143 114zM526 677h21l-127 -688h-21l-107 475l-118 -475h-20l-135 688h88l95 -491l109 434h23l101 -438z" />
    <glyph glyph-name="wcircumflex.ss01" horiz-adv-x="567" 
d="M307 807l-119 -84l-12 12l96 118h71l97 -118l-13 -13zM526 677h21l-127 -688h-21l-107 475l-118 -475h-20l-135 688h88l95 -491l109 434h23l101 -438z" />
    <glyph glyph-name="wdieresis.ss01" horiz-adv-x="567" 
d="M232 745c-25 0 -48 23 -48 49c0 28 23 50 48 50c29 0 48 -22 48 -50c0 -26 -19 -49 -48 -49zM378 745c-26 0 -49 23 -49 49c0 28 23 50 49 50c25 0 47 -22 47 -50c0 -26 -22 -49 -47 -49zM526 677h21l-127 -688h-21l-107 475l-118 -475h-20l-135 688h88l95 -491l109 434
h23l101 -438z" />
    <glyph glyph-name="wgrave.ss01" horiz-adv-x="567" 
d="M387 740l-5 -14c-58 11 -125 34 -184 74l47 73c43 -64 89 -103 142 -133zM526 677h21l-127 -688h-21l-107 475l-118 -475h-20l-135 688h88l95 -491l109 434h23l101 -438z" />
    <glyph glyph-name="u.ss02" horiz-adv-x="506" 
d="M355 677h86v-677h-82v76h-2c-21 -62 -64 -89 -139 -89c-105 0 -154 68 -154 223v467h86v-496c0 -127 32 -169 97 -169c40 0 108 15 108 160v505z" />
    <glyph glyph-name="uacute.ss02" horiz-adv-x="506" 
d="M372 784c-59 -30 -120 -48 -180 -56l-6 16c50 27 99 58 143 114zM355 677h86v-677h-82v76h-2c-21 -62 -64 -89 -139 -89c-105 0 -154 68 -154 223v467h86v-496c0 -127 32 -169 97 -169c40 0 108 15 108 160v505z" />
    <glyph glyph-name="uni01D4.ss02" horiz-adv-x="506" 
d="M286 725h-65l-98 122l14 14l116 -91l117 90l14 -13zM355 677h86v-677h-82v76h-2c-21 -62 -64 -89 -139 -89c-105 0 -154 68 -154 223v467h86v-496c0 -127 32 -169 97 -169c40 0 108 15 108 160v505z" />
    <glyph glyph-name="ucircumflex.ss02" horiz-adv-x="506" 
d="M255 807l-119 -84l-12 12l96 118h71l97 -118l-13 -13zM355 677h86v-677h-82v76h-2c-21 -62 -64 -89 -139 -89c-105 0 -154 68 -154 223v467h86v-496c0 -127 32 -169 97 -169c40 0 108 15 108 160v505z" />
    <glyph glyph-name="udieresis.ss02" horiz-adv-x="506" 
d="M180 745c-25 0 -48 23 -48 49c0 28 23 50 48 50c29 0 48 -22 48 -50c0 -26 -19 -49 -48 -49zM326 745c-26 0 -49 23 -49 49c0 28 23 50 49 50c25 0 47 -22 47 -50c0 -26 -22 -49 -47 -49zM355 677h86v-677h-82v76h-2c-21 -62 -64 -89 -139 -89c-105 0 -154 68 -154 223
v467h86v-496c0 -127 32 -169 97 -169c40 0 108 15 108 160v505z" />
    <glyph glyph-name="ugrave.ss02" horiz-adv-x="506" 
d="M335 740l-5 -14c-58 11 -125 34 -184 74l47 73c43 -64 89 -103 142 -133zM355 677h86v-677h-82v76h-2c-21 -62 -64 -89 -139 -89c-105 0 -154 68 -154 223v467h86v-496c0 -127 32 -169 97 -169c40 0 108 15 108 160v505z" />
    <glyph glyph-name="uhungarumlaut.ss02" horiz-adv-x="506" 
d="M319 857l-126 -120l-13 11l74 148zM290 726l-13 13l115 121l44 -59zM355 677h86v-677h-82v76h-2c-21 -62 -64 -89 -139 -89c-105 0 -154 68 -154 223v467h86v-496c0 -127 32 -169 97 -169c40 0 108 15 108 160v505z" />
    <glyph glyph-name="umacron.ss02" horiz-adv-x="506" 
d="M368 786v-18h-231v18h231zM355 677h86v-677h-82v76h-2c-21 -62 -64 -89 -139 -89c-105 0 -154 68 -154 223v467h86v-496c0 -127 32 -169 97 -169c40 0 108 15 108 160v505z" />
    <glyph glyph-name="uogonek.ss02" horiz-adv-x="506" 
d="M447 -165l9 -13c-25 -19 -55 -27 -84 -27c-49 0 -91 26 -91 77c0 68 69 108 131 128h-53v76h-2c-21 -62 -64 -89 -139 -89c-105 0 -154 68 -154 223v467h86v-496c0 -127 32 -169 97 -169c40 0 108 15 108 160v505h86v-677c-59 -30 -93 -78 -93 -125c0 -37 22 -56 50 -56
c16 0 33 5 49 16z" />
    <glyph glyph-name="uring.ss02" horiz-adv-x="506" 
d="M253 721c-46 0 -76 30 -76 76c0 45 30 77 76 77c45 0 75 -31 75 -77c0 -44 -30 -76 -75 -76zM253 857c-32 0 -53 -24 -53 -60s21 -60 53 -60c31 0 52 24 52 60s-21 60 -52 60zM355 677h86v-677h-82v76h-2c-21 -62 -64 -89 -139 -89c-105 0 -154 68 -154 223v467h86v-496
c0 -127 32 -169 97 -169c40 0 108 15 108 160v505z" />
    <glyph glyph-name="utilde.ss02" horiz-adv-x="506" 
d="M188 797c-18 0 -30 -11 -34 -50h-16c0 63 19 102 60 102c53 0 100 -50 127 -50c19 0 32 14 35 50h16c0 -64 -21 -102 -61 -102c-48 0 -99 50 -127 50zM355 677h86v-677h-82v76h-2c-21 -62 -64 -89 -139 -89c-105 0 -154 68 -154 223v467h86v-496c0 -127 32 -169 97 -169
c40 0 108 15 108 160v505z" />
    <glyph glyph-name="ubreve.sso2" horiz-adv-x="506" 
d="M251 721c-76 0 -104 70 -105 141h14c8 -56 45 -85 91 -85s84 33 90 85h15c-1 -71 -30 -141 -105 -141zM355 677h86v-677h-82v76h-2c-21 -62 -64 -89 -139 -89c-105 0 -154 68 -154 223v467h86v-496c0 -127 32 -169 97 -169c40 0 108 15 108 160v505z" />
    <glyph glyph-name="A_A" 
d="M652 0l-51 231h-159l-52 -231h-89l-51 231h-159l-52 -231h-21l143 632l-10 45h89l140 -630l132 585l-10 45h89l150 -677h-89zM95 249h151l-75 338zM446 249h151l-75 338z" />
    <glyph glyph-name="A_Aacute" 
d="M674 784c-59 -30 -120 -48 -180 -56l-6 16c50 27 99 58 143 114zM652 0l-51 231h-159l-52 -231h-89l-51 231h-159l-52 -231h-21l143 632l-10 45h89l140 -630l132 585l-10 45h89l150 -677h-89zM95 249h151l-75 338zM446 249h151l-75 338z" />
    <glyph glyph-name="A_Abreve" 
d="M553 721c-76 0 -104 70 -105 141h14c8 -56 45 -85 91 -85s84 33 90 85h15c-1 -71 -30 -141 -105 -141zM652 0l-51 231h-159l-52 -231h-89l-51 231h-159l-52 -231h-21l143 632l-10 45h89l140 -630l132 585l-10 45h89l150 -677h-89zM95 249h151l-75 338zM446 249h151
l-75 338z" />
    <glyph glyph-name="uni004101CD" 
d="M588 725h-65l-98 122l14 14l116 -91l117 90l14 -13zM652 0l-51 231h-159l-52 -231h-89l-51 231h-159l-52 -231h-21l143 632l-10 45h89l140 -630l132 585l-10 45h89l150 -677h-89zM95 249h151l-75 338zM446 249h151l-75 338z" />
    <glyph glyph-name="A_Acircumflex" 
d="M557 807l-119 -84l-12 12l96 118h71l97 -118l-13 -13zM652 0l-51 231h-159l-52 -231h-89l-51 231h-159l-52 -231h-21l143 632l-10 45h89l140 -630l132 585l-10 45h89l150 -677h-89zM95 249h151l-75 338zM446 249h151l-75 338z" />
    <glyph glyph-name="A_Adieresis" 
d="M482 745c-25 0 -48 23 -48 49c0 28 23 50 48 50c29 0 48 -22 48 -50c0 -26 -19 -49 -48 -49zM628 745c-26 0 -49 23 -49 49c0 28 23 50 49 50c25 0 47 -22 47 -50c0 -26 -22 -49 -47 -49zM652 0l-51 231h-159l-52 -231h-89l-51 231h-159l-52 -231h-21l143 632l-10 45h89
l140 -630l132 585l-10 45h89l150 -677h-89zM95 249h151l-75 338zM446 249h151l-75 338z" />
    <glyph glyph-name="A_Agrave" 
d="M637 740l-5 -14c-58 11 -125 34 -184 74l47 73c43 -64 89 -103 142 -133zM652 0l-51 231h-159l-52 -231h-89l-51 231h-159l-52 -231h-21l143 632l-10 45h89l140 -630l132 585l-10 45h89l150 -677h-89zM95 249h151l-75 338zM446 249h151l-75 338z" />
    <glyph glyph-name="A_Amacron" 
d="M670 786v-18h-231v18h231zM652 0l-51 231h-159l-52 -231h-89l-51 231h-159l-52 -231h-21l143 632l-10 45h89l140 -630l132 585l-10 45h89l150 -677h-89zM95 249h151l-75 338zM446 249h151l-75 338z" />
    <glyph glyph-name="A_Aogonek" 
d="M636 -181c16 0 33 5 49 16l9 -13c-25 -19 -55 -27 -84 -27c-49 0 -91 26 -91 77c0 68 70 109 133 128l-51 231h-159l-52 -231h-89l-51 231h-159l-52 -231h-21l143 632l-10 45h89l140 -630l132 585l-10 45h89l150 -677h-62c-59 -30 -93 -78 -93 -125c0 -37 22 -56 50 -56z
M95 249h151l-75 338zM446 249h151l-75 338z" />
    <glyph glyph-name="A_Aring" 
d="M555 721c-46 0 -76 30 -76 76c0 45 30 77 76 77c45 0 75 -31 75 -77c0 -44 -30 -76 -75 -76zM555 857c-32 0 -53 -24 -53 -60s21 -60 53 -60c31 0 52 24 52 60s-21 60 -52 60zM652 0l-51 231h-159l-52 -231h-89l-51 231h-159l-52 -231h-21l143 632l-10 45h89l140 -630
l132 585l-10 45h89l150 -677h-89zM95 249h151l-75 338zM446 249h151l-75 338z" />
    <glyph glyph-name="A_Atilde" 
d="M490 797c-18 0 -30 -11 -34 -50h-16c0 63 19 102 60 102c53 0 100 -50 127 -50c19 0 32 14 35 50h16c0 -64 -21 -102 -61 -102c-48 0 -99 50 -127 50zM652 0l-51 231h-159l-52 -231h-89l-51 231h-159l-52 -231h-21l143 632l-10 45h89l140 -630l132 585l-10 45h89
l150 -677h-89zM95 249h151l-75 338zM446 249h151l-75 338z" />
    <glyph glyph-name="A_V" horiz-adv-x="544" 
d="M501 677h21l-135 -677h-86l-52 231h-158l-52 -231h-21l143 628l-11 49h89l139 -623zM95 249h150l-74 334z" />
    <glyph glyph-name="Aacute_A" 
d="M324 784c-59 -30 -120 -48 -180 -56l-6 16c50 27 99 58 143 114zM652 0l-51 231h-159l-52 -231h-89l-51 231h-159l-52 -231h-21l143 632l-10 45h89l140 -630l132 585l-10 45h89l150 -677h-89zM95 249h151l-75 338zM446 249h151l-75 338z" />
    <glyph glyph-name="Aacute_V" horiz-adv-x="544" 
d="M319 784c-59 -30 -120 -48 -180 -56l-6 16c50 27 99 58 143 114zM501 677h21l-135 -677h-86l-52 231h-158l-52 -231h-21l143 628l-11 49h89l139 -623zM95 249h150l-74 334z" />
    <glyph glyph-name="Abreve_A" 
d="M203 721c-76 0 -104 70 -105 141h14c8 -56 45 -85 91 -85s84 33 90 85h15c-1 -71 -30 -141 -105 -141zM652 0l-51 231h-159l-52 -231h-89l-51 231h-159l-52 -231h-21l143 632l-10 45h89l140 -630l132 585l-10 45h89l150 -677h-89zM95 249h151l-75 338zM446 249h151
l-75 338z" />
    <glyph glyph-name="Abreve_V" horiz-adv-x="544" 
d="M198 721c-76 0 -104 70 -105 141h14c8 -56 45 -85 91 -85s84 33 90 85h15c-1 -71 -30 -141 -105 -141zM501 677h21l-135 -677h-86l-52 231h-158l-52 -231h-21l143 628l-11 49h89l139 -623zM95 249h150l-74 334z" />
    <glyph glyph-name="uni01CD0041" 
d="M238 725h-65l-98 122l14 14l116 -91l117 90l14 -13zM652 0l-51 231h-159l-52 -231h-89l-51 231h-159l-52 -231h-21l143 632l-10 45h89l140 -630l132 585l-10 45h89l150 -677h-89zM95 249h151l-75 338zM446 249h151l-75 338z" />
    <glyph glyph-name="uni01CD0056" horiz-adv-x="544" 
d="M233 725h-65l-98 122l14 14l116 -91l117 90l14 -13zM501 677h21l-135 -677h-86l-52 231h-158l-52 -231h-21l143 628l-11 49h89l139 -623zM95 249h150l-74 334z" />
    <glyph glyph-name="Acircumflex_A" 
d="M207 807l-119 -84l-12 12l96 118h71l97 -118l-13 -13zM652 0l-51 231h-159l-52 -231h-89l-51 231h-159l-52 -231h-21l143 632l-10 45h89l140 -630l132 585l-10 45h89l150 -677h-89zM95 249h151l-75 338zM446 249h151l-75 338z" />
    <glyph glyph-name="Acircumflex_V" horiz-adv-x="544" 
d="M202 807l-119 -84l-12 12l96 118h71l97 -118l-13 -13zM501 677h21l-135 -677h-86l-52 231h-158l-52 -231h-21l143 628l-11 49h89l139 -623zM95 249h150l-74 334z" />
    <glyph glyph-name="Adieresis_A" 
d="M132 745c-25 0 -48 23 -48 49c0 28 23 50 48 50c29 0 48 -22 48 -50c0 -26 -19 -49 -48 -49zM278 745c-26 0 -49 23 -49 49c0 28 23 50 49 50c25 0 47 -22 47 -50c0 -26 -22 -49 -47 -49zM652 0l-51 231h-159l-52 -231h-89l-51 231h-159l-52 -231h-21l143 632l-10 45h89
l140 -630l132 585l-10 45h89l150 -677h-89zM95 249h151l-75 338zM446 249h151l-75 338z" />
    <glyph glyph-name="Adieresis_V" horiz-adv-x="544" 
d="M127 745c-25 0 -48 23 -48 49c0 28 23 50 48 50c29 0 48 -22 48 -50c0 -26 -19 -49 -48 -49zM273 745c-26 0 -49 23 -49 49c0 28 23 50 49 50c25 0 47 -22 47 -50c0 -26 -22 -49 -47 -49zM501 677h21l-135 -677h-86l-52 231h-158l-52 -231h-21l143 628l-11 49h89
l139 -623zM95 249h150l-74 334z" />
    <glyph glyph-name="Agrave_A" 
d="M287 740l-5 -14c-58 11 -125 34 -184 74l47 73c43 -64 89 -103 142 -133zM652 0l-51 231h-159l-52 -231h-89l-51 231h-159l-52 -231h-21l143 632l-10 45h89l140 -630l132 585l-10 45h89l150 -677h-89zM95 249h151l-75 338zM446 249h151l-75 338z" />
    <glyph glyph-name="Agrave_V" horiz-adv-x="544" 
d="M282 740l-5 -14c-58 11 -125 34 -184 74l47 73c43 -64 89 -103 142 -133zM501 677h21l-135 -677h-86l-52 231h-158l-52 -231h-21l143 628l-11 49h89l139 -623zM95 249h150l-74 334z" />
    <glyph glyph-name="Amacron_A" 
d="M320 786v-18h-231v18h231zM652 0l-51 231h-159l-52 -231h-89l-51 231h-159l-52 -231h-21l143 632l-10 45h89l140 -630l132 585l-10 45h89l150 -677h-89zM95 249h151l-75 338zM446 249h151l-75 338z" />
    <glyph glyph-name="Amacron_V" horiz-adv-x="544" 
d="M315 786v-18h-231v18h231zM501 677h21l-135 -677h-86l-52 231h-158l-52 -231h-21l143 628l-11 49h89l139 -623zM95 249h150l-74 334z" />
    <glyph glyph-name="Aogonek_A" 
d="M652 0l-51 231h-159l-52 -231h-65c-59 -30 -93 -78 -93 -125c0 -37 22 -56 50 -56c16 0 33 5 49 16l9 -13c-25 -19 -55 -27 -84 -27c-49 0 -91 26 -91 77c0 69 72 110 136 129l-51 230h-159l-52 -231h-21l143 632l-10 45h89l140 -630l132 585l-10 45h89l150 -677h-89z
M95 249h151l-75 338zM446 249h151l-75 338z" />
    <glyph glyph-name="Aogonek_V" horiz-adv-x="544" 
d="M501 677h21l-135 -677h-60c-59 -30 -93 -78 -93 -125c0 -37 22 -56 50 -56c16 0 33 5 49 16l9 -13c-25 -19 -55 -27 -84 -27c-49 0 -91 26 -91 77c0 68 71 109 134 129l-52 230h-158l-52 -231h-21l143 628l-11 49h89l139 -623zM95 249h150l-74 334z" />
    <glyph glyph-name="Aring_A" 
d="M205 721c-46 0 -76 30 -76 76c0 45 30 77 76 77c45 0 75 -31 75 -77c0 -44 -30 -76 -75 -76zM205 857c-32 0 -53 -24 -53 -60s21 -60 53 -60c31 0 52 24 52 60s-21 60 -52 60zM652 0l-51 231h-159l-52 -231h-89l-51 231h-159l-52 -231h-21l143 632l-10 45h89l140 -630
l132 585l-10 45h89l150 -677h-89zM95 249h151l-75 338zM446 249h151l-75 338z" />
    <glyph glyph-name="Aring_V" horiz-adv-x="544" 
d="M200 721c-46 0 -76 30 -76 76c0 45 30 77 76 77c45 0 75 -31 75 -77c0 -44 -30 -76 -75 -76zM200 857c-32 0 -53 -24 -53 -60s21 -60 53 -60c31 0 52 24 52 60s-21 60 -52 60zM501 677h21l-135 -677h-86l-52 231h-158l-52 -231h-21l143 628l-11 49h89l139 -623zM95 249
h150l-74 334z" />
    <glyph glyph-name="Atilde_A" 
d="M140 797c-18 0 -30 -11 -34 -50h-16c0 63 19 102 60 102c53 0 100 -50 127 -50c19 0 32 14 35 50h16c0 -64 -21 -102 -61 -102c-48 0 -99 50 -127 50zM652 0l-51 231h-159l-52 -231h-89l-51 231h-159l-52 -231h-21l143 632l-10 45h89l140 -630l132 585l-10 45h89
l150 -677h-89zM95 249h151l-75 338zM446 249h151l-75 338z" />
    <glyph glyph-name="Atilde_V" horiz-adv-x="544" 
d="M135 797c-18 0 -30 -11 -34 -50h-16c0 63 19 102 60 102c53 0 100 -50 127 -50c19 0 32 14 35 50h16c0 -64 -21 -102 -61 -102c-48 0 -99 50 -127 50zM501 677h21l-135 -677h-86l-52 231h-158l-52 -231h-21l143 628l-11 49h89l139 -623zM95 249h150l-74 334z" />
    <glyph glyph-name="D_C" horiz-adv-x="1142" 
d="M1125 76l9 -9c-62 -47 -138 -80 -237 -80c-129 0 -248 52 -309 166c-57 -99 -169 -153 -334 -153h-189v677h206c162 0 269 -50 322 -152c64 109 186 166 320 166c66 0 137 -14 194 -47l-7 -11c-60 30 -127 39 -179 39c-179 0 -283 -119 -283 -333
c0 -222 114 -332 266 -332c93 0 162 26 221 69zM245 18c201 0 295 130 295 319c0 206 -101 322 -293 322h-96v-641h94z" />
    <glyph glyph-name="D_Cacute" horiz-adv-x="1142" 
d="M1016 784c-59 -30 -120 -48 -180 -56l-6 16c50 27 99 58 143 114zM1125 76l9 -9c-62 -47 -138 -80 -237 -80c-129 0 -248 52 -309 166c-57 -99 -169 -153 -334 -153h-189v677h206c162 0 269 -50 322 -152c64 109 186 166 320 166c66 0 137 -14 194 -47l-7 -11
c-60 30 -127 39 -179 39c-179 0 -283 -119 -283 -333c0 -222 114 -332 266 -332c93 0 162 26 221 69zM245 18c201 0 295 130 295 319c0 206 -101 322 -293 322h-96v-641h94z" />
    <glyph glyph-name="D_Ccaron" horiz-adv-x="1142" 
d="M930 725h-65l-98 122l14 14l116 -91l117 90l14 -13zM1125 76l9 -9c-62 -47 -138 -80 -237 -80c-129 0 -248 52 -309 166c-57 -99 -169 -153 -334 -153h-189v677h206c162 0 269 -50 322 -152c64 109 186 166 320 166c66 0 137 -14 194 -47l-7 -11c-60 30 -127 39 -179 39
c-179 0 -283 -119 -283 -333c0 -222 114 -332 266 -332c93 0 162 26 221 69zM245 18c201 0 295 130 295 319c0 206 -101 322 -293 322h-96v-641h94z" />
    <glyph glyph-name="D_Ccedilla" horiz-adv-x="1142" 
d="M912 -65c33 0 68 -23 68 -70c0 -53 -41 -79 -86 -79c-24 0 -48 7 -67 23l12 15c13 -11 28 -17 41 -17c24 0 44 19 44 57c0 31 -13 48 -34 48c-5 0 -11 -1 -17 -3l-12 10l27 68c-125 3 -240 54 -300 166c-57 -99 -169 -153 -334 -153h-189v677h206c162 0 269 -50 322 -152
c64 109 186 166 320 166c66 0 137 -14 194 -47l-7 -11c-60 30 -127 39 -179 39c-179 0 -283 -119 -283 -333c0 -222 114 -332 266 -332c93 0 162 26 221 69l9 -9c-60 -45 -132 -77 -226 -80l-25 -58c9 4 19 6 29 6zM245 18c201 0 295 130 295 319c0 206 -101 322 -293 322
h-96v-641h94z" />
    <glyph glyph-name="D_Ccircumflex" horiz-adv-x="1142" 
d="M899 807l-119 -84l-12 12l96 118h71l97 -118l-13 -13zM1125 76l9 -9c-62 -47 -138 -80 -237 -80c-129 0 -248 52 -309 166c-57 -99 -169 -153 -334 -153h-189v677h206c162 0 269 -50 322 -152c64 109 186 166 320 166c66 0 137 -14 194 -47l-7 -11
c-60 30 -127 39 -179 39c-179 0 -283 -119 -283 -333c0 -222 114 -332 266 -332c93 0 162 26 221 69zM245 18c201 0 295 130 295 319c0 206 -101 322 -293 322h-96v-641h94z" />
    <glyph glyph-name="D_Cdotaccent" horiz-adv-x="1142" 
d="M897 741c-28 0 -52 23 -52 51c0 29 24 53 52 53s50 -24 50 -53c0 -28 -22 -51 -50 -51zM1125 76l9 -9c-62 -47 -138 -80 -237 -80c-129 0 -248 52 -309 166c-57 -99 -169 -153 -334 -153h-189v677h206c162 0 269 -50 322 -152c64 109 186 166 320 166
c66 0 137 -14 194 -47l-7 -11c-60 30 -127 39 -179 39c-179 0 -283 -119 -283 -333c0 -222 114 -332 266 -332c93 0 162 26 221 69zM245 18c201 0 295 130 295 319c0 206 -101 322 -293 322h-96v-641h94z" />
    <glyph glyph-name="D_G" horiz-adv-x="1186" 
d="M950 334h194v-296c-71 -32 -152 -51 -237 -51c-144 0 -261 54 -320 164c-57 -97 -169 -151 -333 -151h-189v677h206c164 0 271 -51 323 -154c66 114 192 168 328 168c72 0 143 -14 200 -46l-7 -11c-56 28 -123 38 -182 38c-178 0 -295 -117 -295 -337
c0 -211 111 -330 277 -330c58 0 105 8 144 21v290h-109v18zM245 18c201 0 295 130 295 319c0 206 -101 322 -293 322h-96v-641h94z" />
    <glyph glyph-name="D_Gbreve" horiz-adv-x="1186" 
d="M900 731c-93 0 -129 70 -129 141h18c7 -56 49 -85 111 -85c61 0 104 33 110 85h18c0 -71 -36 -141 -128 -141zM950 334h194v-296c-71 -32 -152 -51 -237 -51c-144 0 -261 54 -320 164c-57 -97 -169 -151 -333 -151h-189v677h206c164 0 271 -51 323 -154
c66 114 192 168 328 168c72 0 143 -14 200 -46l-7 -11c-56 28 -123 38 -182 38c-178 0 -295 -117 -295 -337c0 -211 111 -330 277 -330c58 0 105 8 144 21v290h-109v18zM245 18c201 0 295 130 295 319c0 206 -101 322 -293 322h-96v-641h94z" />
    <glyph glyph-name="D_Gcircumflex" horiz-adv-x="1186" 
d="M905 807l-119 -84l-12 12l96 118h71l97 -118l-13 -13zM950 334h194v-296c-71 -32 -152 -51 -237 -51c-144 0 -261 54 -320 164c-57 -97 -169 -151 -333 -151h-189v677h206c164 0 271 -51 323 -154c66 114 192 168 328 168c72 0 143 -14 200 -46l-7 -11
c-56 28 -123 38 -182 38c-178 0 -295 -117 -295 -337c0 -211 111 -330 277 -330c58 0 105 8 144 21v290h-109v18zM245 18c201 0 295 130 295 319c0 206 -101 322 -293 322h-96v-641h94z" />
    <glyph glyph-name="D_Gcommaaccent" horiz-adv-x="1186" 
d="M950 334h194v-296c-71 -32 -152 -51 -237 -51c-144 0 -261 54 -320 164c-57 -97 -169 -151 -333 -151h-189v677h206c164 0 271 -51 323 -154c66 114 192 168 328 168c72 0 143 -14 200 -46l-7 -11c-56 28 -123 38 -182 38c-178 0 -295 -117 -295 -337
c0 -211 111 -330 277 -330c58 0 105 8 144 21v290h-109v18zM245 18c201 0 295 130 295 319c0 206 -101 322 -293 322h-96v-641h94zM913 -53c29 0 41 -22 41 -48c0 -37 -28 -85 -65 -116l-12 12c17 20 27 43 27 65c0 21 -10 39 -36 43c4 29 21 44 45 44z" />
    <glyph glyph-name="D_Gdotaccent" horiz-adv-x="1186" 
d="M903 741c-28 0 -52 23 -52 51c0 29 24 53 52 53s50 -24 50 -53c0 -28 -22 -51 -50 -51zM950 334h194v-296c-71 -32 -152 -51 -237 -51c-144 0 -261 54 -320 164c-57 -97 -169 -151 -333 -151h-189v677h206c164 0 271 -51 323 -154c66 114 192 168 328 168
c72 0 143 -14 200 -46l-7 -11c-56 28 -123 38 -182 38c-178 0 -295 -117 -295 -337c0 -211 111 -330 277 -330c58 0 105 8 144 21v290h-109v18zM245 18c201 0 295 130 295 319c0 206 -101 322 -293 322h-96v-641h94z" />
    <glyph glyph-name="D_O" horiz-adv-x="1299" 
d="M900 691c213 0 361 -146 361 -351c0 -209 -149 -353 -359 -353c-144 0 -255 64 -312 169c-57 -101 -170 -156 -336 -156h-189v677h206c162 0 268 -50 321 -151c58 103 168 165 308 165zM902 3c157 0 262 133 262 335c0 205 -104 337 -264 337c-158 0 -262 -133 -262 -334
c0 -204 102 -338 264 -338zM245 18c201 0 295 130 295 319c0 206 -101 322 -293 322h-96v-641h94z" />
    <glyph glyph-name="D_Oacute" horiz-adv-x="1299" 
d="M1020 784c-59 -30 -120 -48 -180 -56l-6 16c50 27 99 58 143 114zM900 691c213 0 361 -146 361 -351c0 -209 -149 -353 -359 -353c-144 0 -255 64 -312 169c-57 -101 -170 -156 -336 -156h-189v677h206c162 0 268 -50 321 -151c58 103 168 165 308 165zM902 3
c157 0 262 133 262 335c0 205 -104 337 -264 337c-158 0 -262 -133 -262 -334c0 -204 102 -338 264 -338zM245 18c201 0 295 130 295 319c0 206 -101 322 -293 322h-96v-641h94z" />
    <glyph glyph-name="D_Obreve" horiz-adv-x="1299" 
d="M898 731c-93 0 -129 70 -129 141h18c7 -56 49 -85 111 -85c61 0 104 33 110 85h18c0 -71 -36 -141 -128 -141zM900 691c213 0 361 -146 361 -351c0 -209 -149 -353 -359 -353c-144 0 -255 64 -312 169c-57 -101 -170 -156 -336 -156h-189v677h206c162 0 268 -50 321 -151
c58 103 168 165 308 165zM902 3c157 0 262 133 262 335c0 205 -104 337 -264 337c-158 0 -262 -133 -262 -334c0 -204 102 -338 264 -338zM245 18c201 0 295 130 295 319c0 206 -101 322 -293 322h-96v-641h94z" />
    <glyph glyph-name="uni004401D1" horiz-adv-x="1299" 
d="M934 725h-65l-98 122l14 14l116 -91l117 90l14 -13zM900 691c213 0 361 -146 361 -351c0 -209 -149 -353 -359 -353c-144 0 -255 64 -312 169c-57 -101 -170 -156 -336 -156h-189v677h206c162 0 268 -50 321 -151c58 103 168 165 308 165zM902 3c157 0 262 133 262 335
c0 205 -104 337 -264 337c-158 0 -262 -133 -262 -334c0 -204 102 -338 264 -338zM245 18c201 0 295 130 295 319c0 206 -101 322 -293 322h-96v-641h94z" />
    <glyph glyph-name="D_Ocircumflex" horiz-adv-x="1299" 
d="M903 807l-119 -84l-12 12l96 118h71l97 -118l-13 -13zM900 691c213 0 361 -146 361 -351c0 -209 -149 -353 -359 -353c-144 0 -255 64 -312 169c-57 -101 -170 -156 -336 -156h-189v677h206c162 0 268 -50 321 -151c58 103 168 165 308 165zM902 3c157 0 262 133 262 335
c0 205 -104 337 -264 337c-158 0 -262 -133 -262 -334c0 -204 102 -338 264 -338zM245 18c201 0 295 130 295 319c0 206 -101 322 -293 322h-96v-641h94z" />
    <glyph glyph-name="D_Odieresis" horiz-adv-x="1299" 
d="M828 745c-25 0 -48 23 -48 49c0 28 23 50 48 50c29 0 48 -22 48 -50c0 -26 -19 -49 -48 -49zM974 745c-26 0 -49 23 -49 49c0 28 23 50 49 50c25 0 47 -22 47 -50c0 -26 -22 -49 -47 -49zM900 691c213 0 361 -146 361 -351c0 -209 -149 -353 -359 -353
c-144 0 -255 64 -312 169c-57 -101 -170 -156 -336 -156h-189v677h206c162 0 268 -50 321 -151c58 103 168 165 308 165zM902 3c157 0 262 133 262 335c0 205 -104 337 -264 337c-158 0 -262 -133 -262 -334c0 -204 102 -338 264 -338zM245 18c201 0 295 130 295 319
c0 206 -101 322 -293 322h-96v-641h94z" />
    <glyph glyph-name="D_Ograve" horiz-adv-x="1299" 
d="M983 740l-5 -14c-58 11 -125 34 -184 74l47 73c43 -64 89 -103 142 -133zM900 691c213 0 361 -146 361 -351c0 -209 -149 -353 -359 -353c-144 0 -255 64 -312 169c-57 -101 -170 -156 -336 -156h-189v677h206c162 0 268 -50 321 -151c58 103 168 165 308 165zM902 3
c157 0 262 133 262 335c0 205 -104 337 -264 337c-158 0 -262 -133 -262 -334c0 -204 102 -338 264 -338zM245 18c201 0 295 130 295 319c0 206 -101 322 -293 322h-96v-641h94z" />
    <glyph glyph-name="D_Ohungarumlaut" horiz-adv-x="1299" 
d="M967 857l-126 -120l-13 11l74 148zM938 726l-13 13l115 121l44 -59zM900 691c213 0 361 -146 361 -351c0 -209 -149 -353 -359 -353c-144 0 -255 64 -312 169c-57 -101 -170 -156 -336 -156h-189v677h206c162 0 268 -50 321 -151c58 103 168 165 308 165zM902 3
c157 0 262 133 262 335c0 205 -104 337 -264 337c-158 0 -262 -133 -262 -334c0 -204 102 -338 264 -338zM245 18c201 0 295 130 295 319c0 206 -101 322 -293 322h-96v-641h94z" />
    <glyph glyph-name="D_Omacron" horiz-adv-x="1299" 
d="M1016 786v-18h-231v18h231zM900 691c213 0 361 -146 361 -351c0 -209 -149 -353 -359 -353c-144 0 -255 64 -312 169c-57 -101 -170 -156 -336 -156h-189v677h206c162 0 268 -50 321 -151c58 103 168 165 308 165zM902 3c157 0 262 133 262 335c0 205 -104 337 -264 337
c-158 0 -262 -133 -262 -334c0 -204 102 -338 264 -338zM245 18c201 0 295 130 295 319c0 206 -101 322 -293 322h-96v-641h94z" />
    <glyph glyph-name="D_Oslash" horiz-adv-x="1299" 
d="M1153 600c68 -63 108 -153 108 -260c0 -209 -149 -353 -359 -353c-96 0 -177 28 -238 78l-72 -79l-14 13l72 79c-24 22 -44 49 -60 78c-57 -101 -170 -156 -336 -156h-189v677h206c162 0 268 -50 321 -151c58 103 168 165 308 165c94 0 176 -29 238 -78l72 79l14 -14z
M638 341c0 -87 19 -162 53 -218l409 449c-46 66 -115 103 -200 103c-158 0 -262 -133 -262 -334zM245 18c201 0 295 130 295 319c0 206 -101 322 -293 322h-96v-641h94zM902 3c157 0 262 133 262 335c0 87 -19 161 -52 217l-410 -449c45 -66 114 -103 200 -103z" />
    <glyph glyph-name="D_Otilde" horiz-adv-x="1299" 
d="M820 797c-27 0 -42 -11 -47 -50h-17c0 63 26 102 74 102c64 0 120 -50 156 -50c27 0 43 14 47 50h17c0 -64 -27 -102 -74 -102c-60 0 -120 50 -156 50zM900 691c213 0 361 -146 361 -351c0 -209 -149 -353 -359 -353c-144 0 -255 64 -312 169
c-57 -101 -170 -156 -336 -156h-189v677h206c162 0 268 -50 321 -151c58 103 168 165 308 165zM902 3c157 0 262 133 262 335c0 205 -104 337 -264 337c-158 0 -262 -133 -262 -334c0 -204 102 -338 264 -338zM245 18c201 0 295 130 295 319c0 206 -101 322 -293 322h-96
v-641h94z" />
    <glyph glyph-name="H_B" horiz-adv-x="717" 
d="M528 362c97 -10 153 -68 153 -168c0 -124 -63 -194 -174 -194h-164v350h-192v-350h-86v677h86v-309h192v309h155c103 0 156 -53 156 -157c0 -80 -40 -141 -126 -158zM475 659h-46v-291h42c59 0 95 56 95 154c0 86 -26 137 -91 137zM486 18c66 0 103 65 103 171
c0 101 -40 161 -113 161h-47v-332h57z" />
    <glyph glyph-name="H_D" horiz-adv-x="955" 
d="M548 677c244 0 367 -113 367 -340c0 -213 -134 -337 -393 -337h-179v342h-192v-342h-86v677h86v-317h192v317h205zM527 18c196 0 291 130 291 319c0 206 -102 322 -294 322h-95v-641h98z" />
    <glyph glyph-name="H_Dcaron" horiz-adv-x="955" 
d="M611 725h-65l-98 122l14 14l116 -91l117 90l14 -13zM548 677c244 0 367 -113 367 -340c0 -213 -134 -337 -393 -337h-179v342h-192v-342h-86v677h86v-317h192v317h205zM527 18c196 0 291 130 291 319c0 206 -102 322 -294 322h-95v-641h98z" />
    <glyph glyph-name="H_E" horiz-adv-x="655" 
d="M429 18h214v-18h-300v335h-192v-335h-86v677h86v-324h192v324h280v-18h-194v-306h157v-18h-157v-317z" />
    <glyph glyph-name="H_Eacute" horiz-adv-x="655" 
d="M607 784c-59 -30 -120 -48 -180 -56l-6 16c50 27 99 58 143 114zM429 18h214v-18h-300v335h-192v-335h-86v677h86v-324h192v324h280v-18h-194v-306h157v-18h-157v-317z" />
    <glyph glyph-name="H_Ebreve" horiz-adv-x="655" 
d="M486 721c-76 0 -104 70 -105 141h14c8 -56 45 -85 91 -85s84 33 90 85h15c-1 -71 -30 -141 -105 -141zM429 18h214v-18h-300v335h-192v-335h-86v677h86v-324h192v324h280v-18h-194v-306h157v-18h-157v-317z" />
    <glyph glyph-name="H_Ecaron" horiz-adv-x="655" 
d="M521 725h-65l-98 122l14 14l116 -91l117 90l14 -13zM429 18h214v-18h-300v335h-192v-335h-86v677h86v-324h192v324h280v-18h-194v-306h157v-18h-157v-317z" />
    <glyph glyph-name="H_Ecircumflex" horiz-adv-x="655" 
d="M490 807l-119 -84l-12 12l96 118h71l97 -118l-13 -13zM429 18h214v-18h-300v335h-192v-335h-86v677h86v-324h192v324h280v-18h-194v-306h157v-18h-157v-317z" />
    <glyph glyph-name="H_Edieresis" horiz-adv-x="655" 
d="M415 745c-25 0 -48 23 -48 49c0 28 23 50 48 50c29 0 48 -22 48 -50c0 -26 -19 -49 -48 -49zM561 745c-26 0 -49 23 -49 49c0 28 23 50 49 50c25 0 47 -22 47 -50c0 -26 -22 -49 -47 -49zM429 18h214v-18h-300v335h-192v-335h-86v677h86v-324h192v324h280v-18h-194v-306
h157v-18h-157v-317z" />
    <glyph glyph-name="H_Edotaccent" horiz-adv-x="655" 
d="M488 741c-28 0 -52 23 -52 51c0 29 24 53 52 53s50 -24 50 -53c0 -28 -22 -51 -50 -51zM429 18h214v-18h-300v335h-192v-335h-86v677h86v-324h192v324h280v-18h-194v-306h157v-18h-157v-317z" />
    <glyph glyph-name="H_Egrave" horiz-adv-x="655" 
d="M570 740l-5 -14c-58 11 -125 34 -184 74l47 73c43 -64 89 -103 142 -133zM429 18h214v-18h-300v335h-192v-335h-86v677h86v-324h192v324h280v-18h-194v-306h157v-18h-157v-317z" />
    <glyph glyph-name="H_Emacron" horiz-adv-x="655" 
d="M603 786v-18h-231v18h231zM429 18h214v-18h-300v335h-192v-335h-86v677h86v-324h192v324h280v-18h-194v-306h157v-18h-157v-317z" />
    <glyph glyph-name="H_Eogonek" horiz-adv-x="655" 
d="M649 -165l9 -13c-25 -19 -55 -27 -84 -27c-49 0 -91 26 -91 77c0 68 69 108 131 128h-271v335h-192v-335h-86v677h86v-324h192v324h280v-18h-194v-306h157v-18h-157v-317h214v-18c-59 -30 -93 -78 -93 -125c0 -37 22 -56 50 -56c16 0 33 5 49 16z" />
    <glyph glyph-name="uni00481EBC" horiz-adv-x="655" 
d="M423 797c-18 0 -30 -11 -34 -50h-16c0 63 19 102 60 102c53 0 100 -50 127 -50c19 0 32 14 35 50h16c0 -64 -21 -102 -61 -102c-48 0 -99 50 -127 50zM429 18h214v-18h-300v335h-192v-335h-86v677h86v-324h192v324h280v-18h-194v-306h157v-18h-157v-317z" />
    <glyph glyph-name="H_F" horiz-adv-x="633" 
d="M618 659h-189v-312h143v-18h-143v-329h-86v329h-192v-329h-86v677h86v-330h192v330h275v-18z" />
    <glyph glyph-name="H_K" horiz-adv-x="706" 
d="M343 360v317h86v-677h-86v342h-192v-342h-86v677h86v-317h192zM516 410l189 -410h-99l-153 340l198 337h21z" />
    <glyph glyph-name="H_Kcommaaccent" horiz-adv-x="706" 
d="M343 360v317h86v-677h-86v342h-192v-342h-86v677h86v-317h192zM516 410l189 -410h-99l-153 340l198 337h21zM505 -45c29 0 41 -22 41 -48c0 -37 -28 -85 -65 -116l-12 12c17 20 27 43 27 65c0 21 -10 39 -36 43c4 29 21 44 45 44z" />
    <glyph glyph-name="H_L" horiz-adv-x="649" 
d="M429 18h210v-18h-296v342h-192v-342h-86v677h86v-317h192v317h86v-659z" />
    <glyph glyph-name="H_Lcaron" horiz-adv-x="649" 
d="M550 520c14 26 21 56 21 87c0 24 -5 49 -14 70l72 24c6 -16 8 -32 8 -49c0 -55 -31 -111 -73 -145zM429 18h210v-18h-296v342h-192v-342h-86v677h86v-317h192v317h86v-659z" />
    <glyph glyph-name="H_P" horiz-adv-x="683" 
d="M476 677c117 0 179 -63 179 -192c0 -135 -74 -204 -195 -204h-31v-281h-86v342h-192v-342h-86v677h86v-317h192v317h133zM458 299c64 0 102 59 102 183s-35 177 -100 177h-31v-360h29z" />
    <glyph glyph-name="H_R" horiz-adv-x="714" 
d="M635 217l55 -217h-91l-51 226c-19 76 -47 110 -90 110h-29v-336h-86v336h-192v-336h-86v677h86v-323h192v323h143c121 0 173 -72 173 -160c0 -107 -68 -163 -153 -173c64 -11 109 -49 129 -127zM470 659h-41v-305h40c57 0 97 47 97 154c0 87 -20 151 -96 151z" />
    <glyph glyph-name="H_Racute" horiz-adv-x="714" 
d="M602 784c-59 -30 -120 -48 -180 -56l-6 16c50 27 99 58 143 114zM635 217l55 -217h-91l-51 226c-19 76 -47 110 -90 110h-29v-336h-86v336h-192v-336h-86v677h86v-323h192v323h143c121 0 173 -72 173 -160c0 -107 -68 -163 -153 -173c64 -11 109 -49 129 -127zM470 659
h-41v-305h40c57 0 97 47 97 154c0 87 -20 151 -96 151z" />
    <glyph glyph-name="H_Rcaron" horiz-adv-x="714" 
d="M516 725h-65l-98 122l14 14l116 -91l117 90l14 -13zM635 217l55 -217h-91l-51 226c-19 76 -47 110 -90 110h-29v-336h-86v336h-192v-336h-86v677h86v-323h192v323h143c121 0 173 -72 173 -160c0 -107 -68 -163 -153 -173c64 -11 109 -49 129 -127zM470 659h-41v-305h40
c57 0 97 47 97 154c0 87 -20 151 -96 151z" />
    <glyph glyph-name="H_Rcommaaccent" horiz-adv-x="714" 
d="M635 217l55 -217h-91l-51 226c-19 76 -47 110 -90 110h-29v-336h-86v336h-192v-336h-86v677h86v-323h192v323h143c121 0 173 -72 173 -160c0 -107 -68 -163 -153 -173c64 -11 109 -49 129 -127zM470 659h-41v-305h40c57 0 97 47 97 154c0 87 -20 151 -96 151zM494 -45
c29 0 41 -22 41 -48c0 -37 -28 -85 -65 -116l-12 12c17 20 27 43 27 65c0 21 -10 39 -36 43c4 29 21 44 45 44z" />
    <glyph glyph-name="H_U" horiz-adv-x="737" 
d="M657 677h20v-484c0 -155 -61 -206 -153 -206c-123 0 -181 57 -181 223v132h-192v-342h-86v677h86v-317h192v317h86v-489c0 -124 32 -177 109 -177c56 0 119 21 119 180v486z" />
    <glyph glyph-name="H_U_M" horiz-adv-x="1178" 
d="M1030 677h82v-677h-85v594l-170 -600h-13l-167 569v-370c0 -155 -61 -206 -153 -206c-123 0 -181 57 -181 223v132h-192v-342h-86v677h86v-317h192v317h86v-489c0 -124 32 -177 109 -177c56 0 119 21 119 180v427l-18 59h94l150 -520z" />
    <glyph glyph-name="H_U_N" horiz-adv-x="1053" 
d="M968 677h20v-677h-90l-221 572v-379c0 -155 -61 -206 -153 -206c-123 0 -181 57 -181 223v132h-192v-342h-86v677h86v-317h192v317h86v-489c0 -124 32 -177 109 -177c56 0 119 21 119 180v422l-25 64h90l246 -624v624z" />
    <glyph glyph-name="H_U_Nacute" horiz-adv-x="1053" 
d="M947 784c-59 -30 -120 -48 -180 -56l-6 16c50 27 99 58 143 114zM968 677h20v-677h-90l-221 570v-377c0 -155 -61 -206 -153 -206c-123 0 -181 57 -181 223v132h-192v-342h-86v677h86v-317h192v317h86v-489c0 -124 32 -177 109 -177c56 0 119 21 119 180v422l-25 64h90
l246 -624v624z" />
    <glyph glyph-name="H_U_Ncaron" horiz-adv-x="1053" 
d="M861 725h-65l-98 122l14 14l116 -91l117 90l14 -13zM968 677h20v-677h-90l-221 570v-377c0 -155 -61 -206 -153 -206c-123 0 -181 57 -181 223v132h-192v-342h-86v677h86v-317h192v317h86v-489c0 -124 32 -177 109 -177c56 0 119 21 119 180v422l-25 64h90l246 -624v624z
" />
    <glyph glyph-name="H_U_Ncommaaccent" horiz-adv-x="1053" 
d="M968 677h20v-677h-90l-221 570v-377c0 -155 -61 -206 -153 -206c-123 0 -181 57 -181 223v132h-192v-342h-86v677h86v-317h192v317h86v-489c0 -124 32 -177 109 -177c56 0 119 21 119 180v422l-25 64h90l246 -624v624zM817 -45c29 0 41 -22 41 -48
c0 -37 -28 -85 -65 -116l-12 12c17 20 27 43 27 65c0 21 -10 39 -36 43c4 29 21 44 45 44z" />
    <glyph glyph-name="H_U_Ntilde" horiz-adv-x="1053" 
d="M763 797c-18 0 -30 -11 -34 -50h-16c0 63 19 102 60 102c53 0 100 -50 127 -50c19 0 32 14 35 50h16c0 -64 -21 -102 -61 -102c-48 0 -99 50 -127 50zM968 677h20v-677h-90l-221 570v-377c0 -155 -61 -206 -153 -206c-123 0 -181 57 -181 223v132h-192v-342h-86v677h86
v-317h192v317h86v-489c0 -124 32 -177 109 -177c56 0 119 21 119 180v422l-25 64h90l246 -624v624z" />
    <glyph glyph-name="H_Uacute" horiz-adv-x="737" 
d="M641 784c-59 -30 -120 -48 -180 -56l-6 16c50 27 99 58 143 114zM657 677h20v-484c0 -155 -61 -206 -153 -206c-123 0 -181 57 -181 223v132h-192v-342h-86v677h86v-317h192v317h86v-489c0 -124 32 -177 109 -177c56 0 119 21 119 180v486z" />
    <glyph glyph-name="H_Uacute_M" horiz-adv-x="1178" 
d="M641 784c-59 -30 -120 -48 -180 -56l-6 16c50 27 99 58 143 114zM1030 677h82v-677h-85v594l-170 -600h-13l-167 569v-370c0 -155 -61 -206 -153 -206c-123 0 -181 57 -181 223v132h-192v-342h-86v677h86v-317h192v317h86v-489c0 -124 32 -177 109 -177
c56 0 119 21 119 180v427l-18 59h94l150 -520z" />
    <glyph glyph-name="H_Uacute_N" horiz-adv-x="1053" 
d="M641 784c-59 -30 -120 -48 -180 -56l-6 16c50 27 99 58 143 114zM968 677h20v-677h-90l-221 572v-379c0 -155 -61 -206 -153 -206c-123 0 -181 57 -181 223v132h-192v-342h-86v677h86v-317h192v317h86v-489c0 -124 32 -177 109 -177c56 0 119 21 119 180v422l-25 64h90
l246 -624v624z" />
    <glyph glyph-name="H_Ubreve" horiz-adv-x="737" 
d="M520 721c-76 0 -104 70 -105 141h14c8 -56 45 -85 91 -85s84 33 90 85h15c-1 -71 -30 -141 -105 -141zM657 677h20v-484c0 -155 -61 -206 -153 -206c-123 0 -181 57 -181 223v132h-192v-342h-86v677h86v-317h192v317h86v-489c0 -124 32 -177 109 -177
c56 0 119 21 119 180v486z" />
    <glyph glyph-name="H_Ubreve_M" horiz-adv-x="1178" 
d="M520 721c-76 0 -104 70 -105 141h14c8 -56 45 -85 91 -85s84 33 90 85h15c-1 -71 -30 -141 -105 -141zM1030 677h82v-677h-85v594l-170 -600h-13l-167 569v-370c0 -155 -61 -206 -153 -206c-123 0 -181 57 -181 223v132h-192v-342h-86v677h86v-317h192v317h86v-489
c0 -124 32 -177 109 -177c56 0 119 21 119 180v427l-18 59h94l150 -520z" />
    <glyph glyph-name="H_Ubreve_N" horiz-adv-x="1053" 
d="M520 721c-76 0 -104 70 -105 141h14c8 -56 45 -85 91 -85s84 33 90 85h15c-1 -71 -30 -141 -105 -141zM968 677h20v-677h-90l-221 572v-379c0 -155 -61 -206 -153 -206c-123 0 -181 57 -181 223v132h-192v-342h-86v677h86v-317h192v317h86v-489c0 -124 32 -177 109 -177
c56 0 119 21 119 180v422l-25 64h90l246 -624v624z" />
    <glyph glyph-name="uni004801D3" horiz-adv-x="737" 
d="M555 725h-65l-98 122l14 14l116 -91l117 90l14 -13zM657 677h20v-484c0 -155 -61 -206 -153 -206c-123 0 -181 57 -181 223v132h-192v-342h-86v677h86v-317h192v317h86v-489c0 -124 32 -177 109 -177c56 0 119 21 119 180v486z" />
    <glyph glyph-name="uni004801D3004D" horiz-adv-x="1178" 
d="M555 725h-65l-98 122l14 14l116 -91l117 90l14 -13zM1030 677h82v-677h-85v594l-170 -600h-13l-167 569v-370c0 -155 -61 -206 -153 -206c-123 0 -181 57 -181 223v132h-192v-342h-86v677h86v-317h192v317h86v-489c0 -124 32 -177 109 -177c56 0 119 21 119 180v427
l-18 59h94l150 -520z" />
    <glyph glyph-name="uni004801D3004E" horiz-adv-x="1053" 
d="M555 725h-65l-98 122l14 14l116 -91l117 90l14 -13zM968 677h20v-677h-90l-221 572v-379c0 -155 -61 -206 -153 -206c-123 0 -181 57 -181 223v132h-192v-342h-86v677h86v-317h192v317h86v-489c0 -124 32 -177 109 -177c56 0 119 21 119 180v422l-25 64h90l246 -624v624z
" />
    <glyph glyph-name="H_Ucircumflex" horiz-adv-x="737" 
d="M489 853h71l97 -118l-13 -13l-120 85l-119 -84l-12 12zM657 677h20v-484c0 -155 -61 -206 -153 -206c-123 0 -181 57 -181 223v132h-192v-342h-86v677h86v-317h192v317h86v-489c0 -124 32 -177 109 -177c56 0 119 21 119 180v486z" />
    <glyph glyph-name="H_Ucircumflex_M" horiz-adv-x="1178" 
d="M524 807l-119 -84l-12 12l96 118h71l97 -118l-13 -13zM1030 677h82v-677h-85v594l-170 -600h-13l-167 569v-370c0 -155 -61 -206 -153 -206c-123 0 -181 57 -181 223v132h-192v-342h-86v677h86v-317h192v317h86v-489c0 -124 32 -177 109 -177c56 0 119 21 119 180v427
l-18 59h94l150 -520z" />
    <glyph glyph-name="H_Ucircumflex_N" horiz-adv-x="1053" 
d="M524 807l-119 -84l-12 12l96 118h71l97 -118l-13 -13zM968 677h20v-677h-90l-221 572v-379c0 -155 -61 -206 -153 -206c-123 0 -181 57 -181 223v132h-192v-342h-86v677h86v-317h192v317h86v-489c0 -124 32 -177 109 -177c56 0 119 21 119 180v422l-25 64h90l246 -624
v624z" />
    <glyph glyph-name="H_Udieresis" horiz-adv-x="737" 
d="M401 794c0 28 23 50 48 50c29 0 48 -22 48 -50c0 -26 -19 -49 -48 -49c-25 0 -48 23 -48 49zM546 794c0 28 23 50 49 50c25 0 47 -22 47 -50c0 -26 -22 -49 -47 -49c-26 0 -49 23 -49 49zM657 677h20v-484c0 -155 -61 -206 -153 -206c-123 0 -181 57 -181 223v132h-192
v-342h-86v677h86v-317h192v317h86v-489c0 -124 32 -177 109 -177c56 0 119 21 119 180v486z" />
    <glyph glyph-name="H_Udieresis_M" horiz-adv-x="1178" 
d="M449 745c-25 0 -48 23 -48 49c0 28 23 50 48 50c29 0 48 -22 48 -50c0 -26 -19 -49 -48 -49zM595 745c-26 0 -49 23 -49 49c0 28 23 50 49 50c25 0 47 -22 47 -50c0 -26 -22 -49 -47 -49zM1030 677h82v-677h-85v594l-170 -600h-13l-167 569v-370
c0 -155 -61 -206 -153 -206c-123 0 -181 57 -181 223v132h-192v-342h-86v677h86v-317h192v317h86v-489c0 -124 32 -177 109 -177c56 0 119 21 119 180v427l-18 59h94l150 -520z" />
    <glyph glyph-name="H_Udieresis_N" horiz-adv-x="1053" 
d="M449 745c-25 0 -48 23 -48 49c0 28 23 50 48 50c29 0 48 -22 48 -50c0 -26 -19 -49 -48 -49zM595 745c-26 0 -49 23 -49 49c0 28 23 50 49 50c25 0 47 -22 47 -50c0 -26 -22 -49 -47 -49zM968 677h20v-677h-90l-221 572v-379c0 -155 -61 -206 -153 -206
c-123 0 -181 57 -181 223v132h-192v-342h-86v677h86v-317h192v317h86v-489c0 -124 32 -177 109 -177c56 0 119 21 119 180v422l-25 64h90l246 -624v624z" />
    <glyph glyph-name="H_Ugrave" horiz-adv-x="737" 
d="M462 873c43 -64 89 -103 142 -133l-5 -14c-58 11 -125 34 -184 74zM657 677h20v-484c0 -155 -61 -206 -153 -206c-123 0 -181 57 -181 223v132h-192v-342h-86v677h86v-317h192v317h86v-489c0 -124 32 -177 109 -177c56 0 119 21 119 180v486z" />
    <glyph glyph-name="H_Ugrave_M" horiz-adv-x="1178" 
d="M604 740l-5 -14c-58 11 -125 34 -184 74l47 73c43 -64 89 -103 142 -133zM1030 677h82v-677h-85v594l-170 -600h-13l-167 569v-370c0 -155 -61 -206 -153 -206c-123 0 -181 57 -181 223v132h-192v-342h-86v677h86v-317h192v317h86v-489c0 -124 32 -177 109 -177
c56 0 119 21 119 180v427l-18 59h94l150 -520z" />
    <glyph glyph-name="H_Ugrave_N" horiz-adv-x="1053" 
d="M604 740l-5 -14c-58 11 -125 34 -184 74l47 73c43 -64 89 -103 142 -133zM968 677h20v-677h-90l-221 572v-379c0 -155 -61 -206 -153 -206c-123 0 -181 57 -181 223v132h-192v-342h-86v677h86v-317h192v317h86v-489c0 -124 32 -177 109 -177c56 0 119 21 119 180v422
l-25 64h90l246 -624v624z" />
    <glyph glyph-name="H_Uhungarumlaut" horiz-adv-x="737" 
d="M462 737l-13 11l74 148l65 -39zM559 726l-13 13l115 121l44 -59zM657 677h20v-484c0 -155 -61 -206 -153 -206c-123 0 -181 57 -181 223v132h-192v-342h-86v677h86v-317h192v317h86v-489c0 -124 32 -177 109 -177c56 0 119 21 119 180v486z" />
    <glyph glyph-name="H_Uhungarumlaut_M" horiz-adv-x="1178" 
d="M588 857l-126 -120l-13 11l74 148zM559 726l-13 13l115 121l44 -59zM1030 677h82v-677h-85v594l-170 -600h-13l-167 569v-370c0 -155 -61 -206 -153 -206c-123 0 -181 57 -181 223v132h-192v-342h-86v677h86v-317h192v317h86v-489c0 -124 32 -177 109 -177
c56 0 119 21 119 180v427l-18 59h94l150 -520z" />
    <glyph glyph-name="H_Uhungarumlaut_N" horiz-adv-x="1053" 
d="M588 857l-126 -120l-13 11l74 148zM559 726l-13 13l115 121l44 -59zM968 677h20v-677h-90l-221 572v-379c0 -155 -61 -206 -153 -206c-123 0 -181 57 -181 223v132h-192v-342h-86v677h86v-317h192v317h86v-489c0 -124 32 -177 109 -177c56 0 119 21 119 180v422l-25 64
h90l246 -624v624z" />
    <glyph glyph-name="H_Umacron" horiz-adv-x="737" 
d="M406 768v18h231v-18h-231zM657 677h20v-484c0 -155 -61 -206 -153 -206c-123 0 -181 57 -181 223v132h-192v-342h-86v677h86v-317h192v317h86v-489c0 -124 32 -177 109 -177c56 0 119 21 119 180v486z" />
    <glyph glyph-name="H_Umacron_M" horiz-adv-x="1178" 
d="M637 786v-18h-231v18h231zM1030 677h82v-677h-85v594l-170 -600h-13l-167 569v-370c0 -155 -61 -206 -153 -206c-123 0 -181 57 -181 223v132h-192v-342h-86v677h86v-317h192v317h86v-489c0 -124 32 -177 109 -177c56 0 119 21 119 180v427l-18 59h94l150 -520z" />
    <glyph glyph-name="H_Umacron_N" horiz-adv-x="1053" 
d="M637 786v-18h-231v18h231zM968 677h20v-677h-90l-221 572v-379c0 -155 -61 -206 -153 -206c-123 0 -181 57 -181 223v132h-192v-342h-86v677h86v-317h192v317h86v-489c0 -124 32 -177 109 -177c56 0 119 21 119 180v422l-25 64h90l246 -624v624z" />
    <glyph glyph-name="H_Uogonek" horiz-adv-x="737" 
d="M657 677h20v-484c0 -124 -39 -182 -102 -200c-45 -29 -70 -71 -70 -111c0 -37 22 -56 50 -56c16 0 33 5 49 16l9 -13c-25 -19 -55 -27 -84 -27c-49 0 -91 26 -91 77c0 50 38 85 82 108c-120 1 -177 59 -177 223v132h-192v-342h-86v677h86v-317h192v317h86v-489
c0 -124 32 -177 109 -177c56 0 119 21 119 180v486z" />
    <glyph glyph-name="H_Uogonek_M" horiz-adv-x="1178" 
d="M1030 677h82v-677h-85v594l-170 -600h-13l-167 569v-370c0 -124 -39 -182 -102 -200c-45 -29 -70 -71 -70 -111c0 -37 22 -56 50 -56c16 0 33 5 49 16l9 -13c-25 -19 -55 -27 -84 -27c-49 0 -91 26 -91 77c0 50 38 85 82 108c-120 1 -177 59 -177 223v132h-192v-342h-86
v677h86v-317h192v317h86v-489c0 -124 32 -177 109 -177c56 0 119 21 119 180v427l-18 59h94l150 -520z" />
    <glyph glyph-name="H_Uogonek_N" horiz-adv-x="1053" 
d="M968 677h20v-677h-90l-221 572v-379c0 -124 -39 -182 -102 -200c-45 -29 -70 -71 -70 -111c0 -37 22 -56 50 -56c16 0 33 5 49 16l9 -13c-25 -19 -55 -27 -84 -27c-49 0 -91 26 -91 77c0 50 38 85 82 108c-120 1 -177 59 -177 223v132h-192v-342h-86v677h86v-317h192v317
h86v-489c0 -124 32 -177 109 -177c56 0 119 21 119 180v422l-25 64h90l246 -624v624z" />
    <glyph glyph-name="H_Uring" horiz-adv-x="737" 
d="M522 874c45 0 75 -31 75 -77c0 -44 -30 -76 -75 -76c-46 0 -76 30 -76 76c0 45 30 77 76 77zM574 797c0 36 -21 60 -52 60c-32 0 -53 -24 -53 -60s21 -60 53 -60c31 0 52 24 52 60zM657 677h20v-484c0 -155 -61 -206 -153 -206c-123 0 -181 57 -181 223v132h-192v-342
h-86v677h86v-317h192v317h86v-489c0 -124 32 -177 109 -177c56 0 119 21 119 180v486z" />
    <glyph glyph-name="H_Uring_M" horiz-adv-x="1178" 
d="M522 721c-46 0 -76 30 -76 76c0 45 30 77 76 77c45 0 75 -31 75 -77c0 -44 -30 -76 -75 -76zM522 857c-32 0 -53 -24 -53 -60s21 -60 53 -60c31 0 52 24 52 60s-21 60 -52 60zM1030 677h82v-677h-85v594l-170 -600h-13l-167 569v-370c0 -155 -61 -206 -153 -206
c-123 0 -181 57 -181 223v132h-192v-342h-86v677h86v-317h192v317h86v-489c0 -124 32 -177 109 -177c56 0 119 21 119 180v427l-18 59h94l150 -520z" />
    <glyph glyph-name="H_Uring_N" horiz-adv-x="1053" 
d="M522 721c-46 0 -76 30 -76 76c0 45 30 77 76 77c45 0 75 -31 75 -77c0 -44 -30 -76 -75 -76zM522 857c-32 0 -53 -24 -53 -60s21 -60 53 -60c31 0 52 24 52 60s-21 60 -52 60zM968 677h20v-677h-90l-221 572v-379c0 -155 -61 -206 -153 -206c-123 0 -181 57 -181 223v132
h-192v-342h-86v677h86v-317h192v317h86v-489c0 -124 32 -177 109 -177c56 0 119 21 119 180v422l-25 64h90l246 -624v624z" />
    <glyph glyph-name="H_Utilde" horiz-adv-x="737" 
d="M645 849c0 -64 -21 -102 -61 -102c-48 0 -99 50 -127 50c-18 0 -30 -11 -34 -50h-16c0 63 19 102 60 102c53 0 100 -50 127 -50c19 0 32 14 35 50h16zM657 677h20v-484c0 -155 -61 -206 -153 -206c-123 0 -181 57 -181 223v132h-192v-342h-86v677h86v-317h192v317h86
v-489c0 -124 32 -177 109 -177c56 0 119 21 119 180v486z" />
    <glyph glyph-name="H_Utilde_M" horiz-adv-x="1178" 
d="M457 797c-18 0 -30 -11 -34 -50h-16c0 63 19 102 60 102c53 0 100 -50 127 -50c19 0 32 14 35 50h16c0 -64 -21 -102 -61 -102c-48 0 -99 50 -127 50zM1030 677h82v-677h-85v594l-170 -600h-13l-167 569v-370c0 -155 -61 -206 -153 -206c-123 0 -181 57 -181 223v132
h-192v-342h-86v677h86v-317h192v317h86v-489c0 -124 32 -177 109 -177c56 0 119 21 119 180v427l-18 59h94l150 -520z" />
    <glyph glyph-name="H_Utilde_N" horiz-adv-x="1053" 
d="M457 797c-18 0 -30 -11 -34 -50h-16c0 63 19 102 60 102c53 0 100 -50 127 -50c19 0 32 14 35 50h16c0 -64 -21 -102 -61 -102c-48 0 -99 50 -127 50zM968 677h20v-677h-90l-221 572v-379c0 -155 -61 -206 -153 -206c-123 0 -181 57 -181 223v132h-192v-342h-86v677h86
v-317h192v317h86v-489c0 -124 32 -177 109 -177c56 0 119 21 119 180v422l-25 64h90l246 -624v624z" />
    <glyph glyph-name="M_B" horiz-adv-x="811" 
d="M622 362c96 -10 152 -68 152 -168c0 -124 -62 -194 -173 -194h-164v594l-170 -600h-13l-168 569v-563h-20v619l-17 58h94l149 -522l148 522h152c103 0 156 -53 156 -157c0 -80 -40 -141 -126 -158zM569 659h-47v-291h43c59 0 95 56 95 154c0 86 -26 137 -91 137zM580 18
c66 0 103 65 103 171c0 101 -40 161 -113 161h-48v-332h58z" />
    <glyph glyph-name="M_D" horiz-adv-x="1049" 
d="M642 677c243 0 367 -113 367 -340c0 -213 -134 -337 -388 -337h-184v594l-170 -600h-13l-168 569v-563h-20v619l-17 58h94l149 -522l148 522h202zM621 18c196 0 291 130 291 319c0 206 -102 322 -294 322h-96v-641h99z" />
    <glyph glyph-name="M_Dcaron" horiz-adv-x="1049" 
d="M705 725h-65l-98 122l14 14l116 -91l117 90l14 -13zM642 677c243 0 367 -113 367 -340c0 -213 -134 -337 -388 -337h-184v594l-170 -600h-13l-168 569v-563h-20v619l-17 58h94l149 -522l148 522h202zM621 18c196 0 291 130 291 319c0 206 -102 322 -294 322h-96v-641h99z
" />
    <glyph glyph-name="M_E" horiz-adv-x="749" 
d="M522 18h215v-18h-300v594l-170 -600h-13l-168 569v-563h-20v619l-17 58h94l149 -522l148 522h277v-18h-195v-306h158v-18h-158v-317z" />
    <glyph glyph-name="M_Eacute" horiz-adv-x="749" 
d="M701 784c-59 -30 -120 -48 -180 -56l-6 16c50 27 99 58 143 114zM522 18h215v-18h-300v594l-170 -600h-13l-168 569v-563h-20v619l-17 58h94l149 -522l148 522h277v-18h-195v-306h158v-18h-158v-317z" />
    <glyph glyph-name="M_Ebreve" horiz-adv-x="749" 
d="M580 721c-76 0 -104 70 -105 141h14c8 -56 45 -85 91 -85s84 33 90 85h15c-1 -71 -30 -141 -105 -141zM522 18h215v-18h-300v594l-170 -600h-13l-168 569v-563h-20v619l-17 58h94l149 -522l148 522h277v-18h-195v-306h158v-18h-158v-317z" />
    <glyph glyph-name="M_Ecaron" horiz-adv-x="749" 
d="M615 725h-65l-98 122l14 14l116 -91l117 90l14 -13zM522 18h215v-18h-300v594l-170 -600h-13l-168 569v-563h-20v619l-17 58h94l149 -522l148 522h277v-18h-195v-306h158v-18h-158v-317z" />
    <glyph glyph-name="M_Ecircumflex" horiz-adv-x="749" 
d="M584 807l-119 -84l-12 12l96 118h71l97 -118l-13 -13zM522 18h215v-18h-300v594l-170 -600h-13l-168 569v-563h-20v619l-17 58h94l149 -522l148 522h277v-18h-195v-306h158v-18h-158v-317z" />
    <glyph glyph-name="M_Edieresis" horiz-adv-x="749" 
d="M509 745c-25 0 -48 23 -48 49c0 28 23 50 48 50c29 0 48 -22 48 -50c0 -26 -19 -49 -48 -49zM655 745c-26 0 -49 23 -49 49c0 28 23 50 49 50c25 0 47 -22 47 -50c0 -26 -22 -49 -47 -49zM522 18h215v-18h-300v594l-170 -600h-13l-168 569v-563h-20v619l-17 58h94
l149 -522l148 522h277v-18h-195v-306h158v-18h-158v-317z" />
    <glyph glyph-name="M_Edotaccent" horiz-adv-x="749" 
d="M582 741c-28 0 -52 23 -52 51c0 29 24 53 52 53s50 -24 50 -53c0 -28 -22 -51 -50 -51zM522 18h215v-18h-300v594l-170 -600h-13l-168 569v-563h-20v619l-17 58h94l149 -522l148 522h277v-18h-195v-306h158v-18h-158v-317z" />
    <glyph glyph-name="M_Egrave" horiz-adv-x="749" 
d="M664 740l-5 -14c-58 11 -125 34 -184 74l47 73c43 -64 89 -103 142 -133zM522 18h215v-18h-300v594l-170 -600h-13l-168 569v-563h-20v619l-17 58h94l149 -522l148 522h277v-18h-195v-306h158v-18h-158v-317z" />
    <glyph glyph-name="M_Emacron" horiz-adv-x="749" 
d="M697 786v-18h-231v18h231zM522 18h215v-18h-300v594l-170 -600h-13l-168 569v-563h-20v619l-17 58h94l149 -522l148 522h277v-18h-195v-306h158v-18h-158v-317z" />
    <glyph glyph-name="M_Eogonek" horiz-adv-x="749" 
d="M743 -165l9 -13c-25 -19 -55 -27 -84 -27c-49 0 -91 26 -91 77c0 68 69 108 131 128h-271v594l-170 -600h-13l-168 569v-563h-20v619l-17 58h94l149 -522l148 522h277v-18h-195v-306h158v-18h-158v-317h215v-18c-59 -30 -93 -78 -93 -125c0 -37 22 -56 50 -56
c16 0 33 5 49 16z" />
    <glyph glyph-name="uni004D1EBC" horiz-adv-x="749" 
d="M517 797c-18 0 -30 -11 -34 -50h-16c0 63 19 102 60 102c53 0 100 -50 127 -50c19 0 32 14 35 50h16c0 -64 -21 -102 -61 -102c-48 0 -99 50 -127 50zM522 18h215v-18h-300v594l-170 -600h-13l-168 569v-563h-20v619l-17 58h94l149 -522l148 522h277v-18h-195v-306h158
v-18h-158v-317z" />
    <glyph glyph-name="M_F" horiz-adv-x="727" 
d="M712 659h-190v-310h144v-18h-144v-331h-85v594l-170 -600h-13l-168 569v-563h-20v619l-17 58h94l149 -522l148 522h272v-18z" />
    <glyph glyph-name="M_H" horiz-adv-x="865" 
d="M714 677h86v-677h-86v342h-192v-342h-85v594l-170 -600h-13l-168 569v-563h-20v619l-17 58h94l149 -522l148 522h82v-317h192v317z" />
    <glyph glyph-name="M_K" horiz-adv-x="800" 
d="M292 155l148 522h82v-677h-85v594l-170 -600h-13l-168 569v-563h-20v619l-17 58h94zM610 410l189 -410h-100l-152 340l198 337h21z" />
    <glyph glyph-name="M_Kcommaaccent" horiz-adv-x="800" 
d="M292 155l148 522h82v-677h-85v594l-170 -600h-13l-168 569v-563h-20v619l-17 58h94zM610 410l189 -410h-100l-152 340l198 337h21zM598 -45c29 0 41 -22 41 -48c0 -37 -28 -85 -65 -116l-12 12c17 20 27 43 27 65c0 21 -10 39 -36 43c4 29 21 44 45 44z" />
    <glyph glyph-name="M_L" horiz-adv-x="743" 
d="M522 18h210v-18h-295v594l-170 -600h-13l-168 569v-563h-20v619l-17 58h94l149 -522l148 522h82v-659z" />
    <glyph glyph-name="M_Lacute" horiz-adv-x="743" 
d="M632 784c-59 -30 -120 -48 -180 -56l-6 16c50 27 99 58 143 114zM522 18h210v-18h-295v594l-170 -600h-13l-168 569v-563h-20v619l-17 58h94l149 -522l148 522h82v-659z" />
    <glyph glyph-name="M_Lcaron" horiz-adv-x="767" 
d="M657 507l-14 13c14 26 21 56 21 87c0 24 -5 49 -14 70l72 24c6 -16 8 -32 8 -49c0 -55 -31 -111 -73 -145zM522 18h210v-18h-295v594l-170 -600h-13l-168 569v-563h-20v619l-17 58h94l149 -522l148 522h82v-659z" />
    <glyph glyph-name="M_Lcommaaccent" horiz-adv-x="743" 
d="M522 18h210v-18h-295v594l-170 -600h-13l-168 569v-563h-20v619l-17 58h94l149 -522l148 522h82v-659zM553 -45c29 0 41 -22 41 -48c0 -37 -28 -85 -65 -116l-12 12c17 20 27 43 27 65c0 21 -10 39 -36 43c4 29 21 44 45 44z" />
    <glyph glyph-name="M_P" horiz-adv-x="777" 
d="M570 677c117 0 179 -63 179 -192c0 -135 -74 -204 -196 -204h-31v-281h-85v594l-170 -600h-13l-168 569v-563h-20v619l-17 58h94l149 -522l148 522h130zM552 299c63 0 102 59 102 183s-35 177 -100 177h-32v-360h30z" />
    <glyph glyph-name="M_R" horiz-adv-x="803" 
d="M729 217l55 -217h-91l-51 226c-18 76 -48 110 -90 110h-30v-336h-85v594l-170 -600h-13l-168 569v-563h-20v619l-17 58h94l149 -522l148 522h140c121 0 173 -72 173 -160c0 -106 -68 -162 -152 -173c62 -11 107 -49 128 -127zM563 659h-41v-305h40c58 0 98 50 98 156
c0 85 -20 149 -97 149z" />
    <glyph glyph-name="M_Racute" horiz-adv-x="803" 
d="M696 784c-59 -30 -120 -48 -180 -56l-6 16c50 27 99 58 143 114zM729 217l55 -217h-91l-51 226c-18 76 -48 110 -90 110h-30v-336h-85v594l-170 -600h-13l-168 569v-563h-20v619l-17 58h94l149 -522l148 522h140c121 0 173 -72 173 -160c0 -106 -68 -162 -152 -173
c62 -11 107 -49 128 -127zM563 659h-41v-305h40c58 0 98 50 98 156c0 85 -20 149 -97 149z" />
    <glyph glyph-name="M_Rcaron" horiz-adv-x="803" 
d="M610 725h-65l-98 122l14 14l116 -91l117 90l14 -13zM729 217l55 -217h-91l-51 226c-18 76 -48 110 -90 110h-30v-336h-85v594l-170 -600h-13l-168 569v-563h-20v619l-17 58h94l149 -522l148 522h140c121 0 173 -72 173 -160c0 -106 -68 -162 -152 -173
c62 -11 107 -49 128 -127zM563 659h-41v-305h40c58 0 98 50 98 156c0 85 -20 149 -97 149z" />
    <glyph glyph-name="M_Rcommaaccent" horiz-adv-x="803" 
d="M729 217l55 -217h-91l-51 226c-18 76 -48 110 -90 110h-30v-336h-85v594l-170 -600h-13l-168 569v-563h-20v619l-17 58h94l149 -522l148 522h140c121 0 173 -72 173 -160c0 -106 -68 -162 -152 -173c62 -11 107 -49 128 -127zM563 659h-41v-305h40c58 0 98 50 98 156
c0 85 -20 149 -97 149zM588 -45c29 0 41 -22 41 -48c0 -37 -28 -85 -65 -116l-12 12c17 20 27 43 27 65c0 21 -10 39 -36 43c4 29 21 44 45 44z" />
    <glyph glyph-name="M_U" horiz-adv-x="835" 
d="M751 677h20v-484c0 -155 -62 -206 -153 -206c-123 0 -181 57 -181 223v384l-170 -600h-13l-167 568v-562h-20v616l-18 61h94l150 -520l147 520h82v-489c0 -124 33 -177 110 -177c56 0 119 21 119 180v486z" />
    <glyph glyph-name="M_U_M" horiz-adv-x="1271" 
d="M1123 677h83v-677h-86v591l-169 -597h-14l-166 565v-366c-1 -155 -62 -206 -154 -206c-122 0 -180 57 -180 223v384l-170 -600h-13l-168 569v-563h-20v621l-17 56h94l149 -522l148 522h82v-489c0 -124 32 -177 109 -177c56 0 119 21 120 180v425l-18 61h94l149 -521z" />
    <glyph glyph-name="M_U_N" horiz-adv-x="1147" 
d="M1062 677h20v-677h-90l-221 570v-377c-1 -155 -62 -206 -154 -206c-122 0 -180 57 -180 223v383l-170 -599h-13l-168 566v-560h-20v622l-17 55h94l149 -522l148 522h82v-489c0 -124 32 -177 109 -177c56 0 119 21 120 180v422l-25 64h90l246 -624v624z" />
    <glyph glyph-name="M_U_Nacute" horiz-adv-x="1147" 
d="M1041 784c-59 -30 -120 -48 -180 -56l-6 16c50 27 99 58 143 114zM1062 677h20v-677h-90l-221 571v-378c0 -155 -62 -206 -154 -206c-122 0 -180 57 -180 223v384l-170 -600h-13l-168 568v-562h-20v621l-17 56h94l149 -522l148 522h82v-489c0 -124 32 -177 109 -177
c56 0 120 21 120 180v420l-25 66h90l246 -624v624z" />
    <glyph glyph-name="M_U_Ncaron" horiz-adv-x="1147" 
d="M955 725h-65l-98 122l14 14l116 -91l117 90l14 -13zM1062 677h20v-677h-90l-221 571v-378c0 -155 -62 -206 -154 -206c-122 0 -180 57 -180 223v384l-170 -600h-13l-168 568v-562h-20v621l-17 56h94l149 -522l148 522h82v-489c0 -124 32 -177 109 -177
c56 0 120 21 120 180v420l-25 66h90l246 -624v624z" />
    <glyph glyph-name="M_U_Ncommaaccent" horiz-adv-x="1147" 
d="M1062 677h20v-677h-90l-221 571v-378c0 -155 -62 -206 -154 -206c-122 0 -180 57 -180 223v384l-170 -600h-13l-168 568v-562h-20v621l-17 56h94l149 -522l148 522h82v-489c0 -124 32 -177 109 -177c56 0 120 21 120 180v420l-25 66h90l246 -624v624zM910 -45
c29 0 41 -22 41 -48c0 -37 -28 -85 -65 -116l-12 12c17 20 27 43 27 65c0 21 -10 39 -36 43c4 29 21 44 45 44z" />
    <glyph glyph-name="M_U_Ntilde" horiz-adv-x="1147" 
d="M857 797c-18 0 -30 -11 -34 -50h-16c0 63 19 102 60 102c53 0 100 -50 127 -50c19 0 32 14 35 50h16c0 -64 -21 -102 -61 -102c-48 0 -99 50 -127 50zM1062 677h20v-677h-90l-221 571v-378c0 -155 -62 -206 -154 -206c-122 0 -180 57 -180 223v384l-170 -600h-13
l-168 568v-562h-20v621l-17 56h94l149 -522l148 522h82v-489c0 -124 32 -177 109 -177c56 0 120 21 120 180v420l-25 66h90l246 -624v624z" />
    <glyph glyph-name="M_Uacute" horiz-adv-x="835" 
d="M735 784c-59 -30 -120 -48 -180 -56l-6 16c50 27 99 58 143 114zM751 677h20v-484c0 -155 -62 -206 -153 -206c-123 0 -181 57 -181 223v384l-170 -600h-13l-167 568v-562h-20v616l-18 61h94l150 -520l147 520h82v-489c0 -124 33 -177 110 -177c56 0 119 21 119 180v486z
" />
    <glyph glyph-name="M_Uacute_M" horiz-adv-x="1271" 
d="M735 784c-59 -30 -120 -48 -180 -56l-6 16c50 27 99 58 143 114zM1123 677h83v-677h-86v591l-169 -597h-14l-166 565v-366c-1 -155 -62 -206 -154 -206c-122 0 -180 57 -180 223v384l-170 -600h-13l-168 569v-563h-20v621l-17 56h94l149 -522l148 522h82v-489
c0 -124 32 -177 109 -177c56 0 119 21 120 180v425l-18 61h94l149 -521z" />
    <glyph glyph-name="M_Uacute_N" horiz-adv-x="1147" 
d="M735 784c-59 -30 -120 -48 -180 -56l-6 16c50 27 99 58 143 114zM1062 677h20v-677h-90l-221 570v-377c-1 -155 -62 -206 -154 -206c-122 0 -180 57 -180 223v383l-170 -599h-13l-168 566v-560h-20v622l-17 55h94l149 -522l148 522h82v-489c0 -124 32 -177 109 -177
c56 0 119 21 120 180v422l-25 64h90l246 -624v624z" />
    <glyph glyph-name="M_Ubreve" horiz-adv-x="835" 
d="M614 721c-76 0 -104 70 -105 141h14c8 -56 45 -85 91 -85s84 33 90 85h15c-1 -71 -30 -141 -105 -141zM751 677h20v-484c0 -155 -62 -206 -153 -206c-123 0 -181 57 -181 223v384l-170 -600h-13l-167 568v-562h-20v616l-18 61h94l150 -520l147 520h82v-489
c0 -124 33 -177 110 -177c56 0 119 21 119 180v486z" />
    <glyph glyph-name="M_Ubreve_M" horiz-adv-x="1271" 
d="M614 721c-76 0 -104 70 -105 141h14c8 -56 45 -85 91 -85s84 33 90 85h15c-1 -71 -30 -141 -105 -141zM1123 677h83v-677h-86v591l-169 -597h-14l-166 565v-366c-1 -155 -62 -206 -154 -206c-122 0 -180 57 -180 223v384l-170 -600h-13l-168 569v-563h-20v621l-17 56h94
l149 -522l148 522h82v-489c0 -124 32 -177 109 -177c56 0 119 21 120 180v425l-18 61h94l149 -521z" />
    <glyph glyph-name="M_Ubreve_N" horiz-adv-x="1147" 
d="M614 721c-76 0 -104 70 -105 141h14c8 -56 45 -85 91 -85s84 33 90 85h15c-1 -71 -30 -141 -105 -141zM1062 677h20v-677h-90l-221 570v-377c-1 -155 -62 -206 -154 -206c-122 0 -180 57 -180 223v383l-170 -599h-13l-168 566v-560h-20v622l-17 55h94l149 -522l148 522
h82v-489c0 -124 32 -177 109 -177c56 0 119 21 120 180v422l-25 64h90l246 -624v624z" />
    <glyph glyph-name="uni004D01D3" horiz-adv-x="835" 
d="M649 725h-65l-98 122l14 14l116 -91l117 90l14 -13zM751 677h20v-484c0 -155 -62 -206 -153 -206c-123 0 -181 57 -181 223v384l-170 -600h-13l-167 568v-562h-20v616l-18 61h94l150 -520l147 520h82v-489c0 -124 33 -177 110 -177c56 0 119 21 119 180v486z" />
    <glyph glyph-name="uni004D01D3004D" horiz-adv-x="1271" 
d="M649 725h-65l-98 122l14 14l116 -91l117 90l14 -13zM1123 677h83v-677h-86v591l-169 -597h-14l-166 565v-366c-1 -155 -62 -206 -154 -206c-122 0 -180 57 -180 223v384l-170 -600h-13l-168 569v-563h-20v621l-17 56h94l149 -522l148 522h82v-489
c0 -124 32 -177 109 -177c56 0 119 21 120 180v425l-18 61h94l149 -521z" />
    <glyph glyph-name="uni004D01D3004E" horiz-adv-x="1147" 
d="M649 725h-65l-98 122l14 14l116 -91l117 90l14 -13zM1062 677h20v-677h-90l-221 570v-377c-1 -155 -62 -206 -154 -206c-122 0 -180 57 -180 223v383l-170 -599h-13l-168 566v-560h-20v622l-17 55h94l149 -522l148 522h82v-489c0 -124 32 -177 109 -177
c56 0 119 21 120 180v422l-25 64h90l246 -624v624z" />
    <glyph glyph-name="M_Ucircumflex" horiz-adv-x="835" 
d="M618 807l-119 -84l-12 12l96 118h71l97 -118l-13 -13zM751 677h20v-484c0 -155 -62 -206 -153 -206c-123 0 -181 57 -181 223v384l-170 -600h-13l-167 568v-562h-20v616l-18 61h94l150 -520l147 520h82v-489c0 -124 33 -177 110 -177c56 0 119 21 119 180v486z" />
    <glyph glyph-name="M_Ucircumflex_M" horiz-adv-x="1271" 
d="M618 807l-119 -84l-12 12l96 118h71l97 -118l-13 -13zM1123 677h83v-677h-86v591l-169 -597h-14l-166 565v-366c-1 -155 -62 -206 -154 -206c-122 0 -180 57 -180 223v384l-170 -600h-13l-168 569v-563h-20v621l-17 56h94l149 -522l148 522h82v-489
c0 -124 32 -177 109 -177c56 0 119 21 120 180v425l-18 61h94l149 -521z" />
    <glyph glyph-name="M_Ucircumflex_N" horiz-adv-x="1147" 
d="M618 807l-119 -84l-12 12l96 118h71l97 -118l-13 -13zM1062 677h20v-677h-90l-221 570v-377c-1 -155 -62 -206 -154 -206c-122 0 -180 57 -180 223v383l-170 -599h-13l-168 566v-560h-20v622l-17 55h94l149 -522l148 522h82v-489c0 -124 32 -177 109 -177
c56 0 119 21 120 180v422l-25 64h90l246 -624v624z" />
    <glyph glyph-name="M_Udieresis" horiz-adv-x="835" 
d="M543 745c-25 0 -48 23 -48 49c0 28 23 50 48 50c29 0 48 -22 48 -50c0 -26 -19 -49 -48 -49zM689 745c-26 0 -49 23 -49 49c0 28 23 50 49 50c25 0 47 -22 47 -50c0 -26 -22 -49 -47 -49zM751 677h20v-484c0 -155 -62 -206 -153 -206c-123 0 -181 57 -181 223v384
l-170 -600h-13l-167 568v-562h-20v616l-18 61h94l150 -520l147 520h82v-489c0 -124 33 -177 110 -177c56 0 119 21 119 180v486z" />
    <glyph glyph-name="M_Udieresis_M" horiz-adv-x="1271" 
d="M543 745c-25 0 -48 23 -48 49c0 28 23 50 48 50c29 0 48 -22 48 -50c0 -26 -19 -49 -48 -49zM689 745c-26 0 -49 23 -49 49c0 28 23 50 49 50c25 0 47 -22 47 -50c0 -26 -22 -49 -47 -49zM1123 677h83v-677h-86v591l-169 -597h-14l-166 565v-366
c-1 -155 -62 -206 -154 -206c-122 0 -180 57 -180 223v384l-170 -600h-13l-168 569v-563h-20v621l-17 56h94l149 -522l148 522h82v-489c0 -124 32 -177 109 -177c56 0 119 21 120 180v425l-18 61h94l149 -521z" />
    <glyph glyph-name="M_Udieresis_N" horiz-adv-x="1147" 
d="M543 745c-25 0 -48 23 -48 49c0 28 23 50 48 50c29 0 48 -22 48 -50c0 -26 -19 -49 -48 -49zM689 745c-26 0 -49 23 -49 49c0 28 23 50 49 50c25 0 47 -22 47 -50c0 -26 -22 -49 -47 -49zM1062 677h20v-677h-90l-221 570v-377c-1 -155 -62 -206 -154 -206
c-122 0 -180 57 -180 223v383l-170 -599h-13l-168 566v-560h-20v622l-17 55h94l149 -522l148 522h82v-489c0 -124 32 -177 109 -177c56 0 119 21 120 180v422l-25 64h90l246 -624v624z" />
    <glyph glyph-name="M_Ugrave" horiz-adv-x="835" 
d="M698 740l-5 -14c-58 11 -125 34 -184 74l47 73c43 -64 89 -103 142 -133zM751 677h20v-484c0 -155 -62 -206 -153 -206c-123 0 -181 57 -181 223v384l-170 -600h-13l-167 568v-562h-20v616l-18 61h94l150 -520l147 520h82v-489c0 -124 33 -177 110 -177
c56 0 119 21 119 180v486z" />
    <glyph glyph-name="M_Ugrave_M" horiz-adv-x="1271" 
d="M698 740l-5 -14c-58 11 -125 34 -184 74l47 73c43 -64 89 -103 142 -133zM1123 677h83v-677h-86v591l-169 -597h-14l-166 565v-366c-1 -155 -62 -206 -154 -206c-122 0 -180 57 -180 223v384l-170 -600h-13l-168 569v-563h-20v621l-17 56h94l149 -522l148 522h82v-489
c0 -124 32 -177 109 -177c56 0 119 21 120 180v425l-18 61h94l149 -521z" />
    <glyph glyph-name="M_Ugrave_N" horiz-adv-x="1147" 
d="M698 740l-5 -14c-58 11 -125 34 -184 74l47 73c43 -64 89 -103 142 -133zM1062 677h20v-677h-90l-221 570v-377c-1 -155 -62 -206 -154 -206c-122 0 -180 57 -180 223v383l-170 -599h-13l-168 566v-560h-20v622l-17 55h94l149 -522l148 522h82v-489
c0 -124 32 -177 109 -177c56 0 119 21 120 180v422l-25 64h90l246 -624v624z" />
    <glyph glyph-name="M_Uhungarumlaut" horiz-adv-x="835" 
d="M682 857l-126 -120l-13 11l74 148zM653 726l-13 13l115 121l44 -59zM751 191v486h20v-484c0 -155 -62 -206 -153 -206c-123 0 -181 57 -181 223v384l-170 -600h-13l-167 568v-562h-20v616l-18 61h94l150 -520l147 520h82v-489c0 -124 33 -177 110 -177
c56 0 119 21 119 180z" />
    <glyph glyph-name="M_Uhungarumlaut_M" horiz-adv-x="1271" 
d="M682 857l-126 -120l-13 11l74 148zM653 726l-13 13l115 121l44 -59zM1123 677h83v-677h-86v591l-169 -597h-14l-166 565v-366c-1 -155 -62 -206 -154 -206c-122 0 -180 57 -180 223v384l-170 -600h-13l-168 569v-563h-20v621l-17 56h94l149 -522l148 522h82v-489
c0 -124 32 -177 109 -177c56 0 119 21 120 180v425l-18 61h94l149 -521z" />
    <glyph glyph-name="M_Uhungarumlaut_N" horiz-adv-x="1147" 
d="M682 857l-126 -120l-13 11l74 148zM653 726l-13 13l115 121l44 -59zM1062 677h20v-677h-90l-221 570v-377c-1 -155 -62 -206 -154 -206c-122 0 -180 57 -180 223v383l-170 -599h-13l-168 566v-560h-20v622l-17 55h94l149 -522l148 522h82v-489c0 -124 32 -177 109 -177
c56 0 119 21 120 180v422l-25 64h90l246 -624v624z" />
    <glyph glyph-name="M_Umacron" horiz-adv-x="835" 
d="M731 786v-18h-231v18h231zM751 677h20v-484c0 -155 -62 -206 -153 -206c-123 0 -181 57 -181 223v384l-170 -600h-13l-167 568v-562h-20v616l-18 61h94l150 -520l147 520h82v-489c0 -124 33 -177 110 -177c56 0 119 21 119 180v486z" />
    <glyph glyph-name="M_Umacron_M" horiz-adv-x="1271" 
d="M731 786v-18h-231v18h231zM1123 677h83v-677h-86v591l-169 -597h-14l-166 565v-366c-1 -155 -62 -206 -154 -206c-122 0 -180 57 -180 223v384l-170 -600h-13l-168 569v-563h-20v621l-17 56h94l149 -522l148 522h82v-489c0 -124 32 -177 109 -177c56 0 119 21 120 180
v425l-18 61h94l149 -521z" />
    <glyph glyph-name="M_Umacron_N" horiz-adv-x="1147" 
d="M731 786v-18h-231v18h231zM1062 677h20v-677h-90l-221 570v-377c-1 -155 -62 -206 -154 -206c-122 0 -180 57 -180 223v383l-170 -599h-13l-168 566v-560h-20v622l-17 55h94l149 -522l148 522h82v-489c0 -124 32 -177 109 -177c56 0 119 21 120 180v422l-25 64h90
l246 -624v624z" />
    <glyph glyph-name="M_Uogonek" horiz-adv-x="835" 
d="M751 677h20v-484c0 -124 -40 -181 -102 -199c-45 -30 -70 -71 -70 -112c0 -37 22 -56 50 -56c16 0 33 5 49 16l9 -13c-25 -19 -55 -27 -84 -27c-49 0 -91 26 -91 77c0 50 38 85 82 108c-120 1 -177 59 -177 223v384l-170 -600h-13l-167 568v-562h-20v616l-18 61h94
l150 -520l147 520h82v-489c0 -124 33 -177 110 -177c56 0 119 21 119 180v486z" />
    <glyph glyph-name="M_Uogonek_M" horiz-adv-x="1271" 
d="M1123 677h83v-677h-86v591l-169 -597h-14l-166 565v-366c-1 -123 -39 -181 -102 -199c-45 -30 -70 -71 -70 -112c0 -37 22 -56 50 -56c16 0 33 5 49 16l9 -13c-25 -19 -55 -27 -84 -27c-49 0 -91 26 -91 77c0 50 38 85 82 108c-120 1 -177 58 -177 223v384l-170 -600h-13
l-168 569v-563h-20v621l-17 56h94l149 -522l148 522h82v-489c0 -124 32 -177 109 -177c56 0 119 21 120 180v425l-18 61h94l149 -521z" />
    <glyph glyph-name="M_Uogonek_N" horiz-adv-x="1147" 
d="M1062 677h20v-677h-90l-221 570v-377c-1 -123 -39 -181 -102 -199c-45 -30 -70 -71 -70 -112c0 -37 22 -56 50 -56c16 0 33 5 49 16l9 -13c-25 -19 -55 -27 -84 -27c-49 0 -91 26 -91 77c0 50 38 85 82 108c-120 1 -177 58 -177 223v383l-170 -599h-13l-168 566v-560h-20
v622l-17 55h94l149 -522l148 522h82v-489c0 -124 32 -177 109 -177c56 0 119 21 120 180v422l-25 64h90l246 -624v624z" />
    <glyph glyph-name="M_Uring" horiz-adv-x="835" 
d="M616 721c-46 0 -76 30 -76 76c0 45 30 77 76 77c45 0 75 -31 75 -77c0 -44 -30 -76 -75 -76zM616 857c-32 0 -53 -24 -53 -60s21 -60 53 -60c31 0 52 24 52 60s-21 60 -52 60zM751 677h20v-484c0 -155 -62 -206 -153 -206c-123 0 -181 57 -181 223v384l-170 -600h-13
l-167 568v-562h-20v616l-18 61h94l150 -520l147 520h82v-489c0 -124 33 -177 110 -177c56 0 119 21 119 180v486z" />
    <glyph glyph-name="M_Uring_M" horiz-adv-x="1271" 
d="M616 721c-46 0 -76 30 -76 76c0 45 30 77 76 77c45 0 75 -31 75 -77c0 -44 -30 -76 -75 -76zM616 857c-32 0 -53 -24 -53 -60s21 -60 53 -60c31 0 52 24 52 60s-21 60 -52 60zM1123 677h83v-677h-86v591l-169 -597h-14l-166 565v-366c-1 -155 -62 -206 -154 -206
c-122 0 -180 57 -180 223v384l-170 -600h-13l-168 569v-563h-20v621l-17 56h94l149 -522l148 522h82v-489c0 -124 32 -177 109 -177c56 0 119 21 120 180v425l-18 61h94l149 -521z" />
    <glyph glyph-name="M_Uring_N" horiz-adv-x="1147" 
d="M616 721c-46 0 -76 30 -76 76c0 45 30 77 76 77c45 0 75 -31 75 -77c0 -44 -30 -76 -75 -76zM616 857c-32 0 -53 -24 -53 -60s21 -60 53 -60c31 0 52 24 52 60s-21 60 -52 60zM1062 677h20v-677h-90l-221 570v-377c-1 -155 -62 -206 -154 -206c-122 0 -180 57 -180 223
v383l-170 -599h-13l-168 566v-560h-20v622l-17 55h94l149 -522l148 522h82v-489c0 -124 32 -177 109 -177c56 0 119 21 120 180v422l-25 64h90l246 -624v624z" />
    <glyph glyph-name="M_Utilde" horiz-adv-x="835" 
d="M551 797c-18 0 -30 -11 -34 -50h-16c0 63 19 102 60 102c53 0 100 -50 127 -50c19 0 32 14 35 50h16c0 -64 -21 -102 -61 -102c-48 0 -99 50 -127 50zM751 677h20v-484c0 -155 -62 -206 -153 -206c-123 0 -181 57 -181 223v384l-170 -600h-13l-167 568v-562h-20v616
l-18 61h94l150 -520l147 520h82v-489c0 -124 33 -177 110 -177c56 0 119 21 119 180v486z" />
    <glyph glyph-name="M_Utilde_M" horiz-adv-x="1271" 
d="M551 797c-18 0 -30 -11 -34 -50h-16c0 63 19 102 60 102c53 0 100 -50 127 -50c19 0 32 14 35 50h16c0 -64 -21 -102 -61 -102c-48 0 -99 50 -127 50zM1123 677h83v-677h-86v591l-169 -597h-14l-166 565v-366c-1 -155 -62 -206 -154 -206c-122 0 -180 57 -180 223v384
l-170 -600h-13l-168 569v-563h-20v621l-17 56h94l149 -522l148 522h82v-489c0 -124 32 -177 109 -177c56 0 119 21 120 180v425l-18 61h94l149 -521z" />
    <glyph glyph-name="M_Utilde_N" horiz-adv-x="1147" 
d="M551 797c-18 0 -30 -11 -34 -50h-16c0 63 19 102 60 102c53 0 100 -50 127 -50c19 0 32 14 35 50h16c0 -64 -21 -102 -61 -102c-48 0 -99 50 -127 50zM1062 677h20v-677h-90l-221 570v-377c-1 -155 -62 -206 -154 -206c-122 0 -180 57 -180 223v383l-170 -599h-13
l-168 566v-560h-20v622l-17 55h94l149 -522l148 522h82v-489c0 -124 32 -177 109 -177c56 0 119 21 120 180v422l-25 64h90l246 -624v624z" />
    <glyph glyph-name="N_M" horiz-adv-x="899" 
d="M751 677h82v-677h-85v594l-170 -600h-13l-167 565v-559h-89l-222 572v-572h-20v613l-25 64h91l245 -624v564l-18 60h94l150 -520z" />
    <glyph glyph-name="N_N" horiz-adv-x="774" 
d="M689 677h20v-677h-90l-221 572v-572h-89l-222 571v-571h-20v612l-25 65h91l245 -624v559l-25 65h90l246 -624v624z" />
    <glyph glyph-name="O_C" horiz-adv-x="1264" 
d="M1247 77l8 -10c-61 -47 -138 -80 -236 -80c-130 0 -250 53 -310 170c-59 -106 -170 -170 -310 -170c-215 0 -361 143 -361 351c0 210 147 353 360 353c144 0 255 -66 312 -173c63 114 188 173 325 173c65 0 137 -14 193 -46l-6 -11c-60 30 -127 38 -179 38
c-179 0 -284 -119 -284 -333c0 -221 115 -332 267 -332c93 0 162 26 221 70zM399 3c158 0 263 133 263 335c0 205 -104 337 -264 337c-158 0 -263 -133 -263 -334c0 -204 103 -338 264 -338z" />
    <glyph glyph-name="O_Cacute" horiz-adv-x="1264" 
d="M1138 784c-59 -30 -120 -48 -180 -56l-6 16c50 27 99 58 143 114zM1247 77l9 -10c-62 -47 -138 -80 -237 -80c-127 0 -247 51 -311 162c-61 -101 -172 -162 -309 -162c-215 0 -361 143 -361 351c0 210 147 353 360 353c140 0 252 -63 312 -165c66 109 191 165 326 165
c65 0 136 -14 193 -46l-7 -11c-60 30 -127 38 -179 38c-179 0 -283 -119 -283 -333c0 -221 114 -332 266 -332c93 0 162 26 221 70zM399 3c158 0 263 133 263 335c0 205 -104 337 -264 337c-158 0 -263 -133 -263 -334c0 -204 103 -338 264 -338z" />
    <glyph glyph-name="O_Ccaron" horiz-adv-x="1264" 
d="M1052 725h-65l-98 122l14 14l116 -91l117 90l14 -13zM1247 77l9 -10c-62 -47 -138 -80 -237 -80c-127 0 -247 51 -311 162c-61 -101 -172 -162 -309 -162c-215 0 -361 143 -361 351c0 210 147 353 360 353c140 0 252 -63 312 -165c66 109 191 165 326 165
c65 0 136 -14 193 -46l-7 -11c-60 30 -127 38 -179 38c-179 0 -283 -119 -283 -333c0 -221 114 -332 266 -332c93 0 162 26 221 70zM399 3c158 0 263 133 263 335c0 205 -104 337 -264 337c-158 0 -263 -133 -263 -334c0 -204 103 -338 264 -338z" />
    <glyph glyph-name="O_Ccedilla" horiz-adv-x="1264" 
d="M1034 -65c33 0 68 -23 68 -70c0 -53 -41 -79 -86 -79c-24 0 -48 7 -67 23l12 15c13 -11 28 -17 41 -17c24 0 44 19 44 57c0 31 -13 48 -34 48c-5 0 -11 -1 -17 -3l-12 10l27 68c-124 3 -240 53 -302 162c-61 -101 -172 -162 -309 -162c-215 0 -361 143 -361 351
c0 210 147 353 360 353c140 0 252 -63 312 -165c66 109 191 165 326 165c65 0 136 -14 193 -46l-7 -11c-60 30 -127 38 -179 38c-179 0 -283 -119 -283 -333c0 -221 114 -332 266 -332c93 0 162 26 221 70l9 -10c-60 -45 -132 -77 -226 -80l-25 -58c9 4 19 6 29 6zM399 3
c158 0 263 133 263 335c0 205 -104 337 -264 337c-158 0 -263 -133 -263 -334c0 -204 103 -338 264 -338z" />
    <glyph glyph-name="O_Ccircumflex" horiz-adv-x="1264" 
d="M1021 807l-119 -84l-12 12l96 118h71l97 -118l-13 -13zM1247 77l9 -10c-62 -47 -138 -80 -237 -80c-127 0 -247 51 -311 162c-61 -101 -172 -162 -309 -162c-215 0 -361 143 -361 351c0 210 147 353 360 353c140 0 252 -63 312 -165c66 109 191 165 326 165
c65 0 136 -14 193 -46l-7 -11c-60 30 -127 38 -179 38c-179 0 -283 -119 -283 -333c0 -221 114 -332 266 -332c93 0 162 26 221 70zM399 3c158 0 263 133 263 335c0 205 -104 337 -264 337c-158 0 -263 -133 -263 -334c0 -204 103 -338 264 -338z" />
    <glyph glyph-name="O_Cdotaccent" horiz-adv-x="1264" 
d="M1019 741c-28 0 -52 23 -52 51c0 29 24 53 52 53s50 -24 50 -53c0 -28 -22 -51 -50 -51zM1247 77l9 -10c-62 -47 -138 -80 -237 -80c-127 0 -247 51 -311 162c-61 -101 -172 -162 -309 -162c-215 0 -361 143 -361 351c0 210 147 353 360 353c140 0 252 -63 312 -165
c66 109 191 165 326 165c65 0 136 -14 193 -46l-7 -11c-60 30 -127 38 -179 38c-179 0 -283 -119 -283 -333c0 -221 114 -332 266 -332c93 0 162 26 221 70zM399 3c158 0 263 133 263 335c0 205 -104 337 -264 337c-158 0 -263 -133 -263 -334c0 -204 103 -338 264 -338z
" />
    <glyph glyph-name="O_G" horiz-adv-x="1307" 
d="M1071 334h195v-296c-72 -32 -153 -51 -238 -51c-144 0 -263 55 -321 167c-59 -104 -169 -167 -308 -167c-215 0 -361 143 -361 351c0 210 147 353 360 353c145 0 257 -67 313 -175c65 119 193 175 332 175c72 0 143 -14 200 -46l-7 -11c-56 28 -123 38 -182 38
c-178 0 -295 -117 -295 -337c0 -211 111 -330 277 -330c58 0 105 8 144 21v290h-109v18zM399 3c158 0 263 133 263 335c0 205 -104 337 -264 337c-158 0 -263 -133 -263 -334c0 -204 103 -338 264 -338z" />
    <glyph glyph-name="O_Gbreve" horiz-adv-x="1307" 
d="M1021 731c-93 0 -129 70 -129 141h18c7 -56 49 -85 111 -85c61 0 104 33 110 85h18c0 -71 -36 -141 -128 -141zM1071 334h195v-296c-72 -32 -153 -51 -238 -51c-144 0 -263 55 -321 167c-59 -104 -169 -167 -308 -167c-215 0 -361 143 -361 351c0 210 147 353 360 353
c145 0 257 -67 313 -175c65 119 193 175 332 175c72 0 143 -14 200 -46l-7 -11c-56 28 -123 38 -182 38c-178 0 -295 -117 -295 -337c0 -211 111 -330 277 -330c58 0 105 8 144 21v290h-109v18zM399 3c158 0 263 133 263 335c0 205 -104 337 -264 337
c-158 0 -263 -133 -263 -334c0 -204 103 -338 264 -338z" />
    <glyph glyph-name="O_Gcircumflex" horiz-adv-x="1307" 
d="M1026 807l-119 -84l-12 12l96 118h71l97 -118l-13 -13zM1071 334h195v-296c-72 -32 -153 -51 -238 -51c-144 0 -263 55 -321 167c-59 -104 -169 -167 -308 -167c-215 0 -361 143 -361 351c0 210 147 353 360 353c145 0 257 -67 313 -175c65 119 193 175 332 175
c72 0 143 -14 200 -46l-7 -11c-56 28 -123 38 -182 38c-178 0 -295 -117 -295 -337c0 -211 111 -330 277 -330c58 0 105 8 144 21v290h-109v18zM399 3c158 0 263 133 263 335c0 205 -104 337 -264 337c-158 0 -263 -133 -263 -334c0 -204 103 -338 264 -338z" />
    <glyph glyph-name="O_Gcommaaccent" horiz-adv-x="1307" 
d="M1071 334h195v-296c-72 -32 -153 -51 -238 -51c-144 0 -263 55 -321 167c-59 -104 -169 -167 -308 -167c-215 0 -361 143 -361 351c0 210 147 353 360 353c145 0 257 -67 313 -175c65 119 193 175 332 175c72 0 143 -14 200 -46l-7 -11c-56 28 -123 38 -182 38
c-178 0 -295 -117 -295 -337c0 -211 111 -330 277 -330c58 0 105 8 144 21v290h-109v18zM399 3c158 0 263 133 263 335c0 205 -104 337 -264 337c-158 0 -263 -133 -263 -334c0 -204 103 -338 264 -338zM1034 -53c29 0 41 -22 41 -48c0 -37 -28 -85 -65 -116l-12 12
c17 20 27 43 27 65c0 21 -10 39 -36 43c4 29 21 44 45 44z" />
    <glyph glyph-name="O_Gdotaccent" horiz-adv-x="1307" 
d="M1024 741c-28 0 -52 23 -52 51c0 29 24 53 52 53s50 -24 50 -53c0 -28 -22 -51 -50 -51zM1071 334h195v-296c-72 -32 -153 -51 -238 -51c-144 0 -263 55 -321 167c-59 -104 -169 -167 -308 -167c-215 0 -361 143 -361 351c0 210 147 353 360 353c145 0 257 -67 313 -175
c65 119 193 175 332 175c72 0 143 -14 200 -46l-7 -11c-56 28 -123 38 -182 38c-178 0 -295 -117 -295 -337c0 -211 111 -330 277 -330c58 0 105 8 144 21v290h-109v18zM399 3c158 0 263 133 263 335c0 205 -104 337 -264 337c-158 0 -263 -133 -263 -334
c0 -204 103 -338 264 -338z" />
    <glyph glyph-name="O_O" horiz-adv-x="1420" 
d="M1021 691c214 0 362 -146 362 -351c0 -209 -150 -353 -360 -353c-145 0 -257 65 -313 172c-58 -107 -169 -172 -311 -172c-215 0 -361 143 -361 351c0 210 147 353 360 353c144 0 255 -66 312 -172c57 107 168 172 311 172zM399 3c158 0 263 133 263 335
c0 205 -104 337 -264 337c-158 0 -263 -133 -263 -334c0 -204 103 -338 264 -338zM1023 3c158 0 262 133 262 335c0 205 -104 337 -264 337c-157 0 -262 -133 -262 -334c0 -204 103 -338 264 -338z" />
    <glyph glyph-name="O_Oacute" horiz-adv-x="1420" 
d="M1136 784c-59 -30 -120 -48 -180 -56l-6 16c50 27 99 58 143 114zM1021 691c214 0 362 -146 362 -351c0 -209 -150 -353 -360 -353c-145 0 -257 65 -313 172c-58 -107 -169 -172 -311 -172c-215 0 -361 143 -361 351c0 210 147 353 360 353c144 0 255 -66 312 -172
c57 107 168 172 311 172zM399 3c158 0 263 133 263 335c0 205 -104 337 -264 337c-158 0 -263 -133 -263 -334c0 -204 103 -338 264 -338zM1023 3c158 0 262 133 262 335c0 205 -104 337 -264 337c-157 0 -262 -133 -262 -334c0 -204 103 -338 264 -338z" />
    <glyph glyph-name="O_Obreve" horiz-adv-x="1420" 
d="M1014 731c-93 0 -129 70 -129 141h18c7 -56 49 -85 111 -85c61 0 104 33 110 85h18c0 -71 -36 -141 -128 -141zM1021 691c214 0 362 -146 362 -351c0 -209 -150 -353 -360 -353c-145 0 -257 65 -313 172c-58 -107 -169 -172 -311 -172c-215 0 -361 143 -361 351
c0 210 147 353 360 353c144 0 255 -66 312 -172c57 107 168 172 311 172zM399 3c158 0 263 133 263 335c0 205 -104 337 -264 337c-158 0 -263 -133 -263 -334c0 -204 103 -338 264 -338zM1023 3c158 0 262 133 262 335c0 205 -104 337 -264 337c-157 0 -262 -133 -262 -334
c0 -204 103 -338 264 -338z" />
    <glyph glyph-name="uni004F01D1" horiz-adv-x="1420" 
d="M1050 725h-65l-98 122l14 14l116 -91l117 90l14 -13zM1021 691c214 0 362 -146 362 -351c0 -209 -150 -353 -360 -353c-145 0 -257 65 -313 172c-58 -107 -169 -172 -311 -172c-215 0 -361 143 -361 351c0 210 147 353 360 353c144 0 255 -66 312 -172
c57 107 168 172 311 172zM399 3c158 0 263 133 263 335c0 205 -104 337 -264 337c-158 0 -263 -133 -263 -334c0 -204 103 -338 264 -338zM1023 3c158 0 262 133 262 335c0 205 -104 337 -264 337c-157 0 -262 -133 -262 -334c0 -204 103 -338 264 -338z" />
    <glyph glyph-name="O_Ocircumflex" horiz-adv-x="1420" 
d="M1019 807l-119 -84l-12 12l96 118h71l97 -118l-13 -13zM1021 691c214 0 362 -146 362 -351c0 -209 -150 -353 -360 -353c-145 0 -257 65 -313 172c-58 -107 -169 -172 -311 -172c-215 0 -361 143 -361 351c0 210 147 353 360 353c144 0 255 -66 312 -172
c57 107 168 172 311 172zM399 3c158 0 263 133 263 335c0 205 -104 337 -264 337c-158 0 -263 -133 -263 -334c0 -204 103 -338 264 -338zM1023 3c158 0 262 133 262 335c0 205 -104 337 -264 337c-157 0 -262 -133 -262 -334c0 -204 103 -338 264 -338z" />
    <glyph glyph-name="O_Odieresis" horiz-adv-x="1420" 
d="M944 745c-25 0 -48 23 -48 49c0 28 23 50 48 50c29 0 48 -22 48 -50c0 -26 -19 -49 -48 -49zM1090 745c-26 0 -49 23 -49 49c0 28 23 50 49 50c25 0 47 -22 47 -50c0 -26 -22 -49 -47 -49zM1021 691c214 0 362 -146 362 -351c0 -209 -150 -353 -360 -353
c-145 0 -257 65 -313 172c-58 -107 -169 -172 -311 -172c-215 0 -361 143 -361 351c0 210 147 353 360 353c144 0 255 -66 312 -172c57 107 168 172 311 172zM399 3c158 0 263 133 263 335c0 205 -104 337 -264 337c-158 0 -263 -133 -263 -334c0 -204 103 -338 264 -338z
M1023 3c158 0 262 133 262 335c0 205 -104 337 -264 337c-157 0 -262 -133 -262 -334c0 -204 103 -338 264 -338z" />
    <glyph glyph-name="O_Ograve" horiz-adv-x="1420" 
d="M1099 740l-5 -14c-58 11 -125 34 -184 74l47 73c43 -64 89 -103 142 -133zM1021 691c214 0 362 -146 362 -351c0 -209 -150 -353 -360 -353c-145 0 -257 65 -313 172c-58 -107 -169 -172 -311 -172c-215 0 -361 143 -361 351c0 210 147 353 360 353
c144 0 255 -66 312 -172c57 107 168 172 311 172zM399 3c158 0 263 133 263 335c0 205 -104 337 -264 337c-158 0 -263 -133 -263 -334c0 -204 103 -338 264 -338zM1023 3c158 0 262 133 262 335c0 205 -104 337 -264 337c-157 0 -262 -133 -262 -334
c0 -204 103 -338 264 -338z" />
    <glyph glyph-name="O_Ohungarumlaut" horiz-adv-x="1420" 
d="M1083 857l-126 -120l-13 11l74 148zM1054 726l-13 13l115 121l44 -59zM1021 691c214 0 362 -146 362 -351c0 -209 -150 -353 -360 -353c-145 0 -257 65 -313 172c-58 -107 -169 -172 -311 -172c-215 0 -361 143 -361 351c0 210 147 353 360 353c144 0 255 -66 312 -172
c57 107 168 172 311 172zM399 3c158 0 263 133 263 335c0 205 -104 337 -264 337c-158 0 -263 -133 -263 -334c0 -204 103 -338 264 -338zM1023 3c158 0 262 133 262 335c0 205 -104 337 -264 337c-157 0 -262 -133 -262 -334c0 -204 103 -338 264 -338z" />
    <glyph glyph-name="O_Omacron" horiz-adv-x="1420" 
d="M1132 786v-18h-231v18h231zM1021 691c214 0 362 -146 362 -351c0 -209 -150 -353 -360 -353c-145 0 -257 65 -313 172c-58 -107 -169 -172 -311 -172c-215 0 -361 143 -361 351c0 210 147 353 360 353c144 0 255 -66 312 -172c57 107 168 172 311 172zM399 3
c158 0 263 133 263 335c0 205 -104 337 -264 337c-158 0 -263 -133 -263 -334c0 -204 103 -338 264 -338zM1023 3c158 0 262 133 262 335c0 205 -104 337 -264 337c-157 0 -262 -133 -262 -334c0 -204 103 -338 264 -338z" />
    <glyph glyph-name="O_Oslash" horiz-adv-x="1420" 
d="M1276 599c67 -63 107 -153 107 -259c0 -209 -150 -353 -360 -353c-95 0 -176 28 -236 78l-72 -79l-14 13l71 78c-25 24 -46 51 -62 82c-58 -107 -169 -172 -311 -172c-215 0 -361 143 -361 351c0 210 147 353 360 353c144 0 255 -66 312 -172c57 107 168 172 311 172
c95 0 177 -29 239 -79l73 80l15 -14zM399 3c158 0 263 133 263 335c0 205 -104 337 -264 337c-158 0 -263 -133 -263 -334c0 -204 103 -338 264 -338zM759 341c0 -88 19 -163 54 -220l409 450c-46 66 -115 104 -201 104c-157 0 -262 -133 -262 -334zM1023 3
c158 0 262 133 262 335c0 86 -18 159 -51 215l-410 -448c46 -65 114 -102 199 -102z" />
    <glyph glyph-name="O_Otilde" horiz-adv-x="1420" 
d="M936 797c-27 0 -42 -11 -47 -50h-17c0 63 26 102 74 102c64 0 120 -50 156 -50c27 0 43 14 47 50h17c0 -64 -27 -102 -74 -102c-60 0 -120 50 -156 50zM1021 691c214 0 362 -146 362 -351c0 -209 -150 -353 -360 -353c-145 0 -257 65 -313 172
c-58 -107 -169 -172 -311 -172c-215 0 -361 143 -361 351c0 210 147 353 360 353c144 0 255 -66 312 -172c57 107 168 172 311 172zM399 3c158 0 263 133 263 335c0 205 -104 337 -264 337c-158 0 -263 -133 -263 -334c0 -204 103 -338 264 -338zM1023 3
c158 0 262 133 262 335c0 205 -104 337 -264 337c-157 0 -262 -133 -262 -334c0 -204 103 -338 264 -338z" />
    <glyph glyph-name="Oacute_C" horiz-adv-x="1264" 
d="M514 784c-59 -30 -120 -48 -180 -56l-6 16c50 27 99 58 143 114zM1247 77l8 -10c-61 -47 -138 -80 -236 -80c-130 0 -250 53 -310 170c-59 -106 -170 -170 -310 -170c-215 0 -361 143 -361 351c0 210 147 353 360 353c144 0 255 -66 312 -173c63 114 188 173 325 173
c65 0 137 -14 193 -46l-6 -11c-60 30 -127 38 -179 38c-179 0 -284 -119 -284 -333c0 -221 115 -332 267 -332c93 0 162 26 221 70zM399 3c158 0 263 133 263 335c0 205 -104 337 -264 337c-158 0 -263 -133 -263 -334c0 -204 103 -338 264 -338z" />
    <glyph glyph-name="Oacute_G" horiz-adv-x="1307" 
d="M514 784c-59 -30 -120 -48 -180 -56l-6 16c50 27 99 58 143 114zM1071 334h195v-296c-72 -32 -153 -51 -238 -51c-144 0 -263 55 -321 167c-59 -104 -169 -167 -308 -167c-215 0 -361 143 -361 351c0 210 147 353 360 353c145 0 257 -67 313 -175c65 119 193 175 332 175
c72 0 143 -14 200 -46l-7 -11c-56 28 -123 38 -182 38c-178 0 -295 -117 -295 -337c0 -211 111 -330 277 -330c58 0 105 8 144 21v290h-109v18zM399 3c158 0 263 133 263 335c0 205 -104 337 -264 337c-158 0 -263 -133 -263 -334c0 -204 103 -338 264 -338z" />
    <glyph glyph-name="Oacute_O" horiz-adv-x="1420" 
d="M514 784c-59 -30 -120 -48 -180 -56l-6 16c50 27 99 58 143 114zM1021 691c214 0 362 -146 362 -351c0 -209 -150 -353 -360 -353c-145 0 -257 65 -313 172c-58 -107 -169 -172 -311 -172c-215 0 -361 143 -361 351c0 210 147 353 360 353c144 0 255 -66 312 -172
c57 107 168 172 311 172zM399 3c158 0 263 133 263 335c0 205 -104 337 -264 337c-158 0 -263 -133 -263 -334c0 -204 103 -338 264 -338zM1023 3c158 0 262 133 262 335c0 205 -104 337 -264 337c-157 0 -262 -133 -262 -334c0 -204 103 -338 264 -338z" />
    <glyph glyph-name="Obreve_C" horiz-adv-x="1264" 
d="M392 731c-93 0 -129 70 -129 141h18c7 -56 49 -85 111 -85c61 0 104 33 110 85h18c0 -71 -36 -141 -128 -141zM1247 77l8 -10c-61 -47 -138 -80 -236 -80c-130 0 -250 53 -310 170c-59 -106 -170 -170 -310 -170c-215 0 -361 143 -361 351c0 210 147 353 360 353
c144 0 255 -66 312 -173c63 114 188 173 325 173c65 0 137 -14 193 -46l-6 -11c-60 30 -127 38 -179 38c-179 0 -284 -119 -284 -333c0 -221 115 -332 267 -332c93 0 162 26 221 70zM399 3c158 0 263 133 263 335c0 205 -104 337 -264 337c-158 0 -263 -133 -263 -334
c0 -204 103 -338 264 -338z" />
    <glyph glyph-name="Obreve_G" horiz-adv-x="1307" 
d="M392 731c-93 0 -129 70 -129 141h18c7 -56 49 -85 111 -85c61 0 104 33 110 85h18c0 -71 -36 -141 -128 -141zM1071 334h195v-296c-72 -32 -153 -51 -238 -51c-144 0 -263 55 -321 167c-59 -104 -169 -167 -308 -167c-215 0 -361 143 -361 351c0 210 147 353 360 353
c145 0 257 -67 313 -175c65 119 193 175 332 175c72 0 143 -14 200 -46l-7 -11c-56 28 -123 38 -182 38c-178 0 -295 -117 -295 -337c0 -211 111 -330 277 -330c58 0 105 8 144 21v290h-109v18zM399 3c158 0 263 133 263 335c0 205 -104 337 -264 337
c-158 0 -263 -133 -263 -334c0 -204 103 -338 264 -338z" />
    <glyph glyph-name="Obreve_O" horiz-adv-x="1420" 
d="M392 731c-93 0 -129 70 -129 141h18c7 -56 49 -85 111 -85c61 0 104 33 110 85h18c0 -71 -36 -141 -128 -141zM1021 691c214 0 362 -146 362 -351c0 -209 -150 -353 -360 -353c-145 0 -257 65 -313 172c-58 -107 -169 -172 -311 -172c-215 0 -361 143 -361 351
c0 210 147 353 360 353c144 0 255 -66 312 -172c57 107 168 172 311 172zM399 3c158 0 263 133 263 335c0 205 -104 337 -264 337c-158 0 -263 -133 -263 -334c0 -204 103 -338 264 -338zM1023 3c158 0 262 133 262 335c0 205 -104 337 -264 337c-157 0 -262 -133 -262 -334
c0 -204 103 -338 264 -338z" />
    <glyph glyph-name="uni01D10043" horiz-adv-x="1264" 
d="M428 725h-65l-98 122l14 14l116 -91l117 90l14 -13zM1247 77l8 -10c-61 -47 -138 -80 -236 -80c-130 0 -250 53 -310 170c-59 -106 -170 -170 -310 -170c-215 0 -361 143 -361 351c0 210 147 353 360 353c144 0 255 -66 312 -173c63 114 188 173 325 173
c65 0 137 -14 193 -46l-6 -11c-60 30 -127 38 -179 38c-179 0 -284 -119 -284 -333c0 -221 115 -332 267 -332c93 0 162 26 221 70zM399 3c158 0 263 133 263 335c0 205 -104 337 -264 337c-158 0 -263 -133 -263 -334c0 -204 103 -338 264 -338z" />
    <glyph glyph-name="uni01D10047" horiz-adv-x="1307" 
d="M428 725h-65l-98 122l14 14l116 -91l117 90l14 -13zM1071 334h195v-296c-72 -32 -153 -51 -238 -51c-144 0 -263 55 -321 167c-59 -104 -169 -167 -308 -167c-215 0 -361 143 -361 351c0 210 147 353 360 353c145 0 257 -67 313 -175c65 119 193 175 332 175
c72 0 143 -14 200 -46l-7 -11c-56 28 -123 38 -182 38c-178 0 -295 -117 -295 -337c0 -211 111 -330 277 -330c58 0 105 8 144 21v290h-109v18zM399 3c158 0 263 133 263 335c0 205 -104 337 -264 337c-158 0 -263 -133 -263 -334c0 -204 103 -338 264 -338z" />
    <glyph glyph-name="uni01D1004F" horiz-adv-x="1420" 
d="M428 725h-65l-98 122l14 14l116 -91l117 90l14 -13zM1021 691c214 0 362 -146 362 -351c0 -209 -150 -353 -360 -353c-145 0 -257 65 -313 172c-58 -107 -169 -172 -311 -172c-215 0 -361 143 -361 351c0 210 147 353 360 353c144 0 255 -66 312 -172
c57 107 168 172 311 172zM399 3c158 0 263 133 263 335c0 205 -104 337 -264 337c-158 0 -263 -133 -263 -334c0 -204 103 -338 264 -338zM1023 3c158 0 262 133 262 335c0 205 -104 337 -264 337c-157 0 -262 -133 -262 -334c0 -204 103 -338 264 -338z" />
    <glyph glyph-name="Ocircumflex_C" horiz-adv-x="1264" 
d="M397 807l-119 -84l-12 12l96 118h71l97 -118l-13 -13zM1247 77l8 -10c-61 -47 -138 -80 -236 -80c-130 0 -250 53 -310 170c-59 -106 -170 -170 -310 -170c-215 0 -361 143 -361 351c0 210 147 353 360 353c144 0 255 -66 312 -173c63 114 188 173 325 173
c65 0 137 -14 193 -46l-6 -11c-60 30 -127 38 -179 38c-179 0 -284 -119 -284 -333c0 -221 115 -332 267 -332c93 0 162 26 221 70zM399 3c158 0 263 133 263 335c0 205 -104 337 -264 337c-158 0 -263 -133 -263 -334c0 -204 103 -338 264 -338z" />
    <glyph glyph-name="Ocircumflex_G" horiz-adv-x="1307" 
d="M397 807l-119 -84l-12 12l96 118h71l97 -118l-13 -13zM1071 334h195v-296c-72 -32 -153 -51 -238 -51c-144 0 -263 55 -321 167c-59 -104 -169 -167 -308 -167c-215 0 -361 143 -361 351c0 210 147 353 360 353c145 0 257 -67 313 -175c65 119 193 175 332 175
c72 0 143 -14 200 -46l-7 -11c-56 28 -123 38 -182 38c-178 0 -295 -117 -295 -337c0 -211 111 -330 277 -330c58 0 105 8 144 21v290h-109v18zM399 3c158 0 263 133 263 335c0 205 -104 337 -264 337c-158 0 -263 -133 -263 -334c0 -204 103 -338 264 -338z" />
    <glyph glyph-name="Ocircumflex_O" horiz-adv-x="1420" 
d="M397 807l-119 -84l-12 12l96 118h71l97 -118l-13 -13zM1021 691c214 0 362 -146 362 -351c0 -209 -150 -353 -360 -353c-145 0 -257 65 -313 172c-58 -107 -169 -172 -311 -172c-215 0 -361 143 -361 351c0 210 147 353 360 353c144 0 255 -66 312 -172
c57 107 168 172 311 172zM399 3c158 0 263 133 263 335c0 205 -104 337 -264 337c-158 0 -263 -133 -263 -334c0 -204 103 -338 264 -338zM1023 3c158 0 262 133 262 335c0 205 -104 337 -264 337c-157 0 -262 -133 -262 -334c0 -204 103 -338 264 -338z" />
    <glyph glyph-name="Odieresis_C" horiz-adv-x="1264" 
d="M322 745c-25 0 -48 23 -48 49c0 28 23 50 48 50c29 0 48 -22 48 -50c0 -26 -19 -49 -48 -49zM468 745c-26 0 -49 23 -49 49c0 28 23 50 49 50c25 0 47 -22 47 -50c0 -26 -22 -49 -47 -49zM1247 77l8 -10c-61 -47 -138 -80 -236 -80c-130 0 -250 53 -310 170
c-59 -106 -170 -170 -310 -170c-215 0 -361 143 -361 351c0 210 147 353 360 353c144 0 255 -66 312 -173c63 114 188 173 325 173c65 0 137 -14 193 -46l-6 -11c-60 30 -127 38 -179 38c-179 0 -284 -119 -284 -333c0 -221 115 -332 267 -332c93 0 162 26 221 70zM399 3
c158 0 263 133 263 335c0 205 -104 337 -264 337c-158 0 -263 -133 -263 -334c0 -204 103 -338 264 -338z" />
    <glyph glyph-name="Odieresis_G" horiz-adv-x="1307" 
d="M322 745c-25 0 -48 23 -48 49c0 28 23 50 48 50c29 0 48 -22 48 -50c0 -26 -19 -49 -48 -49zM468 745c-26 0 -49 23 -49 49c0 28 23 50 49 50c25 0 47 -22 47 -50c0 -26 -22 -49 -47 -49zM1071 334h195v-296c-72 -32 -153 -51 -238 -51c-144 0 -263 55 -321 167
c-59 -104 -169 -167 -308 -167c-215 0 -361 143 -361 351c0 210 147 353 360 353c145 0 257 -67 313 -175c65 119 193 175 332 175c72 0 143 -14 200 -46l-7 -11c-56 28 -123 38 -182 38c-178 0 -295 -117 -295 -337c0 -211 111 -330 277 -330c58 0 105 8 144 21v290h-109
v18zM399 3c158 0 263 133 263 335c0 205 -104 337 -264 337c-158 0 -263 -133 -263 -334c0 -204 103 -338 264 -338z" />
    <glyph glyph-name="Odieresis_O" horiz-adv-x="1420" 
d="M322 745c-25 0 -48 23 -48 49c0 28 23 50 48 50c29 0 48 -22 48 -50c0 -26 -19 -49 -48 -49zM468 745c-26 0 -49 23 -49 49c0 28 23 50 49 50c25 0 47 -22 47 -50c0 -26 -22 -49 -47 -49zM1021 691c214 0 362 -146 362 -351c0 -209 -150 -353 -360 -353
c-145 0 -257 65 -313 172c-58 -107 -169 -172 -311 -172c-215 0 -361 143 -361 351c0 210 147 353 360 353c144 0 255 -66 312 -172c57 107 168 172 311 172zM399 3c158 0 263 133 263 335c0 205 -104 337 -264 337c-158 0 -263 -133 -263 -334c0 -204 103 -338 264 -338z
M1023 3c158 0 262 133 262 335c0 205 -104 337 -264 337c-157 0 -262 -133 -262 -334c0 -204 103 -338 264 -338z" />
    <glyph glyph-name="Ograve_C" horiz-adv-x="1264" 
d="M477 740l-5 -14c-58 11 -125 34 -184 74l47 73c43 -64 89 -103 142 -133zM1247 77l8 -10c-61 -47 -138 -80 -236 -80c-130 0 -250 53 -310 170c-59 -106 -170 -170 -310 -170c-215 0 -361 143 -361 351c0 210 147 353 360 353c144 0 255 -66 312 -173
c63 114 188 173 325 173c65 0 137 -14 193 -46l-6 -11c-60 30 -127 38 -179 38c-179 0 -284 -119 -284 -333c0 -221 115 -332 267 -332c93 0 162 26 221 70zM399 3c158 0 263 133 263 335c0 205 -104 337 -264 337c-158 0 -263 -133 -263 -334c0 -204 103 -338 264 -338z
" />
    <glyph glyph-name="Ograve_G" horiz-adv-x="1307" 
d="M477 740l-5 -14c-58 11 -125 34 -184 74l47 73c43 -64 89 -103 142 -133zM1071 334h195v-296c-72 -32 -153 -51 -238 -51c-144 0 -263 55 -321 167c-59 -104 -169 -167 -308 -167c-215 0 -361 143 -361 351c0 210 147 353 360 353c145 0 257 -67 313 -175
c65 119 193 175 332 175c72 0 143 -14 200 -46l-7 -11c-56 28 -123 38 -182 38c-178 0 -295 -117 -295 -337c0 -211 111 -330 277 -330c58 0 105 8 144 21v290h-109v18zM399 3c158 0 263 133 263 335c0 205 -104 337 -264 337c-158 0 -263 -133 -263 -334
c0 -204 103 -338 264 -338z" />
    <glyph glyph-name="Ograve_O" horiz-adv-x="1420" 
d="M477 740l-5 -14c-58 11 -125 34 -184 74l47 73c43 -64 89 -103 142 -133zM1021 691c214 0 362 -146 362 -351c0 -209 -150 -353 -360 -353c-145 0 -257 65 -313 172c-58 -107 -169 -172 -311 -172c-215 0 -361 143 -361 351c0 210 147 353 360 353
c144 0 255 -66 312 -172c57 107 168 172 311 172zM399 3c158 0 263 133 263 335c0 205 -104 337 -264 337c-158 0 -263 -133 -263 -334c0 -204 103 -338 264 -338zM1023 3c158 0 262 133 262 335c0 205 -104 337 -264 337c-157 0 -262 -133 -262 -334
c0 -204 103 -338 264 -338z" />
    <glyph glyph-name="Ohungarumlaut_C" horiz-adv-x="1264" 
d="M461 857l-126 -120l-13 11l74 148zM432 726l-13 13l115 121l44 -59zM1247 77l8 -10c-61 -47 -138 -80 -236 -80c-130 0 -250 53 -310 170c-59 -106 -170 -170 -310 -170c-215 0 -361 143 -361 351c0 210 147 353 360 353c144 0 255 -66 312 -173c63 114 188 173 325 173
c65 0 137 -14 193 -46l-6 -11c-60 30 -127 38 -179 38c-179 0 -284 -119 -284 -333c0 -221 115 -332 267 -332c93 0 162 26 221 70zM399 3c158 0 263 133 263 335c0 205 -104 337 -264 337c-158 0 -263 -133 -263 -334c0 -204 103 -338 264 -338z" />
    <glyph glyph-name="Ohungarumlaut_G" horiz-adv-x="1307" 
d="M461 857l-126 -120l-13 11l74 148zM432 726l-13 13l115 121l44 -59zM1071 334h195v-296c-72 -32 -153 -51 -238 -51c-144 0 -263 55 -321 167c-59 -104 -169 -167 -308 -167c-215 0 -361 143 -361 351c0 210 147 353 360 353c145 0 257 -67 313 -175
c65 119 193 175 332 175c72 0 143 -14 200 -46l-7 -11c-56 28 -123 38 -182 38c-178 0 -295 -117 -295 -337c0 -211 111 -330 277 -330c58 0 105 8 144 21v290h-109v18zM399 3c158 0 263 133 263 335c0 205 -104 337 -264 337c-158 0 -263 -133 -263 -334
c0 -204 103 -338 264 -338z" />
    <glyph glyph-name="Ohungarumlaut_O" horiz-adv-x="1420" 
d="M461 857l-126 -120l-13 11l74 148zM432 726l-13 13l115 121l44 -59zM1021 691c214 0 362 -146 362 -351c0 -209 -150 -353 -360 -353c-145 0 -257 65 -313 172c-58 -107 -169 -172 -311 -172c-215 0 -361 143 -361 351c0 210 147 353 360 353c144 0 255 -66 312 -172
c57 107 168 172 311 172zM399 3c158 0 263 133 263 335c0 205 -104 337 -264 337c-158 0 -263 -133 -263 -334c0 -204 103 -338 264 -338zM1023 3c158 0 262 133 262 335c0 205 -104 337 -264 337c-157 0 -262 -133 -262 -334c0 -204 103 -338 264 -338z" />
    <glyph glyph-name="Omacron_C" horiz-adv-x="1264" 
d="M510 786v-18h-231v18h231zM1247 77l8 -10c-61 -47 -138 -80 -236 -80c-130 0 -250 53 -310 170c-59 -106 -170 -170 -310 -170c-215 0 -361 143 -361 351c0 210 147 353 360 353c144 0 255 -66 312 -173c63 114 188 173 325 173c65 0 137 -14 193 -46l-6 -11
c-60 30 -127 38 -179 38c-179 0 -284 -119 -284 -333c0 -221 115 -332 267 -332c93 0 162 26 221 70zM399 3c158 0 263 133 263 335c0 205 -104 337 -264 337c-158 0 -263 -133 -263 -334c0 -204 103 -338 264 -338z" />
    <glyph glyph-name="Omacron_G" horiz-adv-x="1307" 
d="M510 786v-18h-231v18h231zM1071 334h195v-296c-72 -32 -153 -51 -238 -51c-144 0 -263 55 -321 167c-59 -104 -169 -167 -308 -167c-215 0 -361 143 -361 351c0 210 147 353 360 353c145 0 257 -67 313 -175c65 119 193 175 332 175c72 0 143 -14 200 -46l-7 -11
c-56 28 -123 38 -182 38c-178 0 -295 -117 -295 -337c0 -211 111 -330 277 -330c58 0 105 8 144 21v290h-109v18zM399 3c158 0 263 133 263 335c0 205 -104 337 -264 337c-158 0 -263 -133 -263 -334c0 -204 103 -338 264 -338z" />
    <glyph glyph-name="Omacron_O" horiz-adv-x="1420" 
d="M510 786v-18h-231v18h231zM1021 691c214 0 362 -146 362 -351c0 -209 -150 -353 -360 -353c-145 0 -257 65 -313 172c-58 -107 -169 -172 -311 -172c-215 0 -361 143 -361 351c0 210 147 353 360 353c144 0 255 -66 312 -172c57 107 168 172 311 172zM399 3
c158 0 263 133 263 335c0 205 -104 337 -264 337c-158 0 -263 -133 -263 -334c0 -204 103 -338 264 -338zM1023 3c158 0 262 133 262 335c0 205 -104 337 -264 337c-157 0 -262 -133 -262 -334c0 -204 103 -338 264 -338z" />
    <glyph glyph-name="Oslash_C" horiz-adv-x="1264" 
d="M1247 77l8 -10c-61 -47 -138 -80 -236 -80c-130 0 -250 53 -310 170c-59 -106 -170 -170 -310 -170c-95 0 -176 28 -237 76l-71 -77l-13 13l70 76c-70 63 -110 154 -110 263c0 210 147 353 360 353c95 0 177 -29 237 -80l74 81l15 -14l-74 -81c24 -22 44 -49 60 -79
c63 114 188 173 325 173c65 0 137 -14 193 -46l-6 -11c-60 30 -127 38 -179 38c-179 0 -284 -119 -284 -333c0 -221 115 -332 267 -332c93 0 162 26 221 70zM135 341c0 -88 19 -163 54 -220l410 450c-46 66 -116 104 -201 104c-158 0 -263 -133 -263 -334zM399 3
c158 0 263 133 263 335c0 86 -18 160 -52 216l-410 -449c46 -65 114 -102 199 -102z" />
    <glyph glyph-name="Oslash_G" horiz-adv-x="1307" 
d="M1071 334h195v-296c-72 -32 -153 -51 -238 -51c-144 0 -263 55 -321 167c-59 -104 -169 -167 -308 -167c-95 0 -176 28 -237 76l-71 -77l-13 13l70 76c-70 63 -110 154 -110 263c0 210 147 353 360 353c95 0 177 -29 237 -80l74 81l15 -14l-74 -81c25 -23 45 -50 61 -81
c65 119 193 175 332 175c72 0 143 -14 200 -46l-7 -11c-56 28 -123 38 -182 38c-178 0 -295 -117 -295 -337c0 -211 111 -330 277 -330c58 0 105 8 144 21v290h-109v18zM135 341c0 -88 19 -163 54 -220l410 450c-46 66 -116 104 -201 104c-158 0 -263 -133 -263 -334zM399 3
c158 0 263 133 263 335c0 86 -18 160 -52 216l-410 -449c46 -65 114 -102 199 -102z" />
    <glyph glyph-name="Oslash_O" horiz-adv-x="1420" 
d="M1021 691c214 0 362 -146 362 -351c0 -209 -150 -353 -360 -353c-145 0 -257 65 -313 172c-58 -107 -169 -172 -311 -172c-95 0 -177 28 -238 77l-72 -78l-14 13l71 78c-68 62 -108 153 -108 261c0 210 147 353 360 353c95 0 176 -29 236 -79l73 80l15 -14l-73 -80
c24 -23 45 -49 61 -79c57 107 168 172 311 172zM135 341c0 -87 19 -162 53 -218l410 450c-46 65 -115 102 -200 102c-158 0 -263 -133 -263 -334zM1023 3c158 0 262 133 262 335c0 205 -104 337 -264 337c-157 0 -262 -133 -262 -334c0 -204 103 -338 264 -338zM399 3
c158 0 263 133 263 335c0 87 -19 161 -53 217l-410 -449c46 -65 115 -103 200 -103z" />
    <glyph glyph-name="Otilde_C" horiz-adv-x="1264" 
d="M314 797c-27 0 -42 -11 -47 -50h-17c0 63 26 102 74 102c64 0 120 -50 156 -50c27 0 43 14 47 50h17c0 -64 -27 -102 -74 -102c-60 0 -120 50 -156 50zM1247 77l8 -10c-61 -47 -138 -80 -236 -80c-130 0 -250 53 -310 170c-59 -106 -170 -170 -310 -170
c-215 0 -361 143 -361 351c0 210 147 353 360 353c144 0 255 -66 312 -173c63 114 188 173 325 173c65 0 137 -14 193 -46l-6 -11c-60 30 -127 38 -179 38c-179 0 -284 -119 -284 -333c0 -221 115 -332 267 -332c93 0 162 26 221 70zM399 3c158 0 263 133 263 335
c0 205 -104 337 -264 337c-158 0 -263 -133 -263 -334c0 -204 103 -338 264 -338z" />
    <glyph glyph-name="Otilde_G" horiz-adv-x="1307" 
d="M314 797c-27 0 -42 -11 -47 -50h-17c0 63 26 102 74 102c64 0 120 -50 156 -50c27 0 43 14 47 50h17c0 -64 -27 -102 -74 -102c-60 0 -120 50 -156 50zM1071 334h195v-296c-72 -32 -153 -51 -238 -51c-144 0 -263 55 -321 167c-59 -104 -169 -167 -308 -167
c-215 0 -361 143 -361 351c0 210 147 353 360 353c145 0 257 -67 313 -175c65 119 193 175 332 175c72 0 143 -14 200 -46l-7 -11c-56 28 -123 38 -182 38c-178 0 -295 -117 -295 -337c0 -211 111 -330 277 -330c58 0 105 8 144 21v290h-109v18zM399 3
c158 0 263 133 263 335c0 205 -104 337 -264 337c-158 0 -263 -133 -263 -334c0 -204 103 -338 264 -338z" />
    <glyph glyph-name="Otilde_O" horiz-adv-x="1420" 
d="M314 797c-27 0 -42 -11 -47 -50h-17c0 63 26 102 74 102c64 0 120 -50 156 -50c27 0 43 14 47 50h17c0 -64 -27 -102 -74 -102c-60 0 -120 50 -156 50zM1021 691c214 0 362 -146 362 -351c0 -209 -150 -353 -360 -353c-145 0 -257 65 -313 172
c-58 -107 -169 -172 -311 -172c-215 0 -361 143 -361 351c0 210 147 353 360 353c144 0 255 -66 312 -172c57 107 168 172 311 172zM399 3c158 0 263 133 263 335c0 205 -104 337 -264 337c-158 0 -263 -133 -263 -334c0 -204 103 -338 264 -338zM1023 3
c158 0 262 133 262 335c0 205 -104 337 -264 337c-157 0 -262 -133 -262 -334c0 -204 103 -338 264 -338z" />
    <glyph glyph-name="U_M" horiz-adv-x="899" 
d="M751 677h82v-677h-85v594l-170 -600h-13l-167 569v-370c0 -155 -61 -206 -153 -206c-123 0 -181 57 -181 223v467h86v-489c0 -124 32 -177 109 -177c56 0 119 21 119 180v428l-18 58h94l150 -520z" />
    <glyph glyph-name="U_N" horiz-adv-x="774" 
d="M689 677h20v-677h-90l-221 570v-377c0 -155 -61 -206 -153 -206c-123 0 -181 57 -181 223v467h86v-489c0 -124 32 -177 109 -177c56 0 119 21 119 180v423l-25 63h90l246 -624v624z" />
    <glyph glyph-name="U_Nacute" horiz-adv-x="774" 
d="M663 784c-59 -30 -120 -48 -180 -56l-6 16c50 27 99 58 143 114zM689 677h20v-677h-90l-221 570v-377c0 -155 -61 -206 -153 -206c-123 0 -181 57 -181 223v467h86v-489c0 -124 32 -177 109 -177c56 0 119 21 119 180v423l-25 63h90l246 -624v624z" />
    <glyph glyph-name="U_Ncaron" horiz-adv-x="774" 
d="M577 725h-65l-98 122l14 14l116 -91l117 90l14 -13zM689 677h20v-677h-90l-221 570v-377c0 -155 -61 -206 -153 -206c-123 0 -181 57 -181 223v467h86v-489c0 -124 32 -177 109 -177c56 0 119 21 119 180v423l-25 63h90l246 -624v624z" />
    <glyph glyph-name="U_Ncommaaccent" horiz-adv-x="774" 
d="M689 677h20v-677h-90l-221 570v-377c0 -155 -61 -206 -153 -206c-123 0 -181 57 -181 223v467h86v-489c0 -124 32 -177 109 -177c56 0 119 21 119 180v423l-25 63h90l246 -624v624zM541 -45c29 0 41 -22 41 -48c0 -37 -28 -85 -65 -116l-12 12c17 20 27 43 27 65
c0 21 -10 39 -36 43c4 29 21 44 45 44z" />
    <glyph glyph-name="U_Ntilde" horiz-adv-x="774" 
d="M479 797c-18 0 -30 -11 -34 -50h-16c0 63 19 102 60 102c53 0 100 -50 127 -50c19 0 32 14 35 50h16c0 -64 -21 -102 -61 -102c-48 0 -99 50 -127 50zM689 677h20v-677h-90l-221 570v-377c0 -155 -61 -206 -153 -206c-123 0 -181 57 -181 223v467h86v-489
c0 -124 32 -177 109 -177c56 0 119 21 119 180v423l-25 63h90l246 -624v624z" />
    <glyph glyph-name="Uacute_M" horiz-adv-x="899" 
d="M362 784c-59 -30 -120 -48 -180 -56l-6 16c50 27 99 58 143 114zM751 677h82v-677h-85v594l-170 -600h-13l-167 569v-370c0 -155 -61 -206 -153 -206c-123 0 -181 57 -181 223v467h86v-489c0 -124 32 -177 109 -177c56 0 119 21 119 180v428l-18 58h94l150 -520z" />
    <glyph glyph-name="Uacute_N" horiz-adv-x="774" 
d="M362 784c-59 -30 -120 -48 -180 -56l-6 16c50 27 99 58 143 114zM689 677h20v-677h-90l-221 570v-377c0 -155 -61 -206 -153 -206c-123 0 -181 57 -181 223v467h86v-489c0 -124 32 -177 109 -177c56 0 119 21 119 180v423l-25 63h90l246 -624v624z" />
    <glyph glyph-name="Ubreve_M" horiz-adv-x="899" 
d="M241 721c-76 0 -104 70 -105 141h14c8 -56 45 -85 91 -85s84 33 90 85h15c-1 -71 -30 -141 -105 -141zM751 677h82v-677h-85v594l-170 -600h-13l-167 569v-370c0 -155 -61 -206 -153 -206c-123 0 -181 57 -181 223v467h86v-489c0 -124 32 -177 109 -177
c56 0 119 21 119 180v428l-18 58h94l150 -520z" />
    <glyph glyph-name="Ubreve_N" horiz-adv-x="774" 
d="M241 721c-76 0 -104 70 -105 141h14c8 -56 45 -85 91 -85s84 33 90 85h15c-1 -71 -30 -141 -105 -141zM689 677h20v-677h-90l-221 570v-377c0 -155 -61 -206 -153 -206c-123 0 -181 57 -181 223v467h86v-489c0 -124 32 -177 109 -177c56 0 119 21 119 180v423l-25 63h90
l246 -624v624z" />
    <glyph glyph-name="uni01D3004D" horiz-adv-x="899" 
d="M276 725h-65l-98 122l14 14l116 -91l117 90l14 -13zM751 677h82v-677h-85v594l-170 -600h-13l-167 569v-370c0 -155 -61 -206 -153 -206c-123 0 -181 57 -181 223v467h86v-489c0 -124 32 -177 109 -177c56 0 119 21 119 180v428l-18 58h94l150 -520z" />
    <glyph glyph-name="uni01D3004E" horiz-adv-x="774" 
d="M276 725h-65l-98 122l14 14l116 -91l117 90l14 -13zM689 677h20v-677h-90l-221 570v-377c0 -155 -61 -206 -153 -206c-123 0 -181 57 -181 223v467h86v-489c0 -124 32 -177 109 -177c56 0 119 21 119 180v423l-25 63h90l246 -624v624z" />
    <glyph glyph-name="Ucircumflex_M" horiz-adv-x="899" 
d="M245 807l-119 -84l-12 12l96 118h71l97 -118l-13 -13zM751 677h82v-677h-85v594l-170 -600h-13l-167 569v-370c0 -155 -61 -206 -153 -206c-123 0 -181 57 -181 223v467h86v-489c0 -124 32 -177 109 -177c56 0 119 21 119 180v428l-18 58h94l150 -520z" />
    <glyph glyph-name="Ucircumflex_N" horiz-adv-x="774" 
d="M245 807l-119 -84l-12 12l96 118h71l97 -118l-13 -13zM689 677h20v-677h-90l-221 570v-377c0 -155 -61 -206 -153 -206c-123 0 -181 57 -181 223v467h86v-489c0 -124 32 -177 109 -177c56 0 119 21 119 180v423l-25 63h90l246 -624v624z" />
    <glyph glyph-name="Udieresis_M" horiz-adv-x="899" 
d="M170 745c-25 0 -48 23 -48 49c0 28 23 50 48 50c29 0 48 -22 48 -50c0 -26 -19 -49 -48 -49zM316 745c-26 0 -49 23 -49 49c0 28 23 50 49 50c25 0 47 -22 47 -50c0 -26 -22 -49 -47 -49zM751 677h82v-677h-85v594l-170 -600h-13l-167 569v-370
c0 -155 -61 -206 -153 -206c-123 0 -181 57 -181 223v467h86v-489c0 -124 32 -177 109 -177c56 0 119 21 119 180v428l-18 58h94l150 -520z" />
    <glyph glyph-name="Udieresis_N" horiz-adv-x="774" 
d="M170 745c-25 0 -48 23 -48 49c0 28 23 50 48 50c29 0 48 -22 48 -50c0 -26 -19 -49 -48 -49zM316 745c-26 0 -49 23 -49 49c0 28 23 50 49 50c25 0 47 -22 47 -50c0 -26 -22 -49 -47 -49zM689 677h20v-677h-90l-221 570v-377c0 -155 -61 -206 -153 -206
c-123 0 -181 57 -181 223v467h86v-489c0 -124 32 -177 109 -177c56 0 119 21 119 180v423l-25 63h90l246 -624v624z" />
    <glyph glyph-name="Ugrave_M" horiz-adv-x="899" 
d="M325 740l-5 -14c-58 11 -125 34 -184 74l47 73c43 -64 89 -103 142 -133zM751 677h82v-677h-85v594l-170 -600h-13l-167 569v-370c0 -155 -61 -206 -153 -206c-123 0 -181 57 -181 223v467h86v-489c0 -124 32 -177 109 -177c56 0 119 21 119 180v428l-18 58h94l150 -520z
" />
    <glyph glyph-name="Ugrave_N" horiz-adv-x="774" 
d="M325 740l-5 -14c-58 11 -125 34 -184 74l47 73c43 -64 89 -103 142 -133zM689 677h20v-677h-90l-221 570v-377c0 -155 -61 -206 -153 -206c-123 0 -181 57 -181 223v467h86v-489c0 -124 32 -177 109 -177c56 0 119 21 119 180v423l-25 63h90l246 -624v624z" />
    <glyph glyph-name="Uhungarumlaut_M" horiz-adv-x="899" 
d="M309 857l-126 -120l-13 11l74 148zM280 726l-13 13l115 121l44 -59zM751 677h82v-677h-85v594l-170 -600h-13l-167 569v-370c0 -155 -61 -206 -153 -206c-123 0 -181 57 -181 223v467h86v-489c0 -124 32 -177 109 -177c56 0 119 21 119 180v428l-18 58h94l150 -520z" />
    <glyph glyph-name="Uhungarumlaut_N" horiz-adv-x="774" 
d="M309 857l-126 -120l-13 11l74 148zM280 726l-13 13l115 121l44 -59zM689 677h20v-677h-90l-221 570v-377c0 -155 -61 -206 -153 -206c-123 0 -181 57 -181 223v467h86v-489c0 -124 32 -177 109 -177c56 0 119 21 119 180v423l-25 63h90l246 -624v624z" />
    <glyph glyph-name="Umacron_M" horiz-adv-x="899" 
d="M358 786v-18h-231v18h231zM751 677h82v-677h-85v594l-170 -600h-13l-167 569v-370c0 -155 -61 -206 -153 -206c-123 0 -181 57 -181 223v467h86v-489c0 -124 32 -177 109 -177c56 0 119 21 119 180v428l-18 58h94l150 -520z" />
    <glyph glyph-name="Umacron_N" horiz-adv-x="774" 
d="M358 786v-18h-231v18h231zM689 677h20v-677h-90l-221 570v-377c0 -155 -61 -206 -153 -206c-123 0 -181 57 -181 223v467h86v-489c0 -124 32 -177 109 -177c56 0 119 21 119 180v423l-25 63h90l246 -624v624z" />
    <glyph glyph-name="Uogonek_M" horiz-adv-x="899" 
d="M751 677h82v-677h-85v594l-170 -600h-13l-167 569v-370c0 -124 -39 -182 -102 -200c-45 -29 -70 -71 -70 -111c0 -37 22 -56 50 -56c16 0 33 5 49 16l9 -13c-25 -19 -55 -27 -84 -27c-49 0 -91 26 -91 77c0 50 38 85 82 108c-120 1 -177 59 -177 223v467h86v-489
c0 -124 32 -177 109 -177c56 0 119 21 119 180v428l-18 58h94l150 -520z" />
    <glyph glyph-name="Uogonek_N" horiz-adv-x="774" 
d="M689 677h20v-677h-90l-221 570v-377c0 -124 -39 -182 -102 -200c-45 -29 -70 -71 -70 -111c0 -37 22 -56 50 -56c16 0 33 5 49 16l9 -13c-25 -19 -55 -27 -84 -27c-49 0 -91 26 -91 77c0 50 38 85 82 108c-120 1 -177 59 -177 223v467h86v-489c0 -124 32 -177 109 -177
c56 0 119 21 119 180v423l-25 63h90l246 -624v624z" />
    <glyph glyph-name="Uring_M" horiz-adv-x="899" 
d="M243 721c-46 0 -76 30 -76 76c0 45 30 77 76 77c45 0 75 -31 75 -77c0 -44 -30 -76 -75 -76zM243 857c-32 0 -53 -24 -53 -60s21 -60 53 -60c31 0 52 24 52 60s-21 60 -52 60zM751 677h82v-677h-85v594l-170 -600h-13l-167 569v-370c0 -155 -61 -206 -153 -206
c-123 0 -181 57 -181 223v467h86v-489c0 -124 32 -177 109 -177c56 0 119 21 119 180v428l-18 58h94l150 -520z" />
    <glyph glyph-name="Uring_N" horiz-adv-x="774" 
d="M243 721c-46 0 -76 30 -76 76c0 45 30 77 76 77c45 0 75 -31 75 -77c0 -44 -30 -76 -75 -76zM243 857c-32 0 -53 -24 -53 -60s21 -60 53 -60c31 0 52 24 52 60s-21 60 -52 60zM689 677h20v-677h-90l-221 570v-377c0 -155 -61 -206 -153 -206c-123 0 -181 57 -181 223v467
h86v-489c0 -124 32 -177 109 -177c56 0 119 21 119 180v423l-25 63h90l246 -624v624z" />
    <glyph glyph-name="Utilde_M" horiz-adv-x="899" 
d="M178 797c-18 0 -30 -11 -34 -50h-16c0 63 19 102 60 102c53 0 100 -50 127 -50c19 0 32 14 35 50h16c0 -64 -21 -102 -61 -102c-48 0 -99 50 -127 50zM751 677h82v-677h-85v594l-170 -600h-13l-167 569v-370c0 -155 -61 -206 -153 -206c-123 0 -181 57 -181 223v467h86
v-489c0 -124 32 -177 109 -177c56 0 119 21 119 180v428l-18 58h94l150 -520z" />
    <glyph glyph-name="Utilde_N" horiz-adv-x="774" 
d="M178 797c-18 0 -30 -11 -34 -50h-16c0 63 19 102 60 102c53 0 100 -50 127 -50c19 0 32 14 35 50h16c0 -64 -21 -102 -61 -102c-48 0 -99 50 -127 50zM689 677h20v-677h-90l-221 570v-377c0 -155 -61 -206 -153 -206c-123 0 -181 57 -181 223v467h86v-489
c0 -124 32 -177 109 -177c56 0 119 21 119 180v423l-25 63h90l246 -624v624z" />
    <glyph glyph-name="V_A" horiz-adv-x="624" 
d="M514 0l-51 231h-160l-52 -231h-87l-143 677h90l131 -628l131 585l-9 43h88l151 -677h-89zM307 249h152l-75 340z" />
    <glyph glyph-name="V_Aacute" horiz-adv-x="624" 
d="M533 784c-59 -30 -120 -48 -180 -56l-6 16c50 27 99 58 143 114zM514 0l-51 231h-160l-52 -231h-87l-143 677h90l131 -628l131 585l-9 43h88l151 -677h-89zM307 249h152l-75 340z" />
    <glyph glyph-name="V_Abreve" horiz-adv-x="624" 
d="M412 721c-76 0 -104 70 -105 141h14c8 -56 45 -85 91 -85s84 33 90 85h15c-1 -71 -30 -141 -105 -141zM514 0l-51 231h-160l-52 -231h-87l-143 677h90l131 -628l131 585l-9 43h88l151 -677h-89zM307 249h152l-75 340z" />
    <glyph glyph-name="uni005601CD" horiz-adv-x="624" 
d="M447 725h-65l-98 122l14 14l116 -91l117 90l14 -13zM514 0l-51 231h-160l-52 -231h-87l-143 677h90l131 -628l131 585l-9 43h88l151 -677h-89zM307 249h152l-75 340z" />
    <glyph glyph-name="V_Acircumflex" horiz-adv-x="624" 
d="M416 807l-119 -84l-12 12l96 118h71l97 -118l-13 -13zM514 0l-51 231h-160l-52 -231h-87l-143 677h90l131 -628l131 585l-9 43h88l151 -677h-89zM307 249h152l-75 340z" />
    <glyph glyph-name="V_Adieresis" horiz-adv-x="624" 
d="M341 745c-25 0 -48 23 -48 49c0 28 23 50 48 50c29 0 48 -22 48 -50c0 -26 -19 -49 -48 -49zM487 745c-26 0 -49 23 -49 49c0 28 23 50 49 50c25 0 47 -22 47 -50c0 -26 -22 -49 -47 -49zM514 0l-51 231h-160l-52 -231h-87l-143 677h90l131 -628l131 585l-9 43h88
l151 -677h-89zM307 249h152l-75 340z" />
    <glyph glyph-name="V_Agrave" horiz-adv-x="624" 
d="M496 740l-5 -14c-58 11 -125 34 -184 74l47 73c43 -64 89 -103 142 -133zM514 0l-51 231h-160l-52 -231h-87l-143 677h90l131 -628l131 585l-9 43h88l151 -677h-89zM307 249h152l-75 340z" />
    <glyph glyph-name="V_Amacron" horiz-adv-x="624" 
d="M529 786v-18h-231v18h231zM514 0l-51 231h-160l-52 -231h-87l-143 677h90l131 -628l131 585l-9 43h88l151 -677h-89zM307 249h152l-75 340z" />
    <glyph glyph-name="V_Aogonek" horiz-adv-x="624" 
d="M495 -181c16 0 33 5 49 16l9 -13c-25 -19 -55 -27 -84 -27c-49 0 -91 26 -91 77c0 69 72 110 136 129l-51 230h-160l-52 -231h-87l-143 677h90l131 -628l131 585l-9 43h88l151 -677h-65c-59 -30 -93 -78 -93 -125c0 -37 22 -56 50 -56zM307 249h152l-75 340z" />
    <glyph glyph-name="V_Aring" horiz-adv-x="624" 
d="M414 721c-46 0 -76 30 -76 76c0 45 30 77 76 77c45 0 75 -31 75 -77c0 -44 -30 -76 -75 -76zM414 857c-32 0 -53 -24 -53 -60s21 -60 53 -60c31 0 52 24 52 60s-21 60 -52 60zM514 0l-51 231h-160l-52 -231h-87l-143 677h90l131 -628l131 585l-9 43h88l151 -677h-89z
M307 249h152l-75 340z" />
    <glyph glyph-name="V_Atilde" horiz-adv-x="624" 
d="M349 797c-18 0 -30 -11 -34 -50h-16c0 63 19 102 60 102c53 0 100 -50 127 -50c19 0 32 14 35 50h16c0 -64 -21 -102 -61 -102c-48 0 -99 50 -127 50zM514 0l-51 231h-160l-52 -231h-87l-143 677h90l131 -628l131 585l-9 43h88l151 -677h-89zM307 249h152l-75 340z" />
    <glyph glyph-name="a_a" 
d="M652 0l-51 231h-159l-52 -231h-89l-51 231h-159l-52 -231h-21l143 632l-10 45h89l140 -630l132 585l-10 45h89l150 -677h-89zM95 249h151l-75 338zM446 249h151l-75 338z" />
    <glyph glyph-name="a_aacute" 
d="M674 784c-59 -30 -120 -48 -180 -56l-6 16c50 27 99 58 143 114zM652 0l-51 231h-159l-52 -231h-89l-51 231h-159l-52 -231h-21l143 632l-10 45h89l140 -630l132 585l-10 45h89l150 -677h-89zM95 249h151l-75 338zM446 249h151l-75 338z" />
    <glyph glyph-name="a_abreve" 
d="M553 721c-76 0 -104 70 -105 141h14c8 -56 45 -85 91 -85s84 33 90 85h15c-1 -71 -30 -141 -105 -141zM652 0l-51 231h-159l-52 -231h-89l-51 231h-159l-52 -231h-21l143 632l-10 45h89l140 -630l132 585l-10 45h89l150 -677h-89zM95 249h151l-75 338zM446 249h151
l-75 338z" />
    <glyph glyph-name="uni006101CE" 
d="M588 725h-65l-98 122l14 14l116 -91l117 90l14 -13zM652 0l-51 231h-159l-52 -231h-89l-51 231h-159l-52 -231h-21l143 632l-10 45h89l140 -630l132 585l-10 45h89l150 -677h-89zM95 249h151l-75 338zM446 249h151l-75 338z" />
    <glyph glyph-name="a_acircumflex" 
d="M557 807l-119 -84l-12 12l96 118h71l97 -118l-13 -13zM652 0l-51 231h-159l-52 -231h-89l-51 231h-159l-52 -231h-21l143 632l-10 45h89l140 -630l132 585l-10 45h89l150 -677h-89zM95 249h151l-75 338zM446 249h151l-75 338z" />
    <glyph glyph-name="a_adieresis" 
d="M482 745c-25 0 -48 23 -48 49c0 28 23 50 48 50c29 0 48 -22 48 -50c0 -26 -19 -49 -48 -49zM628 745c-26 0 -49 23 -49 49c0 28 23 50 49 50c25 0 47 -22 47 -50c0 -26 -22 -49 -47 -49zM652 0l-51 231h-159l-52 -231h-89l-51 231h-159l-52 -231h-21l143 632l-10 45h89
l140 -630l132 585l-10 45h89l150 -677h-89zM95 249h151l-75 338zM446 249h151l-75 338z" />
    <glyph glyph-name="a_agrave" 
d="M637 740l-5 -14c-58 11 -125 34 -184 74l47 73c43 -64 89 -103 142 -133zM652 0l-51 231h-159l-52 -231h-89l-51 231h-159l-52 -231h-21l143 632l-10 45h89l140 -630l132 585l-10 45h89l150 -677h-89zM95 249h151l-75 338zM446 249h151l-75 338z" />
    <glyph glyph-name="a_amacron" 
d="M670 786v-18h-231v18h231zM652 0l-51 231h-159l-52 -231h-89l-51 231h-159l-52 -231h-21l143 632l-10 45h89l140 -630l132 585l-10 45h89l150 -677h-89zM95 249h151l-75 338zM446 249h151l-75 338z" />
    <glyph glyph-name="a_aogonek" 
d="M636 -181c16 0 33 5 49 16l9 -13c-25 -19 -55 -27 -84 -27c-49 0 -91 26 -91 77c0 68 70 109 133 128l-51 231h-159l-52 -231h-89l-51 231h-159l-52 -231h-21l143 632l-10 45h89l140 -630l132 585l-10 45h89l150 -677h-62c-59 -30 -93 -78 -93 -125c0 -37 22 -56 50 -56z
M95 249h151l-75 338zM446 249h151l-75 338z" />
    <glyph glyph-name="a_aring" 
d="M555 721c-46 0 -76 30 -76 76c0 45 30 77 76 77c45 0 75 -31 75 -77c0 -44 -30 -76 -75 -76zM555 857c-32 0 -53 -24 -53 -60s21 -60 53 -60c31 0 52 24 52 60s-21 60 -52 60zM652 0l-51 231h-159l-52 -231h-89l-51 231h-159l-52 -231h-21l143 632l-10 45h89l140 -630
l132 585l-10 45h89l150 -677h-89zM95 249h151l-75 338zM446 249h151l-75 338z" />
    <glyph glyph-name="a_atilde" 
d="M490 797c-18 0 -30 -11 -34 -50h-16c0 63 19 102 60 102c53 0 100 -50 127 -50c19 0 32 14 35 50h16c0 -64 -21 -102 -61 -102c-48 0 -99 50 -127 50zM652 0l-51 231h-159l-52 -231h-89l-51 231h-159l-52 -231h-21l143 632l-10 45h89l140 -630l132 585l-10 45h89
l150 -677h-89zM95 249h151l-75 338zM446 249h151l-75 338z" />
    <glyph glyph-name="a_v" horiz-adv-x="544" 
d="M501 677h21l-135 -677h-86l-52 231h-158l-52 -231h-21l143 628l-11 49h89l139 -623zM95 249h150l-74 334z" />
    <glyph glyph-name="aacute_a" 
d="M324 784c-59 -30 -120 -48 -180 -56l-6 16c50 27 99 58 143 114zM652 0l-51 231h-159l-52 -231h-89l-51 231h-159l-52 -231h-21l143 632l-10 45h89l140 -630l132 585l-10 45h89l150 -677h-89zM95 249h151l-75 338zM446 249h151l-75 338z" />
    <glyph glyph-name="aacute_v" horiz-adv-x="544" 
d="M319 784c-59 -30 -120 -48 -180 -56l-6 16c50 27 99 58 143 114zM501 677h21l-135 -677h-86l-52 231h-158l-52 -231h-21l143 628l-11 49h89l139 -623zM95 249h150l-74 334z" />
    <glyph glyph-name="abreve_a" 
d="M203 721c-76 0 -104 70 -105 141h14c8 -56 45 -85 91 -85s84 33 90 85h15c-1 -71 -30 -141 -105 -141zM652 0l-51 231h-159l-52 -231h-89l-51 231h-159l-52 -231h-21l143 632l-10 45h89l140 -630l132 585l-10 45h89l150 -677h-89zM95 249h151l-75 338zM446 249h151
l-75 338z" />
    <glyph glyph-name="abreve_v" horiz-adv-x="544" 
d="M198 721c-76 0 -104 70 -105 141h14c8 -56 45 -85 91 -85s84 33 90 85h15c-1 -71 -30 -141 -105 -141zM501 677h21l-135 -677h-86l-52 231h-158l-52 -231h-21l143 628l-11 49h89l139 -623zM95 249h150l-74 334z" />
    <glyph glyph-name="uni01CE0061" 
d="M238 725h-65l-98 122l14 14l116 -91l117 90l14 -13zM652 0l-51 231h-159l-52 -231h-89l-51 231h-159l-52 -231h-21l143 632l-10 45h89l140 -630l132 585l-10 45h89l150 -677h-89zM95 249h151l-75 338zM446 249h151l-75 338z" />
    <glyph glyph-name="uni01CE0076" horiz-adv-x="544" 
d="M233 725h-65l-98 122l14 14l116 -91l117 90l14 -13zM501 677h21l-135 -677h-86l-52 231h-158l-52 -231h-21l143 628l-11 49h89l139 -623zM95 249h150l-74 334z" />
    <glyph glyph-name="acircumflex_a" 
d="M207 807l-119 -84l-12 12l96 118h71l97 -118l-13 -13zM652 0l-51 231h-159l-52 -231h-89l-51 231h-159l-52 -231h-21l143 632l-10 45h89l140 -630l132 585l-10 45h89l150 -677h-89zM95 249h151l-75 338zM446 249h151l-75 338z" />
    <glyph glyph-name="acircumflex_v" horiz-adv-x="544" 
d="M202 807l-119 -84l-12 12l96 118h71l97 -118l-13 -13zM501 677h21l-135 -677h-86l-52 231h-158l-52 -231h-21l143 628l-11 49h89l139 -623zM95 249h150l-74 334z" />
    <glyph glyph-name="adieresis_a" 
d="M132 745c-25 0 -48 23 -48 49c0 28 23 50 48 50c29 0 48 -22 48 -50c0 -26 -19 -49 -48 -49zM278 745c-26 0 -49 23 -49 49c0 28 23 50 49 50c25 0 47 -22 47 -50c0 -26 -22 -49 -47 -49zM652 0l-51 231h-159l-52 -231h-89l-51 231h-159l-52 -231h-21l143 632l-10 45h89
l140 -630l132 585l-10 45h89l150 -677h-89zM95 249h151l-75 338zM446 249h151l-75 338z" />
    <glyph glyph-name="adieresis_v" horiz-adv-x="544" 
d="M127 745c-25 0 -48 23 -48 49c0 28 23 50 48 50c29 0 48 -22 48 -50c0 -26 -19 -49 -48 -49zM273 745c-26 0 -49 23 -49 49c0 28 23 50 49 50c25 0 47 -22 47 -50c0 -26 -22 -49 -47 -49zM501 677h21l-135 -677h-86l-52 231h-158l-52 -231h-21l143 628l-11 49h89
l139 -623zM95 249h150l-74 334z" />
    <glyph glyph-name="agrave_a" 
d="M287 740l-5 -14c-58 11 -125 34 -184 74l47 73c43 -64 89 -103 142 -133zM652 0l-51 231h-159l-52 -231h-89l-51 231h-159l-52 -231h-21l143 632l-10 45h89l140 -630l132 585l-10 45h89l150 -677h-89zM95 249h151l-75 338zM446 249h151l-75 338z" />
    <glyph glyph-name="agrave_v" horiz-adv-x="544" 
d="M282 740l-5 -14c-58 11 -125 34 -184 74l47 73c43 -64 89 -103 142 -133zM501 677h21l-135 -677h-86l-52 231h-158l-52 -231h-21l143 628l-11 49h89l139 -623zM95 249h150l-74 334z" />
    <glyph glyph-name="amacron_a" 
d="M320 786v-18h-231v18h231zM652 0l-51 231h-159l-52 -231h-89l-51 231h-159l-52 -231h-21l143 632l-10 45h89l140 -630l132 585l-10 45h89l150 -677h-89zM95 249h151l-75 338zM446 249h151l-75 338z" />
    <glyph glyph-name="amacron_v" horiz-adv-x="544" 
d="M315 786v-18h-231v18h231zM501 677h21l-135 -677h-86l-52 231h-158l-52 -231h-21l143 628l-11 49h89l139 -623zM95 249h150l-74 334z" />
    <glyph glyph-name="aogonek_a" 
d="M652 0l-51 231h-159l-52 -231h-65c-59 -30 -93 -78 -93 -125c0 -37 22 -56 50 -56c16 0 33 5 49 16l9 -13c-25 -19 -55 -27 -84 -27c-49 0 -91 26 -91 77c0 69 72 110 136 129l-51 230h-159l-52 -231h-21l143 632l-10 45h89l140 -630l132 585l-10 45h89l150 -677h-89z
M95 249h151l-75 338zM446 249h151l-75 338z" />
    <glyph glyph-name="aogonek_v" horiz-adv-x="544" 
d="M501 677h21l-135 -677h-60c-59 -30 -93 -78 -93 -125c0 -37 22 -56 50 -56c16 0 33 5 49 16l9 -13c-25 -19 -55 -27 -84 -27c-49 0 -91 26 -91 77c0 68 71 109 134 129l-52 230h-158l-52 -231h-21l143 628l-11 49h89l139 -623zM95 249h150l-74 334z" />
    <glyph glyph-name="aring_a" 
d="M205 721c-46 0 -76 30 -76 76c0 45 30 77 76 77c45 0 75 -31 75 -77c0 -44 -30 -76 -75 -76zM205 857c-32 0 -53 -24 -53 -60s21 -60 53 -60c31 0 52 24 52 60s-21 60 -52 60zM652 0l-51 231h-159l-52 -231h-89l-51 231h-159l-52 -231h-21l143 632l-10 45h89l140 -630
l132 585l-10 45h89l150 -677h-89zM95 249h151l-75 338zM446 249h151l-75 338z" />
    <glyph glyph-name="aring_v" horiz-adv-x="544" 
d="M200 721c-46 0 -76 30 -76 76c0 45 30 77 76 77c45 0 75 -31 75 -77c0 -44 -30 -76 -75 -76zM200 857c-32 0 -53 -24 -53 -60s21 -60 53 -60c31 0 52 24 52 60s-21 60 -52 60zM501 677h21l-135 -677h-86l-52 231h-158l-52 -231h-21l143 628l-11 49h89l139 -623zM95 249
h150l-74 334z" />
    <glyph glyph-name="atilde_a" 
d="M140 797c-18 0 -30 -11 -34 -50h-16c0 63 19 102 60 102c53 0 100 -50 127 -50c19 0 32 14 35 50h16c0 -64 -21 -102 -61 -102c-48 0 -99 50 -127 50zM652 0l-51 231h-159l-52 -231h-89l-51 231h-159l-52 -231h-21l143 632l-10 45h89l140 -630l132 585l-10 45h89
l150 -677h-89zM95 249h151l-75 338zM446 249h151l-75 338z" />
    <glyph glyph-name="atilde_v" horiz-adv-x="544" 
d="M135 797c-18 0 -30 -11 -34 -50h-16c0 63 19 102 60 102c53 0 100 -50 127 -50c19 0 32 14 35 50h16c0 -64 -21 -102 -61 -102c-48 0 -99 50 -127 50zM501 677h21l-135 -677h-86l-52 231h-158l-52 -231h-21l143 628l-11 49h89l139 -623zM95 249h150l-74 334z" />
    <glyph glyph-name="h_b" horiz-adv-x="717" 
d="M528 362c97 -10 153 -68 153 -168c0 -124 -63 -194 -174 -194h-164v350h-192v-350h-86v677h86v-309h192v309h155c103 0 156 -53 156 -157c0 -80 -40 -141 -126 -158zM475 659h-46v-291h42c59 0 95 56 95 154c0 86 -26 137 -91 137zM486 18c66 0 103 65 103 171
c0 101 -40 161 -113 161h-47v-332h57z" />
    <glyph glyph-name="h_d" horiz-adv-x="770" 
d="M477 677c175 0 252 -112 252 -335c0 -218 -79 -342 -254 -342h-132v342h-192v-342h-86v677h86v-317h192v317h134zM470 18c117 0 165 123 165 318c0 218 -55 323 -164 323h-42v-641h41z" />
    <glyph glyph-name="h_dcaron" horiz-adv-x="770" 
d="M528 725h-65l-98 122l14 14l116 -91l117 90l14 -13zM477 677c175 0 252 -112 252 -335c0 -218 -79 -342 -254 -342h-132v342h-192v-342h-86v677h86v-317h192v317h134zM470 18c117 0 165 123 165 318c0 218 -55 323 -164 323h-42v-641h41z" />
    <glyph glyph-name="h_e" horiz-adv-x="655" 
d="M429 18h214v-18h-300v335h-192v-335h-86v677h86v-324h192v324h280v-18h-194v-306h157v-18h-157v-317z" />
    <glyph glyph-name="h_eacute" horiz-adv-x="655" 
d="M607 784c-59 -30 -120 -48 -180 -56l-6 16c50 27 99 58 143 114zM429 18h214v-18h-300v335h-192v-335h-86v677h86v-324h192v324h280v-18h-194v-306h157v-18h-157v-317z" />
    </font>
</defs>
</svg>
