<?xml version="1.0" standalone="no"?>
<!DOCTYPE svg PUBLIC "-//W3C//DTD SVG 1.1//EN" "http://www.w3.org/Graphics/SVG/1.1/DTD/svg11.dtd">
<svg xmlns="http://www.w3.org/2000/svg">
<defs >
<font id="Dosis" horiz-adv-x="435" ><font-face
    font-family="Dosis SemiBold"
    units-per-em="1000"
    panose-1="0 0 0 0 0 0 0 0 0 0"
    ascent="1027"
    descent="-237"
    alphabetic="0" />
<glyph unicode=" " horiz-adv-x="200" />
<glyph unicode="!" horiz-adv-x="214" d="M107 188Q91 188 79 196T66 220Q66 293 63 374T57 536T54 690Q54 713 69 725T107 738Q129 738 144 726T160 690Q160 618 157 537T151 374T148 220Q148 204 134 196T107 188ZM108 -6Q82 -6 65 12T48 54Q48 79 65 96T108
114Q132 114 149 97T167 54Q167 30 150 12T108 -6Z" />
<glyph unicode="&quot;" horiz-adv-x="290" d="M216 568Q199 568 192 577T185 598L175 739Q175 753 188 760T216 768Q232 768 245 761T259 739L249 598Q249 587 241 578T216 568ZM73 568Q56 568 49 577T41 598L31 739Q31 753 44 760T73 768Q88 768 101 761T115
739L105 598Q105 587 98 578T73 568Z" />
<glyph unicode="#" horiz-adv-x="646" d="M167 31Q150 31 133 41T116 72L142 232H58Q42 232 34 243T26 271Q26 288 34 300T56 312H158L181 449H96Q80 449 72 460T64 488Q64 505 72 516T94 528H196L224 690Q226 701 239 707T267 713Q286 713 301 703T316 671L291
528H408L435 690Q437 701 450 707T478 713Q497 713 512 703T527 671L503 528H588Q600 528 610 517T621 489Q621 472 612 461T590 449H489L465 312H550Q562 312 573 301T584 272Q584 255 574 244T552 232H450L420 57Q418 46 405 39T378 31Q367 31 355 36T335 50T326
72L353 232H238L209 58Q206 46 193 39T167 31ZM253 312H369L392 449H277L253 312Z" />
<glyph unicode="$" horiz-adv-x="517" d="M270 -52Q258 -52 249 -45T240 -29V2Q179 3 132 22T59 68T32 120Q32 132 38 145T56 167T79 177Q91 177 103 167T133 142T176 115T240 99V334Q207 346 174 360T112 395T67 449T50 530Q50 578 66 611T109 666T171 700T240
716V745Q240 755 249 761T270 768Q281 768 290 762T300 745V718Q325 717 353 713T407 700T448 678T464 646Q464 636 459 623T445 600T420 589Q408 589 394 597T357 614T300 626V423Q332 411 364 395T423 356T466 298T482 211Q482 119 432 68T300 5V-29Q300 -38
291 -45T270 -52ZM294 101Q335 109 358 133T382 200Q382 232 370 252T338 287T294 312V101ZM246 442V624Q219 621 197 611T163 584T150 540Q150 512 163 494T198 464T246 442Z" />
<glyph unicode="%" horiz-adv-x="779" d="M210 -35Q193 -35 182 -24T171 2Q171 10 175 17L543 752Q551 770 572 770Q587 770 600 760T614 732Q614 723 611 716L244 -16Q240 -25 231 -30T210 -35ZM168 337Q111 337 72 365T33 460V608Q33 675 72 703T168 731Q207
731 237 719T286 680T304 608V460Q304 415 286 388T238 349T168 337ZM169 401Q198 401 215 415T232 460V608Q232 638 215 652T169 667Q139 667 123 653T106 608V460Q106 430 122 416T169 401ZM611 -3Q553 -3 514 25T475 120V268Q475 335 514 363T611 391Q649 391
679 379T728 340T746 268V120Q746 75 728 48T680 9T611 -3ZM611 61Q640 61 657 75T674 120V268Q674 298 657 312T611 327Q582 327 566 313T549 268V120Q549 90 565 76T611 61Z" />
<glyph unicode="&amp;" horiz-adv-x="630" d="M270 -10Q195 -10 141 20T57 99T28 207Q28 255 46 294T94 362T156 409Q127 443 105 481T83 571Q83 628 109 667T181 727T281 748Q339 748 380 729T443 685T465 639Q465 620 450 605T415 590Q401 590 391 601T367 626T335
651T283 662Q239 662 212 637T184 566Q184 534 200 505T239 451T284 401L460 211Q478 254 481 295T487 364Q488 381 497 389T534 398Q561 398 570 385T579 347Q579 324 574 290T558 218T525 144L610 54Q614 49 615 44T617 35Q617 19 602 6T569 -8Q562 -8 556 -5T542
5L473 77Q437 39 388 15T270 -10ZM283 83Q328 83 359 99T410 142L216 346Q197 334 179 316T148 274T135 216Q135 180 152 150T202 101T283 83Z" />
<glyph unicode="&apos;" horiz-adv-x="147" d="M73 568Q56 568 49 577T41 598L31 739Q31 753 44 760T73 768Q88 768 101 761T115 739L105 598Q105 587 98 578T73 568Z" />
<glyph unicode="(" horiz-adv-x="325" d="M254 -20Q216 -20 180 -10T116 23T70 80T53 160V574Q53 616 70 651T116 713T181 754T256 768Q286 768 297 755T308 722Q308 701 299 688T274 675Q237 675 212 660T173 622T159 574V160Q159 125 177 106T222 80T274 73Q295
73 301 58T308 26Q308 6 298 -7T254 -20Z" />
<glyph unicode=")" horiz-adv-x="325" d="M71 -20Q38 -20 28 -7T17 26Q17 43 23 58T51 73Q77 73 103 80T147 106T166 160V574Q166 599 153 622T114 660T51 675Q36 675 27 688T17 722Q17 741 28 754T68 768Q107 768 143 754T208 714T254 652T272 574V160Q272 114
255 80T209 24T145 -9T71 -20Z" />
<glyph unicode="*" horiz-adv-x="460" d="M133 347Q125 347 115 351T96 364T88 385Q88 398 97 408L170 509L53 543Q41 546 35 556T29 579Q29 594 40 607T69 620Q70 620 73 620T79 618L196 578L191 696Q192 714 203 722T230 731Q245 731 256 723T269 696L264 576L381
618Q387 620 393 620Q409 620 419 606T430 575Q430 564 424 555T405 543L290 513L367 407Q372 400 372 386Q372 369 359 358T329 347Q323 347 315 349T301 361L230 467L158 360Q153 352 147 350T133 347Z" />
<glyph unicode="+" horiz-adv-x="443" d="M222 90Q204 90 191 99T177 124V240H61Q46 240 37 252T27 284Q27 303 36 316T61 329H177V444Q177 457 190 468T222 479Q242 479 254 468T266 444V329H381Q395 329 406 316T417 284Q417 265 406 253T381 240H266V124Q266
109 254 100T222 90Z" />
<glyph unicode="," horiz-adv-x="184" d="M78 -94Q66 -94 54 -87T42 -66Q42 -59 45 -53L67 0Q51 7 42 21T32 54Q32 79 49 96T91 114Q115 114 133 97T151 54Q151 51 150 45T144 26T129 -12T102 -79Q99 -87 92 -90T78 -94Z" />
<glyph unicode="-" horiz-adv-x="407" d="M73 196Q58 196 49 208T39 240Q39 259 48 272T73 285H333Q347 285 358 272T369 240Q369 221 358 209T333 196H73Z" />
<glyph unicode="." horiz-adv-x="183" d="M92 -6Q66 -6 49 12T32 54Q32 79 49 96T92 114Q116 114 133 97T151 54Q151 30 134 12T92 -6Z" />
<glyph unicode="/" horiz-adv-x="481" d="M58 -35Q41 -35 30 -24T19 2Q19 10 23 17L391 752Q399 770 420 770Q435 770 448 760T462 732Q462 723 459 716L92 -16Q88 -25 79 -30T58 -35Z" />
<glyph unicode="0" horiz-adv-x="549" d="M274 -6Q211 -6 160 16T80 87T50 217V508Q50 589 79 638T160 709T274 731Q337 731 388 709T469 638T499 508V217Q499 136 470 87T389 16T274 -6ZM274 88Q330 88 361 119T393 217V508Q393 574 362 605T274 637Q218 637
187 606T156 508V217Q156 151 187 120T274 88ZM275 319Q256 319 244 331T232 362Q232 381 244 392T275 404Q294 404 305 393T317 362Q317 344 306 332T275 319Z" />
<glyph unicode="1" horiz-adv-x="267" d="M153 0Q133 0 117 9T100 35V591L65 547Q59 542 54 540T43 537Q27 537 17 550T7 580Q7 592 13 603T28 621L132 721Q137 726 143 729T159 732Q176 732 191 723T206 697V35Q206 18 190 9T153 0Z" />
<glyph unicode="2" horiz-adv-x="494" d="M76 0Q62 0 46 9T29 35V132Q29 173 52 207T113 273T193 333T272 393T333 457T357 529Q357 554 346 578T310 618T248 634Q206 634 177 610T147 535Q147 520 133 508T92 495Q70 495 57 507T44 554Q44 608 72 647T147 709T248
731Q306 731 355 706T433 637T463 532Q463 479 440 436T379 358T301 294T223 239T163 187T139 132V94H432Q446 94 456 81T467 48Q467 29 457 15T432 0H76Z" />
<glyph unicode="3" horiz-adv-x="509" d="M244 -6Q186 -6 144 10T75 52T36 109T23 170Q23 197 34 206T73 215Q105 215 116 206T127 175Q127 159 134 144T156 116T192 96T245 88Q307 88 336 117T366 212V231Q366 291 333 315T245 340Q226 340 218 353T210 382Q210
399 218 412T244 425Q275 425 298 433T335 466T348 535Q348 590 323 614T248 638Q218 638 198 631T166 612T149 586T144 556Q144 537 134 525T94 513Q71 513 59 517T43 532T39 562Q39 586 49 615T82 671T147 714T249 731Q308 731 353 714T424 658T450 553Q450 490
429 447T370 386Q414 369 443 332T472 231V212Q472 133 442 85T359 16T244 -6Z" />
<glyph unicode="4" horiz-adv-x="480" d="M337 0Q317 0 301 9T284 35V164H39Q22 164 12 174T2 203Q2 208 3 214T8 225L249 702Q258 718 270 724T296 731Q306 731 318 726T339 712T348 690Q348 684 344 674L137 263H284V401Q284 420 300 428T337 436Q357 436 373
428T390 401V263H440Q458 263 466 248T475 213Q475 195 465 180T440 164H390V35Q390 18 374 9T337 0Z" />
<glyph unicode="5" horiz-adv-x="495" d="M246 -6Q174 -6 124 19T47 84T21 171Q21 200 35 210T73 220Q106 220 116 208T127 178Q127 150 142 130T185 99T244 88Q300 88 332 118T364 214V233Q364 297 332 328T245 359H101Q74 359 65 370T55 400Q55 407 55 412T57
424L80 696Q82 712 87 721T104 731H401Q418 731 426 717T434 684Q434 666 426 652T401 637H170L156 443H245Q309 443 359 423T440 357T470 233V214Q470 134 440 86T359 16T246 -6Z" />
<glyph unicode="6" horiz-adv-x="538" d="M275 -6Q212 -6 161 16T80 87T50 217V508Q50 589 80 638T163 709T280 731Q336 731 377 716T446 674T486 616T499 553Q499 527 487 518T449 508Q428 508 411 516T394 548Q394 576 378 595T336 626T277 637Q220 637 188
606T156 508V382Q181 413 217 426T295 439Q352 439 398 421T471 358T499 235V217Q499 136 470 87T389 16T275 -6ZM275 82Q331 82 362 113T393 211V228Q393 297 362 325T274 354Q221 354 189 328T156 237V211Q156 144 187 113T275 82Z" />
<glyph unicode="7" horiz-adv-x="483" d="M150 -3Q134 -3 119 3T94 22T84 49Q84 58 89 69L364 575V637H127V543Q127 528 111 518T73 508Q52 508 37 518T21 543V696Q21 709 35 720T68 731H423Q439 731 454 720T470 696V593Q470 581 464 565T451 534L182 13Q173 -3 150 -3Z" />
<glyph unicode="8" horiz-adv-x="522" d="M261 -6Q198 -6 147 14T66 80T36 200V212Q36 289 68 334T152 399Q110 415 85 453T59 555Q59 619 85 658T157 714T261 731Q320 731 365 714T437 658T464 555Q464 491 438 453T371 399Q423 380 454 335T485 212V200Q485
126 456 81T375 15T261 -6ZM262 82Q318 82 349 114T380 211V229Q380 293 349 323T261 354Q206 354 174 324T142 229V211Q142 144 174 113T262 82ZM261 442Q309 442 335 465T362 543Q362 596 336 619T261 643Q214 643 188 620T161 543Q161 489 187 466T261 442Z"
/>
<glyph unicode="9" horiz-adv-x="538" d="M259 -6Q203 -6 162 9T93 51T53 109T39 172Q39 198 51 207T89 217Q110 217 127 209T144 177Q144 149 160 130T202 99T261 88Q318 88 350 119T383 217V343Q358 312 322 299T243 286Q187 286 141 304T67 367T39 490V508Q39
589 69 638T149 709T263 731Q327 731 378 709T459 638T489 508V217Q489 136 458 87T375 16T259 -6ZM264 371Q318 371 350 398T383 488V514Q383 581 351 612T263 643Q208 643 177 612T145 514V497Q145 428 176 400T264 371Z" />
<glyph unicode=":" horiz-adv-x="212" d="M106 302Q80 302 63 320T46 362Q46 387 63 404T106 422Q130 422 147 405T165 362Q165 338 148 320T106 302ZM106 -6Q80 -6 63 12T46 54Q46 79 63 96T106 114Q130 114 147 97T165 54Q165 30 148 12T106 -6Z" />
<glyph unicode=";" horiz-adv-x="212" d="M90 -94Q78 -94 66 -87T54 -66Q54 -59 57 -53L79 0Q64 7 55 21T45 54Q45 79 62 96T104 114Q128 114 145 97T163 54Q163 51 162 45T157 26T142 -12T114 -79Q111 -87 104 -90T90 -94ZM108 302Q83 302 66 320T49 362Q49 387
66 404T108 422Q132 422 149 405T167 362Q167 338 150 320T108 302Z" />
<glyph unicode="&lt;" horiz-adv-x="414" d="M323 61Q314 61 309 65L46 237Q34 244 29 255T24 277Q24 287 29 298T46 318L309 490Q314 494 323 494Q340 494 355 480T371 444Q371 424 357 415L147 277L357 139Q371 131 371 110Q371 89 356 75T323 61Z" />
<glyph unicode="=" horiz-adv-x="441" d="M92 339Q77 339 68 351T58 383Q58 402 67 414T92 427H348Q362 427 373 415T384 383Q384 363 373 351T348 339H92ZM92 136Q77 136 68 148T58 180Q58 199 67 211T92 224H348Q362 224 373 212T384 180Q384 160 373 148T348 136H92Z" />
<glyph unicode="&gt;" horiz-adv-x="414" d="M90 61Q74 61 59 75T43 110Q43 131 57 139L267 277L57 415Q43 424 43 444Q43 466 58 480T90 494Q100 494 105 490L368 318Q379 310 384 299T390 277Q390 267 385 256T368 237L105 65Q100 61 90 61Z" />
<glyph unicode="?" horiz-adv-x="424" d="M185 188Q164 188 155 197T146 234Q146 284 153 315T174 366T200 398Q214 412 232 427T267 460T295 501T307 556Q307 604 276 630T191 657Q156 657 137 648T106 627T86 605T63 595Q50 595 36 605T22 636Q22 657 42 681T102
721T195 738Q258 738 302 716T371 654T395 566Q395 524 380 492T345 434T304 390T270 359Q249 340 240 320T229 275T227 219Q227 207 218 198T185 188ZM186 -6Q160 -6 143 12T126 54Q126 79 143 96T186 114Q210 114 227 97T245 54Q245 30 228 12T186 -6Z" />
<glyph unicode="@" horiz-adv-x="734" d="M334 -121Q278 -121 227 -101T134 -40T70 64T46 212Q46 310 81 390T189 518T378 565Q481 565 553 527T662 415T700 237Q700 180 686 130T642 50T563 19Q522 19 495 39T460 89Q436 60 408 43T337 26Q305 26 276 37T229
74T211 139Q211 186 236 211T307 247T410 258H447V275Q447 313 426 331T359 350Q328 350 310 344T282 331T262 324Q254 324 248 331T239 348T235 365Q235 382 255 395T307 416T371 424Q415 424 449 409T504 366T525 293V125Q529 100 541 88T569 76Q589 76 601 91T619
129T628 177T630 223Q630 355 569 428T377 501Q302 501 252 478T172 414T130 322T117 213Q117 160 128 112T165 25T236 -35T346 -57Q388 -57 414 -50T456 -37T483 -30Q496 -30 503 -41T510 -61Q510 -75 493 -86T449 -105T391 -117T334 -121ZM354 86Q381 86 402
98T437 129T450 167V208H420Q383 208 356 202T313 182T297 140Q297 112 313 99T354 86Z" />
<glyph unicode="A" horiz-adv-x="561" d="M79 0Q65 0 49 6T23 21T13 44Q13 47 14 53L213 701Q219 719 238 728T280 737Q303 737 322 728T348 701L546 53Q548 47 548 44Q548 32 538 22T512 6T481 0Q468 0 459 5T445 22L404 164H156L116 22Q113 10 103 5T79 0ZM180
249H380L280 592L180 249Z" />
<glyph unicode="B" horiz-adv-x="553" d="M113 0Q92 0 79 10T66 34V696Q66 713 81 722T113 731H295Q349 731 395 717T469 666T497 558Q497 495 475 454T412 396Q443 384 466 365T502 313T515 229V210Q515 133 489 87T418 21T316 0H113ZM171 94H296Q350 94 379
123T409 218V234Q409 300 380 327T296 354H171V94ZM171 438H291Q342 438 366 464T391 541Q391 575 379 596T343 627T289 637H171V438Z" />
<glyph unicode="C" horiz-adv-x="541" d="M280 -6Q220 -6 170 16T89 87T59 217V508Q59 589 89 638T170 709T281 731Q350 731 400 708T479 644T508 550Q508 516 495 506T455 495Q431 495 417 503T402 530Q401 543 397 561T382 596T347 625T284 637Q226 637 195
606T164 508V217Q164 151 195 120T287 88Q325 88 347 99T381 128T396 165T402 201Q403 220 417 228T454 236Q482 236 495 225T508 181Q508 127 480 85T400 18T280 -6Z" />
<glyph unicode="D" horiz-adv-x="573" d="M113 0Q92 0 79 10T66 34V697Q66 711 79 721T113 731H290Q353 731 404 709T485 638T515 508V223Q515 142 486 93T405 22T290 0H113ZM172 94H290Q346 94 377 125T409 223V508Q409 574 378 605T290 637H172V94Z" />
<glyph unicode="E" horiz-adv-x="522" d="M113 0Q96 0 81 9T66 35V696Q66 713 81 722T113 731H469Q488 731 496 716T504 685Q504 666 495 652T469 637H172V408H326Q343 408 352 395T361 365Q361 351 353 338T326 324H172V94H469Q486 94 495 80T504 46Q504 30 496
15T469 0H113Z" />
<glyph unicode="F" horiz-adv-x="504" d="M119 0Q99 0 83 8T66 35V696Q66 713 81 722T113 731H464Q482 731 490 716T498 685Q498 666 490 652T464 637H172V408H327Q344 408 352 395T361 365Q361 351 353 338T327 324H172V35Q172 17 156 9T119 0Z" />
<glyph unicode="G" horiz-adv-x="555" d="M283 -6Q219 -6 169 16T89 87T59 217V508Q59 589 88 638T168 709T280 731Q348 731 399 708T479 644T508 546Q508 516 495 506T455 495Q434 495 419 502T402 530Q399 559 388 583T352 622T283 637Q227 637 196 606T164
508V217Q164 151 195 120T283 88Q338 88 370 119T402 217V299H301Q285 299 276 312T267 342Q267 357 276 370T301 384H473Q490 384 499 374T508 348V217Q508 136 478 87T397 16T283 -6Z" />
<glyph unicode="H" horiz-adv-x="593" d="M119 0Q99 0 83 9T66 35V697Q66 715 82 723T119 731Q139 731 155 723T172 697V421H421V697Q421 715 437 723T474 731Q494 731 510 723T527 697V35Q527 18 511 9T474 0Q454 0 438 9T421 35V337H172V35Q172 18 156 9T119 0Z" />
<glyph unicode="I" horiz-adv-x="238" d="M119 0Q99 0 83 9T66 35V697Q66 715 82 723T119 731Q139 731 155 723T172 697V35Q172 18 156 9T119 0Z" />
<glyph unicode="J" horiz-adv-x="526" d="M242 -6Q176 -6 124 17T43 84T14 185Q14 215 27 225T67 236Q88 236 103 229T120 201Q121 172 133 146T171 104T238 88Q295 88 326 119T358 217V637H241Q224 637 215 651T206 685Q206 701 214 716T241 731H416Q435 731
449 722T464 696V217Q464 136 434 87T354 16T242 -6Z" />
<glyph unicode="K" horiz-adv-x="542" d="M119 0Q99 0 83 9T66 35V697Q66 715 82 723T119 731Q139 731 155 723T172 697V393L416 716Q427 731 446 731Q459 731 473 723T497 703T507 676Q507 672 505 666T499 655L307 415L535 68Q541 59 541 49Q541 36 532 24T509
5T479 -3Q468 -3 458 1T441 17L237 326L172 244V35Q172 18 156 9T119 0Z" />
<glyph unicode="L" horiz-adv-x="475" d="M113 0Q96 0 81 9T66 35V697Q66 715 82 723T119 731Q139 731 155 723T172 697V94H432Q448 94 456 80T464 47Q464 30 456 15T432 0H113Z" />
<glyph unicode="M" horiz-adv-x="687" d="M119 0Q99 0 83 9T66 35V678Q66 708 82 719T119 731Q138 731 152 726T178 707T203 671L343 406L485 671Q498 694 509 707T535 725T568 731Q589 731 605 720T621 678V35Q621 18 605 9T568 0Q548 0 532 9T515 35V515L381
267Q373 254 363 249T342 243Q333 243 323 248T306 267L172 521V35Q172 18 156 9T119 0Z" />
<glyph unicode="N" horiz-adv-x="593" d="M119 0Q99 0 83 9T66 35V696Q66 715 82 723T119 731Q138 731 151 726T176 707T199 671L421 238V697Q421 715 437 723T474 731Q494 731 510 723T527 697V35Q527 18 511 9T474 0Q454 0 438 10T411 39L172 494V35Q172 18
156 9T119 0Z" />
<glyph unicode="O" horiz-adv-x="566" d="M283 -6Q219 -6 169 16T89 87T59 217V508Q59 589 88 638T168 709T283 731Q346 731 397 709T478 638T508 508V217Q508 136 478 87T397 16T283 -6ZM283 88Q338 88 370 119T402 217V508Q402 574 371 605T283 637Q227 637
196 606T164 508V217Q164 151 195 120T283 88Z" />
<glyph unicode="P" horiz-adv-x="546" d="M119 0Q99 0 83 9T66 35V697Q66 711 77 721T107 731H302Q363 731 413 710T492 640T521 511V503Q521 423 492 374T411 304T296 282H172V35Q172 18 156 9T119 0ZM172 366H296Q352 366 383 398T415 496V508Q415 574 384 605T296
637H172V366Z" />
<glyph unicode="Q" horiz-adv-x="566" d="M283 -109Q270 -109 259 -100T248 -74V-4Q193 1 150 25T83 96T59 217V508Q59 590 88 638T168 709T283 731Q346 731 397 709T478 639T508 508V217Q508 144 484 97T416 25T319 -4V-74Q319 -91 308 -100T283 -109ZM248 94V155Q248
173 259 181T283 189Q296 189 307 181T319 155V95Q358 103 380 133T402 217V508Q402 574 370 605T283 637Q227 637 196 606T164 508V217Q164 163 186 133T248 94Z" />
<glyph unicode="R" horiz-adv-x="553" d="M460 -3Q447 -3 437 6T419 28L272 314H172V35Q172 18 156 9T119 0Q99 0 83 9T66 35V697Q66 711 75 721T102 731H292Q355 731 407 713T490 650T521 527Q521 467 503 427T453 364T381 329L521 66Q523 63 524 59T525 51Q525
38 515 26T491 5T460 -3ZM172 399H292Q348 399 381 426T415 518Q415 583 382 610T292 637H172V399Z" />
<glyph unicode="S" horiz-adv-x="511" d="M250 -8Q185 -8 135 11T57 57T29 110Q29 122 35 135T52 157T75 167Q89 167 101 156T132 128T177 100T246 88Q282 88 310 99T355 134T372 194Q372 232 355 257T308 299T244 330T175 360T111 398T65 455T47 542Q47 597 67
634T122 693T197 724T278 734Q303 734 333 731T393 719T441 696T460 662Q460 652 455 639T441 615T416 605Q403 605 387 614T346 633T278 643Q242 643 214 633T169 604T153 552Q153 520 170 500T217 465T280 437T349 407T413 364T460 301T478 205Q478 133 449 86T368
15T250 -8Z" />
<glyph unicode="T" horiz-adv-x="506" d="M253 0Q233 0 217 9T200 35V634H45Q29 634 20 649T11 683Q11 701 19 716T45 731H460Q479 731 487 716T495 684Q495 664 487 649T460 634H306V35Q306 18 290 9T253 0Z" />
<glyph unicode="U" horiz-adv-x="582" d="M291 -6Q227 -6 175 16T93 87T63 217V697Q63 715 79 723T116 731Q135 731 152 723T169 697V217Q169 151 201 120T291 88Q348 88 381 119T414 217V697Q414 715 430 723T467 731Q486 731 503 723T520 697V217Q520 136 490
87T407 16T291 -6Z" />
<glyph unicode="V" horiz-adv-x="560" d="M280 -6Q258 -6 239 3T213 30L14 678Q12 684 12 687Q12 700 22 709T48 725T78 731Q92 731 102 726T115 709L280 139L444 709Q448 721 458 726T481 731Q496 731 511 725T536 710T547 687Q547 685 547 683T546 678L348 30Q342
12 323 3T280 -6Z" />
<glyph unicode="W" horiz-adv-x="845" d="M280 -6Q258 -6 238 3T212 30L14 678Q13 683 13 688Q13 701 23 710T48 725T79 731Q92 731 102 726T116 709L279 139L370 497Q374 513 389 520T422 528Q441 528 456 521T475 497L566 139L729 709Q733 721 743 726T766 731Q781
731 796 726T821 711T832 688Q832 683 830 678L633 30Q627 12 608 3T565 -6Q543 -6 523 3T499 30L422 332L347 30Q342 12 323 3T280 -6Z" />
<glyph unicode="X" horiz-adv-x="530" d="M84 -3Q70 -3 54 4T27 23T16 49Q16 59 23 70L195 366L28 660Q20 674 20 686Q20 700 30 711T55 728T86 734Q101 734 110 726T126 704L265 448L404 704Q411 717 421 725T444 734Q459 734 474 728T500 711T511 686Q511 674
503 660L335 366L508 70Q514 59 514 49Q514 35 503 23T477 4T446 -3Q435 -3 426 4T412 21L265 287L118 21Q113 12 105 5T84 -3Z" />
<glyph unicode="Y" horiz-adv-x="556" d="M278 0Q258 0 242 9T225 35V288Q225 294 222 299L15 672Q13 677 13 680T12 687Q12 700 23 709T49 725T79 731Q92 731 99 725T113 707L278 390L442 707Q449 719 456 725T477 731Q491 731 506 725T533 710T544 687Q544 684
544 681T540 672L334 299Q331 294 331 288V35Q331 18 315 9T278 0Z" />
<glyph unicode="Z" horiz-adv-x="506" d="M50 0Q33 0 25 9T17 31Q17 49 28 68L338 637H67Q51 637 42 651T32 684Q32 701 40 716T67 731H440Q457 731 465 723T474 701Q474 684 462 662L152 94H455Q472 94 481 79T490 47Q490 30 481 15T455 0H50Z" />
<glyph unicode="[" horiz-adv-x="326" d="M107 -21Q90 -21 75 -12T60 14V733Q60 750 75 759T107 768H275Q292 768 300 754T309 722Q309 703 300 689T275 674H166V73H275Q291 73 300 59T309 25Q309 8 301 -6T275 -21H107Z" />
<glyph unicode="\" horiz-adv-x="364" d="M302 -1Q291 -1 282 5T269 23L24 705Q22 711 22 717Q22 732 34 743T63 755Q74 755 83 750T96 733L341 48Q342 45 342 43T342 37Q342 23 331 11T302 -1Z" />
<glyph unicode="]" horiz-adv-x="326" d="M51 -21Q33 -21 25 -7T17 25Q17 45 26 59T51 73H160V674H51Q35 674 26 688T17 722Q17 739 25 753T51 768H219Q237 768 251 759T266 733V14Q266 -3 252 -12T219 -21H51Z" />
<glyph unicode="^" horiz-adv-x="279" d="M26 582Q15 582 8 592T0 617Q0 626 4 634T18 648L122 704Q131 709 139 709Q147 709 156 704L260 649Q271 644 275 635T279 616Q279 603 272 593T253 582Q251 582 249 583T243 585L139 641L35 585Q33 584 31 583T26 582Z" />
<glyph unicode="_" horiz-adv-x="322" d="M1 -89Q-14 -89 -23 -77T-33 -45Q-33 -26 -24 -13T1 0H321Q335 0 346 -13T357 -45Q357 -64 346 -76T321 -89H1Z" />
<glyph unicode="`" horiz-adv-x="184" d="M150 577Q146 577 143 578T137 580L16 641Q0 649 0 668Q0 682 9 695T34 709Q39 709 45 707L169 644Q184 636 184 618Q184 604 175 591T150 577Z" />
<glyph unicode="a" horiz-adv-x="459" d="M158 -8Q103 -8 64 24T25 124Q25 181 55 212T137 255T259 267H303V285Q303 311 294 335T263 376T204 393Q167 393 147 386T115 371T93 363Q75 363 65 380T55 416Q55 434 78 448T137 471T206 480Q280 480 324 453T388 381T408
286V35Q408 21 394 11T357 0Q337 0 323 10T309 35V70Q283 40 246 16T158 -8ZM196 72Q221 72 245 87T286 125T303 172V209H278Q240 209 206 205T152 185T131 137Q131 103 149 88T196 72Z" />
<glyph unicode="b" horiz-adv-x="506" d="M293 -8Q246 -8 209 15T155 70V35Q155 22 141 11T107 0Q85 0 71 11T56 35V722Q56 737 70 746T107 756Q130 756 145 747T161 722V404Q177 433 210 456T290 480Q339 480 379 454T444 383T469 283V191Q469 139 445 94T380
20T293 -8ZM263 85Q290 85 313 100T350 140T364 191V283Q364 309 350 333T313 372T262 387Q237 387 214 375T176 339T161 283V168Q161 156 174 137T211 101T263 85Z" />
<glyph unicode="c" horiz-adv-x="425" d="M247 -8Q175 -8 129 18T60 89T38 191V281Q38 337 60 382T128 454T245 480Q291 480 325 469T379 442T399 407Q399 398 394 386T379 365T356 356Q346 356 335 364T304 379T253 387Q197 387 170 359T143 281V191Q143 141
170 113T254 85Q287 85 306 93T336 110T359 118Q373 118 383 110T399 90T405 68Q405 51 385 33T329 4T247 -8Z" />
<glyph unicode="d" horiz-adv-x="506" d="M213 -8Q166 -8 126 20T62 93T37 191V283Q37 338 61 382T126 453T215 480Q263 480 296 457T345 404V722Q345 737 361 746T399 756Q421 756 435 747T450 722V35Q450 22 436 11T399 0Q380 0 366 11T351 35V70Q336 39 298
16T213 -8ZM243 85Q272 85 295 101T331 136T345 168V283Q345 316 330 339T292 374T244 387Q216 387 193 372T156 333T142 283V191Q142 165 155 140T192 100T243 85Z" />
<glyph unicode="e" horiz-adv-x="475" d="M269 -8Q201 -8 149 17T67 86T37 191V286Q37 339 65 383T141 453T245 480Q299 480 344 457T416 391T444 295Q444 253 431 235T397 213T353 209H142V186Q142 136 178 107T272 77Q307 77 329 87T366 106T394 115Q407 115
416 107T430 88T435 68Q435 53 415 35T357 5T269 -8ZM142 274H308Q330 274 337 280T345 304Q345 330 332 352T296 387T244 400Q216 400 193 388T156 355T142 306V274Z" />
<glyph unicode="f" horiz-adv-x="327" d="M107 0Q85 0 71 9T56 34V565Q56 619 80 662T144 731T232 756H279Q299 756 309 742T320 711Q320 693 310 680T279 666H252Q226 666 206 654T173 622T161 575V474H290Q305 474 312 462T320 435Q320 420 313 408T290 396H161V34Q161
19 145 10T107 0Z" />
<glyph unicode="g" horiz-adv-x="465" d="M234 -225Q176 -225 127 -209T49 -161T20 -87Q20 -47 43 -21T97 20Q77 29 64 44T51 86Q51 114 65 131T101 162Q73 184 58 216T42 288V316Q42 364 65 401T130 459T228 480Q262 480 291 471T344 446Q360 483 376 498T408
513Q429 513 440 501T451 477Q451 469 447 463T434 452Q424 447 411 439T384 412Q401 393 409 368T417 316V288Q417 241 393 203T326 144T228 122Q189 122 159 134Q151 129 146 123T140 106Q140 88 162 80T218 68T292 58T365 39T422 -1T444 -74Q444 -126 415 -159T339
-209T234 -225ZM232 -155Q281 -155 311 -134T342 -77Q342 -52 327 -38T288 -17T238 -7T187 -1Q159 -11 140 -29T120 -76Q120 -113 151 -134T232 -155ZM230 189Q270 189 292 217T315 288V316Q315 357 293 385T229 413Q188 413 166 385T144 316V289Q144 247 166 218T230
189Z" />
<glyph unicode="h" horiz-adv-x="513" d="M108 0Q85 0 71 11T56 35V722Q56 737 70 746T108 756Q130 756 145 747T161 722V404Q176 433 208 456T289 480Q336 480 375 454T439 383T463 283V35Q463 18 447 9T410 0Q392 0 375 9T358 35V283Q358 309 344 333T308 372T257
387Q233 387 211 375T175 339T161 283V35Q161 22 146 11T108 0Z" />
<glyph unicode="i" horiz-adv-x="214" d="M107 593Q82 593 64 610T46 648Q46 671 64 687T107 703Q132 703 149 687T167 648Q167 627 150 610T107 593ZM107 0Q84 0 70 11T55 35V440Q55 455 69 464T107 474Q129 474 144 465T160 440V35Q160 22 145 11T107 0Z" />
<glyph unicode="j" horiz-adv-x="215" d="M16 -225Q-15 -225 -26 -211T-38 -181Q-38 -160 -26 -148T3 -135Q26 -135 37 -123T52 -88T55 -36V440Q55 455 69 464T106 474Q129 474 144 465T160 440V-36Q160 -91 145 -134T97 -201T16 -225ZM107 593Q82 593 64 610T46
648Q46 671 64 687T107 703Q132 703 149 687T167 648Q167 627 150 610T107 593Z" />
<glyph unicode="k" horiz-adv-x="479" d="M107 0Q85 0 71 11T56 35V722Q56 737 70 746T107 756Q130 756 145 747T161 722V277L370 469Q379 478 392 478Q404 478 415 471T435 452T443 428Q443 422 441 417T434 406L305 291L462 65Q468 55 468 47Q468 34 459 22T436
2T409 -6Q391 -6 381 9L234 226L161 160V35Q161 22 146 11T107 0Z" />
<glyph unicode="l" horiz-adv-x="232" d="M116 0Q93 0 79 11T64 35V722Q64 737 78 746T116 756Q138 756 153 747T169 722V35Q169 22 154 11T116 0Z" />
<glyph unicode="m" horiz-adv-x="794" d="M107 0Q84 0 70 11T55 35V440Q55 455 69 464T107 474Q126 474 140 465T154 440V404Q171 433 204 456T287 480Q332 480 366 452T418 380Q444 431 485 455T569 480Q614 480 653 457T718 390T743 283V35Q743 22 728 11T690
0Q669 0 654 11T638 35V283Q638 317 625 340T590 376T545 388Q521 388 500 376T465 341T451 285V34Q451 16 435 8T398 0Q380 0 363 8T346 34V284Q346 316 333 339T299 374T253 387Q230 387 209 375T174 340T160 283V35Q160 22 145 11T107 0Z" />
<glyph unicode="n" horiz-adv-x="512" d="M107 0Q84 0 70 11T55 35V440Q55 455 69 464T107 474Q126 474 140 465T154 440V404Q169 433 203 456T288 480Q335 480 374 454T438 383T462 283V35Q462 18 446 9T409 0Q391 0 374 9T357 35V283Q357 309 344 333T307 372T256
387Q232 387 210 375T174 339T160 283V35Q160 22 145 11T107 0Z" />
<glyph unicode="o" horiz-adv-x="486" d="M242 -8Q188 -8 141 20T66 93T37 191V283Q37 336 64 381T139 453T243 480Q299 480 346 454T421 383T450 283V191Q450 140 422 94T346 20T242 -8ZM243 85Q271 85 294 100T331 139T345 191V283Q345 309 331 333T294 372T243
387Q214 387 192 372T156 333T142 283V191Q142 164 155 140T192 100T243 85Z" />
<glyph unicode="p" horiz-adv-x="506" d="M107 -225Q85 -225 71 -214T56 -190V440Q56 455 70 464T106 474Q127 474 141 465T155 440V404Q172 433 206 456T289 480Q339 480 380 454T445 383T469 283V191Q469 139 445 94T380 20T293 -8Q248 -8 212 15T161 70V-190Q161
-203 146 -214T107 -225ZM262 85Q289 85 312 100T349 140T364 191V283Q364 309 350 333T313 372T260 387Q236 387 213 375T176 339T161 283V168Q161 156 174 137T210 101T262 85Z" />
<glyph unicode="q" horiz-adv-x="506" d="M399 -225Q377 -225 361 -214T345 -190V70Q331 39 295 16T213 -8Q166 -8 126 20T62 93T37 191V283Q37 338 61 382T126 453T217 480Q265 480 300 457T351 404V440Q351 455 365 464T400 474Q421 474 435 465T450 440V-190Q450
-203 436 -214T399 -225ZM244 85Q274 85 296 101T332 136T345 168V283Q345 316 331 339T293 374T246 387Q217 387 194 372T156 333T142 283V191Q142 165 156 140T194 100T244 85Z" />
<glyph unicode="r" horiz-adv-x="358" d="M106 0Q84 0 70 11T55 35V440Q55 455 69 464T106 474Q126 474 140 465T154 440V396Q165 417 183 436T227 467T281 480H313Q329 480 341 467T353 434Q353 415 341 401T313 387H281Q251 387 223 369T178 319T160 240V35Q160
22 145 11T106 0Z" />
<glyph unicode="s" horiz-adv-x="406" d="M200 -8Q151 -8 112 4T51 34T28 72Q28 81 32 92T45 111T64 119Q77 119 91 108T130 85T197 73Q247 73 264 90T282 127Q282 153 265 167T220 191T161 208T103 231T58 270T40 336Q40 370 57 403T111 458T212 480Q250 480
284 472T340 451T362 421Q362 414 357 402T344 380T322 370Q312 370 297 377T262 392T213 399Q184 399 167 390T141 367T133 341Q133 319 150 307T195 287T254 271T312 246T357 203T375 131Q375 68 330 30T200 -8Z" />
<glyph unicode="t" horiz-adv-x="326" d="M228 0Q143 0 98 37T53 156V657Q53 672 69 681T105 691Q124 691 141 682T158 657V474H280Q294 474 301 462T309 435Q309 420 302 408T280 396H158V156Q158 120 173 105T228 90H262Q285 90 296 77T308 45Q308 28 297 14T262
0H228Z" />
<glyph unicode="u" horiz-adv-x="513" d="M257 -8Q201 -8 154 19T78 92T50 189V439Q50 452 65 463T103 474Q124 474 139 463T155 439V189Q155 163 168 139T205 100T257 85Q285 85 308 100T344 139T358 189V440Q358 454 374 464T411 474Q434 474 448 464T463 440V189Q463
136 435 91T360 19T257 -8Z" />
<glyph unicode="v" horiz-adv-x="457" d="M229 -10Q212 -10 199 -5T181 11L13 416Q12 419 11 424T9 433Q9 446 20 456T47 472T77 478Q87 478 96 474T109 459L229 143L347 457Q351 467 359 472T379 478Q390 478 406 472T435 456T448 433Q448 428 447 424T444 416L277
11Q272 1 259 -4T229 -10Z" />
<glyph unicode="w" horiz-adv-x="682" d="M210 -10Q196 -10 185 -5T169 13L14 417Q12 422 11 426T9 434Q9 447 20 456T46 472T76 478Q87 478 96 474T108 459L219 148L304 424Q309 439 319 443T341 447Q354 447 364 443T379 424L462 146L574 459Q580 478 605 478Q619
478 634 473T661 457T672 433Q672 430 671 425T668 417L513 11Q509 -1 498 -5T472 -10Q456 -10 445 -5T429 10L341 268L255 13Q251 1 239 -4T210 -10Z" />
<glyph unicode="x" horiz-adv-x="446" d="M88 -8Q76 -8 61 -1T34 19T22 44Q22 54 28 63L152 241L35 409Q32 412 30 417T28 427Q28 440 39 452T67 472T96 480Q101 480 109 478T122 468L223 308L325 467Q330 475 337 477T352 480Q364 480 380 473T407 453T419 427Q419
419 412 409L294 240L418 63Q421 60 423 55T425 44Q425 33 414 21T388 0T358 -8Q351 -8 344 -6T332 4L223 169L115 4Q111 -2 103 -5T88 -8Z" />
<glyph unicode="y" horiz-adv-x="454" d="M57 -225Q37 -225 23 -217T9 -180Q9 -162 15 -149T37 -135Q56 -135 78 -126T122 -96T159 -44T181 29L12 417Q8 424 8 431Q8 444 19 455T47 474T77 481Q87 481 96 477T109 462L235 137L344 462Q347 472 356 476T374 481Q386
481 402 474T431 456T444 429Q444 421 441 417L291 26Q275 -17 258 -61T217 -143T154 -202T57 -225Z" />
<glyph unicode="z" horiz-adv-x="422" d="M59 0Q39 0 30 12T21 38Q21 50 26 61T39 80L253 387H63Q49 387 40 400T30 431Q30 449 39 461T63 474H353Q367 474 377 465T388 437Q388 415 372 394L157 87H370Q383 87 393 75T403 43Q403 26 394 13T370 0H59Z" />
<glyph unicode="{" horiz-adv-x="340" d="M266 -20Q215 -20 170 0T96 55T67 138Q67 148 68 167T73 210T78 257T82 297T84 320Q84 335 75 339T54 346T33 357T24 386Q24 406 33 414T54 424T75 431T84 449Q84 457 82 476T76 519T70 565T67 599Q67 632 83 662T128
716T193 754T267 768Q300 768 312 753T325 721Q325 706 316 692T291 677Q265 677 238 667T192 636T173 585Q173 575 175 555T181 510T187 466T190 438Q190 418 177 403T155 384Q165 381 177 366T190 331Q190 322 188 297T182 241T176 185T173 149Q173 125 185 110T217
87T256 75T291 71Q305 71 312 64T322 46T325 26Q325 3 310 -8T266 -20Z" />
<glyph unicode="|" horiz-adv-x="225" d="M112 -21Q90 -21 75 -10T60 14V734Q60 749 75 758T112 768Q134 768 149 759T165 734V14Q165 1 150 -10T112 -21Z" />
<glyph unicode="}" horiz-adv-x="340" d="M74 -20Q47 -20 31 -9T15 26Q15 35 18 45T28 63T50 71Q64 71 84 74T123 86T155 110T168 149Q168 159 165 185T159 241T153 296T150 331Q150 351 163 366T186 384Q176 387 163 402T150 438Q150 446 153 466T159 510T165
554T168 585Q168 615 150 635T104 666T50 677Q33 677 24 691T15 721Q15 738 27 753T73 768Q111 768 147 754T212 717T257 663T274 599Q274 587 271 565T265 520T259 477T256 449Q256 436 265 432T286 425T307 414T316 386Q316 365 307 357T286 347T265 340T256
320Q256 314 258 297T263 257T268 211T272 168T274 138Q274 91 245 56T171 0T74 -20Z" />
<glyph unicode="~" horiz-adv-x="406" d="M284 205Q253 205 232 213T191 228T145 236Q124 236 110 230T86 216T66 209Q56 209 50 216T41 231T38 245Q38 265 48 277T72 296T101 306T125 309Q154 309 174 302T216 286T263 278Q285 278 298 284T321 297T340 304Q351
304 357 297T365 282T368 269Q368 248 359 236T335 217T307 208T284 205Z" />
<glyph unicode="&#xa0;" horiz-adv-x="200" />
<glyph unicode="&#xa1;" horiz-adv-x="214" d="M106 -6Q85 -6 70 6T54 42Q54 115 57 196T63 359T66 512Q66 529 80 536T106 544Q123 544 135 537T148 512Q148 440 151 359T157 197T160 42Q160 19 145 7T106 -6ZM106 618Q82 618 65 636T47 678Q47 702 64 720T106
738Q131 738 148 720T166 678Q166 654 149 636T106 618Z" />
<glyph unicode="&#xa2;" horiz-adv-x="430" d="M235 39Q222 39 213 49T203 71V162Q114 172 73 227T31 359V378Q31 430 49 472T105 541T203 576V664Q203 678 212 686T235 695Q248 695 258 687T269 664V575Q304 572 332 562T377 537T394 505Q394 495 388 483T373
464T351 456Q342 456 333 462T309 476T269 486V252Q294 255 308 263T332 277T351 284Q372 284 384 268T397 235Q397 219 380 204T333 177T269 162V71Q269 59 259 49T235 39ZM203 252V486Q162 477 143 449T124 378V359Q124 317 143 289T203 252Z" />
<glyph unicode="&#xa3;" horiz-adv-x="522" d="M56 0Q39 0 31 15T22 47Q22 65 30 79T56 94H111L149 366H86Q72 366 65 378T57 406Q57 421 64 433T86 445H160L178 564Q186 622 221 668T308 741T419 768H449Q467 768 476 754T486 721Q486 704 477 690T449 675H414Q377
675 349 660T304 619T283 564L265 445H396Q410 445 417 433T425 406Q425 391 418 379T396 366H254L215 94H453Q470 94 478 80T486 47Q486 30 478 15T453 0H56Z" />
<glyph unicode="&#xa4;" horiz-adv-x="460" d="M231 290Q200 290 171 301T119 333L91 307Q86 302 78 302Q68 302 61 310T53 327Q53 334 58 340L88 368Q72 390 63 416T54 472Q54 500 63 527T87 576L61 601Q56 607 56 614Q56 624 63 631T81 639Q89 639 95 634L119
610Q142 630 170 641T231 652Q261 652 289 642T340 613L366 637Q372 642 380 642Q389 642 397 634T405 617Q405 610 399 604L372 578Q389 556 399 529T409 473Q409 443 399 416T372 366L399 340Q405 333 405 327Q405 318 397 310T380 302Q372 302 366 307L340 331Q317
312 289 301T231 290ZM231 353Q263 353 289 370T330 414T346 471Q346 502 331 528T290 572T231 589Q199 589 173 573T132 529T116 472Q116 441 131 414T173 370T231 353Z" />
<glyph unicode="&#xa5;" horiz-adv-x="542" d="M270 0Q250 0 234 9T217 35V166H118Q103 166 93 176T83 203Q83 220 93 231T118 242H217V310H118Q103 310 93 320T83 347Q83 364 93 375T118 387H193L27 677Q25 680 24 684T23 691Q23 702 32 712T56 728T85 735Q97
735 104 728T117 710L270 419L426 710Q432 721 439 728T458 735Q472 735 486 729T509 712T519 691Q519 683 516 677L346 387H425Q439 387 450 376T461 348Q461 332 450 321T425 310H322V242H425Q439 242 450 231T461 204Q461 187 450 177T425 166H322V35Q322 18
306 9T270 0Z" />
<glyph unicode="&#xa6;" horiz-adv-x="226" d="M113 440Q90 440 75 451T60 475V734Q60 749 75 758T113 768Q134 768 150 759T166 734V475Q166 462 150 451T113 440ZM113 -21Q90 -21 75 -10T60 14V272Q60 287 75 297T113 307Q134 307 150 297T166 272V14Q166 1
150 -10T113 -21Z" />
<glyph unicode="&#xa7;" horiz-adv-x="475" d="M234 -68Q173 -68 130 -44T66 19T44 99Q44 124 56 133T90 142Q116 142 125 133T135 111Q135 98 139 83T152 53T179 30T227 21Q277 21 301 46T325 111Q325 141 310 159T271 191T217 215T159 240T106 276T66 331T51
416V530Q51 591 69 630T115 691T175 722T238 731Q296 731 335 708T393 647T412 567Q412 540 401 532T371 523Q346 523 336 533T325 561Q325 577 319 596T294 630T242 644Q216 644 195 634T161 603T149 550Q149 520 164 502T204 470T260 446T320 420T375 385T416
329T431 245V132Q431 75 414 37T368 -25T304 -58T234 -68ZM343 232V256Q343 292 328 314T289 349T238 372T185 393T140 422V398Q140 362 155 340T194 305T246 282T299 261T343 232Z" />
<glyph unicode="&#xa8;" horiz-adv-x="230" d="M185 583Q166 583 153 597T140 630Q140 649 153 662T185 676Q204 676 217 663T230 630Q230 611 217 597T185 583ZM46 583Q27 583 14 597T0 630Q0 649 13 662T46 676Q65 676 77 663T90 630Q90 611 78 597T46 583Z" />
<glyph unicode="&#xa9;" horiz-adv-x="700" d="M347 35Q294 35 241 55T142 115T70 216T43 358Q43 442 71 503T146 605T246 665T353 685Q406 685 459 665T558 605T630 504T657 362Q657 278 629 217T554 115T454 55T347 35ZM347 90Q422 90 479 124T569 220T602 362Q602
440 571 500T485 595T353 630Q279 630 221 596T131 500T98 358Q98 281 129 220T216 125T347 90ZM351 170Q304 170 271 198T237 294V440Q237 508 271 536T351 564Q403 564 435 537T468 462Q468 443 461 437T437 430Q424 430 415 435T405 451Q405 460 402 473T388
497T353 508Q300 508 300 440V294Q300 226 354 226Q377 226 387 236T401 261T405 287Q406 299 415 303T437 308Q453 308 460 301T468 275Q468 228 436 199T351 170Z" />
<glyph unicode="&#xaa;" horiz-adv-x="325" d="M135 435Q129 434 121 434T106 433Q75 436 52 456T29 519Q29 574 71 593T182 613H210V624Q210 648 196 670T147 692Q123 692 110 687T89 677T74 672Q62 672 55 684T48 709Q48 721 64 731T103 747T148 753Q198 753
227 735T270 687T283 624V462Q283 452 273 445T247 437Q233 437 224 444T214 462V483Q200 467 181 453T135 435ZM143 488Q158 488 173 497T199 521T210 552V573H186Q165 573 146 570T114 557T102 528Q102 507 113 498T143 488Z" />
<glyph unicode="&#xab;" horiz-adv-x="464" d="M364 74Q341 74 333 89L254 236Q246 251 241 259T236 276Q236 287 241 295T254 318L333 466Q341 480 365 480Q382 480 396 472T419 451T428 428Q428 422 425 416L351 277L425 138Q428 133 428 127Q428 116 420 104T396
83T364 74ZM157 74Q134 74 126 89L47 236Q40 251 35 259T29 276Q29 287 34 295T47 318L126 466Q134 480 158 480Q175 480 189 472T213 451T222 428Q222 422 219 416L144 277L219 138Q222 133 222 127Q222 116 213 104T189 83T157 74Z" />
<glyph unicode="&#xac;" horiz-adv-x="494" d="M386 163Q363 163 349 174T334 198V296H75Q60 296 51 308T41 340Q41 359 50 372T75 385H403Q417 385 428 372T439 340V198Q439 185 424 174T386 163Z" />
<glyph unicode="&#xad;" horiz-adv-x="467" d="M73 196Q58 196 49 208T39 240Q39 259 48 272T73 285H393Q407 285 418 272T429 240Q429 221 418 209T393 196H73Z" />
<glyph unicode="&#xae;" horiz-adv-x="700" d="M347 35Q294 35 241 55T142 115T70 216T43 358Q43 442 71 503T146 605T246 665T353 685Q406 685 459 665T558 605T630 504T657 362Q657 278 629 217T554 115T454 55T347 35ZM347 90Q422 90 479 124T569 220T602 362Q602
440 571 500T485 595T353 630Q279 630 221 596T131 500T98 358Q98 281 129 220T216 125T347 90ZM441 176Q434 176 429 180T420 193L353 334H307V198Q307 188 299 183T278 177Q267 177 258 182T248 198V534Q248 541 253 547T268 554H361Q392 554 417 544T459 511T475
447Q475 402 456 378T409 344L472 214Q473 211 473 207Q473 195 463 186T441 176ZM307 385H362Q387 385 401 398T416 441Q416 474 402 487T362 501H307V385Z" />
<glyph unicode="&#xaf;" horiz-adv-x="0" d="M34 620Q19 620 10 630T0 655Q0 671 9 681T34 692H243Q256 692 267 682T278 655Q278 640 267 630T243 620H34Z" />
<glyph unicode="&#xb0;" horiz-adv-x="406" d="M202 406Q155 406 115 431T50 498T25 588Q25 636 49 677T113 743T202 768Q250 768 290 744T355 679T380 589Q380 541 356 499T291 432T202 406ZM202 469Q234 469 260 486T302 530T318 587Q318 618 303 644T261 688T203
705Q170 705 144 688T103 645T88 588Q88 557 103 530T144 486T202 469Z" />
<glyph unicode="&#xb1;" horiz-adv-x="475" d="M238 174Q219 174 206 183T193 208V319H77Q62 319 52 331T42 362Q42 382 52 394T77 407H193V517Q193 530 206 541T238 552Q258 552 270 541T282 517V407H397Q410 407 421 395T432 362Q432 343 421 331T397 319H282V208Q282
193 270 184T238 174ZM77 41Q62 41 52 53T42 85Q42 104 52 117T77 130H397Q410 130 421 117T432 85Q432 66 421 54T397 41H77Z" />
<glyph unicode="&#xb2;" horiz-adv-x="315" d="M59 340Q49 340 38 346T27 363V415Q27 441 46 462T93 502T149 540T196 578T215 620Q215 635 202 650T158 665Q136 665 121 655T106 620Q106 610 96 602T67 593Q53 593 44 601T34 631Q34 663 51 685T97 719T158 731Q192
731 221 718T269 681T287 622Q287 588 269 562T223 517T167 481T121 449T102 418V404H266Q275 404 282 395T289 372Q289 360 282 350T266 340H59Z" />
<glyph unicode="&#xb3;" horiz-adv-x="323" d="M155 337Q109 337 80 352T37 390T23 435Q23 452 31 457T57 463Q80 463 87 457T94 438Q94 427 102 419T124 406T157 401Q191 401 206 414T222 456V466Q222 496 204 505T156 515Q144 515 139 524T133 543Q133 554 138
562T156 572Q179 573 195 581T211 623Q211 649 197 659T158 669Q138 669 127 665T110 653T104 634Q104 622 97 615T70 607Q45 607 39 613T32 637Q32 657 43 678T82 715T158 731Q212 731 246 710T280 635Q280 604 268 580T234 546Q261 537 277 518T294 466V456Q294
413 275 387T225 349T155 337Z" />
<glyph unicode="&#xb4;" horiz-adv-x="184" d="M35 577Q21 577 11 590T0 618Q0 636 15 644L139 707Q145 709 150 709Q165 709 174 696T184 668Q184 649 168 641L47 580Q44 579 41 578T35 577Z" />
<glyph unicode="&#xb5;" horiz-adv-x="507" d="M113 -225Q91 -225 77 -215T62 -190V439Q62 452 77 463T114 474Q136 474 151 463T167 439V179Q167 164 175 148T198 117T231 94T269 85Q296 85 318 100T354 139T368 189V439Q368 454 384 464T420 474Q443 474 458
464T473 439V189Q473 136 446 91T372 19T269 -8Q233 -8 204 6T155 40V-190Q155 -204 143 -214T113 -225Z" />
<glyph unicode="&#xb6;" horiz-adv-x="547" d="M291 0Q277 0 266 9T255 35V306H225Q170 306 126 326T55 392T29 513V525Q29 600 55 645T125 710T225 731H442Q456 731 467 722T478 696V34Q478 16 467 8T442 0Q429 0 418 8T407 34V678H326V35Q326 18 315 9T291 0Z" />
<glyph unicode="&#xb7;" horiz-adv-x="198" d="M99 243Q73 243 55 260T37 300Q37 323 55 339T99 356Q125 356 143 340T161 300Q161 278 143 261T99 243Z" />
<glyph unicode="&#xb8;" horiz-adv-x="181" d="M82 -214Q67 -214 48 -211T14 -202T0 -186Q0 -182 2 -175T9 -161T20 -154Q27 -154 40 -161T77 -168Q102 -168 114 -158T127 -132Q127 -115 114 -106T73 -94L25 -89L51 9H102L84 -55Q135 -56 158 -78T181 -130Q181
-147 172 -167T141 -200T82 -214Z" />
<glyph unicode="&#xb9;" horiz-adv-x="183" d="M103 340Q89 340 78 345T67 363V645L48 630Q41 626 34 626Q24 626 17 635T10 654Q10 662 13 669T24 680L91 727Q98 732 107 732Q118 732 128 726T139 709V363Q139 351 128 346T103 340Z" />
<glyph unicode="&#xba;" horiz-adv-x="337" d="M168 432Q131 432 100 450T50 499T31 563V622Q31 657 49 686T99 734T168 753Q205 753 236 735T287 688T306 622V563Q306 529 287 499T237 451T168 432ZM168 497Q195 497 213 517T232 564V622Q232 647 214 667T168
687Q141 687 123 667T104 622V564Q104 538 122 518T168 497Z" />
<glyph unicode="&#xbb;" horiz-adv-x="464" d="M306 74Q290 74 275 82T251 103T242 127Q242 133 245 138L319 277L245 416Q242 422 242 428Q242 439 250 451T274 471T306 480Q330 480 337 466L416 318Q424 304 429 296T435 276Q435 267 430 259T416 236L337 89Q330
74 306 74ZM100 74Q83 74 68 82T44 103T35 127Q35 133 38 138L113 277L38 416Q35 422 35 428Q35 439 44 451T67 471T99 480Q124 480 131 466L210 318Q217 304 222 296T228 276Q228 267 223 259T210 236L131 89Q123 74 100 74Z" />
<glyph unicode="&#xbc;" horiz-adv-x="658" d="M103 340Q89 340 78 345T67 363V645L48 630Q41 626 34 626Q24 626 17 635T10 654Q10 662 13 669T24 680L91 727Q98 732 107 732Q118 732 128 726T139 709V363Q139 351 128 346T103 340ZM87 -35Q70 -35 59 -24T48
2Q48 10 51 17L419 752Q428 770 449 770Q464 770 477 760T491 732Q491 723 487 716L120 -16Q116 -25 107 -30T87 -35ZM561 0Q548 0 537 5T526 23V85H385Q375 85 368 91T360 110Q360 117 364 124L502 372Q508 382 516 386T533 391Q544 391 557 384T570 364Q570 359
567 354L453 152H526V204Q526 216 537 221T561 227Q576 227 587 222T598 204V152H626Q637 152 643 142T649 118Q649 106 642 96T626 85H598V23Q598 11 587 6T561 0Z" />
<glyph unicode="&#xbd;" horiz-adv-x="667" d="M103 340Q89 340 78 345T67 363V645L48 630Q41 626 34 626Q24 626 17 635T10 654Q10 662 13 669T24 680L91 727Q98 732 107 732Q118 732 128 726T139 709V363Q139 351 128 346T103 340ZM87 -35Q70 -35 59 -24T48
2Q48 10 51 17L419 752Q428 770 449 770Q464 770 477 760T491 732Q491 723 487 716L120 -16Q116 -25 107 -30T87 -35ZM412 0Q402 0 391 6T380 23V75Q380 101 399 122T446 162T502 200T549 238T568 280Q568 295 555 310T511 325Q489 325 474 315T459 280Q459 270
449 262T420 253Q406 253 397 261T387 291Q387 323 404 345T450 379T511 391Q545 391 574 378T622 341T640 282Q640 248 622 222T576 177T520 141T474 109T455 78V64H619Q628 64 635 55T642 32Q642 20 635 10T619 0H412Z" />
<glyph unicode="&#xbe;" horiz-adv-x="798" d="M155 337Q109 337 80 352T37 390T23 435Q23 452 31 457T57 463Q80 463 87 457T94 438Q94 427 102 419T124 406T157 401Q191 401 206 414T222 456V466Q222 496 204 505T156 515Q144 515 139 524T133 543Q133 554 138
562T156 572Q179 573 195 581T211 623Q211 649 197 659T158 669Q138 669 127 665T110 653T104 634Q104 622 97 615T70 607Q45 607 39 613T32 637Q32 657 43 678T82 715T158 731Q212 731 246 710T280 635Q280 604 268 580T234 546Q261 537 277 518T294 466V456Q294
413 275 387T225 349T155 337ZM227 -35Q210 -35 199 -24T188 2Q188 10 191 17L559 752Q568 770 589 770Q604 770 617 760T631 732Q631 723 627 716L260 -16Q256 -25 247 -30T227 -35ZM701 0Q688 0 677 5T666 23V85H525Q515 85 508 91T500 110Q500 117 504 124L642
372Q648 382 656 386T673 391Q684 391 697 384T710 364Q710 359 707 354L593 152H666V204Q666 216 677 221T701 227Q716 227 727 222T738 204V152H766Q777 152 783 142T789 118Q789 106 782 96T766 85H738V23Q738 11 727 6T701 0Z" />
<glyph unicode="&#xbf;" horiz-adv-x="423" d="M228 -6Q165 -6 121 17T53 79T29 166Q29 208 43 240T79 298T120 342T153 373Q175 393 184 413T195 457T197 513Q197 525 205 534T238 544Q259 544 268 535T277 498Q277 448 270 417T250 366T224 334Q210 320 192
305T156 272T128 231T117 176Q117 128 148 102T232 75Q267 75 286 84T317 105T337 127T360 137Q374 137 387 127T401 96Q401 76 381 52T322 11T228 -6ZM238 618Q214 618 196 636T178 678Q178 702 195 720T238 738Q263 738 280 720T297 678Q297 654 280 636T238
618Z" />
<glyph unicode="&#xc0;" horiz-adv-x="561" d="M79 0Q65 0 49 6T23 21T13 44Q13 47 14 53L213 701Q219 719 238 728T280 737Q303 737 322 728T348 701L546 53Q548 47 548 44Q548 32 538 22T512 6T481 0Q468 0 459 5T445 22L404 164H156L116 22Q113 10 103 5T79
0ZM180 249H380L280 592L180 249ZM323 824Q319 824 316 825T310 827L189 888Q173 896 173 915Q173 929 182 942T207 956Q212 956 218 954L342 891Q357 883 357 865Q357 851 348 838T323 824Z" />
<glyph unicode="&#xc1;" horiz-adv-x="561" d="M79 0Q65 0 49 6T23 21T13 44Q13 47 14 53L213 701Q219 719 238 728T280 737Q303 737 322 728T348 701L546 53Q548 47 548 44Q548 32 538 22T512 6T481 0Q468 0 459 5T445 22L404 164H156L116 22Q113 10 103 5T79
0ZM180 249H380L280 592L180 249ZM244 824Q230 824 220 837T209 865Q209 883 224 891L348 954Q354 956 359 956Q374 956 383 943T393 915Q393 896 377 888L256 827Q253 826 250 825T244 824Z" />
<glyph unicode="&#xc2;" horiz-adv-x="561" d="M79 0Q65 0 49 6T23 21T13 44Q13 47 14 53L213 701Q219 719 238 728T280 737Q303 737 322 728T348 701L546 53Q548 47 548 44Q548 32 538 22T512 6T481 0Q468 0 459 5T445 22L404 164H156L116 22Q113 10 103 5T79
0ZM180 249H380L280 592L180 249ZM167 829Q156 829 149 839T141 864Q141 873 145 881T159 895L263 951Q272 956 280 956Q288 956 297 951L401 896Q412 891 416 882T420 863Q420 850 413 840T394 829Q392 829 390 830T384 832L280 888L176 832Q174 831 172 830T167
829Z" />
<glyph unicode="&#xc3;" horiz-adv-x="561" d="M79 0Q65 0 49 6T23 21T13 44Q13 47 14 53L213 701Q219 719 238 728T280 737Q303 737 322 728T348 701L546 53Q548 47 548 44Q548 32 538 22T512 6T481 0Q468 0 459 5T445 22L404 164H156L116 22Q113 10 103 5T79
0ZM180 249H380L280 592L180 249ZM360 843Q330 843 309 851T267 866T221 874Q200 874 186 868T162 854T143 847Q133 847 127 853T118 869T115 883Q115 903 124 915T148 934T177 944T202 947Q230 947 251 940T293 924T340 916Q362 916 375 922T397 935T417 941Q428
941 434 935T442 920T445 907Q445 886 436 874T412 854T384 845T360 843Z" />
<glyph unicode="&#xc4;" horiz-adv-x="561" d="M79 0Q65 0 49 6T23 21T13 44Q13 47 14 53L213 701Q219 719 238 728T280 737Q303 737 322 728T348 701L546 53Q548 47 548 44Q548 32 538 22T512 6T481 0Q468 0 459 5T445 22L404 164H156L116 22Q113 10 103 5T79
0ZM180 249H380L280 592L180 249ZM350 830Q331 830 318 844T305 877Q305 896 318 909T350 923Q369 923 382 910T395 877Q395 858 382 844T350 830ZM211 830Q192 830 179 844T165 877Q165 896 178 909T211 923Q230 923 242 910T255 877Q255 858 243 844T211 830Z"
/>
<glyph unicode="&#xc5;" horiz-adv-x="561" d="M79 0Q65 0 49 6T23 21T13 44Q13 47 14 53L213 701Q219 719 238 728T280 737Q303 737 322 728T348 701L546 53Q548 47 548 44Q548 32 538 22T512 6T481 0Q468 0 459 5T445 22L404 164H156L116 22Q113 10 103 5T79
0ZM180 249H380L280 592L180 249ZM280 817Q255 817 233 830T198 867T185 915Q185 941 197 963T232 999T281 1013Q306 1013 328 1000T363 964T377 916Q377 890 364 868T328 831T280 817ZM281 861Q302 861 316 878T331 915Q331 934 317 949T281 965Q259 965 244 949T229
915Q229 896 244 879T281 861Z" />
<glyph unicode="&#xc6;" horiz-adv-x="760" d="M110 0Q84 0 74 11T63 40V508Q63 589 92 638T171 709T282 731H706Q724 731 732 716T740 685Q740 666 731 652T706 637H475V408H605Q621 408 630 395T639 365Q639 351 631 338T605 324H475V94H706Q722 94 731 80T740
46Q740 30 732 15T706 0H416Q399 0 384 9T369 35V324H163V40Q163 23 154 12T110 0ZM163 408H369V637H282Q226 637 195 606T163 508V408Z" />
<glyph unicode="&#xc7;" horiz-adv-x="541" d="M280 -6Q220 -6 170 16T89 87T59 217V508Q59 589 89 638T170 709T281 731Q350 731 400 708T479 644T508 550Q508 516 495 506T455 495Q431 495 417 503T402 530Q401 543 397 561T382 596T347 625T284 637Q226 637
195 606T164 508V217Q164 151 195 120T287 88Q325 88 347 99T381 128T396 165T402 201Q403 220 417 228T454 236Q482 236 495 225T508 181Q508 127 480 85T400 18T280 -6ZM296 -214Q281 -214 262 -211T228 -202T214 -186Q214 -182 216 -175T223 -161T234 -154Q241
-154 254 -161T291 -168Q316 -168 328 -158T341 -132Q341 -115 328 -106T287 -94L239 -89L265 9H316L298 -55Q349 -56 372 -78T395 -130Q395 -147 386 -167T355 -200T296 -214Z" />
<glyph unicode="&#xc8;" horiz-adv-x="522" d="M113 0Q96 0 81 9T66 35V696Q66 713 81 722T113 731H469Q488 731 496 716T504 685Q504 666 495 652T469 637H172V408H326Q343 408 352 395T361 365Q361 351 353 338T326 324H172V94H469Q486 94 495 80T504 46Q504
30 496 15T469 0H113ZM323 824Q319 824 316 825T310 827L189 888Q173 896 173 915Q173 929 182 942T207 956Q212 956 218 954L342 891Q357 883 357 865Q357 851 348 838T323 824Z" />
<glyph unicode="&#xc9;" horiz-adv-x="522" d="M113 0Q96 0 81 9T66 35V696Q66 713 81 722T113 731H469Q488 731 496 716T504 685Q504 666 495 652T469 637H172V408H326Q343 408 352 395T361 365Q361 351 353 338T326 324H172V94H469Q486 94 495 80T504 46Q504
30 496 15T469 0H113ZM244 824Q230 824 220 837T209 865Q209 883 224 891L348 954Q354 956 359 956Q374 956 383 943T393 915Q393 896 377 888L256 827Q253 826 250 825T244 824Z" />
<glyph unicode="&#xca;" horiz-adv-x="522" d="M113 0Q96 0 81 9T66 35V696Q66 713 81 722T113 731H469Q488 731 496 716T504 685Q504 666 495 652T469 637H172V408H326Q343 408 352 395T361 365Q361 351 353 338T326 324H172V94H469Q486 94 495 80T504 46Q504
30 496 15T469 0H113ZM168 829Q157 829 150 839T142 864Q142 873 146 881T160 895L264 951Q273 956 281 956Q289 956 298 951L402 896Q413 891 417 882T421 863Q421 850 414 840T395 829Q393 829 391 830T385 832L281 888L177 832Q175 831 173 830T168 829Z" />
<glyph unicode="&#xcb;" horiz-adv-x="522" d="M113 0Q96 0 81 9T66 35V696Q66 713 81 722T113 731H469Q488 731 496 716T504 685Q504 666 495 652T469 637H172V408H326Q343 408 352 395T361 365Q361 351 353 338T326 324H172V94H469Q486 94 495 80T504 46Q504
30 496 15T469 0H113ZM350 830Q331 830 318 844T305 877Q305 896 318 909T350 923Q369 923 382 910T395 877Q395 858 382 844T350 830ZM211 830Q192 830 179 844T165 877Q165 896 178 909T211 923Q230 923 242 910T255 877Q255 858 243 844T211 830Z" />
<glyph unicode="&#xcc;" horiz-adv-x="238" d="M119 0Q99 0 83 9T66 35V697Q66 715 82 723T119 731Q139 731 155 723T172 697V35Q172 18 156 9T119 0ZM161 824Q157 824 154 825T148 827L27 888Q11 896 11 915Q11 929 20 942T45 956Q50 956 56 954L180 891Q195
883 195 865Q195 851 186 838T161 824Z" />
<glyph unicode="&#xcd;" horiz-adv-x="238" d="M119 0Q99 0 83 9T66 35V697Q66 715 82 723T119 731Q139 731 155 723T172 697V35Q172 18 156 9T119 0ZM82 824Q68 824 58 837T47 865Q47 883 62 891L186 954Q192 956 197 956Q212 956 221 943T231 915Q231 896 215
888L94 827Q91 826 88 825T82 824Z" />
<glyph unicode="&#xce;" horiz-adv-x="238" d="M119 0Q99 0 83 9T66 35V697Q66 715 82 723T119 731Q139 731 155 723T172 697V35Q172 18 156 9T119 0ZM6 829Q-5 829 -12 839T-20 864Q-20 873 -16 881T-2 895L102 951Q111 956 119 956Q127 956 136 951L240 896Q251
891 255 882T259 863Q259 850 252 840T233 829Q231 829 229 830T223 832L119 888L15 832Q13 831 11 830T6 829Z" />
<glyph unicode="&#xcf;" horiz-adv-x="238" d="M119 0Q99 0 83 9T66 35V697Q66 715 82 723T119 731Q139 731 155 723T172 697V35Q172 18 156 9T119 0ZM188 830Q169 830 156 844T143 877Q143 896 156 909T188 923Q207 923 220 910T233 877Q233 858 220 844T188
830ZM49 830Q30 830 17 844T3 877Q3 896 16 909T49 923Q68 923 80 910T93 877Q93 858 81 844T49 830Z" />
<glyph unicode="&#xd0;" horiz-adv-x="581" d="M121 0Q100 0 87 10T74 34V344H25Q11 344 3 356T-5 383Q-5 398 3 410T25 422H74V697Q74 711 87 721T121 731H298Q361 731 412 709T493 638T523 508V223Q523 142 493 93T412 22T298 0H121ZM180 94H298Q354 94 385
125T417 223V508Q417 574 386 605T298 637H180V422H270Q284 422 292 410T300 383Q300 367 292 356T270 344H180V94Z" />
<glyph unicode="&#xd1;" horiz-adv-x="593" d="M119 0Q99 0 83 9T66 35V696Q66 715 82 723T119 731Q138 731 151 726T176 707T199 671L421 238V697Q421 715 437 723T474 731Q494 731 510 723T527 697V35Q527 18 511 9T474 0Q454 0 438 10T411 39L172 494V35Q172
18 156 9T119 0ZM377 843Q347 843 326 851T284 866T238 874Q217 874 203 868T179 854T160 847Q150 847 144 853T135 869T132 883Q132 903 141 915T165 934T194 944T219 947Q247 947 268 940T310 924T357 916Q379 916 392 922T414 935T434 941Q445 941 451 935T459
920T462 907Q462 886 453 874T429 854T401 845T377 843Z" />
<glyph unicode="&#xd2;" horiz-adv-x="566" d="M283 -6Q219 -6 169 16T89 87T59 217V508Q59 589 88 638T168 709T283 731Q346 731 397 709T478 638T508 508V217Q508 136 478 87T397 16T283 -6ZM283 88Q338 88 370 119T402 217V508Q402 574 371 605T283 637Q227
637 196 606T164 508V217Q164 151 195 120T283 88ZM326 824Q322 824 319 825T313 827L192 888Q176 896 176 915Q176 929 185 942T210 956Q215 956 221 954L345 891Q360 883 360 865Q360 851 351 838T326 824Z" />
<glyph unicode="&#xd3;" horiz-adv-x="566" d="M283 -6Q219 -6 169 16T89 87T59 217V508Q59 589 88 638T168 709T283 731Q346 731 397 709T478 638T508 508V217Q508 136 478 87T397 16T283 -6ZM283 88Q338 88 370 119T402 217V508Q402 574 371 605T283 637Q227
637 196 606T164 508V217Q164 151 195 120T283 88ZM246 824Q232 824 222 837T211 865Q211 883 226 891L350 954Q356 956 361 956Q376 956 385 943T395 915Q395 896 379 888L258 827Q255 826 252 825T246 824Z" />
<glyph unicode="&#xd4;" horiz-adv-x="566" d="M283 -6Q219 -6 169 16T89 87T59 217V508Q59 589 88 638T168 709T283 731Q346 731 397 709T478 638T508 508V217Q508 136 478 87T397 16T283 -6ZM283 88Q338 88 370 119T402 217V508Q402 574 371 605T283 637Q227
637 196 606T164 508V217Q164 151 195 120T283 88ZM170 829Q159 829 152 839T144 864Q144 873 148 881T162 895L266 951Q275 956 283 956Q291 956 300 951L404 896Q415 891 419 882T423 863Q423 850 416 840T397 829Q395 829 393 830T387 832L283 888L179 832Q177
831 175 830T170 829Z" />
<glyph unicode="&#xd5;" horiz-adv-x="566" d="M283 -6Q219 -6 169 16T89 87T59 217V508Q59 589 88 638T168 709T283 731Q346 731 397 709T478 638T508 508V217Q508 136 478 87T397 16T283 -6ZM283 88Q338 88 370 119T402 217V508Q402 574 371 605T283 637Q227
637 196 606T164 508V217Q164 151 195 120T283 88ZM363 843Q333 843 312 851T270 866T224 874Q203 874 189 868T165 854T146 847Q136 847 130 853T121 869T118 883Q118 903 127 915T151 934T180 944T205 947Q233 947 254 940T296 924T343 916Q365 916 378 922T400
935T420 941Q431 941 437 935T445 920T448 907Q448 886 439 874T415 854T387 845T363 843Z" />
<glyph unicode="&#xd6;" horiz-adv-x="566" d="M283 -6Q219 -6 169 16T89 87T59 217V508Q59 589 88 638T168 709T283 731Q346 731 397 709T478 638T508 508V217Q508 136 478 87T397 16T283 -6ZM283 88Q338 88 370 119T402 217V508Q402 574 371 605T283 637Q227
637 196 606T164 508V217Q164 151 195 120T283 88ZM353 830Q334 830 321 844T308 877Q308 896 321 909T353 923Q372 923 385 910T398 877Q398 858 385 844T353 830ZM214 830Q195 830 182 844T168 877Q168 896 181 909T214 923Q233 923 245 910T258 877Q258 858
246 844T214 830Z" />
<glyph unicode="&#xd7;" horiz-adv-x="403" d="M96 121Q85 121 74 128T55 147T47 171Q47 184 56 193L145 275L57 356Q49 365 49 379Q49 397 64 412T97 428Q110 428 120 419L201 337L282 419Q291 428 305 428Q323 428 338 413T354 379Q354 365 345 356L258 275L346
193Q355 184 355 170Q355 159 348 148T329 129T305 121Q293 121 283 130L201 213L119 130Q110 121 96 121Z" />
<glyph unicode="&#xd8;" horiz-adv-x="566" d="M283 -6Q219 -6 169 16T89 87T59 217V508Q59 589 88 638T168 709T283 731Q346 731 397 709T478 638T508 508V217Q508 136 478 87T397 16T283 -6ZM283 88Q338 88 370 119T402 217V508Q402 574 371 605T283 637Q227
637 196 606T164 508V217Q164 151 195 120T283 88ZM107 218Q90 218 79 229T68 255Q68 263 72 270L440 1005Q448 1023 469 1023Q484 1023 497 1013T511 985Q511 976 508 969L141 237Q137 228 128 223T107 218Z" />
<glyph unicode="&#xd9;" horiz-adv-x="582" d="M291 -6Q227 -6 175 16T93 87T63 217V697Q63 715 79 723T116 731Q135 731 152 723T169 697V217Q169 151 201 120T291 88Q348 88 381 119T414 217V697Q414 715 430 723T467 731Q486 731 503 723T520 697V217Q520 136
490 87T407 16T291 -6ZM334 824Q330 824 327 825T321 827L200 888Q184 896 184 915Q184 929 193 942T218 956Q223 956 229 954L353 891Q368 883 368 865Q368 851 359 838T334 824Z" />
<glyph unicode="&#xda;" horiz-adv-x="582" d="M291 -6Q227 -6 175 16T93 87T63 217V697Q63 715 79 723T116 731Q135 731 152 723T169 697V217Q169 151 201 120T291 88Q348 88 381 119T414 217V697Q414 715 430 723T467 731Q486 731 503 723T520 697V217Q520 136
490 87T407 16T291 -6ZM254 824Q240 824 230 837T219 865Q219 883 234 891L358 954Q364 956 369 956Q384 956 393 943T403 915Q403 896 387 888L266 827Q263 826 260 825T254 824Z" />
<glyph unicode="&#xdb;" horiz-adv-x="582" d="M291 -6Q227 -6 175 16T93 87T63 217V697Q63 715 79 723T116 731Q135 731 152 723T169 697V217Q169 151 201 120T291 88Q348 88 381 119T414 217V697Q414 715 430 723T467 731Q486 731 503 723T520 697V217Q520 136
490 87T407 16T291 -6ZM178 829Q167 829 160 839T152 864Q152 873 156 881T170 895L274 951Q283 956 291 956Q299 956 308 951L412 896Q423 891 427 882T431 863Q431 850 424 840T405 829Q403 829 401 830T395 832L291 888L187 832Q185 831 183 830T178 829Z" />
<glyph unicode="&#xdc;" horiz-adv-x="582" d="M291 -6Q227 -6 175 16T93 87T63 217V697Q63 715 79 723T116 731Q135 731 152 723T169 697V217Q169 151 201 120T291 88Q348 88 381 119T414 217V697Q414 715 430 723T467 731Q486 731 503 723T520 697V217Q520 136
490 87T407 16T291 -6ZM360 830Q341 830 328 844T315 877Q315 896 328 909T360 923Q379 923 392 910T405 877Q405 858 392 844T360 830ZM221 830Q202 830 189 844T175 877Q175 896 188 909T221 923Q240 923 252 910T265 877Q265 858 253 844T221 830Z" />
<glyph unicode="&#xdd;" horiz-adv-x="556" d="M278 0Q258 0 242 9T225 35V288Q225 294 222 299L15 672Q13 677 13 680T12 687Q12 700 23 709T49 725T79 731Q92 731 99 725T113 707L278 390L442 707Q449 719 456 725T477 731Q491 731 506 725T533 710T544 687Q544
684 544 681T540 672L334 299Q331 294 331 288V35Q331 18 315 9T278 0ZM241 824Q227 824 217 837T206 865Q206 883 221 891L345 954Q351 956 356 956Q371 956 380 943T390 915Q390 896 374 888L253 827Q250 826 247 825T241 824Z" />
<glyph unicode="&#xde;" horiz-adv-x="510" d="M118 0Q96 0 81 11T66 35V707Q66 722 80 731T116 741Q140 741 155 732T171 706V545Q187 575 221 598T304 621Q352 621 391 598T455 533T479 438V317Q479 265 455 223T392 157T309 132Q279 132 251 143T202 172T171
211V35Q171 22 156 11T118 0ZM275 226Q301 226 323 237T360 269T374 317V438Q374 465 360 485T323 516T274 528Q248 528 225 517T186 486T171 438V310Q171 294 184 274T221 240T275 226Z" />
<glyph unicode="&#xdf;" horiz-adv-x="580" d="M342 -20Q327 -20 310 -19T276 -12T250 4T240 34Q240 44 243 55T252 75T268 84Q278 84 294 77T339 69Q389 69 417 102T446 198V213Q446 256 431 288T386 341T313 368Q296 371 286 379T276 411Q276 435 286 441T314
451Q335 455 347 466T366 493T375 526T377 560Q377 611 356 643T286 675Q253 675 234 660T207 622T199 573V34Q199 19 183 10T145 0Q124 0 109 9T94 34V396H32Q18 396 11 408T3 435Q3 450 10 462T32 474H94V573Q94 625 112 669T171 741T279 768Q331 768 373 749T440
689T465 585Q465 551 457 518T434 460T396 423Q432 417 466 390T524 320T548 221V206Q548 131 519 81T443 6T342 -20Z" />
<glyph unicode="&#xe0;" horiz-adv-x="459" d="M158 -8Q103 -8 64 24T25 124Q25 181 55 212T137 255T259 267H303V285Q303 311 294 335T263 376T204 393Q167 393 147 386T115 371T93 363Q75 363 65 380T55 416Q55 434 78 448T137 471T206 480Q280 480 324 453T388
381T408 286V35Q408 21 394 11T357 0Q337 0 323 10T309 35V70Q283 40 246 16T158 -8ZM196 72Q221 72 245 87T286 125T303 172V209H278Q240 209 206 205T152 185T131 137Q131 103 149 88T196 72ZM261 830Q257 830 254 831T248 833L127 894Q111 902 111 921Q111 935
120 948T145 962Q150 962 156 960L280 897Q295 889 295 871Q295 857 286 844T261 830Z" />
<glyph unicode="&#xe1;" horiz-adv-x="459" d="M158 -8Q103 -8 64 24T25 124Q25 181 55 212T137 255T259 267H303V285Q303 311 294 335T263 376T204 393Q167 393 147 386T115 371T93 363Q75 363 65 380T55 416Q55 434 78 448T137 471T206 480Q280 480 324 453T388
381T408 286V35Q408 21 394 11T357 0Q337 0 323 10T309 35V70Q283 40 246 16T158 -8ZM196 72Q221 72 245 87T286 125T303 172V209H278Q240 209 206 205T152 185T131 137Q131 103 149 88T196 72ZM181 574Q167 574 157 587T146 615Q146 633 161 641L285 704Q291 706
296 706Q311 706 320 693T330 665Q330 646 314 638L193 577Q190 576 187 575T181 574Z" />
<glyph unicode="&#xe2;" horiz-adv-x="459" d="M158 -8Q103 -8 64 24T25 124Q25 181 55 212T137 255T259 267H303V285Q303 311 294 335T263 376T204 393Q167 393 147 386T115 371T93 363Q75 363 65 380T55 416Q55 434 78 448T137 471T206 480Q280 480 324 453T388
381T408 286V35Q408 21 394 11T357 0Q337 0 323 10T309 35V70Q283 40 246 16T158 -8ZM196 72Q221 72 245 87T286 125T303 172V209H278Q240 209 206 205T152 185T131 137Q131 103 149 88T196 72ZM105 835Q94 835 87 845T79 870Q79 879 83 887T97 901L201 957Q210
962 218 962Q226 962 235 957L339 902Q350 897 354 888T358 869Q358 856 351 846T332 835Q330 835 328 836T322 838L218 894L114 838Q112 837 110 836T105 835Z" />
<glyph unicode="&#xe3;" horiz-adv-x="459" d="M158 -8Q103 -8 64 24T25 124Q25 181 55 212T137 255T259 267H303V285Q303 311 294 335T263 376T204 393Q167 393 147 386T115 371T93 363Q75 363 65 380T55 416Q55 434 78 448T137 471T206 480Q280 480 324 453T388
381T408 286V35Q408 21 394 11T357 0Q337 0 323 10T309 35V70Q283 40 246 16T158 -8ZM196 72Q221 72 245 87T286 125T303 172V209H278Q240 209 206 205T152 185T131 137Q131 103 149 88T196 72ZM298 849Q268 849 247 857T205 872T159 880Q138 880 124 874T100 860T81
853Q71 853 65 859T56 875T53 889Q53 909 62 921T86 940T115 950T140 953Q168 953 189 946T231 930T278 922Q300 922 313 928T335 941T355 947Q366 947 372 941T380 926T383 913Q383 892 374 880T350 860T322 851T298 849Z" />
<glyph unicode="&#xe4;" horiz-adv-x="459" d="M158 -8Q103 -8 64 24T25 124Q25 181 55 212T137 255T259 267H303V285Q303 311 294 335T263 376T204 393Q167 393 147 386T115 371T93 363Q75 363 65 380T55 416Q55 434 78 448T137 471T206 480Q280 480 324 453T388
381T408 286V35Q408 21 394 11T357 0Q337 0 323 10T309 35V70Q283 40 246 16T158 -8ZM196 72Q221 72 245 87T286 125T303 172V209H278Q240 209 206 205T152 185T131 137Q131 103 149 88T196 72ZM288 836Q269 836 256 850T243 883Q243 902 256 915T288 929Q307 929
320 916T333 883Q333 864 320 850T288 836ZM149 836Q130 836 117 850T103 883Q103 902 116 915T149 929Q168 929 180 916T193 883Q193 864 181 850T149 836Z" />
<glyph unicode="&#xe5;" horiz-adv-x="459" d="M158 -8Q103 -8 64 24T25 124Q25 181 55 212T137 255T259 267H303V285Q303 311 294 335T263 376T204 393Q167 393 147 386T115 371T93 363Q75 363 65 380T55 416Q55 434 78 448T137 471T206 480Q280 480 324 453T388
381T408 286V35Q408 21 394 11T357 0Q337 0 323 10T309 35V70Q283 40 246 16T158 -8ZM196 72Q221 72 245 87T286 125T303 172V209H278Q240 209 206 205T152 185T131 137Q131 103 149 88T196 72ZM218 823Q193 823 171 836T136 873T123 921Q123 947 135 969T170 1005T219
1019Q244 1019 266 1006T301 970T315 922Q315 896 302 874T266 837T218 823ZM219 867Q240 867 254 884T269 921Q269 940 255 955T219 971Q197 971 182 955T167 921Q167 902 182 885T219 867Z" />
<glyph unicode="&#xe6;" horiz-adv-x="741" d="M173 -8Q134 -8 100 6T46 49T25 124Q25 181 54 212T136 255T257 267H302V285Q302 311 293 336T261 377T202 394Q166 394 146 387T113 371T91 363Q73 363 63 381T53 417Q53 435 77 449T136 472T205 481Q262 481 300
458T360 397Q386 434 425 457T510 480Q547 480 582 468T647 432T693 372T710 289Q710 252 699 235T668 214T619 209H408V186Q408 136 444 107T536 77Q572 77 594 87T631 106T659 115Q672 115 680 108T694 89T700 68Q700 51 677 34T615 4T529 -8Q472 -8 424 17T347
90Q313 42 266 17T173 -8ZM195 72Q222 72 246 87T286 126T302 172V209H276Q238 209 205 205T151 185T130 136Q130 104 148 88T195 72ZM408 274H574Q597 274 604 280T611 303Q611 330 598 352T561 387T509 400Q482 400 459 389T422 356T408 307V274Z" />
<glyph unicode="&#xe7;" horiz-adv-x="425" d="M247 -8Q175 -8 129 18T60 89T38 191V281Q38 337 60 382T128 454T245 480Q291 480 325 469T379 442T399 407Q399 398 394 386T379 365T356 356Q346 356 335 364T304 379T253 387Q197 387 170 359T143 281V191Q143
141 170 113T254 85Q287 85 306 93T336 110T359 118Q373 118 383 110T399 90T405 68Q405 51 385 33T329 4T247 -8ZM252 -214Q237 -214 218 -211T184 -202T170 -186Q170 -182 172 -175T179 -161T190 -154Q197 -154 210 -161T247 -168Q272 -168 284 -158T297 -132Q297
-115 284 -106T243 -94L195 -89L221 9H272L254 -55Q305 -56 328 -78T351 -130Q351 -147 342 -167T311 -200T252 -214Z" />
<glyph unicode="&#xe8;" horiz-adv-x="475" d="M269 -8Q201 -8 149 17T67 86T37 191V286Q37 339 65 383T141 453T245 480Q299 480 344 457T416 391T444 295Q444 253 431 235T397 213T353 209H142V186Q142 136 178 107T272 77Q307 77 329 87T366 106T394 115Q407
115 416 107T430 88T435 68Q435 53 415 35T357 5T269 -8ZM142 274H308Q330 274 337 280T345 304Q345 330 332 352T296 387T244 400Q216 400 193 388T156 355T142 306V274ZM288 576Q284 576 281 577T275 579L154 640Q138 648 138 667Q138 681 147 694T172 708Q177
708 183 706L307 643Q322 635 322 617Q322 603 313 590T288 576Z" />
<glyph unicode="&#xe9;" horiz-adv-x="475" d="M269 -8Q201 -8 149 17T67 86T37 191V286Q37 339 65 383T141 453T245 480Q299 480 344 457T416 391T444 295Q444 253 431 235T397 213T353 209H142V186Q142 136 178 107T272 77Q307 77 329 87T366 106T394 115Q407
115 416 107T430 88T435 68Q435 53 415 35T357 5T269 -8ZM142 274H308Q330 274 337 280T345 304Q345 330 332 352T296 387T244 400Q216 400 193 388T156 355T142 306V274ZM208 576Q194 576 184 589T173 617Q173 635 188 643L312 706Q318 708 323 708Q338 708 347
695T357 667Q357 648 341 640L220 579Q217 578 214 577T208 576Z" />
<glyph unicode="&#xea;" horiz-adv-x="475" d="M269 -8Q201 -8 149 17T67 86T37 191V286Q37 339 65 383T141 453T245 480Q299 480 344 457T416 391T444 295Q444 253 431 235T397 213T353 209H142V186Q142 136 178 107T272 77Q307 77 329 87T366 106T394 115Q407
115 416 107T430 88T435 68Q435 53 415 35T357 5T269 -8ZM142 274H308Q330 274 337 280T345 304Q345 330 332 352T296 387T244 400Q216 400 193 388T156 355T142 306V274ZM132 837Q121 837 114 847T106 872Q106 881 110 889T124 903L228 959Q237 964 245 964Q253
964 262 959L366 904Q377 899 381 890T385 871Q385 858 378 848T359 837Q357 837 355 838T349 840L245 896L141 840Q139 839 137 838T132 837Z" />
<glyph unicode="&#xeb;" horiz-adv-x="475" d="M269 -8Q201 -8 149 17T67 86T37 191V286Q37 339 65 383T141 453T245 480Q299 480 344 457T416 391T444 295Q444 253 431 235T397 213T353 209H142V186Q142 136 178 107T272 77Q307 77 329 87T366 106T394 115Q407
115 416 107T430 88T435 68Q435 53 415 35T357 5T269 -8ZM142 274H308Q330 274 337 280T345 304Q345 330 332 352T296 387T244 400Q216 400 193 388T156 355T142 306V274ZM314 582Q295 582 282 596T269 629Q269 648 282 661T314 675Q333 675 346 662T359 629Q359
610 346 596T314 582ZM175 582Q156 582 143 596T129 629Q129 648 142 661T175 675Q194 675 206 662T219 629Q219 610 207 596T175 582Z" />
<glyph unicode="&#xec;" horiz-adv-x="214" d="M107 0Q84 0 70 11T55 35V440Q55 455 69 464T107 474Q129 474 144 465T160 440V35Q160 22 145 11T107 0ZM405 831Q401 831 398 832T392 834L271 895Q255 903 255 922Q255 936 264 949T289 963Q294 963 300 961L424
898Q439 890 439 872Q439 858 430 845T405 831Z" />
<glyph unicode="&#xed;" horiz-adv-x="214" d="M107 0Q84 0 70 11T55 35V440Q55 455 69 464T107 474Q129 474 144 465T160 440V35Q160 22 145 11T107 0ZM70 832Q56 832 46 845T35 873Q35 891 50 899L174 962Q180 964 185 964Q200 964 209 951T219 923Q219 904
203 896L82 835Q79 834 76 833T70 832Z" />
<glyph unicode="&#xee;" horiz-adv-x="214" d="M107 0Q84 0 70 11T55 35V440Q55 455 69 464T107 474Q129 474 144 465T160 440V35Q160 22 145 11T107 0ZM250 836Q239 836 232 846T224 871Q224 880 228 888T242 902L346 958Q355 963 363 963Q371 963 380 958L484
903Q495 898 499 889T503 870Q503 857 496 847T477 836Q475 836 473 837T467 839L363 895L259 839Q257 838 255 837T250 836Z" />
<glyph unicode="&#xef;" horiz-adv-x="214" d="M107 0Q84 0 70 11T55 35V440Q55 455 69 464T107 474Q129 474 144 465T160 440V35Q160 22 145 11T107 0ZM432 837Q413 837 400 851T387 884Q387 903 400 916T432 930Q451 930 464 917T477 884Q477 865 464 851T432
837ZM293 837Q274 837 261 851T247 884Q247 903 260 916T293 930Q312 930 324 917T337 884Q337 865 325 851T293 837Z" />
<glyph unicode="&#xf0;" horiz-adv-x="501" d="M244 -8Q203 -8 166 8T99 52T54 116T37 191V283Q37 337 61 381T125 453T214 480Q244 480 270 470T317 441T347 400Q344 455 329 500T292 578L227 540Q223 536 216 536Q202 536 190 550T178 580Q178 595 191 602L248
636Q234 651 218 659T186 668Q178 674 171 682T163 705Q163 715 168 727T184 748T217 757Q247 757 279 740T339 691L401 727Q407 730 413 730Q427 730 439 717T451 688Q451 673 437 665L379 630Q413 572 432 499T452 352V191Q452 139 424 93T348 20T244 -8ZM244
85Q273 85 296 100T333 139T347 191V285Q347 314 333 337T294 373T243 387Q215 387 192 372T155 333T142 283V191Q142 164 155 140T193 100T244 85Z" />
<glyph unicode="&#xf1;" horiz-adv-x="512" d="M107 0Q84 0 70 11T55 35V440Q55 455 69 464T107 474Q126 474 140 465T154 440V404Q169 433 203 456T288 480Q335 480 374 454T438 383T462 283V35Q462 18 446 9T409 0Q391 0 374 9T357 35V283Q357 309 344 333T307
372T256 387Q232 387 210 375T174 339T160 283V35Q160 22 145 11T107 0ZM336 842Q306 842 285 850T243 865T197 873Q176 873 162 867T138 853T119 846Q109 846 103 852T94 868T91 882Q91 902 100 914T124 933T153 943T178 946Q206 946 227 939T269 923T316 915Q338
915 351 921T373 934T393 940Q404 940 410 934T418 919T421 906Q421 885 412 873T388 853T360 844T336 842Z" />
<glyph unicode="&#xf2;" horiz-adv-x="486" d="M242 -8Q188 -8 141 20T66 93T37 191V283Q37 336 64 381T139 453T243 480Q299 480 346 454T421 383T450 283V191Q450 140 422 94T346 20T242 -8ZM243 85Q271 85 294 100T331 139T345 191V283Q345 309 331 333T294
372T243 387Q214 387 192 372T156 333T142 283V191Q142 164 155 140T192 100T243 85ZM285 575Q281 575 278 576T272 578L151 639Q135 647 135 666Q135 680 144 693T169 707Q174 707 180 705L304 642Q319 634 319 616Q319 602 310 589T285 575Z" />
<glyph unicode="&#xf3;" horiz-adv-x="486" d="M242 -8Q188 -8 141 20T66 93T37 191V283Q37 336 64 381T139 453T243 480Q299 480 346 454T421 383T450 283V191Q450 140 422 94T346 20T242 -8ZM243 85Q271 85 294 100T331 139T345 191V283Q345 309 331 333T294
372T243 387Q214 387 192 372T156 333T142 283V191Q142 164 155 140T192 100T243 85ZM206 576Q192 576 182 589T171 617Q171 635 186 643L310 706Q316 708 321 708Q336 708 345 695T355 667Q355 648 339 640L218 579Q215 578 212 577T206 576Z" />
<glyph unicode="&#xf4;" horiz-adv-x="486" d="M242 -8Q188 -8 141 20T66 93T37 191V283Q37 336 64 381T139 453T243 480Q299 480 346 454T421 383T450 283V191Q450 140 422 94T346 20T242 -8ZM243 85Q271 85 294 100T331 139T345 191V283Q345 309 331 333T294
372T243 387Q214 387 192 372T156 333T142 283V191Q142 164 155 140T192 100T243 85ZM130 836Q119 836 112 846T104 871Q104 880 108 888T122 902L226 958Q235 963 243 963Q251 963 260 958L364 903Q375 898 379 889T383 870Q383 857 376 847T357 836Q355 836 353
837T347 839L243 895L139 839Q137 838 135 837T130 836Z" />
<glyph unicode="&#xf5;" horiz-adv-x="486" d="M242 -8Q188 -8 141 20T66 93T37 191V283Q37 336 64 381T139 453T243 480Q299 480 346 454T421 383T450 283V191Q450 140 422 94T346 20T242 -8ZM243 85Q271 85 294 100T331 139T345 191V283Q345 309 331 333T294
372T243 387Q214 387 192 372T156 333T142 283V191Q142 164 155 140T192 100T243 85ZM324 597Q294 597 273 605T231 620T185 628Q164 628 150 622T126 608T107 601Q97 601 91 607T82 623T79 637Q79 657 88 669T112 688T141 698T166 701Q194 701 215 694T257 678T304
670Q326 670 339 676T361 689T381 695Q392 695 398 689T406 674T409 661Q409 640 400 628T376 608T348 599T324 597Z" />
<glyph unicode="&#xf6;" horiz-adv-x="486" d="M242 -8Q188 -8 141 20T66 93T37 191V283Q37 336 64 381T139 453T243 480Q299 480 346 454T421 383T450 283V191Q450 140 422 94T346 20T242 -8ZM243 85Q271 85 294 100T331 139T345 191V283Q345 309 331 333T294
372T243 387Q214 387 192 372T156 333T142 283V191Q142 164 155 140T192 100T243 85ZM312 837Q293 837 280 851T267 884Q267 903 280 916T312 930Q331 930 344 917T357 884Q357 865 344 851T312 837ZM173 837Q154 837 141 851T127 884Q127 903 140 916T173 930Q192
930 204 917T217 884Q217 865 205 851T173 837Z" />
<glyph unicode="&#xf7;" horiz-adv-x="458" d="M69 245Q54 245 44 256T34 286Q34 305 44 317T69 329H387Q401 329 412 317T424 286Q424 268 413 257T387 245H69ZM225 64Q203 64 186 81T168 119Q168 143 185 158T225 174Q246 174 264 159T282 119Q282 98 264 81T225
64ZM225 400Q203 400 186 415T168 454Q168 477 185 493T225 510Q246 510 264 494T282 454Q282 431 264 416T225 400Z" />
<glyph unicode="&#xf8;" horiz-adv-x="486" d="M242 -8Q188 -8 141 20T66 93T37 191V283Q37 336 64 381T139 453T243 480Q299 480 346 454T421 383T450 283V191Q450 140 422 94T346 20T242 -8ZM243 85Q271 85 294 100T331 139T345 191V283Q345 309 331 333T294
372T243 387Q214 387 192 372T156 333T142 283V191Q142 164 155 140T192 100T243 85ZM81 -32Q72 -32 64 -25T56 -8Q56 -1 61 6L94 56L350 451L382 499Q389 510 400 510Q411 510 419 502T427 483Q427 475 421 466L390 420L131 25L98 -23Q93 -32 81 -32Z" />
<glyph unicode="&#xf9;" horiz-adv-x="513" d="M257 -8Q201 -8 154 19T78 92T50 189V439Q50 452 65 463T103 474Q124 474 139 463T155 439V189Q155 163 168 139T205 100T257 85Q285 85 308 100T344 139T358 189V440Q358 454 374 464T411 474Q434 474 448 464T463
440V189Q463 136 435 91T360 19T257 -8ZM299 567Q295 567 292 568T286 570L165 631Q149 639 149 658Q149 672 158 685T183 699Q188 699 194 697L318 634Q333 626 333 608Q333 594 324 581T299 567Z" />
<glyph unicode="&#xfa;" horiz-adv-x="513" d="M257 -8Q201 -8 154 19T78 92T50 189V439Q50 452 65 463T103 474Q124 474 139 463T155 439V189Q155 163 168 139T205 100T257 85Q285 85 308 100T344 139T358 189V440Q358 454 374 464T411 474Q434 474 448 464T463
440V189Q463 136 435 91T360 19T257 -8ZM220 568Q206 568 196 581T185 609Q185 627 200 635L324 698Q330 700 335 700Q350 700 359 687T369 659Q369 640 353 632L232 571Q229 570 226 569T220 568Z" />
<glyph unicode="&#xfb;" horiz-adv-x="513" d="M257 -8Q201 -8 154 19T78 92T50 189V439Q50 452 65 463T103 474Q124 474 139 463T155 439V189Q155 163 168 139T205 100T257 85Q285 85 308 100T344 139T358 189V440Q358 454 374 464T411 474Q434 474 448 464T463
440V189Q463 136 435 91T360 19T257 -8ZM144 828Q133 828 126 838T118 863Q118 872 122 880T136 894L240 950Q249 955 257 955Q265 955 274 950L378 895Q389 890 393 881T397 862Q397 849 390 839T371 828Q369 828 367 829T361 831L257 887L153 831Q151 830 149
829T144 828Z" />
<glyph unicode="&#xfc;" horiz-adv-x="513" d="M257 -8Q201 -8 154 19T78 92T50 189V439Q50 452 65 463T103 474Q124 474 139 463T155 439V189Q155 163 168 139T205 100T257 85Q285 85 308 100T344 139T358 189V440Q358 454 374 464T411 474Q434 474 448 464T463
440V189Q463 136 435 91T360 19T257 -8ZM326 573Q307 573 294 587T281 620Q281 639 294 652T326 666Q345 666 358 653T371 620Q371 601 358 587T326 573ZM187 573Q168 573 155 587T141 620Q141 639 154 652T187 666Q206 666 218 653T231 620Q231 601 219 587T187
573Z" />
<glyph unicode="&#xfd;" horiz-adv-x="454" d="M57 -225Q37 -225 23 -217T9 -180Q9 -162 15 -149T37 -135Q56 -135 78 -126T122 -96T159 -44T181 29L12 417Q8 424 8 431Q8 444 19 455T47 474T77 481Q87 481 96 477T109 462L235 137L344 462Q347 472 356 476T374
481Q386 481 402 474T431 456T444 429Q444 421 441 417L291 26Q275 -17 258 -61T217 -143T154 -202T57 -225ZM190 568Q176 568 166 581T155 609Q155 627 170 635L294 698Q300 700 305 700Q320 700 329 687T339 659Q339 640 323 632L202 571Q199 570 196 569T190
568Z" />
<glyph unicode="&#xfe;" horiz-adv-x="506" d="M107 -225Q85 -225 71 -214T56 -190V722Q56 737 70 746T106 756Q130 756 145 747T161 722V404Q177 433 210 456T289 480Q339 480 380 454T445 383T469 283V191Q469 139 445 94T380 20T293 -8Q248 -8 212 15T161 70V-190Q161
-203 146 -214T107 -225ZM262 85Q289 85 312 100T349 140T364 191V283Q364 309 350 333T313 372T260 387Q236 387 213 375T176 339T161 283V168Q161 156 174 137T210 101T262 85Z" />
<glyph unicode="&#xff;" horiz-adv-x="454" d="M57 -225Q37 -225 23 -217T9 -180Q9 -162 15 -149T37 -135Q56 -135 78 -126T122 -96T159 -44T181 29L12 417Q8 424 8 431Q8 444 19 455T47 474T77 481Q87 481 96 477T109 462L235 137L344 462Q347 472 356 476T374
481Q386 481 402 474T431 456T444 429Q444 421 441 417L291 26Q275 -17 258 -61T217 -143T154 -202T57 -225ZM296 829Q277 829 264 843T251 876Q251 895 264 908T296 922Q315 922 328 909T341 876Q341 857 328 843T296 829ZM157 829Q138 829 125 843T111 876Q111
895 124 908T157 922Q176 922 188 909T201 876Q201 857 189 843T157 829Z" />
<glyph unicode="&#x2013;" horiz-adv-x="467" d="M73 196Q58 196 49 208T39 240Q39 259 48 272T73 285H393Q407 285 418 272T429 240Q429 221 418 209T393 196H73Z" />
<glyph unicode="&#x2014;" horiz-adv-x="748" d="M73 196Q58 196 49 208T39 240Q39 259 48 272T73 285H674Q687 285 698 272T709 240Q709 221 698 209T674 196H73Z" />
<glyph unicode="&#x2018;" horiz-adv-x="174" d="M85 533Q61 533 44 550T26 593Q26 598 28 606T35 629T50 668T75 726Q79 735 85 738T99 741Q111 741 123 734T135 712Q135 706 132 700L110 647Q125 640 134 626T144 593Q144 569 127 551T85 533Z" />
<glyph unicode="&#x2019;" horiz-adv-x="172" d="M76 533Q64 533 52 540T40 562Q40 569 43 574L65 627Q50 635 41 649T31 681Q31 706 48 723T90 741Q114 741 131 724T149 682Q149 677 147 668T140 645T125 607T99 548Q96 540 89 537T76 533Z" />
<glyph unicode="&#x201a;" horiz-adv-x="184" d="M78 -94Q66 -94 54 -87T42 -65Q42 -59 45 -53L67 0Q51 7 42 21T32 54Q32 79 49 96T91 114Q116 114 133 97T151 54Q151 50 149 41T142 18T126 -21T101 -79Q98 -87 91 -90T78 -94Z" />
<glyph unicode="&#x201c;" horiz-adv-x="346" d="M258 533Q234 533 216 550T198 593Q198 598 200 606T207 629T223 668T248 726Q252 735 258 738T271 741Q283 741 295 734T307 712Q307 706 304 700L282 647Q298 640 307 626T317 593Q317 569 300 551T258 533ZM85
533Q61 533 44 550T26 593Q26 598 28 606T35 629T50 668T75 726Q79 735 85 738T99 741Q111 741 123 734T135 712Q135 706 132 700L110 647Q125 640 134 626T144 593Q144 569 127 551T85 533Z" />
<glyph unicode="&#x201d;" horiz-adv-x="345" d="M249 533Q237 533 225 540T213 562Q213 569 215 574L238 627Q222 635 213 649T203 681Q203 706 220 723T262 741Q287 741 304 724T322 682Q322 677 320 668T313 645T297 607T272 548Q269 540 262 537T249 533ZM76
533Q64 533 52 540T40 562Q40 569 43 574L65 627Q50 635 41 649T31 681Q31 706 48 723T90 741Q114 741 131 724T149 682Q149 677 147 668T140 645T125 607T99 548Q96 540 89 537T76 533Z" />
<glyph unicode="&#x201e;" horiz-adv-x="356" d="M250 -94Q238 -94 226 -87T214 -65Q214 -59 217 -53L239 0Q224 7 215 21T205 54Q205 79 222 96T264 114Q288 114 305 97T323 54Q323 50 321 41T314 18T299 -21T274 -79Q270 -87 264 -90T250 -94ZM78 -94Q66 -94
54 -87T42 -65Q42 -59 45 -53L67 0Q51 7 42 21T32 54Q32 79 49 96T91 114Q116 114 133 97T151 54Q151 50 149 41T142 18T126 -21T101 -79Q98 -87 91 -90T78 -94Z" />
<glyph unicode="&#x2022;" horiz-adv-x="322" d="M161 182Q128 182 100 198T56 242T39 300Q39 331 55 358T100 401T161 417Q194 417 222 401T266 358T283 300Q283 268 267 241T222 198T161 182Z" />
<glyph unicode="&#x2039;" horiz-adv-x="257" d="M157 74Q134 74 126 89L47 236Q40 251 35 259T29 276Q29 287 34 295T47 318L126 466Q134 480 158 480Q175 480 189 472T213 451T222 428Q222 422 219 416L144 277L219 138Q222 133 222 127Q222 116 213 104T189
83T157 74Z" />
<glyph unicode="&#x203a;" horiz-adv-x="257" d="M100 74Q83 74 68 82T44 103T35 127Q35 133 38 138L113 277L38 416Q35 422 35 428Q35 439 44 451T67 471T99 480Q124 480 131 466L210 318Q217 304 222 296T228 276Q228 267 223 259T210 236L131 89Q123 74 100 74Z" />
</font>
</defs>
</svg>
