<?xml version="1.0" standalone="no"?>
<!DOCTYPE svg PUBLIC "-//W3C//DTD SVG 1.1//EN" "http://www.w3.org/Graphics/SVG/1.1/DTD/svg11.dtd">
<svg xmlns="http://www.w3.org/2000/svg">
<defs >
<font id="Dosis" horiz-adv-x="435" ><font-face
    font-family="Dosis"
    units-per-em="1000"
    panose-1="0 0 0 0 0 0 0 0 0 0"
    ascent="1027"
    descent="-237"
    alphabetic="0" />
<glyph unicode=" " horiz-adv-x="200" />
<glyph unicode="!" horiz-adv-x="221" d="M111 202Q91 202 76 211T61 240Q61 306 58 383T52 537T48 680Q48 706 66 720T111 735Q136 735 154 721T173 680Q173 614 170 537T164 383T160 240Q160 220 143 211T111 202ZM112 -6Q83 -6 64 14T44 62Q44 90 63 110T112
130Q139 130 159 110T179 62Q179 35 159 15T112 -6Z" />
<glyph unicode="&quot;" horiz-adv-x="302" d="M226 564Q206 564 198 574T189 597L179 735Q179 750 193 759T226 768Q244 768 259 759T275 735L265 597Q265 585 256 575T226 564ZM75 564Q55 564 46 574T37 597L27 735Q27 750 42 759T75 768Q93 768 108 759T123
735L113 597Q113 585 104 575T75 564Z" />
<glyph unicode="#" horiz-adv-x="680" d="M177 30Q156 30 135 42T114 78L138 220H60Q43 220 33 233T23 267Q23 288 33 302T60 317H157L179 440H101Q84 440 74 453T64 487Q64 508 74 522T100 536H198L225 686Q227 699 243 706T278 713Q301 713 319 702T337 664L315
536H425L451 686Q454 699 470 706T505 713Q527 713 545 702T565 664L541 536H619Q634 536 645 523T657 488Q657 468 646 454T620 440H524L501 317H579Q593 317 605 303T617 269Q617 247 606 234T579 220H482L454 60Q451 47 435 39T403 30Q390 30 375 35T350 51T339
78L364 220H256L227 60Q224 47 208 39T177 30ZM274 317H383L405 440H297L274 317Z" />
<glyph unicode="$" horiz-adv-x="529" d="M275 -52Q261 -52 251 -45T241 -27V1Q180 2 132 21T56 69T28 125Q28 139 36 155T57 183T85 195Q99 195 113 185T144 161T184 136T241 120V319Q207 332 173 347T110 384T64 439T46 520Q46 568 62 602T105 660T168 696T241
715V743Q241 753 251 760T275 768Q287 768 297 761T308 743V717Q333 716 362 712T418 698T462 675T480 638Q480 627 474 611T457 582T427 569Q413 569 399 577T364 594T308 606V430Q342 418 375 402T436 362T481 303T498 216Q498 124 446 71T308 4V-27Q308 -37
298 -44T275 -52ZM301 121Q334 128 355 148T376 203Q376 228 366 244T339 273T301 295V121ZM249 452V603Q224 600 206 591T178 567T168 533Q168 512 178 497T207 471T249 452Z" />
<glyph unicode="%" horiz-adv-x="793" d="M221 -40Q200 -40 187 -26T174 4Q174 13 178 21L538 750Q548 771 574 771Q591 771 607 759T624 726Q624 716 620 708L260 -18Q256 -28 245 -34T221 -40ZM171 328Q110 328 70 357T29 457V602Q29 673 69 702T171 731Q212
731 244 719T295 678T314 602V457Q314 410 295 382T244 341T171 328ZM171 403Q197 403 212 416T228 457V602Q228 630 213 643T171 656Q145 656 130 643T115 602V457Q115 430 130 417T171 403ZM621 -3Q561 -3 520 26T479 126V271Q479 341 520 370T621 400Q662 400
694 388T745 347T764 271V126Q764 79 745 51T694 10T621 -3ZM622 72Q648 72 663 85T678 126V271Q678 298 663 311T622 325Q595 325 581 312T566 271V126Q566 98 580 85T622 72Z" />
<glyph unicode="&amp;" horiz-adv-x="642" d="M274 -10Q197 -10 141 20T54 101T23 210Q23 256 40 295T86 365T148 413Q119 446 99 482T78 567Q78 625 106 665T182 726T287 748Q348 748 392 729T460 682T484 631Q484 609 465 590T422 571Q406 571 394 582T369 607T338
633T289 644Q251 644 226 623T200 561Q200 531 217 503T258 449T303 401L464 231Q480 270 482 305T486 365Q488 384 499 394T544 404Q577 404 588 388T599 344Q599 319 593 287T575 219T543 150L623 66Q628 60 630 55T632 44Q632 24 613 8T572 -9Q563 -9 556 -6T539
6L478 70Q440 35 390 13T274 -10ZM289 103Q328 103 355 116T401 149L220 337Q204 325 189 309T164 271T154 221Q154 188 169 162T215 119T289 103Z" />
<glyph unicode="&apos;" horiz-adv-x="151" d="M75 564Q55 564 46 574T37 597L27 735Q27 750 42 759T75 768Q93 768 108 759T123 735L113 597Q113 585 104 575T75 564Z" />
<glyph unicode="(" horiz-adv-x="341" d="M258 -20Q221 -20 184 -10T116 23T67 82T48 166V568Q48 613 67 650T117 713T185 754T261 768Q300 768 312 752T325 712Q325 686 314 671T285 655Q251 655 227 642T191 609T178 568V166Q178 136 195 121T237 99T285 93Q310
93 317 75T325 36Q325 11 313 -4T258 -20Z" />
<glyph unicode=")" horiz-adv-x="341" d="M82 -20Q40 -20 28 -5T15 36Q15 57 23 75T56 93Q80 93 104 99T145 120T162 166V568Q162 589 150 609T114 642T56 655Q38 655 27 670T15 712Q15 735 28 751T79 768Q118 768 155 754T224 714T273 650T292 568V166Q292 118
274 82T225 24T157 -9T82 -20Z" />
<glyph unicode="*" horiz-adv-x="475" d="M139 326Q129 326 117 331T95 347T85 371Q85 386 95 398L165 496L55 528Q40 532 33 543T26 571Q26 589 39 604T73 619Q74 619 77 619T85 616L197 579L192 690Q192 711 206 721T238 731Q256 731 269 721T283 690L279 578L391
616Q398 619 404 619Q423 619 435 602T448 566Q448 553 441 543T419 528L310 501L384 397Q390 389 390 373Q390 352 374 339T338 326Q331 326 322 329T306 343L238 446L169 342Q163 332 156 329T139 326Z" />
<glyph unicode="+" horiz-adv-x="449" d="M225 84Q202 84 187 95T171 124V231H64Q46 231 35 246T23 284Q23 307 34 322T64 338H171V444Q171 460 186 472T225 485Q249 485 263 473T278 444V338H384Q400 338 412 323T425 284Q425 261 413 246T384 231H278V124Q278
106 264 95T225 84Z" />
<glyph unicode="," horiz-adv-x="191" d="M81 -100Q67 -100 53 -92T38 -66Q38 -59 41 -52L65 1Q48 11 38 26T28 62Q28 90 47 110T95 130Q123 130 143 111T163 63Q163 59 162 53T155 32T139 -9T108 -83Q104 -92 96 -96T81 -100Z" />
<glyph unicode="-" horiz-adv-x="411" d="M76 187Q58 187 47 202T35 240Q35 263 46 278T76 294H336Q351 294 364 279T377 240Q377 217 364 202T336 187H76Z" />
<glyph unicode="." horiz-adv-x="191" d="M96 -6Q67 -6 48 14T28 62Q28 90 47 110T96 130Q123 130 143 110T163 62Q163 35 143 15T96 -6Z" />
<glyph unicode="/" horiz-adv-x="486" d="M65 -40Q45 -40 32 -26T18 4Q18 13 22 21L382 750Q392 771 418 771Q436 771 452 759T468 726Q468 716 464 708L104 -18Q100 -28 89 -34T65 -40Z" />
<glyph unicode="0" horiz-adv-x="559" d="M279 -6Q213 -6 160 16T76 89T45 223V502Q45 585 76 635T160 708T279 731Q345 731 398 709T483 636T514 502V223Q514 140 483 90T399 17T279 -6ZM279 108Q328 108 356 136T384 223V502Q384 561 356 589T279 617Q230 617
203 589T175 502V223Q175 164 202 136T279 108ZM279 315Q258 315 246 328T233 362Q233 383 245 395T279 408Q301 408 313 396T326 362Q326 342 314 329T279 315Z" />
<glyph unicode="1" horiz-adv-x="287" d="M165 0Q141 0 121 10T100 41V575L68 543Q62 539 56 537T45 534Q26 534 15 550T3 586Q3 600 9 612T27 633L145 723Q151 728 157 730T173 733Q193 733 211 722T230 691V41Q230 21 210 11T165 0Z" />
<glyph unicode="2" horiz-adv-x="505" d="M83 0Q66 0 46 11T26 41V138Q26 178 49 212T109 278T187 338T264 397T324 458T348 524Q348 545 339 565T309 599T255 613Q219 613 193 593T166 525Q166 507 148 492T98 477Q72 477 56 492T40 547Q40 604 70 645T149 709T254
731Q312 731 363 707T446 637T478 528Q478 475 455 432T396 354T320 291T243 238T184 189T161 138V114H439Q456 114 468 98T480 58Q480 35 468 18T439 0H83Z" />
<glyph unicode="3" horiz-adv-x="521" d="M249 -6Q188 -6 145 11T73 55T33 114T20 176Q20 206 33 216T81 227Q121 227 134 217T148 181Q148 164 155 151T175 128T208 113T252 108Q308 108 333 133T359 216V235Q359 290 329 310T250 330Q228 330 219 346T210 381Q210
400 219 416T249 432Q274 432 295 438T328 466T341 530Q341 580 318 599T253 618Q229 618 212 614T184 600T169 579T164 551Q164 529 152 515T103 501Q73 501 59 506T40 523T35 557Q35 584 46 614T82 671T149 714T254 731Q315 731 362 714T438 658T466 552Q466
493 445 448T387 386Q431 369 460 333T489 235V216Q489 135 457 87T370 16T249 -6Z" />
<glyph unicode="4" horiz-adv-x="502" d="M348 0Q323 0 303 10T283 41V159H43Q24 159 11 171T-2 205Q-2 211 0 218T5 231L242 697Q252 716 266 723T297 731Q309 731 324 725T350 708T362 681Q362 675 357 664L165 280H283V385Q283 407 303 416T348 426Q372 426
392 417T413 385V280H459Q480 280 490 261T501 219Q501 197 488 178T459 159H413V41Q413 21 393 11T348 0Z" />
<glyph unicode="5" horiz-adv-x="508" d="M253 -6Q177 -6 124 20T44 87T17 175Q17 210 34 222T82 234Q123 234 135 220T147 184Q147 160 160 143T197 117T250 108Q300 108 328 135T356 219V238Q356 295 328 322T251 350H103Q73 350 62 364T51 401Q51 408 51 414T53
427L78 690Q79 709 85 720T103 731H411Q431 731 440 714T450 674Q450 653 441 635T411 617H186L174 452H251Q317 452 370 432T454 364T486 238V219Q486 138 455 88T370 16T253 -6Z" />
<glyph unicode="6" horiz-adv-x="549" d="M280 -6Q214 -6 161 16T77 89T45 223V502Q45 585 77 635T163 708T287 731Q346 731 389 715T460 671T501 612T514 548Q514 518 499 506T453 494Q427 494 407 504T386 543Q386 566 372 582T334 608T283 617Q232 617 204
589T175 502V393Q199 422 233 433T307 444Q364 444 410 425T485 361T514 237V223Q514 140 483 90T399 17T280 -6ZM280 100Q329 100 356 127T384 215V228Q384 290 357 316T279 342Q232 342 204 318T175 237V215Q175 155 203 128T280 100Z" />
<glyph unicode="7" horiz-adv-x="497" d="M170 -5Q151 -5 132 3T101 27T89 60Q89 72 95 83L356 551V617H147V536Q147 519 127 507T81 494Q55 494 36 506T17 536V690Q17 705 35 718T74 731H429Q448 731 467 718T486 690V576Q486 561 478 540T460 500L208 14Q198
-5 170 -5Z" />
<glyph unicode="8" horiz-adv-x="533" d="M267 -6Q201 -6 148 14T64 80T32 200V212Q32 289 65 335T151 400Q109 415 82 453T55 554Q55 618 82 656T158 713T267 731Q329 731 376 713T451 657T478 554Q478 491 452 453T382 400Q436 381 468 335T501 212V200Q501
126 470 81T386 15T267 -6ZM267 100Q317 100 344 128T371 215V235Q371 292 344 318T267 345Q218 345 190 319T162 235V215Q162 155 190 128T267 100ZM267 451Q308 451 330 471T353 538Q353 584 331 604T267 625Q226 625 204 605T181 538Q181 491 203 471T267 451Z"
/>
<glyph unicode="9" horiz-adv-x="550" d="M264 -6Q204 -6 161 10T90 54T49 113T36 177Q36 208 51 219T97 231Q124 231 144 222T165 182Q165 159 179 143T216 117T267 108Q318 108 347 136T376 223V332Q351 303 317 292T243 281Q186 281 139 300T64 364T36 488V502Q36
585 67 635T151 708T270 731Q336 731 389 709T474 636T506 502V223Q506 140 474 90T387 17T264 -6ZM271 383Q319 383 347 407T376 488V510Q376 570 348 597T270 625Q221 625 194 598T166 510V497Q166 435 193 409T271 383Z" />
<glyph unicode=":" horiz-adv-x="218" d="M110 286Q80 286 61 306T41 354Q41 382 60 402T110 422Q137 422 157 402T177 354Q177 327 157 307T110 286ZM110 -6Q80 -6 61 14T41 62Q41 90 60 110T110 130Q137 130 157 110T177 62Q177 35 157 15T110 -6Z" />
<glyph unicode=";" horiz-adv-x="218" d="M92 -100Q78 -100 64 -92T49 -66Q49 -59 53 -52L76 1Q60 11 50 26T39 62Q39 90 59 110T106 130Q134 130 154 111T174 63Q174 59 173 53T167 32T150 -9T119 -83Q115 -92 107 -96T92 -100ZM112 286Q83 286 64 306T44 354Q44
382 63 402T112 422Q139 422 159 402T179 354Q179 327 159 307T112 286Z" />
<glyph unicode="&lt;" horiz-adv-x="420" d="M323 56Q312 56 306 61L48 229Q34 238 28 252T21 277Q21 288 27 302T48 325L306 494Q312 498 323 498Q343 498 362 481T381 437Q381 413 365 404L171 277L365 151Q381 141 381 117Q381 91 362 74T323 56Z" />
<glyph unicode="=" horiz-adv-x="444" d="M93 327Q75 327 64 342T53 380Q53 403 64 418T93 434H351Q367 434 379 419T392 380Q392 357 380 342T351 327H93ZM93 124Q75 124 64 139T53 177Q53 200 64 215T93 231H351Q367 231 379 216T392 177Q392 154 380 139T351 124H93Z" />
<glyph unicode="&gt;" horiz-adv-x="420" d="M97 56Q78 56 59 73T39 117Q39 141 56 151L249 277L56 404Q39 413 39 437Q39 463 58 480T97 498Q108 498 114 494L372 325Q386 316 392 302T399 277Q399 266 393 252T372 229L114 61Q108 56 97 56Z" />
<glyph unicode="?" horiz-adv-x="438" d="M194 202Q168 202 158 213T147 258Q147 305 156 335T179 384T207 416Q220 429 237 442T269 471T295 507T305 552Q305 595 277 616T202 638Q166 638 147 628T117 603T98 579T71 569Q55 569 38 581T21 617Q21 641 42 668T104
715T206 735Q269 735 315 713T387 652T412 566Q412 528 398 497T364 440T324 398T293 370Q269 351 259 331T246 289T244 238Q244 225 234 214T194 202ZM194 -6Q166 -6 147 14T127 62Q127 90 147 110T194 130Q223 130 242 110T262 62Q262 35 243 15T194 -6Z" />
<glyph unicode="@" horiz-adv-x="743" d="M337 -132Q280 -132 227 -111T131 -48T65 58T41 209Q41 310 77 392T190 522T383 570Q488 570 562 530T675 416T715 239Q715 177 699 126T651 43T567 12Q524 12 496 33T462 85Q437 54 408 36T337 17Q306 17 277 29T230
66T212 132Q212 180 238 206T309 244T413 255H444V270Q444 305 425 322T363 340Q333 340 315 333T285 320T266 313Q257 313 250 322T238 342T234 361Q234 381 256 395T310 419T377 428Q420 428 456 413T515 369T538 294V125Q542 99 551 88T574 77Q594 77 605 92T622
129T630 176T632 219Q632 352 572 424T383 496Q308 496 258 474T178 411T137 319T124 210Q124 157 135 109T172 23T242 -36T352 -58Q393 -58 418 -52T459 -39T485 -32Q501 -32 509 -46T517 -70Q517 -86 499 -97T451 -116T392 -128T337 -132ZM361 86Q384 86 404
98T436 128T449 168V199H425Q391 199 366 193T328 173T315 134Q315 110 327 98T361 86Z" />
<glyph unicode="A" horiz-adv-x="574" d="M91 0Q73 0 54 7T22 26T9 54Q9 57 10 64L203 693Q210 715 234 726T287 737Q316 737 340 726T371 693L564 64Q566 57 566 54Q566 39 553 27T520 7T483 0Q467 0 456 5T440 26L402 159H172L135 26Q131 11 119 6T91 0ZM200
261H374L287 568L200 261Z" />
<glyph unicode="B" horiz-adv-x="562" d="M117 0Q91 0 76 12T60 40V690Q60 710 78 720T117 731H311Q362 731 408 717T483 664T512 555Q512 494 489 454T427 396Q458 385 481 366T517 315T530 233V212Q530 134 504 88T432 21T330 0H117ZM189 114H302Q348 114 374
140T400 223V239Q400 298 374 321T302 345H189V114ZM189 447H302Q343 447 362 471T382 533Q382 560 372 578T344 607T301 617H189V447Z" />
<glyph unicode="C" horiz-adv-x="551" d="M283 -6Q221 -6 168 16T84 89T53 223V502Q53 585 84 635T168 708T284 731Q354 731 407 708T491 642T522 541Q522 502 506 490T457 477Q430 477 412 486T392 518Q392 530 389 546T375 579T345 606T288 617Q237 617 210
589T182 502V223Q182 164 210 136T290 108Q324 108 344 119T373 146T386 181T392 215Q394 238 412 247T456 256Q490 256 506 243T522 192Q522 132 492 87T407 18T283 -6Z" />
<glyph unicode="D" horiz-adv-x="581" d="M117 0Q91 0 76 12T60 40V691Q60 707 75 719T117 731H294Q361 731 414 709T498 636T530 502V229Q530 146 499 96T414 23T294 0H117ZM190 114H294Q344 114 372 142T400 229V502Q400 560 372 588T295 617H190V114Z" />
<glyph unicode="E" horiz-adv-x="530" d="M117 0Q96 0 78 10T60 41V690Q60 710 78 720T117 731H473Q495 731 504 713T514 675Q514 651 504 634T473 617H190V417H342Q362 417 372 402T383 365Q383 348 374 332T342 315H190V114H473Q493 114 503 97T514 56Q514 36
505 18T473 0H117Z" />
<glyph unicode="F" horiz-adv-x="509" d="M125 0Q101 0 81 10T60 41V690Q60 710 78 720T117 731H466Q488 731 497 713T507 675Q507 651 497 634T466 617H190V417H343Q363 417 373 402T384 365Q384 348 375 332T343 315H190V41Q190 21 170 11T125 0Z" />
<glyph unicode="G" horiz-adv-x="564" d="M287 -6Q221 -6 168 16T84 89T53 223V502Q53 585 84 635T167 708T283 731Q353 731 406 708T491 642T522 539Q522 502 506 490T457 477Q431 477 412 486T392 518Q391 542 383 564T353 602T287 617Q238 617 210 589T182
502V223Q182 165 210 137T287 108Q336 108 364 136T392 223V282H311Q292 282 282 298T271 333Q271 352 281 368T311 384H481Q501 384 511 372T522 342V223Q522 140 491 90T407 17T287 -6Z" />
<glyph unicode="H" horiz-adv-x="606" d="M125 0Q101 0 81 10T60 41V691Q60 712 80 721T125 731Q150 731 170 722T190 691V430H415V691Q415 712 435 721T480 731Q505 731 525 722T545 691V41Q545 21 525 11T480 0Q456 0 436 10T415 41V328H190V41Q190 21 170 11T125 0Z" />
<glyph unicode="I" horiz-adv-x="251" d="M125 0Q101 0 81 10T60 41V691Q60 712 80 721T125 731Q150 731 170 722T190 691V41Q190 21 170 11T125 0Z" />
<glyph unicode="J" horiz-adv-x="537" d="M249 -6Q181 -6 127 18T41 87T10 193Q10 231 26 243T76 256Q101 256 120 248T140 215Q142 191 150 166T181 125T244 108Q295 108 322 136T350 223V617H247Q228 617 218 634T207 675Q207 695 216 713T247 731H422Q444 731
462 721T480 690V223Q480 140 449 90T365 17T249 -6Z" />
<glyph unicode="K" horiz-adv-x="553" d="M125 0Q101 0 81 10T60 41V691Q60 712 80 721T125 731Q150 731 170 722T190 691V418L407 712Q420 731 442 731Q459 731 476 721T506 696T518 664Q518 659 516 652T509 639L331 415L549 83Q556 72 556 60Q556 44 545 29T515
5T478 -5Q464 -5 453 1T432 20L244 305L190 237V41Q190 21 170 11T125 0Z" />
<glyph unicode="L" horiz-adv-x="483" d="M117 0Q96 0 78 10T60 41V691Q60 712 80 721T125 731Q150 731 170 722T190 691V114H435Q454 114 463 97T473 57Q473 36 464 18T435 0H117Z" />
<glyph unicode="M" horiz-adv-x="699" d="M125 0Q101 0 81 10T60 41V666Q60 702 80 716T125 731Q149 731 165 726T196 706T227 662L349 438L472 662Q490 691 503 706T534 726T574 731Q599 731 619 717T639 666V41Q639 21 619 11T574 0Q550 0 530 10T509 41V471L393
263Q384 249 372 243T348 237Q337 237 326 242T305 263L190 479V41Q190 21 170 11T125 0Z" />
<glyph unicode="N" horiz-adv-x="606" d="M125 0Q101 0 81 10T60 41V690Q60 711 80 721T125 731Q149 731 164 726T193 707T222 662L415 289V691Q415 712 435 721T480 731Q505 731 525 722T545 691V41Q545 21 525 11T480 0Q457 0 438 9T406 41L190 443V41Q190 21
170 11T125 0Z" />
<glyph unicode="O" horiz-adv-x="574" d="M287 -6Q221 -6 168 16T84 89T53 223V502Q53 585 84 635T167 708T287 731Q353 731 406 709T491 636T522 502V223Q522 140 491 90T407 17T287 -6ZM287 108Q336 108 364 136T392 223V502Q392 561 364 589T287 617Q238 617
210 589T182 502V223Q182 164 210 136T287 108Z" />
<glyph unicode="P" horiz-adv-x="557" d="M125 0Q101 0 81 10T60 41V691Q60 707 74 719T110 731H310Q374 731 425 709T507 638T537 506V500Q537 418 506 368T422 296T302 273H190V41Q190 21 170 11T125 0ZM190 375H302Q352 375 379 403T407 490V502Q407 560 380
588T302 617H190V375Z" />
<glyph unicode="Q" horiz-adv-x="574" d="M287 -109Q271 -109 258 -99T245 -68V-3Q190 3 146 28T78 101T53 223V502Q53 586 84 636T168 708T287 731Q353 731 406 709T491 636T522 502V223Q522 149 497 101T428 28T328 -3V-68Q328 -88 315 -98T287 -109ZM245 116V169Q245
190 258 199T287 209Q302 209 315 200T328 169V116Q358 126 375 152T392 223V502Q392 560 364 588T287 617Q238 617 210 589T182 502V223Q182 179 198 153T245 116Z" />
<glyph unicode="R" horiz-adv-x="568" d="M461 -5Q448 -5 436 3T416 26L274 302H190V41Q190 21 170 11T125 0Q101 0 81 10T60 41V691Q60 707 71 719T102 731H300Q366 731 419 712T505 648T537 522Q537 464 520 424T474 359T406 322L538 79Q540 75 541 71T542 63Q542
47 530 31T500 5T461 -5ZM190 404H300Q349 404 378 428T407 510Q407 570 378 593T300 617H190V404Z" />
<glyph unicode="S" horiz-adv-x="522" d="M255 -9Q190 -9 138 10T55 57T24 115Q24 129 31 145T52 173T81 185Q97 185 111 174T143 147T187 120T251 108Q281 108 306 117T347 146T363 195Q363 227 346 249T300 287T237 318T169 350T106 391T60 450T42 536Q42 592
63 630T120 691T199 725T285 736Q308 736 339 733T402 720T454 696T475 656Q475 644 470 628T453 600T423 587Q407 587 392 596T352 615T285 625Q250 625 224 616T185 590T172 548Q172 522 189 504T235 472T298 444T366 412T430 367T476 303T493 208Q493 137 462
89T378 16T255 -9Z" />
<glyph unicode="T" horiz-adv-x="523" d="M262 0Q237 0 217 10T197 41V614H50Q31 614 20 632T9 673Q9 694 19 712T50 731H473Q495 731 504 713T514 673Q514 650 504 632T473 614H327V41Q327 21 307 11T262 0Z" />
<glyph unicode="U" horiz-adv-x="594" d="M297 -6Q229 -6 175 16T89 89T57 223V691Q57 712 77 721T122 731Q146 731 166 722T187 691V223Q187 165 216 137T297 108Q348 108 377 136T407 223V691Q407 712 426 721T472 731Q496 731 516 722T537 691V223Q537 140
505 90T419 17T297 -6Z" />
<glyph unicode="V" horiz-adv-x="574" d="M287 -6Q259 -6 235 5T204 38L10 667Q8 674 8 677Q8 693 21 705T53 724T91 731Q107 731 119 726T134 705L287 163L439 705Q444 720 455 725T483 731Q501 731 520 724T552 705T565 677Q565 675 565 673T564 667L371 38Q365
16 341 5T287 -6Z" />
<glyph unicode="W" horiz-adv-x="881" d="M293 -6Q265 -6 240 5T208 38L10 667Q8 673 8 679Q8 694 21 705T53 724T91 731Q106 731 118 725T134 705L292 163L377 511Q382 529 400 538T440 547Q463 547 481 538T504 511L589 163L747 705Q751 719 763 725T790 731Q809
731 828 724T860 706T873 679Q873 673 871 667L673 38Q665 16 641 5T588 -6Q560 -6 535 5T505 38L440 308L376 38Q371 16 346 5T293 -6Z" />
<glyph unicode="X" horiz-adv-x="559" d="M98 -5Q80 -5 60 4T26 27T12 60Q12 71 20 84L193 366L26 647Q17 661 17 675Q17 692 30 706T62 728T100 736Q116 736 126 729T143 708L279 463L416 708Q423 721 433 728T459 736Q477 736 496 728T529 706T542 675Q542 661
533 647L366 366L539 84Q547 71 547 60Q547 42 533 28T500 4T461 -5Q450 -5 441 1T426 16L279 273L133 16Q128 7 119 1T98 -5Z" />
<glyph unicode="Y" horiz-adv-x="572" d="M286 0Q262 0 242 10T221 41V293Q221 300 218 306L11 664Q9 668 9 671T8 677Q8 693 22 705T56 724T94 731Q110 731 118 725T133 705L286 416L438 705Q446 718 454 724T478 731Q496 731 515 724T549 705T564 677Q564 675
564 672T561 664L354 306Q351 300 351 293V41Q351 21 331 11T286 0Z" />
<glyph unicode="Z" horiz-adv-x="520" d="M52 0Q32 0 23 10T13 36Q13 57 27 81L324 617H71Q52 617 42 634T31 674Q31 695 40 713T71 731H451Q471 731 480 721T490 696Q490 675 475 649L179 114H467Q487 114 497 96T508 57Q508 37 498 19T467 0H52Z" />
<glyph unicode="[" horiz-adv-x="340" d="M112 -21Q91 -21 73 -11T55 20V727Q55 747 73 757T112 768H284Q305 768 315 750T325 712Q325 688 315 671T284 654H185V93H284Q304 93 314 76T325 35Q325 15 315 -3T284 -21H112Z" />
<glyph unicode="\" horiz-adv-x="373" d="M305 -1Q291 -1 280 6T265 27L23 697Q20 704 20 711Q20 728 34 741T69 755Q82 755 92 749T108 729L350 57Q352 54 352 51T352 45Q352 28 338 14T305 -1Z" />
<glyph unicode="]" horiz-adv-x="340" d="M56 -21Q35 -21 25 -3T15 35Q15 59 26 76T56 93H155V654H56Q37 654 26 671T15 712Q15 732 25 750T56 768H227Q250 768 267 758T285 727V20Q285 0 267 -10T227 -21H56Z" />
<glyph unicode="^" horiz-adv-x="285" d="M28 576Q16 576 8 588T0 616Q0 627 5 637T22 653L126 709Q135 714 143 714Q150 714 160 709L264 654Q276 648 280 638T285 615Q285 601 278 589T257 576Q255 576 252 577T247 579L143 635L39 579Q36 578 33 577T28 576Z" />
<glyph unicode="_" horiz-adv-x="314" d="M-3 -107Q-21 -107 -32 -92T-43 -54Q-43 -31 -32 -16T-3 0H317Q333 0 346 -15T359 -54Q359 -77 346 -92T317 -107H-3Z" />
<glyph unicode="`" horiz-adv-x="202" d="M162 568Q158 568 155 569T148 572L18 635Q0 644 0 665Q0 682 11 698T40 714Q46 714 53 712L185 648Q202 639 202 617Q202 601 191 585T162 568Z" />
<glyph unicode="a" horiz-adv-x="471" d="M152 -9Q99 -9 61 23T22 124Q22 181 51 213T133 258T255 271H296V284Q296 306 288 327T261 362T208 376Q170 376 150 369T118 353T94 345Q73 345 62 366T50 409Q50 430 75 446T138 472T210 481Q288 481 335 453T403 381T425
286V41Q425 24 407 12T362 0Q337 0 321 12T304 41V70Q277 39 241 15T152 -9ZM204 87Q225 87 246 101T281 137T296 183V204H281Q248 204 218 200T170 183T151 141Q151 113 166 100T204 87Z" />
<glyph unicode="b" horiz-adv-x="519" d="M311 -9Q264 -9 226 15T172 70V41Q172 26 156 13T114 0Q87 0 69 13T51 41V712Q51 730 69 741T114 752Q142 752 161 741T180 712V405Q196 434 229 457T308 481Q357 481 397 454T462 380T486 278V196Q486 143 462 96T398
20T311 -9ZM270 104Q294 104 314 117T345 152T357 196V278Q357 301 346 321T314 354T269 368Q248 368 228 357T194 326T180 278V178Q180 168 192 151T224 119T270 104Z" />
<glyph unicode="c" horiz-adv-x="433" d="M251 -9Q175 -9 127 18T56 91T33 196V276Q33 334 55 380T126 454T249 481Q296 481 332 470T389 441T410 403Q410 392 404 377T386 351T359 340Q348 340 337 347T307 361T259 368Q208 368 185 344T162 276V196Q162 153
185 129T260 104Q291 104 308 112T336 127T360 134Q378 134 390 124T409 100T416 73Q416 53 395 34T336 3T251 -9Z" />
<glyph unicode="d" horiz-adv-x="519" d="M208 -9Q161 -9 121 20T57 96T33 196V278Q33 334 57 380T121 453T210 481Q257 481 290 458T339 405V712Q339 730 358 741T405 752Q432 752 450 741T468 712V41Q468 26 450 13T405 0Q381 0 364 13T347 41V70Q332 39 294
15T208 -9ZM249 104Q275 104 295 118T327 150T339 178V278Q339 306 326 326T292 357T250 368Q226 368 206 355T174 321T162 278V196Q162 173 173 152T205 118T249 104Z" />
<glyph unicode="e" horiz-adv-x="485" d="M274 -9Q203 -9 149 16T63 88T32 196V281Q32 335 61 380T140 453T251 481Q307 481 353 457T429 391T458 293Q458 250 444 232T409 209T364 204H161V189Q161 146 193 120T278 93Q311 93 333 103T371 122T401 131Q416 131
427 121T444 98T450 74Q450 57 429 38T368 5T274 -9ZM161 280H307Q324 280 330 285T337 307Q337 330 325 348T293 376T249 386Q226 386 206 377T174 350T161 308V280Z" />
<glyph unicode="f" horiz-adv-x="340" d="M114 0Q87 0 69 11T51 40V556Q51 612 75 656T139 726T227 752H286Q310 752 322 735T335 698Q335 676 323 660T286 643H254Q233 643 216 634T190 609T180 570V475H302Q318 475 326 461T335 428Q335 410 327 396T302 381H180V40Q180
23 161 12T114 0Z" />
<glyph unicode="g" horiz-adv-x="471" d="M237 -221Q178 -221 128 -205T47 -156T16 -80Q16 -42 37 -16T89 26Q70 35 59 50T47 90Q47 118 61 135T98 168Q68 191 52 223T36 295V316Q36 365 60 402T128 460T231 481Q264 481 293 474T345 452Q362 492 377 506T406
520Q430 520 443 506T457 480Q457 471 453 464T440 452Q431 446 418 438T394 414Q412 394 420 370T429 316V295Q429 247 404 210T334 150T231 128Q195 128 166 137Q161 133 158 128T154 117Q154 100 176 93T232 82T304 72T377 51T433 10T455 -64Q455 -120 424 -154T343
-205T237 -221ZM235 -138Q274 -138 301 -119T329 -68Q329 -47 317 -34T285 -15T240 -5T192 2Q168 -9 153 -26T138 -67Q138 -100 166 -119T235 -138ZM233 206Q266 206 285 231T304 295V316Q304 353 286 378T232 403Q198 403 180 378T161 316V296Q161 258 179 232T233
206Z" />
<glyph unicode="h" horiz-adv-x="524" d="M115 0Q87 0 69 13T51 41V712Q51 730 69 741T115 752Q142 752 161 741T180 712V405Q195 434 227 457T306 481Q353 481 392 454T454 380T478 278V41Q478 21 458 11T413 0Q391 0 370 10T349 41V278Q349 301 337 321T306
354T262 368Q242 368 223 357T192 326T180 278V41Q180 26 161 13T115 0Z" />
<glyph unicode="i" horiz-adv-x="228" d="M114 581Q85 581 64 600T43 644Q43 670 64 688T114 707Q144 707 164 689T184 644Q184 620 164 601T114 581ZM114 0Q86 0 68 13T50 41V435Q50 453 68 464T114 475Q141 475 160 464T179 435V41Q179 26 160 13T114 0Z" />
<glyph unicode="j" horiz-adv-x="229" d="M28 -221Q-12 -221 -25 -205T-39 -168Q-39 -142 -25 -127T10 -112Q28 -112 36 -102T47 -74T50 -32V435Q50 453 68 464T113 475Q141 475 160 464T179 435V-32Q179 -87 162 -130T112 -197T28 -221ZM114 581Q85 581 64 600T43
644Q43 670 64 688T114 707Q144 707 164 689T184 644Q184 620 164 601T114 581Z" />
<glyph unicode="k" horiz-adv-x="493" d="M114 0Q87 0 69 13T51 41V712Q51 730 69 741T114 752Q142 752 161 741T180 712V293L369 470Q379 480 394 480Q409 480 423 471T447 447T457 418Q457 412 455 406T446 394L328 287L476 77Q483 66 483 56Q483 41 471 26T442
2T409 -8Q389 -8 377 9L243 208L180 151V41Q180 26 161 13T114 0Z" />
<glyph unicode="l" horiz-adv-x="247" d="M123 0Q95 0 77 13T59 41V712Q59 730 77 741T123 752Q150 752 169 741T188 712V41Q188 26 169 13T123 0Z" />
<glyph unicode="m" horiz-adv-x="803" d="M114 0Q86 0 68 13T50 41V435Q50 453 68 464T114 475Q138 475 154 464T171 435V405Q188 434 221 457T304 481Q347 481 380 453T429 381Q455 432 495 456T579 481Q625 481 665 458T731 389T757 278V41Q757 26 738 13T692
0Q666 0 647 13T628 41V278Q628 308 617 328T586 358T547 369Q527 369 510 359T480 328T468 279V40Q468 19 448 10T403 0Q381 0 360 9T339 40V278Q339 306 328 326T298 357T258 368Q238 368 220 358T191 328T179 278V41Q179 26 160 13T114 0Z" />
<glyph unicode="n" horiz-adv-x="523" d="M114 0Q86 0 68 13T50 41V435Q50 453 68 464T114 475Q138 475 154 464T171 435V405Q186 434 220 457T305 481Q352 481 391 454T453 380T477 278V41Q477 21 457 11T412 0Q390 0 369 10T348 41V278Q348 301 337 321T305
354T261 368Q241 368 222 357T191 326T179 278V41Q179 26 160 13T114 0Z" />
<glyph unicode="o" horiz-adv-x="497" d="M248 -9Q190 -9 141 19T62 95T32 196V278Q32 332 61 378T139 453T248 481Q307 481 356 454T435 380T465 278V196Q465 143 435 96T356 20T248 -9ZM248 104Q272 104 292 117T324 151T336 196V278Q336 301 324 321T293 354T248
368Q224 368 204 355T173 322T161 278V196Q161 173 172 152T204 117T248 104Z" />
<glyph unicode="p" horiz-adv-x="519" d="M114 -221Q87 -221 69 -208T51 -180V435Q51 453 69 464T113 475Q139 475 155 464T172 435V405Q189 434 224 457T307 481Q357 481 398 454T462 380T486 278V196Q486 143 462 96T398 20T311 -9Q267 -9 231 15T180 70V-180Q180
-195 161 -208T114 -221ZM269 104Q293 104 312 117T344 152T357 196V278Q357 301 345 321T313 354T267 368Q245 368 226 357T193 326T180 278V178Q180 168 191 151T223 119T269 104Z" />
<glyph unicode="q" horiz-adv-x="519" d="M405 -221Q377 -221 358 -208T339 -180V70Q325 39 289 15T208 -9Q161 -9 121 20T57 96T33 196V278Q33 334 56 380T121 453T212 481Q260 481 295 458T347 405V435Q347 453 363 464T406 475Q432 475 450 464T468 435V-180Q468
-195 450 -208T405 -221ZM250 104Q276 104 296 118T327 150T339 178V278Q339 306 327 326T294 357T252 368Q227 368 207 355T174 321T162 278V196Q162 173 174 152T207 118T250 104Z" />
<glyph unicode="r" horiz-adv-x="375" d="M113 0Q86 0 68 13T50 41V435Q50 453 68 464T113 475Q138 475 154 464T171 435V394Q182 416 200 435T243 468T294 481H325Q344 481 358 465T372 425Q372 401 358 385T325 368H294Q266 368 240 350T196 299T179 220V41Q179
26 160 13T113 0Z" />
<glyph unicode="s" horiz-adv-x="417" d="M205 -9Q155 -9 114 3T49 36T25 77Q25 87 30 100T45 124T68 134Q82 134 97 123T136 100T202 89Q247 89 261 103T276 132Q276 154 259 166T214 186T157 202T99 225T55 265T38 332Q38 368 55 402T111 458T217 481Q258 481
294 473T354 449T377 416Q377 407 371 393T355 366T329 354Q318 354 303 361T267 376T219 383Q194 383 179 376T157 359T150 338Q150 320 167 310T211 293T269 278T327 253T372 209T389 137Q389 71 342 31T205 -9Z" />
<glyph unicode="t" horiz-adv-x="344" d="M233 0Q143 0 96 39T48 162V647Q48 665 69 676T112 687Q136 687 156 676T177 647V475H295Q311 475 319 461T328 428Q328 410 320 396T295 381H177V162Q177 133 189 121T233 109H272Q300 109 313 92T327 55Q327 34 314
17T272 0H233Z" />
<glyph unicode="u" horiz-adv-x="524" d="M263 -9Q203 -9 154 19T75 94T45 194V434Q45 449 64 462T110 475Q136 475 155 462T174 434V194Q174 171 186 151T218 118T262 104Q287 104 306 117T338 151T350 194V435Q350 451 369 463T414 475Q443 475 461 463T479
435V194Q479 140 450 94T371 19T263 -9Z" />
<glyph unicode="v" horiz-adv-x="479" d="M240 -11Q220 -11 203 -5T181 12L10 408Q8 411 7 416T5 426Q5 441 19 453T54 473T91 481Q103 481 113 476T128 459L240 169L351 457Q355 470 365 475T388 481Q401 481 421 474T458 453T474 425Q474 420 473 416T470 408L298
12Q293 1 276 -5T240 -11Z" />
<glyph unicode="w" horiz-adv-x="692" d="M215 -11Q198 -11 184 -6T165 13L10 408Q8 415 7 419T6 427Q6 443 19 454T53 473T89 480Q102 480 112 475T127 459L227 175L302 422Q307 439 319 443T346 448Q361 448 373 444T390 422L464 174L565 459Q572 480 601 480Q617
480 637 473T671 454T685 426Q685 422 684 417T681 408L526 12Q521 -1 507 -6T476 -11Q458 -11 443 -5T423 12L346 230L269 13Q266 1 250 -5T215 -11Z" />
<glyph unicode="x" horiz-adv-x="469" d="M102 -9Q89 -9 70 0T35 25T20 55Q20 66 28 77L146 242L36 395Q34 398 31 404T28 416Q28 431 42 446T77 471T114 481Q119 481 128 479T143 467L234 321L326 466Q331 475 340 478T357 481Q372 481 392 471T426 447T441 416Q441
407 433 395L322 241L441 77Q444 74 446 68T449 55Q449 41 435 27T402 2T365 -9Q357 -9 349 -6T335 5L234 157L134 5Q129 -2 120 -5T102 -9Z" />
<glyph unicode="y" horiz-adv-x="474" d="M64 -221Q39 -221 22 -212T5 -166Q5 -144 12 -128T38 -112Q55 -112 77 -106T123 -84T162 -39T181 35L9 403Q5 412 5 420Q5 437 19 451T54 473T91 482Q103 482 113 477T128 460L248 161L344 460Q349 472 359 477T379 482Q394
482 415 474T451 451T467 418Q467 409 464 403L318 30Q300 -15 283 -59T241 -140T173 -199T64 -221Z" />
<glyph unicode="z" horiz-adv-x="434" d="M64 0Q40 0 30 14T20 46Q20 61 26 74T42 98L238 370H66Q50 370 39 385T27 423Q27 444 38 459T66 475H360Q377 475 389 464T401 431Q401 404 381 377L184 105H379Q395 105 406 90T418 52Q418 31 408 16T379 0H64Z" />
<glyph unicode="{" horiz-adv-x="359" d="M272 -20Q221 -20 173 0T95 57T64 141Q64 152 66 169T70 209T75 252T79 288T81 311Q81 326 72 331T51 340T30 353T21 386Q21 409 30 418T51 431T72 439T81 459Q81 467 78 484T73 523T67 564T64 596Q64 630 82 661T130
716T198 754T274 768Q316 768 331 750T346 711Q346 692 336 675T305 658Q285 658 259 650T214 625T194 579Q194 569 197 551T202 510T208 470T211 443Q211 422 198 405T175 384Q186 381 198 364T211 326Q211 317 208 293T203 241T197 189T194 156Q194 136 206 124T236
104T272 93T305 90Q322 90 330 81T342 60T346 36Q346 7 327 -6T272 -20Z" />
<glyph unicode="|" horiz-adv-x="240" d="M119 -21Q91 -21 73 -8T55 20V728Q55 745 73 756T119 768Q146 768 165 757T184 728V20Q184 5 165 -8T119 -21Z" />
<glyph unicode="}" horiz-adv-x="359" d="M87 -20Q52 -20 33 -7T14 36Q14 47 17 59T30 81T54 90Q68 90 87 93T123 103T153 123T165 156Q165 165 163 188T157 240T152 293T149 326Q149 347 161 364T184 384Q175 387 162 404T149 443Q149 452 151 470T157 510T162
550T165 579Q165 607 146 624T101 650T54 658Q34 658 24 675T14 711Q14 731 28 749T86 768Q125 768 162 754T229 716T277 661T295 596Q295 584 293 564T287 523T282 485T279 459Q279 444 288 440T309 432T330 419T339 386Q339 363 330 354T309 341T288 332T279
311Q279 304 280 289T284 252T289 209T293 170T295 141Q295 94 265 58T187 1T87 -20Z" />
<glyph unicode="~" horiz-adv-x="409" d="M291 199Q258 199 235 206T193 221T148 228Q127 228 113 222T88 210T66 204Q54 204 47 212T36 230T33 246Q33 269 43 282T68 303T96 312T119 314Q149 314 170 307T213 293T261 285Q283 285 297 291T321 303T343 309Q356
309 363 301T372 282T375 267Q375 243 365 230T341 210T313 201T291 199Z" />
<glyph unicode="&#xa0;" horiz-adv-x="200" />
<glyph unicode="&#xa1;" horiz-adv-x="221" d="M110 -6Q85 -6 67 8T48 48Q48 115 51 192T58 346T61 489Q61 509 78 518T110 527Q130 527 145 518T160 489Q160 423 163 346T170 192T173 48Q173 23 155 9T110 -6ZM110 598Q82 598 62 618T42 667Q42 694 62 714T110
735Q138 735 157 715T177 667Q177 639 158 619T110 598Z" />
<glyph unicode="&#xa2;" horiz-adv-x="439" d="M247 39Q232 39 221 50T210 76V157Q114 166 71 223T27 361V379Q27 433 46 476T106 548T210 583V660Q210 675 221 685T247 695Q262 695 274 685T286 660V581Q320 577 347 566T389 539T405 507Q405 495 399 481T381
457T354 448Q346 448 337 453T317 464T286 474V267Q304 271 315 278T336 290T354 295Q380 295 395 276T410 237Q410 219 393 203T349 176T286 158V76Q286 62 274 51T247 39ZM210 265V474Q174 466 157 442T140 379V361Q140 323 157 299T210 265Z" />
<glyph unicode="&#xa3;" horiz-adv-x="542" d="M60 0Q41 0 31 18T21 57Q21 79 31 96T60 114H113L148 366H93Q76 366 68 380T59 413Q59 430 67 445T93 460H162L175 555Q185 617 222 665T314 741T430 768H466Q487 768 498 751T509 712Q509 691 498 673T466 655H425Q389
655 364 642T324 606T304 555L291 460H410Q426 460 434 445T443 413Q443 395 435 381T410 366H277L241 114H470Q490 114 499 97T509 57Q509 36 500 18T470 0H60Z" />
<glyph unicode="&#xa4;" horiz-adv-x="451" d="M226 290Q195 290 167 301T115 332L89 308Q83 303 76 303Q65 303 57 312T48 331Q48 338 53 344L81 370Q66 392 58 418T49 472Q49 500 57 526T81 574L55 599Q49 604 49 612Q49 622 57 631T77 640Q85 640 91 635L115
612Q138 630 166 641T226 652Q256 652 284 642T335 613L360 636Q366 641 374 641Q384 641 392 632T401 613Q401 606 396 600L369 575Q385 554 394 528T404 473Q404 444 395 418T369 369L396 344Q401 337 401 331Q401 321 393 312T374 303Q366 303 360 308L335 331Q312
312 284 301T226 290ZM226 362Q255 362 279 377T318 418T333 471Q333 499 319 524T280 564T226 580Q196 580 172 565T134 525T120 472Q120 444 134 419T172 378T226 362Z" />
<glyph unicode="&#xa5;" horiz-adv-x="564" d="M281 0Q257 0 237 10T216 41V155H126Q108 155 97 167T86 199Q86 219 97 232T126 246H216V310H126Q108 310 97 322T86 354Q86 374 97 387T126 401H187L26 667Q23 671 23 675T22 683Q22 696 34 708T64 728T99 736Q113
736 121 728T136 706L281 435L429 706Q436 719 444 727T465 736Q482 736 500 728T530 708T542 683Q542 674 538 667L375 401H440Q455 401 468 388T481 355Q481 336 468 323T440 310H346V246H440Q455 246 468 233T481 200Q481 180 468 168T440 155H346V41Q346 21
326 11T281 0Z" />
<glyph unicode="&#xa6;" horiz-adv-x="240" d="M120 436Q91 436 73 449T55 478V728Q55 745 73 756T120 768Q146 768 165 757T185 728V478Q185 462 166 449T120 436ZM120 -21Q91 -21 73 -8T55 20V270Q55 288 73 299T120 311Q146 311 165 300T185 270V20Q185 5 166
-8T120 -21Z" />
<glyph unicode="&#xa7;" horiz-adv-x="480" d="M235 -68Q172 -68 128 -43T63 20T41 99Q41 129 55 139T96 150Q128 150 139 140T151 114Q151 103 154 90T164 66T187 47T228 39Q272 39 291 60T311 111Q311 137 297 153T258 182T206 207T149 234T98 273T60 330T45
417V524Q45 587 63 627T111 690T175 722T240 731Q301 731 341 707T401 644T421 564Q421 533 408 523T372 513Q341 513 329 525T317 556Q317 570 312 586T290 614T244 626Q219 626 201 617T174 591T164 551Q164 525 179 508T218 479T273 454T332 427T386 389T426
331T441 245V138Q441 77 423 37T373 -26T306 -58T235 -68ZM335 240V261Q335 293 322 313T287 346T240 368T192 387T152 412V391Q152 359 165 339T200 306T247 284T295 265T335 240Z" />
<glyph unicode="&#xa8;" horiz-adv-x="251" d="M201 577Q180 577 165 593T149 630Q149 651 164 666T201 682Q221 682 236 667T251 630Q251 609 236 593T201 577ZM51 577Q30 577 15 593T0 630Q0 651 15 666T51 682Q72 682 86 667T101 630Q101 609 87 593T51 577Z" />
<glyph unicode="&#xa9;" horiz-adv-x="690" d="M342 35Q289 35 236 55T137 115T65 216T38 358Q38 442 66 503T141 605T241 665T348 685Q401 685 454 665T553 605T625 504T652 362Q652 278 624 217T549 115T449 55T342 35ZM342 97Q416 97 471 130T558 224T590 362Q590
438 561 497T477 589T348 623Q275 623 219 590T132 497T101 358Q101 283 130 224T214 131T342 97ZM346 170Q297 170 262 199T227 298V436Q227 506 262 535T346 564Q400 564 434 536T469 458Q469 436 461 429T434 422Q420 422 410 427T398 445Q398 454 395 466T382
489T349 499Q298 499 298 436V298Q298 235 349 235Q371 235 381 245T394 268T398 294Q399 307 409 311T434 316Q452 316 460 309T469 280Q469 229 435 200T346 170Z" />
<glyph unicode="&#xaa;" horiz-adv-x="331" d="M137 436Q130 435 122 434T107 434Q74 435 50 456T25 521Q25 578 68 598T181 619H207V628Q207 650 195 670T150 690Q123 690 110 685T90 674T73 668Q59 668 52 682T44 712Q44 726 61 736T103 753T151 760Q203 760
234 742T279 693T294 629V466Q294 455 282 447T251 439Q235 439 224 447T213 466V486Q199 469 180 456T137 436ZM147 497Q161 497 175 506T198 529T207 561V574H187Q167 574 150 571T123 559T112 533Q112 514 121 506T147 497Z" />
<glyph unicode="&#xab;" horiz-adv-x="499" d="M385 74Q358 74 349 91L276 227Q266 246 260 255T253 276Q253 288 259 298T276 327L349 463Q358 480 385 480Q407 480 425 470T455 444T466 415Q466 408 463 403L396 277L463 152Q466 146 466 139Q466 126 455 111T425
85T385 74ZM158 74Q130 74 121 91L48 227Q38 246 32 255T25 276Q25 288 31 298T48 327L121 463Q130 480 158 480Q179 480 197 470T227 444T238 415Q238 408 235 403L168 277L235 152Q238 146 238 139Q238 126 227 111T198 85T158 74Z" />
<glyph unicode="&#xac;" horiz-adv-x="499" d="M385 163Q357 163 339 176T321 204V287H74Q56 287 45 302T34 340Q34 363 45 378T74 394H408Q424 394 437 379T450 340V204Q450 189 431 176T385 163Z" />
<glyph unicode="&#xad;" horiz-adv-x="471" d="M76 187Q58 187 47 202T35 240Q35 263 46 278T76 294H396Q411 294 424 279T437 240Q437 217 424 202T396 187H76Z" />
<glyph unicode="&#xae;" horiz-adv-x="690" d="M342 35Q289 35 236 55T137 115T65 216T38 358Q38 442 66 503T141 605T241 665T348 685Q401 685 454 665T553 605T625 504T652 362Q652 278 624 217T549 115T449 55T342 35ZM342 97Q416 97 471 130T558 224T590 362Q590
438 561 497T477 589T348 623Q275 623 219 590T132 497T101 358Q101 283 130 224T214 131T342 97ZM437 178Q430 178 425 182T415 196L350 329H306V203Q306 192 297 186T273 179Q260 179 249 185T238 203V528Q238 537 244 543T261 551H358Q390 551 416 541T459 508T475
443Q475 401 457 376T411 340L472 221Q473 219 473 214Q473 200 461 189T437 178ZM306 386H358Q382 386 395 398T409 436Q409 467 396 479T358 491H306V386Z" />
<glyph unicode="&#xaf;" horiz-adv-x="0" d="M40 610Q23 610 12 622T0 652Q0 670 11 682T40 695H245Q260 695 273 683T286 652Q286 634 273 622T245 610H40Z" />
<glyph unicode="&#xb0;" horiz-adv-x="398" d="M198 406Q151 406 111 431T46 498T21 588Q21 636 45 677T109 743T198 768Q246 768 286 744T351 679T376 589Q376 541 352 499T287 432T198 406ZM198 478Q228 478 252 493T291 534T305 587Q305 615 291 640T253 680T199
696Q169 696 145 681T107 641T92 588Q92 560 106 535T144 494T198 478Z" />
<glyph unicode="&#xb1;" horiz-adv-x="474" d="M237 176Q215 176 199 187T183 216V315H76Q58 315 47 330T36 368Q36 391 47 407T76 423H183V521Q183 536 199 549T237 562Q262 562 276 549T290 521V423H396Q412 423 425 407T438 368Q438 345 425 330T396 315H290V216Q290
198 276 187T237 176ZM76 32Q58 32 47 47T36 85Q36 108 47 123T76 139H396Q412 139 425 124T438 85Q438 62 425 47T396 32H76Z" />
<glyph unicode="&#xb2;" horiz-adv-x="320" d="M61 331Q50 331 37 338T23 358V411Q23 437 42 458T89 499T145 537T192 575T211 615Q211 628 200 641T162 654Q142 654 128 645T114 613Q114 602 102 592T69 582Q53 582 42 591T30 626Q30 659 49 682T98 718T161 731Q196
731 227 718T277 680T297 618Q297 583 279 557T233 511T178 475T132 444T113 416V406H271Q281 406 289 395T297 369Q297 355 289 343T271 331H61Z" />
<glyph unicode="&#xb3;" horiz-adv-x="329" d="M158 328Q108 328 78 344T33 385T19 432Q19 451 28 457T60 463Q87 463 95 457T104 435Q104 423 111 416T132 406T161 403Q192 403 205 414T218 452V462Q218 490 202 497T158 505Q144 505 139 515T133 538Q133 550
138 560T158 572Q177 573 192 579T207 618Q207 642 195 650T160 658Q144 658 134 655T118 647T113 630Q113 616 105 608T73 599Q43 599 36 606T28 633Q28 655 40 677T81 715T161 731Q217 731 253 710T290 632Q290 603 278 578T244 542Q270 533 287 514T304 462V452Q304
407 284 380T231 340T158 328Z" />
<glyph unicode="&#xb4;" horiz-adv-x="202" d="M40 568Q24 568 12 584T0 617Q0 639 17 648L149 712Q156 714 162 714Q179 714 190 698T202 665Q202 644 184 635L54 572Q50 571 47 570T40 568Z" />
<glyph unicode="&#xb5;" horiz-adv-x="518" d="M120 -221Q92 -221 75 -209T57 -180V434Q57 449 76 462T121 475Q147 475 166 462T186 434V189Q186 175 192 160T212 132T240 112T274 104Q297 104 317 117T348 151T360 194V434Q360 451 379 463T424 475Q453 475
471 463T489 434V194Q489 140 460 94T382 19T274 -9Q243 -9 217 2T170 30V-180Q170 -196 155 -208T120 -221Z" />
<glyph unicode="&#xb6;" horiz-adv-x="559" d="M287 0Q272 0 259 10T246 41V306H221Q166 306 122 326T51 392T25 513V525Q25 600 51 645T121 710T221 731H453Q469 731 482 721T495 690V40Q495 19 482 10T453 0Q438 0 425 9T412 40V672H329V41Q329 21 316 11T287 0Z" />
<glyph unicode="&#xb7;" horiz-adv-x="205" d="M103 236Q73 236 52 255T31 300Q31 326 52 344T103 363Q133 363 153 345T174 300Q174 275 154 256T103 236Z" />
<glyph unicode="&#xb8;" horiz-adv-x="190" d="M85 -216Q68 -216 49 -213T15 -203T0 -187Q0 -183 2 -175T10 -158T23 -150Q31 -150 43 -157T81 -164Q103 -164 115 -156T128 -131Q128 -116 117 -106T80 -94L25 -89L53 9H110L91 -51Q142 -53 166 -75T190 -128Q190
-145 181 -166T148 -201T85 -216Z" />
<glyph unicode="&#xb9;" horiz-adv-x="192" d="M109 331Q93 331 79 337T65 358V636L48 626Q40 622 33 622Q22 622 14 632T6 655Q6 665 9 672T21 685L97 729Q104 733 113 733Q127 733 139 726T152 705V358Q152 344 139 338T109 331Z" />
<glyph unicode="&#xba;" horiz-adv-x="343" d="M171 432Q132 432 100 451T47 502T27 569V624Q27 661 46 691T98 741T171 760Q210 760 243 742T296 692T316 624V569Q316 534 296 503T243 452T171 432ZM171 508Q195 508 212 527T230 570V624Q230 647 213 665T171
684Q146 684 130 666T113 624V570Q113 546 129 527T171 508Z" />
<glyph unicode="&#xbb;" horiz-adv-x="499" d="M341 74Q320 74 302 84T272 110T261 139Q261 146 264 152L331 277L264 403Q261 408 261 415Q261 429 272 444T301 469T341 480Q370 480 377 463L451 327Q461 309 467 299T474 276Q474 265 468 256T451 227L377 91Q369
74 341 74ZM114 74Q93 74 74 84T44 110T33 139Q33 146 36 152L103 277L36 403Q33 408 33 415Q33 429 44 444T73 469T113 480Q142 480 150 463L223 327Q233 309 239 299T246 276Q246 265 240 256T223 227L150 91Q142 74 114 74Z" />
<glyph unicode="&#xbc;" horiz-adv-x="690" d="M109 331Q93 331 79 337T65 358V636L48 626Q40 622 33 622Q22 622 14 632T6 655Q6 665 9 672T21 685L97 729Q104 733 113 733Q127 733 139 726T152 705V358Q152 344 139 338T109 331ZM107 -40Q86 -40 73 -26T59 4Q59
13 64 21L423 750Q433 771 459 771Q477 771 493 759T509 726Q509 716 505 708L145 -18Q141 -28 130 -34T107 -40ZM589 0Q573 0 560 6T547 26V84H407Q395 84 387 91T378 114Q378 122 382 130L520 378Q527 390 536 395T557 400Q568 400 584 391T600 368Q600 362 597
357L488 163H547V201Q547 215 560 221T589 227Q607 227 620 221T633 201V163H659Q673 163 679 151T686 124Q686 109 678 97T659 84H633V26Q633 13 620 7T589 0Z" />
<glyph unicode="&#xbd;" horiz-adv-x="695" d="M109 331Q93 331 79 337T65 358V636L48 626Q40 622 33 622Q22 622 14 632T6 655Q6 665 9 672T21 685L97 729Q104 733 113 733Q127 733 139 726T152 705V358Q152 344 139 338T109 331ZM107 -40Q86 -40 73 -26T59 4Q59
13 64 21L423 750Q433 771 459 771Q477 771 493 759T509 726Q509 716 505 708L145 -18Q141 -28 130 -34T107 -40ZM436 0Q425 0 412 7T398 26V80Q398 106 417 127T464 168T520 206T567 244T586 284Q586 297 575 309T537 322Q517 322 503 313T489 281Q489 270 477
260T444 250Q428 250 417 259T405 295Q405 328 424 351T473 387T536 400Q571 400 602 387T652 349T672 286Q672 252 654 226T608 179T553 143T507 113T488 84V75H646Q656 75 664 64T672 38Q672 23 664 12T646 0H436Z" />
<glyph unicode="&#xbe;" horiz-adv-x="828" d="M158 328Q108 328 78 344T33 385T19 432Q19 451 28 457T60 463Q87 463 95 457T104 435Q104 423 111 416T132 406T161 403Q192 403 205 414T218 452V462Q218 490 202 497T158 505Q144 505 139 515T133 538Q133 550
138 560T158 572Q177 573 192 579T207 618Q207 642 195 650T160 658Q144 658 134 655T118 647T113 630Q113 616 105 608T73 599Q43 599 36 606T28 633Q28 655 40 677T81 715T161 731Q217 731 253 710T290 632Q290 603 278 578T244 542Q270 533 287 514T304 462V452Q304
407 284 380T231 340T158 328ZM244 -40Q223 -40 210 -26T196 4Q196 13 201 21L560 750Q570 771 596 771Q614 771 630 759T646 726Q646 716 642 708L282 -18Q278 -28 267 -34T244 -40ZM727 0Q711 0 698 6T685 26V84H545Q533 84 525 91T516 114Q516 122 520 130L658
378Q665 390 674 395T695 400Q706 400 722 391T738 368Q738 362 735 357L626 163H685V201Q685 215 698 221T727 227Q745 227 758 221T771 201V163H797Q811 163 817 151T824 124Q824 109 816 97T797 84H771V26Q771 13 758 7T727 0Z" />
<glyph unicode="&#xbf;" horiz-adv-x="437" d="M232 -6Q168 -6 122 16T50 76T25 163Q25 201 39 232T74 288T113 330T144 358Q169 379 179 398T191 439T193 491Q193 504 203 515T243 527Q269 527 279 515T290 471Q290 424 281 394T258 345T230 312Q217 300 200
287T168 258T142 222T132 176Q132 135 161 113T235 91Q271 91 290 101T320 125T339 149T366 160Q383 160 399 148T416 112Q416 88 396 61T334 14T232 -6ZM243 598Q215 598 195 618T175 667Q175 694 194 714T243 735Q271 735 290 715T310 667Q310 639 291 619T243
598Z" />
<glyph unicode="&#xc0;" horiz-adv-x="574" d="M91 0Q73 0 54 7T22 26T9 54Q9 57 10 64L203 693Q210 715 234 726T287 737Q316 737 340 726T371 693L564 64Q566 57 566 54Q566 39 553 27T520 7T483 0Q467 0 456 5T440 26L402 159H172L135 26Q131 11 119 6T91 0ZM200
261H374L287 568L200 261ZM328 811Q324 811 321 812T314 815L184 878Q166 887 166 908Q166 925 177 941T206 957Q212 957 219 955L351 891Q368 882 368 860Q368 844 357 828T328 811Z" />
<glyph unicode="&#xc1;" horiz-adv-x="574" d="M91 0Q73 0 54 7T22 26T9 54Q9 57 10 64L203 693Q210 715 234 726T287 737Q316 737 340 726T371 693L564 64Q566 57 566 54Q566 39 553 27T520 7T483 0Q467 0 456 5T440 26L402 159H172L135 26Q131 11 119 6T91 0ZM200
261H374L287 568L200 261ZM254 811Q238 811 226 827T214 860Q214 882 231 891L363 955Q370 957 376 957Q393 957 404 941T416 908Q416 887 398 878L268 815Q264 814 261 813T254 811Z" />
<glyph unicode="&#xc2;" horiz-adv-x="574" d="M91 0Q73 0 54 7T22 26T9 54Q9 57 10 64L203 693Q210 715 234 726T287 737Q316 737 340 726T371 693L564 64Q566 57 566 54Q566 39 553 27T520 7T483 0Q467 0 456 5T440 26L402 159H172L135 26Q131 11 119 6T91 0ZM200
261H374L287 568L200 261ZM173 819Q161 819 153 831T145 859Q145 870 150 880T167 896L271 952Q280 957 288 957Q295 957 305 952L409 897Q421 891 425 881T430 858Q430 844 423 832T402 819Q400 819 397 820T392 822L288 878L184 822Q181 821 178 820T173 819Z"
/>
<glyph unicode="&#xc3;" horiz-adv-x="574" d="M91 0Q73 0 54 7T22 26T9 54Q9 57 10 64L203 693Q210 715 234 726T287 737Q316 737 340 726T371 693L564 64Q566 57 566 54Q566 39 553 27T520 7T483 0Q467 0 456 5T440 26L402 159H172L135 26Q131 11 119 6T91 0ZM200
261H374L287 568L200 261ZM373 831Q341 831 318 838T276 853T231 860Q210 860 196 854T170 842T149 836Q136 836 129 844T119 862T116 878Q116 901 126 914T150 935T179 944T202 946Q232 946 253 939T295 925T344 917Q365 917 379 923T404 935T425 941Q439 941
445 933T455 914T458 899Q458 875 448 862T424 842T396 833T373 831Z" />
<glyph unicode="&#xc4;" horiz-adv-x="574" d="M91 0Q73 0 54 7T22 26T9 54Q9 57 10 64L203 693Q210 715 234 726T287 737Q316 737 340 726T371 693L564 64Q566 57 566 54Q566 39 553 27T520 7T483 0Q467 0 456 5T440 26L402 159H172L135 26Q131 11 119 6T91 0ZM200
261H374L287 568L200 261ZM362 820Q341 820 326 836T310 873Q310 894 325 909T362 925Q382 925 397 910T412 873Q412 852 397 836T362 820ZM212 820Q191 820 176 836T161 873Q161 894 176 909T212 925Q233 925 247 910T262 873Q262 852 248 836T212 820Z" />
<glyph unicode="&#xc5;" horiz-adv-x="574" d="M91 0Q73 0 54 7T22 26T9 54Q9 57 10 64L203 693Q210 715 234 726T287 737Q316 737 340 726T371 693L564 64Q566 57 566 54Q566 39 553 27T520 7T483 0Q467 0 456 5T440 26L402 159H172L135 26Q131 11 119 6T91 0ZM200
261H374L287 568L200 261ZM287 808Q261 808 239 822T203 859T190 909Q190 935 203 957T238 993T287 1008Q313 1008 335 995T372 958T386 909Q386 883 372 860T336 822T287 808ZM288 860Q307 860 319 875T332 908Q332 925 320 939T288 953Q268 953 255 939T241 909Q241
891 255 876T288 860Z" />
<glyph unicode="&#xc6;" horiz-adv-x="787" d="M114 0Q83 0 70 13T57 46V502Q57 585 87 635T169 708T284 731H730Q751 731 760 713T770 675Q770 651 760 634T730 617H501V417H621Q640 417 650 402T661 365Q661 348 652 332T621 315H501V114H730Q750 114 760 97T770
56Q770 36 761 18T730 0H429Q407 0 389 10T371 41V315H179V46Q179 27 169 14T114 0ZM179 417H371V617H284Q235 617 207 589T179 502V417Z" />
<glyph unicode="&#xc7;" horiz-adv-x="551" d="M283 -6Q221 -6 168 16T84 89T53 223V502Q53 585 84 635T168 708T284 731Q354 731 407 708T491 642T522 541Q522 502 506 490T457 477Q430 477 412 486T392 518Q392 530 389 546T375 579T345 606T288 617Q237 617
210 589T182 502V223Q182 164 210 136T290 108Q324 108 344 119T373 146T386 181T392 215Q394 238 412 247T456 256Q490 256 506 243T522 192Q522 132 492 87T407 18T283 -6ZM293 -216Q276 -216 257 -213T223 -203T208 -187Q208 -183 210 -175T218 -158T231 -150Q239
-150 251 -157T289 -164Q311 -164 323 -156T336 -131Q336 -116 325 -106T288 -94L233 -89L261 9H318L299 -51Q350 -53 374 -75T398 -128Q398 -145 389 -166T356 -201T293 -216Z" />
<glyph unicode="&#xc8;" horiz-adv-x="530" d="M117 0Q96 0 78 10T60 41V690Q60 710 78 720T117 731H473Q495 731 504 713T514 675Q514 651 504 634T473 617H190V417H342Q362 417 372 402T383 365Q383 348 374 332T342 315H190V114H473Q493 114 503 97T514 56Q514
36 505 18T473 0H117ZM322 811Q318 811 315 812T308 815L178 878Q160 887 160 908Q160 925 171 941T200 957Q206 957 213 955L345 891Q362 882 362 860Q362 844 351 828T322 811Z" />
<glyph unicode="&#xc9;" horiz-adv-x="530" d="M117 0Q96 0 78 10T60 41V690Q60 710 78 720T117 731H473Q495 731 504 713T514 675Q514 651 504 634T473 617H190V417H342Q362 417 372 402T383 365Q383 348 374 332T342 315H190V114H473Q493 114 503 97T514 56Q514
36 505 18T473 0H117ZM248 811Q232 811 220 827T208 860Q208 882 225 891L357 955Q364 957 370 957Q387 957 398 941T410 908Q410 887 392 878L262 815Q258 814 255 813T248 811Z" />
<glyph unicode="&#xca;" horiz-adv-x="530" d="M117 0Q96 0 78 10T60 41V690Q60 710 78 720T117 731H473Q495 731 504 713T514 675Q514 651 504 634T473 617H190V417H342Q362 417 372 402T383 365Q383 348 374 332T342 315H190V114H473Q493 114 503 97T514 56Q514
36 505 18T473 0H117ZM167 819Q155 819 147 831T139 859Q139 870 144 880T161 896L265 952Q274 957 282 957Q289 957 299 952L403 897Q415 891 419 881T424 858Q424 844 417 832T396 819Q394 819 391 820T386 822L282 878L178 822Q175 821 172 820T167 819Z" />
<glyph unicode="&#xcb;" horiz-adv-x="530" d="M117 0Q96 0 78 10T60 41V690Q60 710 78 720T117 731H473Q495 731 504 713T514 675Q514 651 504 634T473 617H190V417H342Q362 417 372 402T383 365Q383 348 374 332T342 315H190V114H473Q493 114 503 97T514 56Q514
36 505 18T473 0H117ZM356 820Q335 820 320 836T304 873Q304 894 319 909T356 925Q376 925 391 910T406 873Q406 852 391 836T356 820ZM206 820Q185 820 170 836T155 873Q155 894 170 909T206 925Q227 925 241 910T256 873Q256 852 242 836T206 820Z" />
<glyph unicode="&#xcc;" horiz-adv-x="251" d="M125 0Q101 0 81 10T60 41V691Q60 712 80 721T125 731Q150 731 170 722T190 691V41Q190 21 170 11T125 0ZM165 811Q161 811 158 812T151 815L21 878Q3 887 3 908Q3 925 14 941T43 957Q49 957 56 955L188 891Q205
882 205 860Q205 844 194 828T165 811Z" />
<glyph unicode="&#xcd;" horiz-adv-x="251" d="M125 0Q101 0 81 10T60 41V691Q60 712 80 721T125 731Q150 731 170 722T190 691V41Q190 21 170 11T125 0ZM91 811Q75 811 63 827T51 860Q51 882 68 891L200 955Q207 957 213 957Q230 957 241 941T253 908Q253 887
235 878L105 815Q101 814 98 813T91 811Z" />
<glyph unicode="&#xce;" horiz-adv-x="251" d="M125 0Q101 0 81 10T60 41V691Q60 712 80 721T125 731Q150 731 170 722T190 691V41Q190 21 170 11T125 0ZM11 819Q-1 819 -9 831T-17 859Q-17 870 -12 880T5 896L109 952Q118 957 126 957Q133 957 143 952L247 897Q259
891 263 881T268 858Q268 844 261 832T240 819Q238 819 235 820T230 822L126 878L22 822Q19 821 16 820T11 819Z" />
<glyph unicode="&#xcf;" horiz-adv-x="251" d="M125 0Q101 0 81 10T60 41V691Q60 712 80 721T125 731Q150 731 170 722T190 691V41Q190 21 170 11T125 0ZM200 820Q179 820 164 836T148 873Q148 894 163 909T200 925Q220 925 235 910T250 873Q250 852 235 836T200
820ZM50 820Q29 820 14 836T-1 873Q-1 894 14 909T50 925Q71 925 85 910T100 873Q100 852 86 836T50 820Z" />
<glyph unicode="&#xd0;" horiz-adv-x="588" d="M124 0Q98 0 83 12T67 40V336H26Q10 336 2 350T-7 382Q-7 400 1 414T26 429H67V691Q67 707 82 719T124 731H301Q367 731 420 709T505 636T536 502V229Q536 146 505 96T421 23T301 0H124ZM197 114H301Q351 114 378
142T406 229V502Q406 560 379 588T301 617H197V429H274Q290 429 299 415T308 382Q308 364 299 350T274 336H197V114Z" />
<glyph unicode="&#xd1;" horiz-adv-x="606" d="M125 0Q101 0 81 10T60 41V690Q60 711 80 721T125 731Q149 731 164 726T193 707T222 662L415 289V691Q415 712 435 721T480 731Q505 731 525 722T545 691V41Q545 21 525 11T480 0Q457 0 438 9T406 41L190 443V41Q190
21 170 11T125 0ZM389 831Q357 831 334 838T292 853T247 860Q226 860 212 854T186 842T165 836Q152 836 145 844T135 862T132 878Q132 901 142 914T166 935T195 944T218 946Q248 946 269 939T311 925T360 917Q381 917 395 923T420 935T441 941Q455 941 461 933T471
914T474 899Q474 875 464 862T440 842T412 833T389 831Z" />
<glyph unicode="&#xd2;" horiz-adv-x="574" d="M287 -6Q221 -6 168 16T84 89T53 223V502Q53 585 84 635T167 708T287 731Q353 731 406 709T491 636T522 502V223Q522 140 491 90T407 17T287 -6ZM287 108Q336 108 364 136T392 223V502Q392 561 364 589T287 617Q238
617 210 589T182 502V223Q182 164 210 136T287 108ZM328 811Q324 811 321 812T314 815L184 878Q166 887 166 908Q166 925 177 941T206 957Q212 957 219 955L351 891Q368 882 368 860Q368 844 357 828T328 811Z" />
<glyph unicode="&#xd3;" horiz-adv-x="574" d="M287 -6Q221 -6 168 16T84 89T53 223V502Q53 585 84 635T167 708T287 731Q353 731 406 709T491 636T522 502V223Q522 140 491 90T407 17T287 -6ZM287 108Q336 108 364 136T392 223V502Q392 561 364 589T287 617Q238
617 210 589T182 502V223Q182 164 210 136T287 108ZM254 811Q238 811 226 827T214 860Q214 882 231 891L363 955Q370 957 376 957Q393 957 404 941T416 908Q416 887 398 878L268 815Q264 814 261 813T254 811Z" />
<glyph unicode="&#xd4;" horiz-adv-x="574" d="M287 -6Q221 -6 168 16T84 89T53 223V502Q53 585 84 635T167 708T287 731Q353 731 406 709T491 636T522 502V223Q522 140 491 90T407 17T287 -6ZM287 108Q336 108 364 136T392 223V502Q392 561 364 589T287 617Q238
617 210 589T182 502V223Q182 164 210 136T287 108ZM173 819Q161 819 153 831T145 859Q145 870 150 880T167 896L271 952Q280 957 288 957Q295 957 305 952L409 897Q421 891 425 881T430 858Q430 844 423 832T402 819Q400 819 397 820T392 822L288 878L184 822Q181
821 178 820T173 819Z" />
<glyph unicode="&#xd5;" horiz-adv-x="574" d="M287 -6Q221 -6 168 16T84 89T53 223V502Q53 585 84 635T167 708T287 731Q353 731 406 709T491 636T522 502V223Q522 140 491 90T407 17T287 -6ZM287 108Q336 108 364 136T392 223V502Q392 561 364 589T287 617Q238
617 210 589T182 502V223Q182 164 210 136T287 108ZM373 831Q341 831 318 838T276 853T231 860Q210 860 196 854T170 842T149 836Q136 836 129 844T119 862T116 878Q116 901 126 914T150 935T179 944T202 946Q232 946 253 939T295 925T344 917Q365 917 379 923T404
935T425 941Q439 941 445 933T455 914T458 899Q458 875 448 862T424 842T396 833T373 831Z" />
<glyph unicode="&#xd6;" horiz-adv-x="574" d="M287 -6Q221 -6 168 16T84 89T53 223V502Q53 585 84 635T167 708T287 731Q353 731 406 709T491 636T522 502V223Q522 140 491 90T407 17T287 -6ZM287 108Q336 108 364 136T392 223V502Q392 561 364 589T287 617Q238
617 210 589T182 502V223Q182 164 210 136T287 108ZM362 820Q341 820 326 836T310 873Q310 894 325 909T362 925Q382 925 397 910T412 873Q412 852 397 836T362 820ZM212 820Q191 820 176 836T161 873Q161 894 176 909T212 925Q233 925 247 910T262 873Q262 852
248 836T212 820Z" />
<glyph unicode="&#xd7;" horiz-adv-x="406" d="M101 113Q88 113 74 122T51 145T41 174Q41 189 51 199L135 275L52 349Q43 359 43 375Q43 398 61 416T102 435Q117 435 128 425L202 350L277 425Q287 435 303 435Q326 435 344 417T363 376Q363 359 353 349L270 275L354
199Q365 189 365 173Q365 159 356 145T333 122T304 113Q289 113 278 123L202 199L127 123Q117 113 101 113Z" />
<glyph unicode="&#xd8;" horiz-adv-x="574" d="M287 -6Q221 -6 168 16T84 89T53 223V502Q53 585 84 635T167 708T287 731Q353 731 406 709T491 636T522 502V223Q522 140 491 90T407 17T287 -6ZM287 108Q336 108 364 136T392 223V502Q392 561 364 589T287 617Q238
617 210 589T182 502V223Q182 164 210 136T287 108ZM118 211Q98 211 85 225T71 255Q71 264 75 272L435 1001Q445 1022 471 1022Q489 1022 505 1010T521 977Q521 967 517 959L157 233Q153 223 142 217T118 211Z" />
<glyph unicode="&#xd9;" horiz-adv-x="594" d="M297 -6Q229 -6 175 16T89 89T57 223V691Q57 712 77 721T122 731Q146 731 166 722T187 691V223Q187 165 216 137T297 108Q348 108 377 136T407 223V691Q407 712 426 721T472 731Q496 731 516 722T537 691V223Q537
140 505 90T419 17T297 -6ZM337 811Q333 811 330 812T323 815L193 878Q175 887 175 908Q175 925 186 941T215 957Q221 957 228 955L360 891Q377 882 377 860Q377 844 366 828T337 811Z" />
<glyph unicode="&#xda;" horiz-adv-x="594" d="M297 -6Q229 -6 175 16T89 89T57 223V691Q57 712 77 721T122 731Q146 731 166 722T187 691V223Q187 165 216 137T297 108Q348 108 377 136T407 223V691Q407 712 426 721T472 731Q496 731 516 722T537 691V223Q537
140 505 90T419 17T297 -6ZM263 811Q247 811 235 827T223 860Q223 882 240 891L372 955Q379 957 385 957Q402 957 413 941T425 908Q425 887 407 878L277 815Q273 814 270 813T263 811Z" />
<glyph unicode="&#xdb;" horiz-adv-x="594" d="M297 -6Q229 -6 175 16T89 89T57 223V691Q57 712 77 721T122 731Q146 731 166 722T187 691V223Q187 165 216 137T297 108Q348 108 377 136T407 223V691Q407 712 426 721T472 731Q496 731 516 722T537 691V223Q537
140 505 90T419 17T297 -6ZM182 819Q170 819 162 831T154 859Q154 870 159 880T176 896L280 952Q289 957 297 957Q304 957 314 952L418 897Q430 891 434 881T439 858Q439 844 432 832T411 819Q409 819 406 820T401 822L297 878L193 822Q190 821 187 820T182 819Z"
/>
<glyph unicode="&#xdc;" horiz-adv-x="594" d="M297 -6Q229 -6 175 16T89 89T57 223V691Q57 712 77 721T122 731Q146 731 166 722T187 691V223Q187 165 216 137T297 108Q348 108 377 136T407 223V691Q407 712 426 721T472 731Q496 731 516 722T537 691V223Q537
140 505 90T419 17T297 -6ZM371 820Q350 820 335 836T319 873Q319 894 334 909T371 925Q391 925 406 910T421 873Q421 852 406 836T371 820ZM221 820Q200 820 185 836T170 873Q170 894 185 909T221 925Q242 925 256 910T271 873Q271 852 257 836T221 820Z" />
<glyph unicode="&#xdd;" horiz-adv-x="572" d="M286 0Q262 0 242 10T221 41V293Q221 300 218 306L11 664Q9 668 9 671T8 677Q8 693 22 705T56 724T94 731Q110 731 118 725T133 705L286 416L438 705Q446 718 454 724T478 731Q496 731 515 724T549 705T564 677Q564
675 564 672T561 664L354 306Q351 300 351 293V41Q351 21 331 11T286 0ZM252 811Q236 811 224 827T212 860Q212 882 229 891L361 955Q368 957 374 957Q391 957 402 941T414 908Q414 887 396 878L266 815Q262 814 259 813T252 811Z" />
<glyph unicode="&#xde;" horiz-adv-x="519" d="M124 0Q96 0 78 13T60 41V704Q60 722 78 733T122 744Q151 744 170 733T189 704V546Q205 575 239 598T318 622Q368 622 408 596T471 526T495 426V330Q495 276 471 231T408 159T323 132Q294 132 267 143T219 172T189
211V41Q189 26 170 13T124 0ZM279 245Q302 245 322 256T354 286T366 330V426Q366 449 354 467T322 497T278 509Q256 509 236 499T202 470T189 426V319Q189 307 200 290T232 259T279 245Z" />
<glyph unicode="&#xdf;" horiz-adv-x="598" d="M350 -20Q333 -20 316 -19T284 -12T260 6T251 40Q251 52 254 66T264 90T282 101Q293 101 308 95T349 89Q394 89 419 118T444 199V212Q444 259 429 288T386 334T323 359Q305 364 295 373T284 412Q284 440 294 447T324
460Q341 463 351 473T366 497T374 525T376 554Q376 598 358 626T295 655Q266 655 250 642T226 609T219 567V40Q219 23 200 12T153 0Q127 0 109 11T90 40V381H34Q18 381 10 395T1 428Q1 446 9 460T34 475H90V567Q90 621 109 666T171 740T286 768Q340 768 384 748T455
688T482 584Q482 551 474 519T451 463T414 427Q451 421 486 394T546 323T570 223V210Q570 135 540 84T459 7T350 -20Z" />
<glyph unicode="&#xe0;" horiz-adv-x="471" d="M152 -9Q99 -9 61 23T22 124Q22 181 51 213T133 258T255 271H296V284Q296 306 288 327T261 362T208 376Q170 376 150 369T118 353T94 345Q73 345 62 366T50 409Q50 430 75 446T138 472T210 481Q288 481 335 453T403
381T425 286V41Q425 24 407 12T362 0Q337 0 321 12T304 41V70Q277 39 241 15T152 -9ZM204 87Q225 87 246 101T281 137T296 183V204H281Q248 204 218 200T170 183T151 141Q151 113 166 100T204 87ZM261 819Q257 819 254 820T247 823L117 886Q99 895 99 916Q99 933
110 949T139 965Q145 965 152 963L284 899Q301 890 301 868Q301 852 290 836T261 819Z" />
<glyph unicode="&#xe1;" horiz-adv-x="471" d="M152 -9Q99 -9 61 23T22 124Q22 181 51 213T133 258T255 271H296V284Q296 306 288 327T261 362T208 376Q170 376 150 369T118 353T94 345Q73 345 62 366T50 409Q50 430 75 446T138 472T210 481Q288 481 335 453T403
381T425 286V41Q425 24 407 12T362 0Q337 0 321 12T304 41V70Q277 39 241 15T152 -9ZM204 87Q225 87 246 101T281 137T296 183V204H281Q248 204 218 200T170 183T151 141Q151 113 166 100T204 87ZM187 564Q171 564 159 580T147 613Q147 635 164 644L296 708Q303
710 309 710Q326 710 337 694T349 661Q349 640 331 631L201 568Q197 567 194 566T187 564Z" />
<glyph unicode="&#xe2;" horiz-adv-x="471" d="M152 -9Q99 -9 61 23T22 124Q22 181 51 213T133 258T255 271H296V284Q296 306 288 327T261 362T208 376Q170 376 150 369T118 353T94 345Q73 345 62 366T50 409Q50 430 75 446T138 472T210 481Q288 481 335 453T403
381T425 286V41Q425 24 407 12T362 0Q337 0 321 12T304 41V70Q277 39 241 15T152 -9ZM204 87Q225 87 246 101T281 137T296 183V204H281Q248 204 218 200T170 183T151 141Q151 113 166 100T204 87ZM106 827Q94 827 86 839T78 867Q78 878 83 888T100 904L204 960Q213
965 221 965Q228 965 238 960L342 905Q354 899 358 889T363 866Q363 852 356 840T335 827Q333 827 330 828T325 830L221 886L117 830Q114 829 111 828T106 827Z" />
<glyph unicode="&#xe3;" horiz-adv-x="471" d="M152 -9Q99 -9 61 23T22 124Q22 181 51 213T133 258T255 271H296V284Q296 306 288 327T261 362T208 376Q170 376 150 369T118 353T94 345Q73 345 62 366T50 409Q50 430 75 446T138 472T210 481Q288 481 335 453T403
381T425 286V41Q425 24 407 12T362 0Q337 0 321 12T304 41V70Q277 39 241 15T152 -9ZM204 87Q225 87 246 101T281 137T296 183V204H281Q248 204 218 200T170 183T151 141Q151 113 166 100T204 87ZM306 839Q274 839 251 846T209 861T164 868Q143 868 129 862T103
850T82 844Q69 844 62 852T52 870T49 886Q49 909 59 922T83 943T112 952T135 954Q165 954 186 947T228 933T277 925Q298 925 312 931T337 943T358 949Q372 949 378 941T388 922T391 907Q391 883 381 870T357 850T329 841T306 839Z" />
<glyph unicode="&#xe4;" horiz-adv-x="471" d="M152 -9Q99 -9 61 23T22 124Q22 181 51 213T133 258T255 271H296V284Q296 306 288 327T261 362T208 376Q170 376 150 369T118 353T94 345Q73 345 62 366T50 409Q50 430 75 446T138 472T210 481Q288 481 335 453T403
381T425 286V41Q425 24 407 12T362 0Q337 0 321 12T304 41V70Q277 39 241 15T152 -9ZM204 87Q225 87 246 101T281 137T296 183V204H281Q248 204 218 200T170 183T151 141Q151 113 166 100T204 87ZM295 828Q274 828 259 844T243 881Q243 902 258 917T295 933Q315
933 330 918T345 881Q345 860 330 844T295 828ZM145 828Q124 828 109 844T94 881Q94 902 109 917T145 933Q166 933 180 918T195 881Q195 860 181 844T145 828Z" />
<glyph unicode="&#xe5;" horiz-adv-x="471" d="M152 -9Q99 -9 61 23T22 124Q22 181 51 213T133 258T255 271H296V284Q296 306 288 327T261 362T208 376Q170 376 150 369T118 353T94 345Q73 345 62 366T50 409Q50 430 75 446T138 472T210 481Q288 481 335 453T403
381T425 286V41Q425 24 407 12T362 0Q337 0 321 12T304 41V70Q277 39 241 15T152 -9ZM204 87Q225 87 246 101T281 137T296 183V204H281Q248 204 218 200T170 183T151 141Q151 113 166 100T204 87ZM220 817Q194 817 172 831T136 868T123 918Q123 944 136 966T171
1002T220 1017Q246 1017 268 1004T305 967T319 918Q319 892 305 869T269 831T220 817ZM221 869Q240 869 252 884T265 917Q265 934 253 948T221 962Q201 962 188 948T174 918Q174 900 188 885T221 869Z" />
<glyph unicode="&#xe6;" horiz-adv-x="748" d="M174 -9Q133 -9 99 5T43 49T21 123Q21 181 50 213T132 258T254 271H295V285Q295 306 287 327T259 362T207 377Q168 377 148 369T117 353T93 345Q72 345 60 366T48 410Q48 431 74 447T137 472T209 481Q265 481 303
460T366 403Q393 438 431 459T514 481Q553 481 590 469T657 431T704 371T721 290Q721 250 708 232T674 209T627 204H424V189Q424 146 456 120T540 93Q573 93 595 103T633 122T664 131Q679 131 689 121T706 98T713 74Q713 56 690 37T626 4T534 -9Q476 -9 428 16T349
87Q314 42 267 17T174 -9ZM203 87Q225 87 245 101T280 137T295 183V204H280Q246 204 217 200T169 183T151 140Q151 113 166 100T203 87ZM424 280H570Q587 280 593 285T599 306Q599 330 587 348T556 376T511 386Q489 386 469 377T437 350T424 308V280Z" />
<glyph unicode="&#xe7;" horiz-adv-x="433" d="M251 -9Q175 -9 127 18T56 91T33 196V276Q33 334 55 380T126 454T249 481Q296 481 332 470T389 441T410 403Q410 392 404 377T386 351T359 340Q348 340 337 347T307 361T259 368Q208 368 185 344T162 276V196Q162
153 185 129T260 104Q291 104 308 112T336 127T360 134Q378 134 390 124T409 100T416 73Q416 53 395 34T336 3T251 -9ZM256 -216Q239 -216 220 -213T186 -203T171 -187Q171 -183 173 -175T181 -158T194 -150Q202 -150 214 -157T252 -164Q274 -164 286 -156T299
-131Q299 -116 288 -106T251 -94L196 -89L224 9H281L262 -51Q313 -53 337 -75T361 -128Q361 -145 352 -166T319 -201T256 -216Z" />
<glyph unicode="&#xe8;" horiz-adv-x="485" d="M274 -9Q203 -9 149 16T63 88T32 196V281Q32 335 61 380T140 453T251 481Q307 481 353 457T429 391T458 293Q458 250 444 232T409 209T364 204H161V189Q161 146 193 120T278 93Q311 93 333 103T371 122T401 131Q416
131 427 121T444 98T450 74Q450 57 429 38T368 5T274 -9ZM161 280H307Q324 280 330 285T337 307Q337 330 325 348T293 376T249 386Q226 386 206 377T174 350T161 308V280ZM291 566Q287 566 284 567T277 570L147 633Q129 642 129 663Q129 680 140 696T169 712Q175
712 182 710L314 646Q331 637 331 615Q331 599 320 583T291 566Z" />
<glyph unicode="&#xe9;" horiz-adv-x="485" d="M274 -9Q203 -9 149 16T63 88T32 196V281Q32 335 61 380T140 453T251 481Q307 481 353 457T429 391T458 293Q458 250 444 232T409 209T364 204H161V189Q161 146 193 120T278 93Q311 93 333 103T371 122T401 131Q416
131 427 121T444 98T450 74Q450 57 429 38T368 5T274 -9ZM161 280H307Q324 280 330 285T337 307Q337 330 325 348T293 376T249 386Q226 386 206 377T174 350T161 308V280ZM217 567Q201 567 189 583T177 616Q177 638 194 647L326 711Q333 713 339 713Q356 713 367
697T379 664Q379 643 361 634L231 571Q227 570 224 569T217 567Z" />
<glyph unicode="&#xea;" horiz-adv-x="485" d="M274 -9Q203 -9 149 16T63 88T32 196V281Q32 335 61 380T140 453T251 481Q307 481 353 457T429 391T458 293Q458 250 444 232T409 209T364 204H161V189Q161 146 193 120T278 93Q311 93 333 103T371 122T401 131Q416
131 427 121T444 98T450 74Q450 57 429 38T368 5T274 -9ZM161 280H307Q324 280 330 285T337 307Q337 330 325 348T293 376T249 386Q226 386 206 377T174 350T161 308V280ZM136 830Q124 830 116 842T108 870Q108 881 113 891T130 907L234 963Q243 968 251 968Q258
968 268 963L372 908Q384 902 388 892T393 869Q393 855 386 843T365 830Q363 830 360 831T355 833L251 889L147 833Q144 832 141 831T136 830Z" />
<glyph unicode="&#xeb;" horiz-adv-x="485" d="M274 -9Q203 -9 149 16T63 88T32 196V281Q32 335 61 380T140 453T251 481Q307 481 353 457T429 391T458 293Q458 250 444 232T409 209T364 204H161V189Q161 146 193 120T278 93Q311 93 333 103T371 122T401 131Q416
131 427 121T444 98T450 74Q450 57 429 38T368 5T274 -9ZM161 280H307Q324 280 330 285T337 307Q337 330 325 348T293 376T249 386Q226 386 206 377T174 350T161 308V280ZM325 831Q304 831 289 847T273 884Q273 905 288 920T325 936Q345 936 360 921T375 884Q375
863 360 847T325 831ZM175 831Q154 831 139 847T124 884Q124 905 139 920T175 936Q196 936 210 921T225 884Q225 863 211 847T175 831Z" />
<glyph unicode="&#xec;" horiz-adv-x="228" d="M114 0Q86 0 68 13T50 41V435Q50 453 68 464T114 475Q141 475 160 464T179 435V41Q179 26 160 13T114 0ZM410 822Q406 822 403 823T396 826L266 889Q248 898 248 919Q248 936 259 952T288 968Q294 968 301 966L433
902Q450 893 450 871Q450 855 439 839T410 822Z" />
<glyph unicode="&#xed;" horiz-adv-x="228" d="M114 0Q86 0 68 13T50 41V435Q50 453 68 464T114 475Q141 475 160 464T179 435V41Q179 26 160 13T114 0ZM80 822Q64 822 52 838T40 871Q40 893 57 902L189 966Q196 968 202 968Q219 968 230 952T242 919Q242 898
224 889L94 826Q90 825 87 824T80 822Z" />
<glyph unicode="&#xee;" horiz-adv-x="228" d="M114 0Q86 0 68 13T50 41V435Q50 453 68 464T114 475Q141 475 160 464T179 435V41Q179 26 160 13T114 0ZM256 830Q244 830 236 842T228 870Q228 881 233 891T250 907L354 963Q363 968 371 968Q378 968 388 963L492
908Q504 902 508 892T513 869Q513 855 506 843T485 830Q483 830 480 831T475 833L371 889L267 833Q264 832 261 831T256 830Z" />
<glyph unicode="&#xef;" horiz-adv-x="228" d="M114 0Q86 0 68 13T50 41V435Q50 453 68 464T114 475Q141 475 160 464T179 435V41Q179 26 160 13T114 0ZM445 831Q424 831 409 847T393 884Q393 905 408 920T445 936Q465 936 480 921T495 884Q495 863 480 847T445
831ZM295 831Q274 831 259 847T244 884Q244 905 259 920T295 936Q316 936 330 921T345 884Q345 863 331 847T295 831Z" />
<glyph unicode="&#xf0;" horiz-adv-x="513" d="M250 -9Q207 -9 168 8T98 53T50 119T32 196V278Q32 333 56 379T120 453T209 481Q240 481 265 471T310 443T339 403Q338 448 326 487T294 557L241 526Q236 522 228 522Q211 522 197 539T183 574Q183 590 197 599L243
626Q235 635 225 640T206 646Q197 655 188 664T179 691Q179 702 185 716T205 742T243 753Q273 753 301 738T354 693L410 727Q416 730 423 730Q440 730 454 714T468 680Q468 662 453 654L400 622Q433 561 450 488T468 348V196Q468 142 438 95T359 20T250 -9ZM250
104Q276 104 295 117T327 152T339 196V279Q339 305 326 325T292 356T249 368Q225 368 205 355T173 321T161 278V196Q161 173 173 152T205 118T250 104Z" />
<glyph unicode="&#xf1;" horiz-adv-x="523" d="M114 0Q86 0 68 13T50 41V435Q50 453 68 464T114 475Q138 475 154 464T171 435V405Q186 434 220 457T305 481Q352 481 391 454T453 380T477 278V41Q477 21 457 11T412 0Q390 0 369 10T348 41V278Q348 301 337 321T305
354T261 368Q241 368 222 357T191 326T179 278V41Q179 26 160 13T114 0ZM347 831Q315 831 292 838T250 853T205 860Q184 860 170 854T144 842T123 836Q110 836 103 844T93 862T90 878Q90 901 100 914T124 935T153 944T176 946Q206 946 227 939T269 925T318 917Q339
917 353 923T378 935T399 941Q413 941 419 933T429 914T432 899Q432 875 422 862T398 842T370 833T347 831Z" />
<glyph unicode="&#xf2;" horiz-adv-x="497" d="M248 -9Q190 -9 141 19T62 95T32 196V278Q32 332 61 378T139 453T248 481Q307 481 356 454T435 380T465 278V196Q465 143 435 96T356 20T248 -9ZM248 104Q272 104 292 117T324 151T336 196V278Q336 301 324 321T293
354T248 368Q224 368 204 355T173 322T161 278V196Q161 173 172 152T204 117T248 104ZM289 822Q285 822 282 823T275 826L145 889Q127 898 127 919Q127 936 138 952T167 968Q173 968 180 966L312 902Q329 893 329 871Q329 855 318 839T289 822Z" />
<glyph unicode="&#xf3;" horiz-adv-x="497" d="M248 -9Q190 -9 141 19T62 95T32 196V278Q32 332 61 378T139 453T248 481Q307 481 356 454T435 380T465 278V196Q465 143 435 96T356 20T248 -9ZM248 104Q272 104 292 117T324 151T336 196V278Q336 301 324 321T293
354T248 368Q224 368 204 355T173 322T161 278V196Q161 173 172 152T204 117T248 104ZM214 566Q198 566 186 582T174 615Q174 637 191 646L323 710Q330 712 336 712Q353 712 364 696T376 663Q376 642 358 633L228 570Q224 569 221 568T214 566Z" />
<glyph unicode="&#xf4;" horiz-adv-x="497" d="M248 -9Q190 -9 141 19T62 95T32 196V278Q32 332 61 378T139 453T248 481Q307 481 356 454T435 380T465 278V196Q465 143 435 96T356 20T248 -9ZM248 104Q272 104 292 117T324 151T336 196V278Q336 301 324 321T293
354T248 368Q224 368 204 355T173 322T161 278V196Q161 173 172 152T204 117T248 104ZM134 830Q122 830 114 842T106 870Q106 881 111 891T128 907L232 963Q241 968 249 968Q256 968 266 963L370 908Q382 902 386 892T391 869Q391 855 384 843T363 830Q361 830
358 831T353 833L249 889L145 833Q142 832 139 831T134 830Z" />
<glyph unicode="&#xf5;" horiz-adv-x="497" d="M248 -9Q190 -9 141 19T62 95T32 196V278Q32 332 61 378T139 453T248 481Q307 481 356 454T435 380T465 278V196Q465 143 435 96T356 20T248 -9ZM248 104Q272 104 292 117T324 151T336 196V278Q336 301 324 321T293
354T248 368Q224 368 204 355T173 322T161 278V196Q161 173 172 152T204 117T248 104ZM335 589Q303 589 280 596T238 611T193 618Q172 618 158 612T132 600T111 594Q98 594 91 602T81 620T78 636Q78 659 88 672T112 693T141 702T164 704Q194 704 215 697T257 683T306
675Q327 675 341 681T366 693T387 699Q401 699 407 691T417 672T420 657Q420 633 410 620T386 600T358 591T335 589Z" />
<glyph unicode="&#xf6;" horiz-adv-x="497" d="M248 -9Q190 -9 141 19T62 95T32 196V278Q32 332 61 378T139 453T248 481Q307 481 356 454T435 380T465 278V196Q465 143 435 96T356 20T248 -9ZM248 104Q272 104 292 117T324 151T336 196V278Q336 301 324 321T293
354T248 368Q224 368 204 355T173 322T161 278V196Q161 173 172 152T204 117T248 104ZM323 831Q302 831 287 847T271 884Q271 905 286 920T323 936Q343 936 358 921T373 884Q373 863 358 847T323 831ZM173 831Q152 831 137 847T122 884Q122 905 137 920T173 936Q194
936 208 921T223 884Q223 863 209 847T173 831Z" />
<glyph unicode="&#xf7;" horiz-adv-x="456" d="M69 237Q50 237 39 250T27 287Q27 309 38 323T69 338H386Q402 338 415 324T429 287Q429 264 416 251T386 237H69ZM225 58Q200 58 182 76T163 118Q163 143 181 159T225 176Q247 176 266 160T286 118Q286 94 267 76T225
58ZM225 399Q200 399 182 416T163 458Q163 482 181 499T225 517Q247 517 266 500T286 458Q286 433 267 416T225 399Z" />
<glyph unicode="&#xf8;" horiz-adv-x="497" d="M248 -9Q190 -9 141 19T62 95T32 196V278Q32 332 61 378T139 453T248 481Q307 481 356 454T435 380T465 278V196Q465 143 435 96T356 20T248 -9ZM248 104Q272 104 292 117T324 151T336 196V278Q336 301 324 321T293
354T248 368Q224 368 204 355T173 322T161 278V196Q161 173 172 152T204 117T248 104ZM77 -32Q67 -32 58 -24T49 -5Q49 3 55 11L89 60L362 450L396 498Q404 510 416 510Q428 510 437 502T446 481Q446 472 439 462L406 416L129 26L94 -23Q88 -32 77 -32Z" />
<glyph unicode="&#xf9;" horiz-adv-x="524" d="M263 -9Q203 -9 154 19T75 94T45 194V434Q45 449 64 462T110 475Q136 475 155 462T174 434V194Q174 171 186 151T218 118T262 104Q287 104 306 117T338 151T350 194V435Q350 451 369 463T414 475Q443 475 461 463T479
435V194Q479 140 450 94T371 19T263 -9ZM303 555Q299 555 296 556T289 559L159 622Q141 631 141 652Q141 669 152 685T181 701Q187 701 194 699L326 635Q343 626 343 604Q343 588 332 572T303 555Z" />
<glyph unicode="&#xfa;" horiz-adv-x="524" d="M263 -9Q203 -9 154 19T75 94T45 194V434Q45 449 64 462T110 475Q136 475 155 462T174 434V194Q174 171 186 151T218 118T262 104Q287 104 306 117T338 151T350 194V435Q350 451 369 463T414 475Q443 475 461 463T479
435V194Q479 140 450 94T371 19T263 -9ZM228 555Q212 555 200 571T188 604Q188 626 205 635L337 699Q344 701 350 701Q367 701 378 685T390 652Q390 631 372 622L242 559Q238 558 235 557T228 555Z" />
<glyph unicode="&#xfb;" horiz-adv-x="524" d="M263 -9Q203 -9 154 19T75 94T45 194V434Q45 449 64 462T110 475Q136 475 155 462T174 434V194Q174 171 186 151T218 118T262 104Q287 104 306 117T338 151T350 194V435Q350 451 369 463T414 475Q443 475 461 463T479
435V194Q479 140 450 94T371 19T263 -9ZM148 819Q136 819 128 831T120 859Q120 870 125 880T142 896L246 952Q255 957 263 957Q270 957 280 952L384 897Q396 891 400 881T405 858Q405 844 398 832T377 819Q375 819 372 820T367 822L263 878L159 822Q156 821 153
820T148 819Z" />
<glyph unicode="&#xfc;" horiz-adv-x="524" d="M263 -9Q203 -9 154 19T75 94T45 194V434Q45 449 64 462T110 475Q136 475 155 462T174 434V194Q174 171 186 151T218 118T262 104Q287 104 306 117T338 151T350 194V435Q350 451 369 463T414 475Q443 475 461 463T479
435V194Q479 140 450 94T371 19T263 -9ZM337 564Q316 564 301 580T285 617Q285 638 300 653T337 669Q357 669 372 654T387 617Q387 596 372 580T337 564ZM187 564Q166 564 151 580T136 617Q136 638 151 653T187 669Q208 669 222 654T237 617Q237 596 223 580T187
564Z" />
<glyph unicode="&#xfd;" horiz-adv-x="474" d="M64 -221Q39 -221 22 -212T5 -166Q5 -144 12 -128T38 -112Q55 -112 77 -106T123 -84T162 -39T181 35L9 403Q5 412 5 420Q5 437 19 451T54 473T91 482Q103 482 113 477T128 460L248 161L344 460Q349 472 359 477T379
482Q394 482 415 474T451 451T467 418Q467 409 464 403L318 30Q300 -15 283 -59T241 -140T173 -199T64 -221ZM203 555Q187 555 175 571T163 604Q163 626 180 635L312 699Q319 701 325 701Q342 701 353 685T365 652Q365 631 347 622L217 559Q213 558 210 557T203
555Z" />
<glyph unicode="&#xfe;" horiz-adv-x="519" d="M114 -221Q87 -221 69 -208T51 -180V712Q51 730 69 741T113 752Q142 752 161 741T180 712V405Q196 434 229 457T307 481Q357 481 398 454T462 380T486 278V196Q486 143 462 96T398 20T311 -9Q267 -9 231 15T180 70V-180Q180
-195 161 -208T114 -221ZM269 104Q293 104 312 117T344 152T357 196V278Q357 301 345 321T313 354T267 368Q245 368 226 357T193 326T180 278V178Q180 168 191 151T223 119T269 104Z" />
<glyph unicode="&#xff;" horiz-adv-x="474" d="M64 -221Q39 -221 22 -212T5 -166Q5 -144 12 -128T38 -112Q55 -112 77 -106T123 -84T162 -39T181 35L9 403Q5 412 5 420Q5 437 19 451T54 473T91 482Q103 482 113 477T128 460L248 161L344 460Q349 472 359 477T379
482Q394 482 415 474T451 451T467 418Q467 409 464 403L318 30Q300 -15 283 -59T241 -140T173 -199T64 -221ZM312 820Q291 820 276 836T260 873Q260 894 275 909T312 925Q332 925 347 910T362 873Q362 852 347 836T312 820ZM162 820Q141 820 126 836T111 873Q111
894 126 909T162 925Q183 925 197 910T212 873Q212 852 198 836T162 820Z" />
<glyph unicode="&#x2013;" horiz-adv-x="471" d="M76 187Q58 187 47 202T35 240Q35 263 46 278T76 294H396Q411 294 424 279T437 240Q437 217 424 202T396 187H76Z" />
<glyph unicode="&#x2014;" horiz-adv-x="752" d="M76 187Q58 187 47 202T35 240Q35 263 46 278T76 294H676Q692 294 705 279T718 240Q718 217 705 202T676 187H76Z" />
<glyph unicode="&#x2018;" horiz-adv-x="182" d="M89 511Q62 511 42 531T21 578Q21 584 23 591T30 613T47 655T77 725Q81 734 88 737T103 741Q117 741 131 733T146 707Q146 700 143 693L119 640Q136 632 146 616T156 579Q156 552 137 532T89 511Z" />
<glyph unicode="&#x2019;" horiz-adv-x="181" d="M80 511Q66 511 52 519T37 545Q37 552 41 559L64 612Q47 621 37 637T27 673Q27 701 46 721T94 741Q122 741 142 721T162 674Q162 669 160 661T153 639T136 597T106 527Q103 519 95 515T80 511Z" />
<glyph unicode="&#x201a;" horiz-adv-x="191" d="M81 -100Q67 -100 53 -91T38 -66Q38 -59 41 -52L65 1Q48 11 38 26T28 62Q28 90 47 110T95 130Q123 130 143 110T163 63Q163 58 161 51T154 28T137 -14T107 -83Q104 -92 96 -96T81 -100Z" />
<glyph unicode="&#x201c;" horiz-adv-x="368" d="M275 511Q247 511 227 531T207 578Q207 584 208 591T216 613T233 655T262 725Q267 734 274 737T289 741Q303 741 317 733T332 707Q332 700 328 693L305 640Q321 632 331 616T342 579Q342 552 323 532T275 511ZM89
511Q62 511 42 531T21 578Q21 584 23 591T30 613T47 655T77 725Q81 734 88 737T103 741Q117 741 131 733T146 707Q146 700 143 693L119 640Q136 632 146 616T156 579Q156 552 137 532T89 511Z" />
<glyph unicode="&#x201d;" horiz-adv-x="367" d="M266 511Q252 511 238 519T223 545Q223 552 226 559L250 612Q233 621 223 637T213 673Q213 701 232 721T280 741Q308 741 328 721T348 674Q348 669 346 661T339 639T322 597T292 527Q289 519 281 515T266 511ZM80
511Q66 511 52 519T37 545Q37 552 41 559L64 612Q47 621 37 637T27 673Q27 701 46 721T94 741Q122 741 142 721T162 674Q162 669 160 661T153 639T136 597T106 527Q103 519 95 515T80 511Z" />
<glyph unicode="&#x201e;" horiz-adv-x="377" d="M266 -100Q253 -100 239 -91T224 -66Q224 -59 227 -52L251 1Q234 11 224 26T213 62Q213 90 233 110T281 130Q309 130 329 110T349 63Q349 58 347 51T340 28T323 -14T293 -83Q289 -92 282 -96T266 -100ZM81 -100Q67
-100 53 -91T38 -66Q38 -59 41 -52L65 1Q48 11 38 26T28 62Q28 90 47 110T95 130Q123 130 143 110T163 63Q163 58 161 51T154 28T137 -14T107 -83Q104 -92 96 -96T81 -100Z" />
<glyph unicode="&#x2022;" horiz-adv-x="328" d="M164 173Q129 173 99 191T51 237T33 300Q33 334 51 362T99 408T164 426Q200 426 229 409T277 363T296 300Q296 266 278 237T230 191T164 173Z" />
<glyph unicode="&#x2039;" horiz-adv-x="271" d="M158 74Q130 74 121 91L48 227Q38 246 32 255T25 276Q25 288 31 298T48 327L121 463Q130 480 158 480Q179 480 197 470T227 444T238 415Q238 408 235 403L168 277L235 152Q238 146 238 139Q238 126 227 111T198
85T158 74Z" />
<glyph unicode="&#x203a;" horiz-adv-x="271" d="M114 74Q93 74 74 84T44 110T33 139Q33 146 36 152L103 277L36 403Q33 408 33 415Q33 429 44 444T73 469T113 480Q142 480 150 463L223 327Q233 309 239 299T246 276Q246 265 240 256T223 227L150 91Q142 74 114 74Z" />
</font>
</defs>
</svg>
