<?xml version="1.0" standalone="no"?>
<!DOCTYPE svg PUBLIC "-//W3C//DTD SVG 1.1//EN" "http://www.w3.org/Graphics/SVG/1.1/DTD/svg11.dtd">
<svg xmlns="http://www.w3.org/2000/svg">
<defs >
<font id="Exo2" horiz-adv-x="559" ><font-face
    font-family="Exo 2 ExtraLight"
    units-per-em="1000"
    panose-1="0 0 0 0 0 0 0 0 0 0"
    ascent="999"
    descent="-201"
    alphabetic="0" />
<glyph unicode=" " horiz-adv-x="228" />
<glyph unicode="!" horiz-adv-x="257" d="M205 695L158 363L133 205H100L118 363L165 695H205ZM108 94Q116 94 120 90T122 76L114 16Q113 8 109 4T96 0H82Q64 0 66 18L75 78Q78 94 94 94H108Z" />
<glyph unicode="&quot;" horiz-adv-x="328" d="M303 690L271 480H241L267 690H303ZM171 690L139 480H109L136 690H171Z" />
<glyph unicode="#" horiz-adv-x="667" d="M593 690L376 0H342L559 690H593ZM566 255L557 224H44L54 255H566ZM342 690L125 0H91L308 690H342ZM642 495L632 464H120L130 495H642Z" />
<glyph unicode="$" horiz-adv-x="563" d="M334 701Q383 700 431 697T525 687L519 657Q478 659 447 661T387 663T320 664Q286 664 256 662T203 648T163 610T141 536Q137 500 142 475T166 432T223 398L369 338Q421 317 448 293T483 236T484 152Q473 79 442 44T359
-1T234 -11Q205 -11 154 -9T39 2L44 33Q87 30 120 29T183 27T244 26Q305 27 345 35T409 72T442 157Q448 199 443 223T417 265T357 299L210 359Q162 379 136 404T101 462T99 542Q107 598 126 630T176 678T246 698T334 701ZM280 350L306 347L210 -133H183L280 350ZM398
803L308 347L281 350L371 803H398Z" />
<glyph unicode="%" horiz-adv-x="882" d="M748 690L180 0H145L714 690H748ZM264 674Q215 674 186 656T142 598T117 496Q109 435 114 397T142 340T208 322Q256 322 285 340T331 398T356 500Q364 563 360 601T332 656T264 674ZM262 702Q320 702 351 681T390 614T389
496Q379 426 359 381T303 315T211 294Q154 294 123 315T83 383T84 500Q95 571 114 615T170 681T262 702ZM689 373Q640 373 611 354T567 296T542 194Q533 133 538 95T566 38T633 20Q681 20 710 38T756 97T780 199Q789 261 784 299T757 355T689 373ZM687 401Q745
401 776 379T815 312T813 194Q803 123 783 79T727 14T635 -8Q578 -8 547 14T508 82T509 199Q519 270 539 314T594 379T687 401Z" />
<glyph unicode="&amp;" horiz-adv-x="782" d="M386 699Q418 699 460 695T545 676L538 646Q501 655 461 659T385 663Q320 663 278 652T213 611T179 518Q169 461 182 430T234 386T339 374H743L735 341H336Q262 340 214 329T137 282T96 176Q87 127 93 97T117 52T163
32T225 26Q323 26 388 59T499 166Q541 234 557 322T572 521H610Q611 400 593 310T532 148Q497 89 453 55T356 6T240 -11Q166 -12 121 4T59 62T53 177Q63 237 87 276T151 334T248 356V360Q198 364 171 384T137 439T138 523Q151 595 180 633T260 685T386 699Z" />
<glyph unicode="&apos;" horiz-adv-x="197" d="M171 690L139 480H109L136 690H171Z" />
<glyph unicode="(" horiz-adv-x="353" d="M376 790L382 766Q267 711 200 601T108 311Q92 195 101 108T148 -41T252 -141L245 -165Q129 -110 85 8T67 318Q93 504 168 619T376 790Z" />
<glyph unicode=")" horiz-adv-x="353" d="M113 790Q229 737 274 620T292 306Q266 121 191 6T-18 -165L-23 -141Q93 -83 160 28T251 315Q268 429 259 517T212 668T107 766L113 790Z" />
<glyph unicode="*" horiz-adv-x="449" d="M294 690L267 534L346 405L320 389L255 513L155 390L132 409L246 535L264 690H294ZM113 594L232 550L229 537L222 528L101 565L113 594ZM414 593L421 563L290 528L285 537L286 550L414 593Z" />
<glyph unicode="+" horiz-adv-x="550" d="M321 498L263 97H231L287 498H321ZM489 314L484 281H61L67 314H489Z" />
<glyph unicode="," horiz-adv-x="211" d="M88 94Q96 94 99 91T101 78L91 12Q89 -8 83 -30T67 -76T49 -120L27 -113Q36 -83 42 -59T54 1Q48 1 45 5T43 16L52 78Q54 87 58 90T72 94H88Z" />
<glyph unicode="-" horiz-adv-x="472" d="M387 268L383 235H74L78 268H387Z" />
<glyph unicode="." horiz-adv-x="210" d="M85 94Q96 94 99 90T100 76L92 16Q91 8 87 4T73 0H59Q40 0 43 18L52 78Q54 94 70 94H85Z" />
<glyph unicode="/" horiz-adv-x="504" d="M523 690L26 -61H-13L484 690H523Z" />
<glyph unicode="0" horiz-adv-x="587" d="M265 -12Q201 -12 158 10T92 79T70 198Q70 257 75 325T96 460T142 581T219 669T338 702Q402 702 445 680T511 612T533 492Q533 433 528 364T507 229T462 108T384 21T265 -12ZM264 25Q327 25 369 56T436 140T473 255T489
379T493 491Q493 583 454 624T338 665Q275 665 234 634T167 550T130 435T114 311T110 199Q110 107 149 66T264 25Z" />
<glyph unicode="1" horiz-adv-x="379" d="M312 690L215 0H174L259 601Q261 613 263 626T269 651L78 589L76 618L271 690H312Z" />
<glyph unicode="2" horiz-adv-x="550" d="M318 702Q377 702 419 694T484 661T507 589Q507 533 484 483T422 387T335 293L76 37Q105 38 133 38T190 38H461L456 0H17L20 26Q22 32 23 36T29 45L296 309Q341 353 379 398T441 491T464 585Q464 622 446 638T396 660T321
665Q289 665 260 664T198 658T121 644L116 675Q165 687 199 692T262 700T318 702Z" />
<glyph unicode="3" horiz-adv-x="546" d="M305 702Q406 702 450 675T494 580Q494 531 480 485T436 407T361 368L360 364Q416 355 440 319T465 231Q465 160 435 107T349 22T215 -12Q174 -13 122 -10T19 5L27 36Q57 31 89 28T153 25T210 25Q313 32 369 87T425 233Q425
263 413 289T369 332T282 348L152 349L156 380L284 382Q372 384 412 435T453 575Q453 627 419 646T300 665Q256 665 210 662T128 654L123 685Q172 693 216 697T305 702Z" />
<glyph unicode="4" horiz-adv-x="595" d="M368 690L92 270Q80 251 86 238T111 224H536L531 194L435 189H95Q72 189 57 202T40 236T52 277L323 690H368ZM499 559L420 0H380L443 443L468 559H499Z" />
<glyph unicode="5" horiz-adv-x="527" d="M499 690L493 654H187L141 409L200 408Q281 406 337 394T424 349T454 252Q454 130 389 62T202 -12Q164 -13 120 -8T25 15L33 47Q78 33 119 28T195 24Q301 29 357 87T414 251Q414 306 385 331T297 364T147 373L120 374Q111
375 106 381T102 397L157 690H499Z" />
<glyph unicode="6" horiz-adv-x="564" d="M381 702Q394 702 416 702T465 699T514 689L502 659Q484 662 464 663T423 665T378 666Q321 666 280 652T209 601T158 492T120 306Q110 231 109 178T120 91T167 40T257 24Q334 24 377 59T438 156T456 293Q456 347 431 377T337
408Q281 408 224 382T105 281L103 308Q141 361 179 390T258 431T346 443Q429 443 463 406T497 299Q497 208 474 137T396 27T251 -12Q187 -12 148 5T89 61T69 160T79 309Q97 435 122 513T183 632T268 687T381 702Z" />
<glyph unicode="7" horiz-adv-x="502" d="M475 690Q502 690 508 679T503 643L192 0H149L446 614Q452 625 457 635T469 656L93 654L95 690H475Z" />
<glyph unicode="8" horiz-adv-x="610" d="M359 699Q444 699 487 679T543 619T546 516Q540 468 526 435T487 383T426 360L424 356Q466 352 488 330T515 267T512 170Q503 106 480 67T406 10T266 -9Q178 -9 131 9T70 68T64 174Q72 231 88 270T131 331T202 357L204
361Q153 367 135 407T127 520Q136 583 159 622T229 680T359 699ZM314 341Q258 341 221 335T161 311T125 261T104 174Q97 121 107 89T155 42T267 28Q342 28 384 43T446 91T473 179Q481 232 478 264T456 312T404 335T314 341ZM358 663Q288 663 249 649T192 602T166
514Q157 454 167 425T212 385T317 375Q370 375 404 381T459 402T489 445T507 518Q515 573 507 604T464 649T358 663Z" />
<glyph unicode="9" horiz-adv-x="565" d="M329 702Q397 702 438 681T496 617T513 508T497 351Q478 236 454 164T395 54T311 2T193 -12Q170 -12 134 -10T54 1L64 31Q86 28 105 27T143 25T184 24Q249 24 293 37T367 84T418 184T456 355Q469 434 472 492T463 590T418
647T327 666Q261 666 221 644T161 577T129 468Q119 396 129 355T170 297T255 281Q296 283 330 295T399 334T474 409L476 383Q441 334 407 305T335 263T250 247Q197 244 162 257T108 299T85 371T90 474Q98 530 114 572T159 643T229 687T329 702Z" />
<glyph unicode=":" horiz-adv-x="213" d="M157 432Q168 432 171 428T172 414L164 354Q163 346 159 342T145 338H131Q112 338 115 356L124 416Q126 432 142 432H157ZM109 94Q120 94 123 90T124 76L116 16Q115 8 111 4T97 0H83Q64 0 67 18L76 78Q78 94 94 94H109Z" />
<glyph unicode=";" horiz-adv-x="215" d="M134 432Q145 432 148 428T149 414L141 354Q140 346 136 342T122 338H108Q89 338 92 356L101 416Q103 432 119 432H134ZM90 94Q98 94 101 91T103 78L93 12Q91 -8 85 -30T69 -76T51 -120L29 -113Q38 -83 44 -59T56 1Q50
1 47 5T45 16L54 78Q56 87 60 90T74 94H90Z" />
<glyph unicode="&lt;" horiz-adv-x="535" d="M485 493L480 457L98 295L434 137L430 103L58 279L63 313L485 493Z" />
<glyph unicode="=" horiz-adv-x="590" d="M522 413L518 380H95L100 413H522ZM493 201L489 168H66L71 201H493Z" />
<glyph unicode="&gt;" horiz-adv-x="533" d="M105 493L476 313L471 279L50 103L54 140L436 298L100 460L105 493Z" />
<glyph unicode="?" horiz-adv-x="498" d="M304 712Q401 712 447 674T482 555Q476 509 453 477T397 417T333 360T277 294T245 204L209 206Q216 262 240 301T295 371T358 428T412 485T441 556Q449 620 416 648T300 677Q249 677 217 676T159 672T99 664L95 693Q120
697 140 700T183 706T233 710T304 712ZM217 94Q226 94 230 90T233 76L224 17Q223 8 219 4T206 0H192Q174 0 177 18L185 78Q188 94 204 94H217Z" />
<glyph unicode="@" horiz-adv-x="748" d="M421 620Q514 621 568 611T646 568T672 473T659 303Q646 214 634 154T604 57T557 5T483 -11Q458 -11 441 -3T414 19T402 53T403 98L451 429H491L441 90Q437 55 447 40T486 24Q518 24 539 36T574 78T599 165T622 307Q632
387 634 439T628 521T595 564T528 582T421 586H123L126 615Q169 617 219 618T321 619T421 620ZM314 444Q353 444 395 441T491 429L474 402Q416 407 384 408T325 409Q266 409 228 402T167 374T131 316T106 219Q96 161 96 117T116 48T184 23Q243 23 302 60T420 166L424
135Q388 89 348 56T265 6T178 -12Q129 -12 103 7T67 60T58 136T67 224Q79 291 96 334T140 401T210 434T314 444Z" />
<glyph unicode="A" horiz-adv-x="604" d="M387 690Q394 690 398 686T404 676L550 0H508L383 600Q380 615 378 628T372 656H342Q336 642 329 628T315 599L21 0H-24L313 678Q315 685 320 687T331 690H387ZM477 279L472 242H122L127 279H477Z" />
<glyph unicode="B" horiz-adv-x="612" d="M356 698Q438 698 485 682T549 627T556 516Q546 443 514 405T417 360V356Q493 349 516 301T528 170Q517 99 492 61T419 7T292 -8Q238 -8 199 -8T127 -5T58 0L75 31Q97 30 153 29T288 28Q353 28 394 40T457 85T487 178Q496
242 484 277T433 326T327 341H119L124 374H329Q390 375 428 387T486 430T515 518Q523 577 511 608T460 650T355 662Q309 662 271 662T207 662T166 661L155 690Q187 694 215 695T277 697T356 698ZM195 690L98 0H58L155 690H195Z" />
<glyph unicode="C" d="M385 702Q427 702 457 700T512 694T562 684L553 654Q526 658 502 660T450 664T386 665Q323 665 279 649T204 595T154 496T121 343Q105 224 115 155T167 55T290 25Q353 25 395 28T478 38L483 7Q441 -3 398 -7T291 -12Q195 -12 143 23T76 138T79
347Q93 445 116 513T174 622T262 683T385 702Z" />
<glyph unicode="D" horiz-adv-x="659" d="M383 699Q479 699 532 665T599 553T595 343Q581 240 558 172T499 65T411 8T287 -9Q224 -9 167 -7T58 0L81 31Q127 30 178 29T286 28Q348 28 392 43T468 95T519 193T553 347Q565 437 563 498T540 594T482 646T382 662Q344
662 307 662T236 661T170 659L155 690Q189 693 226 695T303 698T383 699ZM196 690L99 0H58L155 690H196Z" />
<glyph unicode="E" horiz-adv-x="551" d="M255 690Q305 690 354 690T453 689T551 686L545 655H262Q222 655 200 634T173 575L109 112Q104 77 121 56T174 35H457L458 4Q410 2 361 1T264 0T168 0Q115 0 87 31T67 112L133 585Q140 632 171 661T255 690ZM123 385H467L462
352H118L123 385Z" />
<glyph unicode="F" horiz-adv-x="532" d="M259 690Q332 690 404 690T547 685L541 655H268Q230 655 207 636T177 575L96 0H55L137 584Q144 634 176 662T259 690ZM125 380L462 379L457 347L120 346L125 380Z" />
<glyph unicode="G" horiz-adv-x="621" d="M390 702Q433 702 465 700T527 694T586 684L577 654Q546 658 518 660T461 664T393 665Q328 665 282 649T204 596T153 497T121 343Q107 227 116 158T160 57T264 25Q308 25 345 41T418 85T487 145L493 116Q466 86 438 63T380
22T319 -3T256 -12Q176 -12 132 25T76 141T78 347Q92 448 115 516T176 625T266 684T390 702ZM560 400L503 0H474L483 117V131L520 400H560Z" />
<glyph unicode="H" horiz-adv-x="659" d="M196 690L99 0H58L155 690H196ZM544 387L539 352H141L146 387H544ZM617 690L520 0H479L576 690H617Z" />
<glyph unicode="I" horiz-adv-x="239" d="M196 690L99 0H58L155 690H196Z" />
<glyph unicode="J" horiz-adv-x="326" d="M288 690L207 121Q199 58 164 25T67 -7Q57 -7 44 -6T18 -2T-5 1L4 29H58Q105 29 133 53T167 124L246 690H288Z" />
<glyph unicode="K" horiz-adv-x="568" d="M581 690L321 396Q314 388 305 379T284 361V358Q290 350 296 342T307 325L500 0H453L238 361L530 690H581ZM195 690L163 458Q159 431 155 409T144 359Q143 332 141 308T134 259L98 0H58L155 690H195ZM274 377L269 343H127L132
377H274Z" />
<glyph unicode="L" horiz-adv-x="503" d="M193 690L112 112Q108 78 125 57T178 35H445L444 4Q375 1 306 1T169 0Q136 0 112 14T78 53T71 113L152 690H193Z" />
<glyph unicode="M" horiz-adv-x="860" d="M780 690Q790 690 795 684T799 668L735 0H693L757 655H734L446 78Q443 71 439 68T426 65H374Q367 65 362 69T355 80L227 655H205L84 0H43L167 671Q169 680 174 685T189 690H244Q251 690 256 686T262 674L370 191Q376 168
380 144T390 97H415Q426 122 438 146T461 194L703 677Q706 684 711 687T723 690H780Z" />
<glyph unicode="N" horiz-adv-x="692" d="M649 690L555 19Q554 9 549 5T534 0H483Q474 0 469 4T461 17L240 580Q233 597 226 615T212 653H189Q187 633 185 613T179 571L99 0H58L152 671Q154 681 159 685T173 690H222Q230 690 235 686T244 673L460 123Q468 103
476 81T492 37H518Q521 60 523 82T530 126L608 690H649Z" />
<glyph unicode="O" horiz-adv-x="662" d="M386 702Q481 702 534 668T601 554T597 343Q584 244 561 176T503 67T416 7T292 -12Q197 -12 144 22T76 135T79 347Q93 445 116 513T174 622T262 683T386 702ZM385 665Q302 665 250 635T169 534T121 343Q105 224 115 155T169
55T292 25Q374 25 426 55T508 157T555 347Q573 467 563 536T510 635T385 665Z" />
<glyph unicode="P" horiz-adv-x="582" d="M378 698Q454 698 497 680T554 616T557 490Q546 409 520 365T448 303T326 286Q287 286 252 287T188 289T139 292T111 295L115 322Q165 322 219 322T325 322Q387 323 425 337T485 389T515 494Q525 561 515 597T471 648T378
662Q300 662 243 661T166 658L155 690Q191 694 222 695T289 697T378 698ZM196 690L99 0H58L155 690H196Z" />
<glyph unicode="Q" horiz-adv-x="662" d="M386 702Q481 702 534 668T601 554T597 343Q584 244 561 176T503 67T416 7T292 -12Q197 -12 144 22T76 135T79 347Q93 445 116 513T174 622T262 683T386 702ZM246 -49Q292 -81 346 -101T470 -132L455 -173Q387 -162 329
-136T229 -73L246 -49ZM385 665Q302 665 250 635T169 534T121 343Q105 224 115 155T169 55T292 25Q374 25 426 55T508 157T555 347Q573 467 563 536T510 635T385 665Z" />
<glyph unicode="R" horiz-adv-x="609" d="M378 698Q452 698 495 681T554 621T559 500Q550 441 532 404T482 347T405 321V316Q422 311 435 298T457 264T471 219L516 0H472L429 219Q420 266 397 285T336 304Q276 305 233 305T161 307T113 309L119 341H329Q390 342
428 356T487 405T517 504Q526 567 516 601T472 648T378 662Q300 662 243 661T166 659L155 690Q191 694 222 695T290 697T378 698ZM195 690L98 0H58L155 690H195Z" />
<glyph unicode="S" horiz-adv-x="555" d="M330 701Q379 700 427 697T520 687L515 657Q473 659 442 661T382 663T316 664Q282 664 252 662T198 648T158 610T136 536Q132 500 137 475T161 432T218 398L364 338Q416 317 443 293T479 236T480 152Q469 79 438 44T354
-1T229 -11Q201 -11 150 -9T34 2L40 33Q83 30 116 29T179 27T240 26Q301 27 341 35T405 72T438 157Q443 199 438 223T412 265T352 299L206 359Q158 379 132 404T97 462T94 542Q102 598 121 630T172 678T242 698T330 701Z" />
<glyph unicode="T" horiz-adv-x="562" d="M357 690L260 0H219L316 690H357ZM595 690L590 654H74L79 690H595Z" />
<glyph unicode="U" horiz-adv-x="666" d="M629 690L568 256Q555 159 524 100T437 15T295 -12Q208 -12 158 15T92 102T89 259L149 690H191L130 256Q119 171 130 120T182 47T294 25Q367 25 414 48T488 122T527 259L587 690H629Z" />
<glyph unicode="V" horiz-adv-x="592" d="M625 690L300 12Q295 0 282 0H228Q222 0 217 4T211 14L76 690H118L231 107Q235 88 238 70T244 33H271Q278 52 287 71T305 110L581 690H625Z" />
<glyph unicode="W" horiz-adv-x="930" d="M954 690L687 13Q685 7 680 4T667 0H610Q603 0 598 4T592 16L535 581Q533 601 531 619T527 656H503Q495 637 488 618T473 578L258 14Q256 7 251 4T238 0H181Q174 0 169 4T163 15L85 690H127L192 106Q194 88 195 70T198
32H226Q233 51 239 70T253 107L471 675Q476 690 490 690H544Q551 690 556 685T562 673L622 105Q624 87 625 69T628 32H656Q663 50 669 69T683 107L911 690H954Z" />
<glyph unicode="X" horiz-adv-x="595" d="M146 690L300 356L41 0H-8L256 360L103 690H146ZM347 377L341 343H275L281 377H347ZM606 690L359 359L521 0H478L315 364L559 690H606Z" />
<glyph unicode="Y" horiz-adv-x="543" d="M579 690L280 246L246 247L71 690H113L239 367Q246 350 252 332T265 295H272Q282 313 294 332T317 368L534 690H579ZM289 285L249 0H207L248 285H289Z" />
<glyph unicode="Z" horiz-adv-x="555" d="M506 655L553 654L59 35L13 36L506 655ZM472 36L466 0H7L13 36H472ZM558 690L553 654H103L108 690H558Z" />
<glyph unicode="[" horiz-adv-x="312" d="M333 768L329 737H216Q210 737 205 733T199 723L81 -122Q79 -134 90 -134H207L202 -165H74Q59 -165 49 -155T42 -127L162 732Q165 749 176 758T203 768H333Z" />
<glyph unicode="\" horiz-adv-x="489" d="M121 690L410 -61H375L86 690H121Z" />
<glyph unicode="]" horiz-adv-x="312" d="M240 768Q256 768 266 757T273 730L152 -129Q151 -145 140 -155T112 -165H-19L-15 -134H99Q104 -134 109 -130T115 -120L234 725Q236 737 224 737H108L112 768H240Z" />
<glyph unicode="^" horiz-adv-x="401" d="M263 582L391 380L371 367L250 546H242L68 367L49 381L233 582H263Z" />
<glyph unicode="_" horiz-adv-x="433" d="M399 0L394 -33H-39L-34 0H399Z" />
<glyph unicode="`" horiz-adv-x="287" d="M130 713L270 566L251 547L104 684L130 713Z" />
<glyph unicode="a" horiz-adv-x="566" d="M313 494Q336 494 359 493T407 490T456 485T504 479L487 452Q433 455 395 457T321 459Q263 459 226 451T166 419T129 352T105 239Q93 162 95 115T118 46T185 24Q219 24 260 40T344 89T429 166L433 135Q395 88 351 55T262
5T181 -12Q121 -12 92 14T57 97T65 244Q77 321 94 369T139 445T208 483T313 494ZM464 479H504L437 0H406L419 120L415 125L464 479Z" />
<glyph unicode="b" horiz-adv-x="564" d="M364 494Q420 494 451 471T492 392T487 238Q476 159 459 110T415 34T351 -2T258 -12Q229 -12 202 -10T150 -4T100 7T49 20L75 45Q109 37 139 32T197 25T247 23Q301 23 336 32T392 66T425 134T446 243Q458 324 454 371T427
438T356 458Q309 458 255 426T125 330L119 355Q152 387 184 412T246 456T306 484T364 494ZM183 700L154 499Q148 459 143 430T130 366L134 353L88 19L48 20L144 700H183Z" />
<glyph unicode="c" horiz-adv-x="477" d="M312 494Q342 494 381 490T451 475L443 448Q416 454 379 456T319 458Q250 458 206 439T136 373T99 239Q87 155 98 108T147 43T253 24Q268 24 292 25T344 28T395 35L399 7Q364 -1 324 -6T247 -12Q166 -12 120 13T59 94T57
243Q70 336 99 391T180 470T312 494Z" />
<glyph unicode="d" horiz-adv-x="565" d="M310 494Q354 494 403 490T499 479L486 452Q431 455 393 457T320 459Q262 459 224 451T163 419T127 352T103 239Q93 165 94 118T115 47T178 24Q235 24 298 60T427 166L431 135Q404 103 373 76T308 30T240 -1T170 -12Q115
-12 88 16T56 101T63 244Q75 321 92 370T137 446T207 483T310 494ZM534 700L435 0H404L417 127L414 132L460 463L467 480Q468 506 470 527T476 576L494 700H534Z" />
<glyph unicode="e" horiz-adv-x="529" d="M311 494Q374 494 415 481T474 435T477 344Q468 303 449 279T397 243T311 225L70 200L75 232L312 258Q353 263 377 271T416 298T438 347Q450 397 436 420T390 451T313 459Q264 459 228 452T167 422T126 357T99 244Q85
155 95 107T144 41T248 23Q277 23 309 25T372 30T425 36L429 8Q409 2 374 -2T302 -9T237 -12Q157 -12 114 14T58 97T58 247Q70 323 89 371T139 446T212 483T311 494Z" />
<glyph unicode="f" horiz-adv-x="358" d="M305 715Q321 715 343 715T388 713T428 710L424 680H318Q261 680 234 658T199 576L107 -73Q98 -140 67 -174T-31 -208Q-48 -208 -75 -207T-126 -203L-122 -173H-44Q10 -173 35 -150T68 -69L159 580Q168 647 202 681T305
715ZM358 482L352 448H53L57 477L151 482H358Z" />
<glyph unicode="g" horiz-adv-x="571" d="M470 479H511L437 -2Q430 -50 413 -88T366 -154T297 -197T204 -218Q185 -219 152 -219T84 -218T20 -212L25 -184Q52 -185 80 -186T137 -186T198 -183Q283 -176 333 -134T397 -5Q406 46 413 80T429 133L419 141L470 479ZM310
494Q342 494 374 492T440 487T505 479L487 452Q433 455 395 457T321 459Q263 459 226 451T166 419T130 352T105 239Q94 162 95 115T118 46T186 24Q219 24 260 40T344 88T429 166L437 139Q399 91 354 57T264 6T180 -12Q122 -12 92 14T57 97T65 244Q77 321 94 369T139
445T208 483T310 494Z" />
<glyph unicode="h" horiz-adv-x="570" d="M381 494Q445 494 474 461T494 361L443 0H403L454 355Q461 411 441 434T371 458Q319 458 263 426T130 330L131 365Q202 425 263 459T381 494ZM186 700L157 489Q153 458 147 423T133 360L136 344L87 0H48L147 700H186Z" />
<glyph unicode="i" horiz-adv-x="225" d="M159 482L91 0H52L120 482H159ZM175 683Q184 683 187 679T190 666L181 605Q180 591 165 591H148Q130 591 132 608L141 668Q143 683 158 683H175Z" />
<glyph unicode="j" horiz-adv-x="226" d="M159 482L86 -38Q82 -72 69 -103T35 -160T-10 -208L-31 -191Q0 -157 20 -121T47 -36L120 482H159ZM175 683Q184 683 187 679T190 666L181 605Q180 591 165 591H148Q130 591 132 608L141 668Q143 683 158 683H175Z" />
<glyph unicode="k" horiz-adv-x="496" d="M186 700L135 323Q131 295 126 273T113 221Q114 218 115 214T117 206L87 0H48L147 700H186ZM470 482Q442 410 398 360T302 277T197 222T101 187L100 222Q182 247 247 284T359 372T429 482H470ZM282 274Q290 260 298 245T313
215L418 0H374L249 259L282 274Z" />
<glyph unicode="l" horiz-adv-x="272" d="M187 700L104 105Q98 67 114 49T168 30H225L226 1Q219 -2 206 -3T180 -6T156 -7Q107 -7 82 21T63 101L148 700H187Z" />
<glyph unicode="m" horiz-adv-x="875" d="M146 482L133 360L135 343L87 0H48L116 482H146ZM356 494Q421 494 449 460T469 361L418 0H379L429 355Q437 410 417 434T345 458Q315 458 283 444T215 403T130 332L131 365Q195 425 249 459T356 494ZM686 494Q751 494
779 460T799 361L748 0H709L759 355Q767 411 746 434T675 458Q645 458 614 444T546 403T461 332L462 365Q526 426 580 460T686 494Z" />
<glyph unicode="n" horiz-adv-x="570" d="M381 494Q423 494 450 479T488 435T494 361L443 0H403L454 355Q461 411 441 434T371 458Q319 458 263 426T130 332L131 365Q202 425 263 459T381 494ZM147 482L134 360L135 343L87 0H48L116 482H147Z" />
<glyph unicode="o" d="M305 494Q384 494 428 469T486 388T487 238Q474 146 446 91T368 12T240 -12Q161 -12 117 13T58 94T57 243Q70 335 98 390T176 469T305 494ZM305 458Q240 458 199 438T134 370T99 238Q87 157 96 110T141 43T240 23Q304 23 345 43T410 112T446
243Q457 325 448 372T404 438T305 458Z" />
<glyph unicode="p" horiz-adv-x="566" d="M372 494Q432 494 461 468T496 385T487 238Q476 161 459 112T415 36T345 -1T241 -12Q219 -12 196 -11T148 -8T100 -4T52 3L65 29Q120 27 158 25T231 22Q289 22 326 31T387 63T424 130T447 243Q459 321 457 368T435 436T367
458Q337 458 296 442T210 394T124 316L120 346Q148 381 181 408T248 454T315 483T372 494ZM147 482L134 355L137 350L91 18L84 1Q83 -25 81 -46T75 -94L57 -216H17L116 482H147Z" />
<glyph unicode="q" horiz-adv-x="565" d="M291 494Q321 494 347 492T399 486T450 475T501 462L475 437Q441 446 411 450T354 456T302 459Q249 459 215 450T159 416T125 349T103 239Q93 161 96 114T121 45T191 24Q231 24 265 38T338 84T428 164L431 135Q388 86
349 54T269 5T182 -12Q130 -12 99 11T59 90T63 244Q73 322 90 371T134 447T199 484T291 494ZM462 463L501 462L406 -216H366L396 -9Q402 31 407 61T421 125L416 137L462 463Z" />
<glyph unicode="r" horiz-adv-x="387" d="M146 482L133 357L135 342L87 0H48L116 482H146ZM394 494L383 456H364Q314 456 260 423T130 329V361Q197 424 257 459T373 494H394Z" />
<glyph unicode="s" horiz-adv-x="500" d="M264 494Q296 494 329 492T394 488T455 481L449 452Q405 455 359 456T265 459Q213 460 181 457T131 437T108 382Q102 341 117 323T171 290L325 230Q359 217 381 202T414 164T418 102Q411 50 384 26T312 -5T204 -12Q176
-12 150 -11T95 -7T30 1L35 30Q65 27 92 26T146 24T202 23Q263 24 300 30T355 54T379 107Q383 137 376 153T352 178T311 197L157 257Q127 269 105 283T73 321T69 386Q76 436 100 459T165 488T264 494Z" />
<glyph unicode="t" horiz-adv-x="350" d="M203 631L130 105Q124 66 140 48T194 30H280L281 1Q268 -1 250 -3T215 -6T190 -7Q132 -7 107 22T90 103L164 631H203ZM355 482L349 448H50L54 477L149 482H355Z" />
<glyph unicode="u" d="M152 482L101 127Q94 73 114 49T185 24Q238 24 291 58T415 160L418 127Q350 58 290 23T175 -12Q110 -12 81 22T61 121L112 482H152ZM497 482L429 0H399L413 132L411 147L457 482H497Z" />
<glyph unicode="v" horiz-adv-x="510" d="M494 482Q478 416 460 364T422 271T379 189Q346 131 319 91T274 29Q265 18 256 12T237 3T212 0H171Q165 0 161 3T155 13L55 482H97L187 33H205Q221 33 230 38T252 59Q266 77 291 115T346 206Q387 280 412 345T453 482H494Z" />
<glyph unicode="w" horiz-adv-x="823" d="M96 482L178 33H190Q200 33 208 37T229 58Q243 79 265 119T308 208Q327 250 341 294T368 383T391 471Q393 477 396 480T406 483L448 482Q454 482 458 479T463 470L527 33H539Q551 33 560 40T577 59Q603 96 623 129T665
207Q701 281 721 348T756 482H798Q784 420 768 370T735 276T696 189Q668 135 641 92T598 29Q590 20 582 14T564 4T539 0H511Q505 0 501 3T495 13L432 453H421Q416 429 405 386T378 293T342 198Q330 168 314 136T281 75T251 31Q243 20 234 14T214 4T189 0H161Q156
0 152 3T145 13L55 482H96Z" />
<glyph unicode="x" horiz-adv-x="507" d="M114 482L246 248L38 0H-10L203 251L72 482H114ZM283 268L278 235H213L218 268H283ZM491 482L294 250L436 0H393L251 254L445 482H491Z" />
<glyph unicode="y" horiz-adv-x="518" d="M496 482Q486 440 473 399T443 315T408 230T367 147T320 64Q271 -16 228 -73T141 -163T45 -209L38 -182Q72 -172 102 -151T162 -98T220 -23T283 74Q326 145 357 210T412 341T455 482H496ZM95 482L184 57Q191 33 214 33L266
34L247 0H199Q180 0 167 11T150 39L53 482H95Z" />
<glyph unicode="z" horiz-adv-x="490" d="M410 448L459 447L63 33L14 34L410 448ZM404 34L399 0H9L14 34H404ZM464 482L459 447H76L80 482H464Z" />
<glyph unicode="{" horiz-adv-x="303" d="M322 768L320 741Q262 741 237 715T204 637L177 439Q171 399 161 377T133 345T81 328Q112 317 128 305T149 273T149 218L114 -37Q107 -87 123 -112T198 -138L196 -165Q147 -166 118 -153T79 -110T75 -36L112 232Q116 260
111 273T92 293T54 310L60 348Q87 356 102 362T124 383T136 431L166 641Q172 687 189 715T238 757T322 768Z" />
<glyph unicode="|" horiz-adv-x="236" d="M203 781L70 -169H37L170 781H203Z" />
<glyph unicode="}" horiz-adv-x="302" d="M112 768Q162 769 191 756T230 713T234 639L204 428Q200 395 203 381T220 360T258 346L252 308Q227 299 211 292T186 271T172 229L135 -38Q129 -83 112 -112T62 -153T-20 -165L-18 -138Q39 -138 64 -112T96 -35L133 221Q138
256 147 275T176 305T230 328Q201 335 185 346T165 379T167 442L196 640Q203 691 186 716T110 741L112 768Z" />
<glyph unicode="~" horiz-adv-x="530" d="M162 335Q194 333 218 324T264 302T309 281T362 269Q393 267 408 282T428 331L452 328Q449 281 425 257T366 236Q330 238 304 247T256 268T214 290T166 302Q136 305 120 289T100 236L76 239Q79 273 90 294T120 326T162 335Z" />
<glyph unicode="&#xa0;" horiz-adv-x="228" />
<glyph unicode="&#xa1;" horiz-adv-x="236" d="M133 278L114 120L68 -203H28L74 120L100 278H133ZM152 483Q161 483 164 479T167 465L158 407Q157 399 153 394T139 389H127Q108 389 111 407L119 467Q121 483 138 483H152Z" />
<glyph unicode="&#xa2;" horiz-adv-x="503" d="M328 602Q358 602 397 598T467 583L459 556Q432 562 396 564T335 567Q267 567 223 548T153 482T115 349Q104 264 114 217T163 151T268 132Q284 132 308 133T360 137T411 144L415 115Q380 107 340 102T263 96Q182
96 136 121T75 203T74 352Q87 444 116 499T196 578T328 602ZM252 118L226 0H199L225 118H252ZM351 581L252 115H226L324 581H351ZM374 690L351 578H324L348 690H374Z" />
<glyph unicode="&#xa3;" horiz-adv-x="560" d="M374 701Q405 701 446 699T536 691L531 660Q509 662 490 662T450 663T408 664T357 665Q283 665 250 634T209 526L184 251Q180 204 170 164T139 90T82 35Q96 35 111 35T142 36H469L465 0H28L32 36Q90 68 114 122T144
249L169 527Q175 586 192 621T235 673T297 695T374 701ZM437 377L432 349H71L75 377H437Z" />
<glyph unicode="&#xa4;" horiz-adv-x="599" d="M327 545Q388 545 428 519T487 448T499 350Q494 294 466 251T392 184T289 160Q231 160 190 185T130 254T116 354Q122 410 148 452T220 520T327 545ZM159 242L177 221L84 138L65 159L159 242ZM436 226L510 142L489
124L416 208L436 226ZM327 518Q248 518 200 471T144 350Q137 280 175 235T283 187Q335 186 375 207T441 266T471 355Q476 400 461 437T412 496T327 518ZM129 585L201 502L179 484L108 566L129 585ZM528 572L546 550L455 471L437 491L528 572Z" />
<glyph unicode="&#xa5;" horiz-adv-x="605" d="M611 690L315 270L281 271L102 690H145L272 391Q279 374 286 356T300 320H308Q318 337 331 356T355 391L565 690H611ZM324 309L280 0H239L283 309H324ZM502 200L497 172H75L79 200H502ZM517 310L513 282H91L94 310H517Z" />
<glyph unicode="&#xa6;" horiz-adv-x="236" d="M203 781L147 381H114L170 781H203ZM126 231L70 -169H37L93 231H126Z" />
<glyph unicode="&#xa7;" horiz-adv-x="543" d="M101 409L133 408Q122 362 120 328T128 269T172 225L345 118Q370 103 387 87T414 53T428 14T427 -34Q419 -88 393 -112T325 -143T231 -149Q200 -148 166 -147T95 -144T15 -137L20 -106Q77 -109 125 -111T225 -114Q267
-114 301 -111T357 -89T386 -29Q391 15 374 40T328 83L158 187Q115 213 98 244T83 315T101 409ZM308 702Q331 702 369 701T450 697T524 690L519 660Q487 662 460 663T400 666T315 667Q269 668 235 664T181 642T154 585Q148 544 165 519T213 474L383 369Q426 343
442 311T457 238T439 144L407 145Q418 191 420 226T411 287T368 332L196 439Q161 461 141 483T115 531T113 591Q120 639 144 663T209 695T308 702Z" />
<glyph unicode="&#xa8;" horiz-adv-x="402" d="M182 682Q191 682 193 679T195 667L187 614Q186 605 183 602T170 598H158Q143 598 145 613L153 667Q154 675 157 678T169 682H182ZM357 682Q366 682 368 679T370 667L362 614Q361 605 358 602T345 598H333Q318 598
320 613L328 667Q329 675 332 678T344 682H357Z" />
<glyph unicode="&#xa9;" horiz-adv-x="850" d="M479 702Q580 702 655 658T767 532T790 343Q776 240 724 160T586 34T387 -12Q311 -12 249 14T145 87T84 200T76 347Q89 450 142 530T281 656T479 702ZM470 577Q515 577 543 574T601 564L594 542Q563 545 537 546T472
547Q411 547 371 530T310 468T277 345Q266 273 274 230T315 168T407 149Q439 149 463 149T509 151T550 156L553 132Q522 125 490 122T411 119Q337 119 297 141T244 215T243 350Q255 435 280 484T352 555T470 577ZM479 677Q375 677 295 634T165 515T102 343Q90 243
124 169T226 54T386 13Q491 13 571 56T701 175T763 347Q776 447 743 521T641 636T479 677Z" />
<glyph unicode="&#xaa;" horiz-adv-x="445" d="M268 602Q299 602 333 599T400 591L387 570Q350 572 324 573T276 574Q229 574 198 565T150 524T123 431Q114 373 118 344T140 303T190 292Q221 292 262 314T344 377L348 356Q325 328 297 307T241 275T186 263Q148
263 123 275T89 325T90 434Q98 486 112 519T148 571T200 595T268 602ZM369 591H400L355 270H329L336 342L335 347L369 591Z" />
<glyph unicode="&#xab;" horiz-adv-x="458" d="M397 455L415 438L245 249L363 59L342 44L206 247L207 258L397 455ZM233 455L251 438L81 249L199 59L178 44L42 247L43 258L233 455Z" />
<glyph unicode="&#xac;" horiz-adv-x="590" d="M508 313L502 280H81L85 313H508ZM508 313L482 134H448L473 305L508 313Z" />
<glyph unicode="&#xad;" horiz-adv-x="473" d="M387 268L383 235H74L78 268H387Z" />
<glyph unicode="&#xae;" horiz-adv-x="573" d="M334 701Q402 701 450 674T520 596T535 477Q527 414 495 365T412 286T293 256Q227 256 179 285T107 365T91 486Q99 555 132 602T218 675T334 701ZM253 617L214 341H191L230 617H253ZM334 682Q237 682 179 626T111
482Q104 418 125 372T190 301T293 275Q355 275 402 302T478 376T514 482Q522 545 502 589T438 658T334 682ZM328 620Q365 620 389 615T425 594T432 541Q429 505 413 490T362 469V467Q373 464 380 455T393 427L416 341H391L369 428Q364 447 353 454T325 461Q278
461 257 461T229 462T214 463L217 479H320Q363 480 384 491T409 544Q414 583 396 592T332 601Q316 601 295 601T257 601T236 600L230 617Q258 619 281 619T328 620Z" />
<glyph unicode="&#xaf;" horiz-adv-x="400" d="M390 654L386 621H121L125 654H390Z" />
<glyph unicode="&#xb0;" horiz-adv-x="376" d="M239 702Q276 702 302 686T342 641T352 576Q346 519 307 486T215 453Q177 453 151 471T112 518T103 581Q109 636 148 669T239 702ZM238 675Q195 675 166 648T132 577Q128 535 151 508T216 480Q257 480 288 507T323
579Q328 621 305 648T238 675Z" />
<glyph unicode="&#xb1;" horiz-adv-x="594" d="M344 510L298 190H266L310 510H344ZM484 120L479 88H56L61 120H484ZM518 367L513 334H91L96 367H518Z" />
<glyph unicode="&#xb2;" horiz-adv-x="377" d="M266 758Q318 758 348 743T379 685Q379 653 363 624T322 568T269 515L127 384Q144 385 159 385T191 385L357 384L352 356H73L75 371Q76 375 78 378T83 384L244 533Q272 558 293 580T327 627T339 678Q339 708 319
718T263 729Q234 729 204 726T135 714L134 740Q177 751 209 754T266 758Z" />
<glyph unicode="&#xb3;" horiz-adv-x="392" d="M251 758Q312 758 341 743T370 688Q370 646 351 612T293 567V565Q324 558 337 539T351 490Q351 443 335 411T286 364T206 348Q169 348 135 352T74 364L84 389Q102 386 121 384T163 380T207 378Q263 378 289 406T316
490Q316 514 301 531T235 549L151 550L155 576L240 578Q289 579 311 606T333 678Q333 709 314 719T246 729Q218 729 187 725T135 716L133 742Q164 749 194 753T251 758Z" />
<glyph unicode="&#xb4;" horiz-adv-x="287" d="M278 714L301 682L120 547L103 567L278 714Z" />
<glyph unicode="&#xb5;" horiz-adv-x="569" d="M161 482L111 127Q104 74 122 50T192 26Q235 26 282 48T369 114T422 223L411 128Q383 81 345 50T265 4T186 -12Q142 -12 115 4T76 52T71 125L122 482H161ZM498 482L443 95Q439 65 442 45T474 25H517L518 1Q505 -3
489 -5T457 -7Q420 -7 409 16T404 82L411 128L410 147L458 482H498ZM105 87L78 -98L57 -197H26L76 154L105 87Z" />
<glyph unicode="&#xb6;" horiz-adv-x="595" d="M397 702Q428 702 470 698T546 685L537 659Q512 664 481 666T418 669T365 670L279 200Q195 208 145 240T78 330T72 467Q86 562 122 613T226 683T397 702ZM372 685L246 -210H211L337 685H372ZM546 685L449 0H413L510
685H546Z" />
<glyph unicode="&#xb7;" horiz-adv-x="212" d="M115 304Q126 304 129 300T130 286L122 226Q121 218 117 214T103 210H89Q70 210 73 228L82 288Q84 304 100 304H115Z" />
<glyph unicode="&#xb8;" horiz-adv-x="223" d="M57 -47Q87 -45 106 -51T133 -73T136 -115Q132 -150 110 -176T54 -215T-24 -222L-16 -199Q33 -201 66 -175T105 -112Q109 -87 98 -78T53 -68L57 -47Z" />
<glyph unicode="&#xb9;" horiz-adv-x="289" d="M250 752L193 356H160L208 692Q209 699 210 706T214 721L100 687L98 710L216 752H250Z" />
<glyph unicode="&#xba;" horiz-adv-x="445" d="M262 602Q348 602 378 563T394 430Q386 369 366 332T311 279T220 263Q136 263 106 301T89 435Q102 527 141 564T262 602ZM263 574Q218 574 190 561T147 517T123 430Q112 350 133 321T220 291Q286 291 317 322T359
435Q371 515 350 544T263 574Z" />
<glyph unicode="&#xbb;" horiz-adv-x="456" d="M48 44L30 61L200 250L82 440L103 455L239 252L238 241L48 44ZM212 44L194 61L364 250L246 440L267 455L403 252L402 241L212 44Z" />
<glyph unicode="&#xbc;" horiz-adv-x="839" d="M685 690L116 0H82L651 690H685ZM257 690L199 276H166L215 628Q217 636 218 644T222 660L96 624L95 646L224 690H257ZM654 414L477 163Q470 154 474 146T491 137H771L767 114L703 110H470Q455 110 446 118T435 138T442
164L619 414H654ZM751 336L704 0H673L710 266L726 336H751Z" />
<glyph unicode="&#xbd;" horiz-adv-x="865" d="M682 690L114 0H80L648 690H682ZM256 690L198 276H165L215 628Q217 636 218 644T221 660L96 624L94 646L223 690H256ZM669 421Q714 421 744 414T789 389T798 332Q793 294 767 259T687 177L518 29Q538 30 557 30T596
30L776 29L771 0H473L476 20Q477 25 479 28T484 35L655 186Q707 232 733 267T763 337Q768 375 742 383T671 392Q650 392 630 391T588 388T537 380L533 405Q583 416 612 418T669 421Z" />
<glyph unicode="&#xbe;" horiz-adv-x="931" d="M790 690L221 0H187L756 690H790ZM245 695Q327 695 356 674T377 597Q374 573 365 551T337 515T289 495L286 493Q333 486 348 458T359 386Q354 346 337 319T288 280T202 267Q165 267 130 270T61 277L65 302Q86 300
107 299T150 296T194 295Q256 295 287 317T325 394Q329 417 324 436T298 467T233 479L146 480L150 504L234 505Q279 506 301 521T333 557T344 596Q350 638 328 652T244 667Q211 667 181 665T126 660L123 685Q156 690 186 692T245 695ZM745 414L568 163Q562 154
566 146T582 137H862L859 114L795 110H561Q547 110 538 118T526 138T533 164L711 414H745ZM835 336L788 0H756L794 266L810 336H835Z" />
<glyph unicode="&#xbf;" horiz-adv-x="497" d="M273 286Q266 230 242 191T187 121T125 64T71 7T42 -63Q33 -125 67 -155T182 -185Q233 -185 265 -184T324 -179T383 -172L387 -201Q362 -205 342 -208T299 -214T249 -218T178 -220Q80 -220 35 -180T0 -62Q6 -17 29
15T85 76T149 133T206 199T238 288L273 286ZM291 492Q300 492 304 488T306 475L298 415Q297 405 293 402T280 398H267Q250 398 251 416L260 477Q262 492 277 492H291Z" />
<glyph unicode="&#xc0;" horiz-adv-x="604" d="M387 690Q394 690 398 686T404 676L550 0H508L383 600Q380 615 378 628T372 656H342Q336 642 329 628T315 599L21 0H-24L313 678Q315 685 320 687T331 690H387ZM477 279L472 242H122L127 279H477ZM267 900L407 753L388
734L241 871L267 900Z" />
<glyph unicode="&#xc1;" horiz-adv-x="604" d="M387 690Q394 690 398 686T404 676L550 0H508L383 600Q380 615 378 628T372 656H342Q336 642 329 628T315 599L21 0H-24L313 678Q315 685 320 687T331 690H387ZM477 279L472 242H122L127 279H477ZM488 901L511 869L330
734L313 754L488 901Z" />
<glyph unicode="&#xc2;" horiz-adv-x="604" d="M387 690Q394 690 398 686T404 676L550 0H508L383 600Q380 615 378 628T372 656H342Q336 642 329 628T315 599L21 0H-24L313 678Q315 685 320 687T331 690H387ZM477 279L472 242H122L127 279H477ZM397 884L519 763L502
746L386 848H377L231 745L217 765L368 884H397Z" />
<glyph unicode="&#xc3;" horiz-adv-x="604" d="M387 690Q394 690 398 686T404 676L550 0H508L383 600Q380 615 378 628T372 656H342Q336 642 329 628T315 599L21 0H-24L313 678Q315 685 320 687T331 690H387ZM477 279L472 242H122L127 279H477ZM308 869Q330 867
346 858T375 837T404 816T440 804Q472 802 487 817T507 865L530 863Q527 816 504 793T444 772Q419 774 402 783T370 804T343 825T311 837Q281 840 265 824T244 772L221 775Q225 825 249 848T308 869Z" />
<glyph unicode="&#xc4;" horiz-adv-x="604" d="M387 690Q394 690 398 686T404 676L550 0H508L383 600Q380 615 378 628T372 656H342Q336 642 329 628T315 599L21 0H-24L313 678Q315 685 320 687T331 690H387ZM477 279L472 242H122L127 279H477ZM300 859Q309 859
311 856T313 844L305 791Q304 782 301 779T288 775H276Q261 775 263 790L271 844Q272 852 275 855T287 859H300ZM475 859Q484 859 486 856T488 844L480 791Q479 782 476 779T463 775H451Q436 775 438 790L446 844Q447 852 450 855T462 859H475Z" />
<glyph unicode="&#xc5;" horiz-adv-x="604" d="M387 690Q394 690 398 686T404 676L550 0H508L383 600Q380 615 378 628T372 656H342Q336 642 329 628T315 599L21 0H-24L313 678Q315 685 320 687T331 690H387ZM477 279L472 242H122L127 279H477ZM383 913Q425 913
450 889T475 825Q475 781 444 750T367 718Q325 718 300 742T275 806Q275 851 306 882T383 913ZM383 888Q347 888 325 864T303 809Q303 782 319 763T367 744Q404 744 425 769T447 826Q447 852 430 870T383 888Z" />
<glyph unicode="&#xc6;" horiz-adv-x="905" d="M626 690Q721 690 784 689T906 686L901 655H636Q601 655 577 634T546 575L482 112Q477 77 494 56T547 35H814L812 4Q743 1 675 1T539 0Q490 0 462 31T442 112L508 581Q510 603 524 625T556 655H551Q535 648 513 631T469
584L13 0H-33L435 600Q458 629 480 647T524 674T572 686T626 690ZM483 295L477 260H194L211 296L483 295ZM496 386L822 385L817 352L491 351L496 386Z" />
<glyph unicode="&#xc7;" d="M385 702Q427 702 457 700T512 694T562 684L553 654Q526 658 502 660T450 664T386 665Q323 665 279 649T204 595T154 496T121 343Q105 224 115 155T167 55T290 25Q353 25 395 28T478 38L483 7Q441 -3 398 -7T291 -12Q195 -12 143 23T76
138T79 347Q93 445 116 513T174 622T262 683T385 702ZM245 -59Q275 -57 294 -63T321 -85T324 -127Q320 -162 298 -188T242 -227T164 -234L172 -211Q221 -213 254 -187T293 -124Q297 -99 286 -90T241 -80L245 -59Z" />
<glyph unicode="&#xc8;" horiz-adv-x="551" d="M255 690Q305 690 354 690T453 689T551 686L545 655H262Q222 655 200 634T173 575L109 112Q104 77 121 56T174 35H457L458 4Q410 2 361 1T264 0T168 0Q115 0 87 31T67 112L133 585Q140 632 171 661T255 690ZM123
385H467L462 352H118L123 385ZM271 924L411 777L392 758L245 895L271 924Z" />
<glyph unicode="&#xc9;" horiz-adv-x="551" d="M255 690Q305 690 354 690T453 689T551 686L545 655H262Q222 655 200 634T173 575L109 112Q104 77 121 56T174 35H457L458 4Q410 2 361 1T264 0T168 0Q115 0 87 31T67 112L133 585Q140 632 171 661T255 690ZM123
385H467L462 352H118L123 385ZM491 925L514 893L333 758L316 778L491 925Z" />
<glyph unicode="&#xca;" horiz-adv-x="551" d="M255 690Q305 690 354 690T453 689T551 686L545 655H262Q222 655 200 634T173 575L109 112Q104 77 121 56T174 35H457L458 4Q410 2 361 1T264 0T168 0Q115 0 87 31T67 112L133 585Q140 632 171 661T255 690ZM123
385H467L462 352H118L123 385ZM401 908L523 787L506 770L390 872H381L235 769L221 789L372 908H401Z" />
<glyph unicode="&#xcb;" horiz-adv-x="551" d="M255 690Q305 690 354 690T453 689T551 686L545 655H262Q222 655 200 634T173 575L109 112Q104 77 121 56T174 35H457L458 4Q410 2 361 1T264 0T168 0Q115 0 87 31T67 112L133 585Q140 632 171 661T255 690ZM123
385H467L462 352H118L123 385ZM304 883Q313 883 315 880T317 868L309 815Q308 806 305 803T292 799H280Q265 799 267 814L275 868Q276 876 279 879T291 883H304ZM479 883Q488 883 490 880T492 868L484 815Q483 806 480 803T467 799H455Q440 799 442 814L450 868Q451
876 454 879T466 883H479Z" />
<glyph unicode="&#xcc;" horiz-adv-x="239" d="M196 690L99 0H58L155 690H196ZM84 900L224 753L205 734L58 871L84 900Z" />
<glyph unicode="&#xcd;" horiz-adv-x="239" d="M196 690L99 0H58L155 690H196ZM305 901L328 869L147 734L130 754L305 901Z" />
<glyph unicode="&#xce;" horiz-adv-x="239" d="M196 690L99 0H58L155 690H196ZM215 884L337 763L320 746L204 848H195L49 745L35 765L186 884H215Z" />
<glyph unicode="&#xcf;" horiz-adv-x="239" d="M196 690L99 0H58L155 690H196ZM117 859Q126 859 128 856T130 844L122 791Q121 782 118 779T105 775H93Q78 775 80 790L88 844Q89 852 92 855T104 859H117ZM292 859Q301 859 303 856T305 844L297 791Q296 782 293
779T280 775H268Q253 775 255 790L263 844Q264 852 267 855T279 859H292Z" />
<glyph unicode="&#xd0;" horiz-adv-x="659" d="M326 384L323 356H29L33 384H326ZM383 699Q479 699 532 665T599 553T595 343Q581 240 558 172T499 65T411 8T287 -9Q224 -9 167 -7T58 0L81 31Q127 30 178 29T286 28Q348 28 392 43T468 95T519 193T553 347Q565 437
563 498T540 594T482 646T382 662Q344 662 307 662T236 661T170 659L155 690Q189 693 226 695T303 698T383 699ZM196 690L99 0H58L155 690H196Z" />
<glyph unicode="&#xd1;" horiz-adv-x="692" d="M649 690L555 19Q554 9 549 5T534 0H483Q474 0 469 4T461 17L240 580Q233 597 226 615T212 653H189Q187 633 185 613T179 571L99 0H58L152 671Q154 681 159 685T173 690H222Q230 690 235 686T244 673L460 123Q468
103 476 81T492 37H518Q521 60 523 82T530 126L608 690H649ZM361 869Q383 867 399 858T428 837T457 816T493 804Q525 802 540 817T560 865L583 863Q580 816 557 793T497 772Q472 774 455 783T423 804T396 825T364 837Q334 840 318 824T297 772L274 775Q278 825
302 848T361 869Z" />
<glyph unicode="&#xd2;" horiz-adv-x="662" d="M386 702Q481 702 534 668T601 554T597 343Q584 244 561 176T503 67T416 7T292 -12Q197 -12 144 22T76 135T79 347Q93 445 116 513T174 622T262 683T386 702ZM385 665Q302 665 250 635T169 534T121 343Q105 224 115
155T169 55T292 25Q374 25 426 55T508 157T555 347Q573 467 563 536T510 635T385 665ZM292 900L432 753L413 734L266 871L292 900Z" />
<glyph unicode="&#xd3;" horiz-adv-x="662" d="M386 702Q481 702 534 668T601 554T597 343Q584 244 561 176T503 67T416 7T292 -12Q197 -12 144 22T76 135T79 347Q93 445 116 513T174 622T262 683T386 702ZM385 665Q302 665 250 635T169 534T121 343Q105 224 115
155T169 55T292 25Q374 25 426 55T508 157T555 347Q573 467 563 536T510 635T385 665ZM513 901L536 869L355 734L338 754L513 901Z" />
<glyph unicode="&#xd4;" horiz-adv-x="662" d="M386 702Q481 702 534 668T601 554T597 343Q584 244 561 176T503 67T416 7T292 -12Q197 -12 144 22T76 135T79 347Q93 445 116 513T174 622T262 683T386 702ZM385 665Q302 665 250 635T169 534T121 343Q105 224 115
155T169 55T292 25Q374 25 426 55T508 157T555 347Q573 467 563 536T510 635T385 665ZM422 884L544 763L527 746L411 848H402L256 745L242 765L393 884H422Z" />
<glyph unicode="&#xd5;" horiz-adv-x="662" d="M386 702Q481 702 534 668T601 554T597 343Q584 244 561 176T503 67T416 7T292 -12Q197 -12 144 22T76 135T79 347Q93 445 116 513T174 622T262 683T386 702ZM385 665Q302 665 250 635T169 534T121 343Q105 224 115
155T169 55T292 25Q374 25 426 55T508 157T555 347Q573 467 563 536T510 635T385 665ZM333 869Q355 867 371 858T400 837T429 816T465 804Q497 802 512 817T532 865L555 863Q552 816 529 793T469 772Q444 774 427 783T395 804T368 825T336 837Q306 840 290 824T269
772L246 775Q250 825 274 848T333 869Z" />
<glyph unicode="&#xd6;" horiz-adv-x="662" d="M386 702Q481 702 534 668T601 554T597 343Q584 244 561 176T503 67T416 7T292 -12Q197 -12 144 22T76 135T79 347Q93 445 116 513T174 622T262 683T386 702ZM385 665Q302 665 250 635T169 534T121 343Q105 224 115
155T169 55T292 25Q374 25 426 55T508 157T555 347Q573 467 563 536T510 635T385 665ZM325 859Q334 859 336 856T338 844L330 791Q329 782 326 779T313 775H301Q286 775 288 790L296 844Q297 852 300 855T312 859H325ZM500 859Q509 859 511 856T513 844L505 791Q504
782 501 779T488 775H476Q461 775 463 790L471 844Q472 852 475 855T487 859H500Z" />
<glyph unicode="&#xd7;" horiz-adv-x="526" d="M449 460L471 433L74 117L53 144L449 460ZM121 457L427 142L403 117L97 433L121 457Z" />
<glyph unicode="&#xd8;" horiz-adv-x="662" d="M564 744L589 730L112 -53L87 -39L564 744ZM386 702Q481 702 534 668T601 554T597 343Q584 244 561 176T503 67T416 7T292 -12Q197 -12 144 22T76 135T79 347Q93 445 116 513T174 622T262 683T386 702ZM385 665Q302
665 250 635T169 534T121 343Q105 224 115 155T169 55T292 25Q374 25 426 55T508 157T555 347Q573 467 563 536T510 635T385 665Z" />
<glyph unicode="&#xd9;" horiz-adv-x="666" d="M629 690L568 256Q555 159 524 100T437 15T295 -12Q208 -12 158 15T92 102T89 259L149 690H191L130 256Q119 171 130 120T182 47T294 25Q367 25 414 48T488 122T527 259L587 690H629ZM292 900L432 753L413 734L266
871L292 900Z" />
<glyph unicode="&#xda;" horiz-adv-x="666" d="M629 690L568 256Q555 159 524 100T437 15T295 -12Q208 -12 158 15T92 102T89 259L149 690H191L130 256Q119 171 130 120T182 47T294 25Q367 25 414 48T488 122T527 259L587 690H629ZM513 901L536 869L355 734L338
754L513 901Z" />
<glyph unicode="&#xdb;" horiz-adv-x="666" d="M629 690L568 256Q555 159 524 100T437 15T295 -12Q208 -12 158 15T92 102T89 259L149 690H191L130 256Q119 171 130 120T182 47T294 25Q367 25 414 48T488 122T527 259L587 690H629ZM422 884L544 763L527 746L411
848H402L256 745L242 765L393 884H422Z" />
<glyph unicode="&#xdc;" horiz-adv-x="666" d="M629 690L568 256Q555 159 524 100T437 15T295 -12Q208 -12 158 15T92 102T89 259L149 690H191L130 256Q119 171 130 120T182 47T294 25Q367 25 414 48T488 122T527 259L587 690H629ZM325 859Q334 859 336 856T338
844L330 791Q329 782 326 779T313 775H301Q286 775 288 790L296 844Q297 852 300 855T312 859H325ZM500 859Q509 859 511 856T513 844L505 791Q504 782 501 779T488 775H476Q461 775 463 790L471 844Q472 852 475 855T487 859H500Z" />
<glyph unicode="&#xdd;" horiz-adv-x="543" d="M579 690L280 246L246 247L71 690H113L239 367Q246 350 252 332T265 295H272Q282 313 294 332T317 368L534 690H579ZM289 285L249 0H207L248 285H289ZM449 901L472 869L291 734L274 754L449 901Z" />
<glyph unicode="&#xde;" horiz-adv-x="584" d="M359 558Q434 558 477 540T534 476T537 349Q526 268 501 224T429 162T309 144Q255 144 210 146T134 150T92 154L95 181Q145 181 199 181T306 181Q367 182 405 196T465 247T496 354Q506 421 496 457T452 507T359 522Q282
522 225 521T147 518L135 550Q172 554 203 555T271 557T359 558ZM197 690L100 0H58L155 690H197Z" />
<glyph unicode="&#xdf;" horiz-adv-x="653" d="M381 714Q456 714 502 704T569 668T585 596Q583 560 568 536T528 496T470 467Q433 454 403 443T354 415T332 364Q330 338 341 322T386 289L506 229Q551 206 571 181T584 103Q577 52 553 28T488 -3T396 -11Q370 -11
330 -9T240 0L245 30Q287 27 326 25T399 24Q443 25 473 31T521 55T544 109Q548 139 540 155T518 181T486 200L366 260Q326 281 308 305T294 368Q299 407 321 428T377 464T454 494Q472 501 493 512T530 544T548 599Q550 625 539 643T494 670T391 680Q324 680 283
668T222 623T192 531L107 -73Q100 -121 84 -150T38 -194T-37 -208Q-48 -208 -75 -207T-126 -203L-122 -173H-44Q10 -173 34 -150T68 -69L153 535Q162 597 182 633T232 686T300 709T381 714ZM170 482L164 448H53L57 477L151 482H170Z" />
<glyph unicode="&#xe0;" horiz-adv-x="566" d="M313 494Q336 494 359 493T407 490T456 485T504 479L487 452Q433 455 395 457T321 459Q263 459 226 451T166 419T129 352T105 239Q93 162 95 115T118 46T185 24Q219 24 260 40T344 89T429 166L433 135Q395 88 351
55T262 5T181 -12Q121 -12 92 14T57 97T65 244Q77 321 94 369T139 445T208 483T313 494ZM464 479H504L437 0H406L419 120L415 125L464 479ZM229 719L369 572L350 553L203 690L229 719Z" />
<glyph unicode="&#xe1;" horiz-adv-x="566" d="M313 494Q336 494 359 493T407 490T456 485T504 479L487 452Q433 455 395 457T321 459Q263 459 226 451T166 419T129 352T105 239Q93 162 95 115T118 46T185 24Q219 24 260 40T344 89T429 166L433 135Q395 88 351
55T262 5T181 -12Q121 -12 92 14T57 97T65 244Q77 321 94 369T139 445T208 483T313 494ZM464 479H504L437 0H406L419 120L415 125L464 479ZM449 720L472 688L291 553L274 573L449 720Z" />
<glyph unicode="&#xe2;" horiz-adv-x="566" d="M313 494Q336 494 359 493T407 490T456 485T504 479L487 452Q433 455 395 457T321 459Q263 459 226 451T166 419T129 352T105 239Q93 162 95 115T118 46T185 24Q219 24 260 40T344 89T429 166L433 135Q395 88 351
55T262 5T181 -12Q121 -12 92 14T57 97T65 244Q77 321 94 369T139 445T208 483T313 494ZM464 479H504L437 0H406L419 120L415 125L464 479ZM359 958L481 837L464 820L348 922H339L193 819L179 839L330 958H359Z" />
<glyph unicode="&#xe3;" horiz-adv-x="566" d="M313 494Q336 494 359 493T407 490T456 485T504 479L487 452Q433 455 395 457T321 459Q263 459 226 451T166 419T129 352T105 239Q93 162 95 115T118 46T185 24Q219 24 260 40T344 89T429 166L433 135Q395 88 351
55T262 5T181 -12Q121 -12 92 14T57 97T65 244Q77 321 94 369T139 445T208 483T313 494ZM464 479H504L437 0H406L419 120L415 125L464 479ZM270 944Q292 942 308 933T337 912T366 891T402 879Q434 877 449 892T469 940L492 938Q489 891 466 868T406 847Q381 849
364 858T332 879T305 900T273 912Q243 915 227 899T206 847L183 850Q187 900 211 923T270 944Z" />
<glyph unicode="&#xe4;" horiz-adv-x="566" d="M313 494Q336 494 359 493T407 490T456 485T504 479L487 452Q433 455 395 457T321 459Q263 459 226 451T166 419T129 352T105 239Q93 162 95 115T118 46T185 24Q219 24 260 40T344 89T429 166L433 135Q395 88 351
55T262 5T181 -12Q121 -12 92 14T57 97T65 244Q77 321 94 369T139 445T208 483T313 494ZM464 479H504L437 0H406L419 120L415 125L464 479ZM262 934Q271 934 273 931T275 919L267 866Q266 857 263 854T250 850H238Q223 850 225 865L233 919Q234 927 237 930T249
934H262ZM437 934Q446 934 448 931T450 919L442 866Q441 857 438 854T425 850H413Q398 850 400 865L408 919Q409 927 412 930T424 934H437Z" />
<glyph unicode="&#xe5;" horiz-adv-x="566" d="M313 494Q336 494 359 493T407 490T456 485T504 479L487 452Q433 455 395 457T321 459Q263 459 226 451T166 419T129 352T105 239Q93 162 95 115T118 46T185 24Q219 24 260 40T344 89T429 166L433 135Q395 88 351
55T262 5T181 -12Q121 -12 92 14T57 97T65 244Q77 321 94 369T139 445T208 483T313 494ZM464 479H504L437 0H406L419 120L415 125L464 479ZM345 731Q387 731 412 707T437 643Q437 599 406 568T329 536Q287 536 262 560T237 624Q237 669 268 700T345 731ZM345 706Q309
706 287 682T265 627Q265 600 281 581T329 562Q366 562 387 587T409 644Q409 670 392 688T345 706Z" />
<glyph unicode="&#xe6;" horiz-adv-x="872" d="M307 494Q344 494 380 491T453 483T526 471L501 444Q461 448 431 451T373 457T315 459Q258 459 221 450T162 416T127 349T103 239Q92 164 93 117T114 47T176 24Q212 24 251 40T331 88T412 167L417 136Q382 90 342
57T258 6T171 -12Q113 -12 85 17T54 104T63 244Q75 321 92 370T137 446T206 483T307 494ZM653 494Q716 494 757 481T816 435T819 344Q811 303 792 279T739 243T654 225L412 200L417 232L654 258Q695 263 719 271T758 298T780 347Q792 397 779 420T732 451T656 459Q606
459 570 452T509 422T468 357T441 244Q428 155 438 107T486 41T590 23Q619 23 651 25T714 30T766 36L770 8Q750 2 716 -2T644 -9T579 -12Q499 -12 455 14T399 97T401 247Q412 323 431 371T481 446T554 483T653 494Z" />
<glyph unicode="&#xe7;" horiz-adv-x="477" d="M312 494Q342 494 381 490T451 475L443 448Q416 454 379 456T319 458Q250 458 206 439T136 373T99 239Q87 155 98 108T147 43T253 24Q268 24 292 25T344 28T395 35L399 7Q364 -1 324 -6T247 -12Q166 -12 120 13T59
94T57 243Q70 336 99 391T180 470T312 494ZM199 -59Q229 -57 248 -63T275 -85T278 -127Q274 -162 252 -188T196 -227T118 -234L126 -211Q175 -213 208 -187T247 -124Q251 -99 240 -90T195 -80L199 -59Z" />
<glyph unicode="&#xe8;" horiz-adv-x="529" d="M311 494Q374 494 415 481T474 435T477 344Q468 303 449 279T397 243T311 225L70 200L75 232L312 258Q353 263 377 271T416 298T438 347Q450 397 436 420T390 451T313 459Q264 459 228 452T167 422T126 357T99 244Q85
155 95 107T144 41T248 23Q277 23 309 25T372 30T425 36L429 8Q409 2 374 -2T302 -9T237 -12Q157 -12 114 14T58 97T58 247Q70 323 89 371T139 446T212 483T311 494ZM218 719L358 572L339 553L192 690L218 719Z" />
<glyph unicode="&#xe9;" horiz-adv-x="529" d="M311 494Q374 494 415 481T474 435T477 344Q468 303 449 279T397 243T311 225L70 200L75 232L312 258Q353 263 377 271T416 298T438 347Q450 397 436 420T390 451T313 459Q264 459 228 452T167 422T126 357T99 244Q85
155 95 107T144 41T248 23Q277 23 309 25T372 30T425 36L429 8Q409 2 374 -2T302 -9T237 -12Q157 -12 114 14T58 97T58 247Q70 323 89 371T139 446T212 483T311 494ZM439 720L462 688L281 553L264 573L439 720Z" />
<glyph unicode="&#xea;" horiz-adv-x="529" d="M311 494Q374 494 415 481T474 435T477 344Q468 303 449 279T397 243T311 225L70 200L75 232L312 258Q353 263 377 271T416 298T438 347Q450 397 436 420T390 451T313 459Q264 459 228 452T167 422T126 357T99 244Q85
155 95 107T144 41T248 23Q277 23 309 25T372 30T425 36L429 8Q409 2 374 -2T302 -9T237 -12Q157 -12 114 14T58 97T58 247Q70 323 89 371T139 446T212 483T311 494ZM349 958L471 837L454 820L338 922H329L183 819L169 839L320 958H349Z" />
<glyph unicode="&#xeb;" horiz-adv-x="529" d="M311 494Q374 494 415 481T474 435T477 344Q468 303 449 279T397 243T311 225L70 200L75 232L312 258Q353 263 377 271T416 298T438 347Q450 397 436 420T390 451T313 459Q264 459 228 452T167 422T126 357T99 244Q85
155 95 107T144 41T248 23Q277 23 309 25T372 30T425 36L429 8Q409 2 374 -2T302 -9T237 -12Q157 -12 114 14T58 97T58 247Q70 323 89 371T139 446T212 483T311 494ZM251 934Q260 934 262 931T264 919L256 866Q255 857 252 854T239 850H227Q212 850 214 865L222
919Q223 927 226 930T238 934H251ZM426 934Q435 934 437 931T439 919L431 866Q430 857 427 854T414 850H402Q387 850 389 865L397 919Q398 927 401 930T413 934H426Z" />
<glyph unicode="&#xec;" horiz-adv-x="225" d="M160 482L91 0H52L120 482H160ZM308 719L448 572L429 553L282 690L308 719Z" />
<glyph unicode="&#xed;" horiz-adv-x="225" d="M160 482L91 0H52L120 482H160ZM529 720L552 688L371 553L354 573L529 720Z" />
<glyph unicode="&#xee;" horiz-adv-x="225" d="M160 482L91 0H52L120 482H160ZM439 958L561 837L544 820L428 922H419L273 819L259 839L410 958H439Z" />
<glyph unicode="&#xef;" horiz-adv-x="225" d="M160 482L91 0H52L120 482H160ZM341 934Q350 934 352 931T354 919L346 866Q345 857 342 854T329 850H317Q302 850 304 865L312 919Q313 927 316 930T328 934H341ZM516 934Q525 934 527 931T529 919L521 866Q520 857
517 854T504 850H492Q477 850 479 865L487 919Q488 927 491 930T503 934H516Z" />
<glyph unicode="&#xf0;" horiz-adv-x="548" d="M177 698Q220 699 267 691T356 657T430 585T473 463T470 278Q462 219 449 167T409 75T340 11T229 -12Q159 -12 116 12T59 89T55 223Q69 326 121 386T279 447Q302 447 326 443T375 428T422 396T461 339L454 319Q432
359 403 378T343 405T281 412Q220 412 182 387T124 318T96 217Q80 110 113 67T229 23Q300 23 340 55T400 147T432 289Q446 394 434 463T393 573T324 636T245 663T169 669L177 698ZM469 701L482 679L268 541L256 562L469 701Z" />
<glyph unicode="&#xf1;" horiz-adv-x="570" d="M381 494Q423 494 450 479T488 435T494 361L443 0H403L454 355Q461 411 441 434T371 458Q319 458 263 426T130 332L131 365Q202 425 263 459T381 494ZM147 482L134 360L135 343L87 0H48L116 482H147ZM260 944Q282
942 298 933T327 912T356 891T392 879Q424 877 439 892T459 940L482 938Q479 891 456 868T396 847Q371 849 354 858T322 879T295 900T263 912Q233 915 217 899T196 847L173 850Q177 900 201 923T260 944Z" />
<glyph unicode="&#xf2;" d="M305 494Q384 494 428 469T486 388T487 238Q474 146 446 91T368 12T240 -12Q161 -12 117 13T58 94T57 243Q70 335 98 390T176 469T305 494ZM305 458Q240 458 199 438T134 370T99 238Q87 157 96 110T141 43T240 23Q304 23 345 43T410
112T446 243Q457 325 448 372T404 438T305 458ZM218 719L358 572L339 553L192 690L218 719Z" />
<glyph unicode="&#xf3;" d="M305 494Q384 494 428 469T486 388T487 238Q474 146 446 91T368 12T240 -12Q161 -12 117 13T58 94T57 243Q70 335 98 390T176 469T305 494ZM305 458Q240 458 199 438T134 370T99 238Q87 157 96 110T141 43T240 23Q304 23 345 43T410
112T446 243Q457 325 448 372T404 438T305 458ZM439 720L462 688L281 553L264 573L439 720Z" />
<glyph unicode="&#xf4;" d="M305 494Q384 494 428 469T486 388T487 238Q474 146 446 91T368 12T240 -12Q161 -12 117 13T58 94T57 243Q70 335 98 390T176 469T305 494ZM305 458Q240 458 199 438T134 370T99 238Q87 157 96 110T141 43T240 23Q304 23 345 43T410
112T446 243Q457 325 448 372T404 438T305 458ZM349 958L471 837L454 820L338 922H329L183 819L169 839L320 958H349Z" />
<glyph unicode="&#xf5;" d="M305 494Q384 494 428 469T486 388T487 238Q474 146 446 91T368 12T240 -12Q161 -12 117 13T58 94T57 243Q70 335 98 390T176 469T305 494ZM305 458Q240 458 199 438T134 370T99 238Q87 157 96 110T141 43T240 23Q304 23 345 43T410
112T446 243Q457 325 448 372T404 438T305 458ZM259 944Q281 942 297 933T326 912T355 891T391 879Q423 877 438 892T458 940L481 938Q478 891 455 868T395 847Q370 849 353 858T321 879T294 900T262 912Q232 915 216 899T195 847L172 850Q176 900 200 923T259
944Z" />
<glyph unicode="&#xf6;" d="M305 494Q384 494 428 469T486 388T487 238Q474 146 446 91T368 12T240 -12Q161 -12 117 13T58 94T57 243Q70 335 98 390T176 469T305 494ZM305 458Q240 458 199 438T134 370T99 238Q87 157 96 110T141 43T240 23Q304 23 345 43T410
112T446 243Q457 325 448 372T404 438T305 458ZM251 934Q260 934 262 931T264 919L256 866Q255 857 252 854T239 850H227Q212 850 214 865L222 919Q223 927 226 930T238 934H251ZM426 934Q435 934 437 931T439 919L431 866Q430 857 427 854T414 850H402Q387 850
389 865L397 919Q398 927 401 930T413 934H426Z" />
<glyph unicode="&#xf7;" horiz-adv-x="583" d="M506 312L501 279H79L83 312H506ZM281 175Q290 175 293 171T296 157L287 98Q286 90 282 87T269 83H256Q246 83 243 87T240 101L249 158Q250 167 254 171T267 175H281ZM326 508Q336 507 339 503T342 490L334 431Q332
423 328 419T315 415H302Q293 415 289 419T286 433L295 491Q296 500 300 504T313 508H326Z" />
<glyph unicode="&#xf8;" d="M446 545L469 533L106 -65L83 -52L446 545ZM305 494Q384 494 428 469T486 388T487 238Q474 146 446 91T368 12T240 -12Q161 -12 117 13T58 94T57 243Q70 335 98 390T176 469T305 494ZM305 458Q240 458 199 438T134 370T99 238Q87 157
96 110T141 43T240 23Q304 23 345 43T410 112T446 243Q457 325 448 372T404 438T305 458Z" />
<glyph unicode="&#xf9;" d="M152 482L101 127Q94 73 114 49T185 24Q238 24 291 58T415 160L418 127Q350 58 290 23T175 -12Q110 -12 81 22T61 121L112 482H152ZM497 482L429 0H399L413 132L411 147L457 482H497ZM217 720L357 573L338 554L191 691L217 720Z" />
<glyph unicode="&#xfa;" d="M152 482L101 127Q94 73 114 49T185 24Q238 24 291 58T415 160L418 127Q350 58 290 23T175 -12Q110 -12 81 22T61 121L112 482H152ZM497 482L429 0H399L413 132L411 147L457 482H497ZM437 721L460 689L279 554L262 574L437 721Z" />
<glyph unicode="&#xfb;" d="M152 482L101 127Q94 73 114 49T185 24Q238 24 291 58T415 160L418 127Q350 58 290 23T175 -12Q110 -12 81 22T61 121L112 482H152ZM497 482L429 0H399L413 132L411 147L457 482H497ZM347 959L469 838L452 821L336 923H327L181 820L167
840L318 959H347Z" />
<glyph unicode="&#xfc;" d="M152 482L101 127Q94 73 114 49T185 24Q238 24 291 58T415 160L418 127Q350 58 290 23T175 -12Q110 -12 81 22T61 121L112 482H152ZM497 482L429 0H399L413 132L411 147L457 482H497ZM249 935Q258 935 260 932T262 920L254 867Q253
858 250 855T237 851H225Q210 851 212 866L220 920Q221 928 224 931T236 935H249ZM424 935Q433 935 435 932T437 920L429 867Q428 858 425 855T412 851H400Q385 851 387 866L395 920Q396 928 399 931T411 935H424Z" />
<glyph unicode="&#xfd;" horiz-adv-x="518" d="M496 482Q486 440 473 399T443 315T408 230T367 147T320 64Q271 -16 228 -73T141 -163T45 -209L38 -182Q72 -172 102 -151T162 -98T220 -23T283 74Q326 145 357 210T412 341T455 482H496ZM95 482L184 57Q191 33 214
33L266 34L247 0H199Q180 0 167 11T150 39L53 482H95ZM406 720L429 688L248 553L231 573L406 720Z" />
<glyph unicode="&#xfe;" horiz-adv-x="566" d="M373 494Q432 494 461 468T496 385T488 238Q477 161 460 112T415 36T345 -1T242 -12Q199 -12 152 -8T61 3L74 30Q126 27 162 25T232 23Q290 23 327 31T388 63T424 130T448 243Q459 321 458 368T435 436T368 458Q335
458 294 442T210 394T125 316L120 346Q159 395 203 427T292 476T373 494ZM187 700L153 460Q149 433 146 411T136 362L137 352L92 23L87 10Q86 -16 84 -38T77 -87L59 -208H20L147 700H187Z" />
<glyph unicode="&#xff;" horiz-adv-x="518" d="M496 482Q486 440 473 399T443 315T408 230T367 147T320 64Q271 -16 228 -73T141 -163T45 -209L38 -182Q72 -172 102 -151T162 -98T220 -23T283 74Q326 145 357 210T412 341T455 482H496ZM95 482L184 57Q191 33 214
33L266 34L247 0H199Q180 0 167 11T150 39L53 482H95ZM218 934Q227 934 229 931T231 919L223 866Q222 857 219 854T206 850H194Q179 850 181 865L189 919Q190 927 193 930T205 934H218ZM393 934Q402 934 404 931T406 919L398 866Q397 857 394 854T381 850H369Q354
850 356 865L364 919Q365 927 368 930T380 934H393Z" />
<glyph unicode="&#x2013;" horiz-adv-x="613" d="M528 268L524 235H74L78 268H528Z" />
<glyph unicode="&#x2014;" horiz-adv-x="922" d="M837 268L832 235H74L78 268H837Z" />
<glyph unicode="&#x2018;" horiz-adv-x="200" d="M122 518Q114 518 112 522T109 535L119 599Q121 618 127 640T142 686T160 729L180 721Q172 692 166 669T155 609Q160 610 163 606T165 596L157 534Q155 525 152 522T137 518H122Z" />
<glyph unicode="&#x2019;" horiz-adv-x="199" d="M169 720Q177 720 180 716T182 704L172 639Q170 620 164 598T150 553T132 509L111 517Q119 546 125 569T136 629Q131 628 128 632T126 643L135 704Q136 713 140 716T154 720H169Z" />
<glyph unicode="&#x201a;" horiz-adv-x="211" d="M87 92Q96 92 99 89T100 76L91 12Q88 -8 82 -30T67 -75T49 -118L27 -111Q36 -82 42 -58T54 1Q48 1 45 5T43 15L52 77Q54 85 57 88T72 92H87Z" />
<glyph unicode="&#x201c;" horiz-adv-x="324" d="M122 518Q114 518 112 522T109 535L119 599Q121 618 127 640T142 686T160 729L180 721Q172 692 166 669T155 609Q160 610 163 606T165 596L157 534Q155 525 152 522T137 518H122ZM246 518Q238 518 235 522T233
535L243 599Q245 618 251 640T265 686T283 729L304 721Q296 692 290 669T279 609Q284 610 287 606T289 596L280 534Q279 525 276 522T261 518H246Z" />
<glyph unicode="&#x201d;" horiz-adv-x="323" d="M293 720Q301 720 304 716T306 704L296 639Q294 620 288 598T274 553T256 509L235 517Q243 546 249 569T260 629Q255 628 252 632T250 643L259 704Q260 713 264 716T278 720H293ZM169 720Q177 720 180 716T182
704L172 639Q170 620 164 598T150 553T132 509L111 517Q119 546 125 569T136 629Q131 628 128 632T126 643L135 704Q136 713 140 716T154 720H169Z" />
<glyph unicode="&#x201e;" horiz-adv-x="333" d="M209 92Q217 92 220 89T222 76L212 12Q210 -8 204 -30T190 -75T172 -118L151 -111Q159 -82 165 -58T176 1Q171 0 168 4T166 15L175 77Q176 85 180 88T194 92H209ZM85 92Q93 92 96 89T98 76L88 12Q86 -8 80 -30T66
-75T48 -118L27 -111Q35 -82 41 -58T52 1Q47 0 44 4T42 15L51 77Q52 85 56 88T70 92H85Z" />
<glyph unicode="&#x2022;" horiz-adv-x="354" d="M189 342Q227 342 241 326T250 272L248 258Q244 231 236 217T212 198T170 193H160Q120 193 106 208T98 264L100 278Q104 305 112 318T136 337T179 342H189Z" />
<glyph unicode="&#x2039;" horiz-adv-x="294" d="M233 455L251 438L81 249L199 59L178 44L42 247L43 258L233 455Z" />
<glyph unicode="&#x203a;" horiz-adv-x="294" d="M104 455L240 254L239 243L48 44L30 61L201 252L84 441L104 455Z" />
</font>
</defs>
</svg>
