<?xml version="1.0" standalone="no"?>
<!DOCTYPE svg PUBLIC "-//W3C//DTD SVG 1.1//EN" "http://www.w3.org/Graphics/SVG/1.1/DTD/svg11.dtd">
<svg xmlns="http://www.w3.org/2000/svg">
<defs >
<font id="Exo2" horiz-adv-x="559" ><font-face
    font-family="Exo 2 Medium"
    units-per-em="1000"
    panose-1="0 0 0 0 0 0 0 0 0 0"
    ascent="999"
    descent="-201"
    alphabetic="0" />
<glyph unicode=" " horiz-adv-x="222" />
<glyph unicode="!" horiz-adv-x="278" d="M187 695V396L178 213H101L91 396V695H187ZM152 124Q171 124 179 117T188 89V36Q188 16 180 8T152 0H127Q108 0 101 8T93 36V89Q93 109 100 116T127 124H152Z" />
<glyph unicode="&quot;" horiz-adv-x="357" d="M290 690L284 474H221L214 690H290ZM144 690L137 474H72L67 690H144Z" />
<glyph unicode="#" horiz-adv-x="690" d="M318 690L198 0H122L242 690H318ZM569 690L449 0H373L493 690H569ZM647 505L635 444H84L96 505H647ZM605 271L593 210H42L54 271H605Z" />
<glyph unicode="$" horiz-adv-x="567" d="M284 702Q333 701 386 697T492 681L486 610Q443 612 390 613T287 614Q251 614 226 612T185 601T162 572T155 517Q155 464 175 443T240 410L378 373Q458 353 488 306T519 178Q519 118 506 81T464 24T390 -4T283 -12Q249
-12 193 -9T64 8L71 83Q130 82 167 81T231 79T285 79Q335 79 364 86T405 115T417 179Q417 216 409 237T382 268T334 286L193 325Q117 346 86 393T55 518Q55 578 68 615T110 670T181 695T284 702ZM261 354L307 352L270 -125H223L261 354ZM349 798L315 352L268 354L304
798H349Z" />
<glyph unicode="%" horiz-adv-x="897" d="M207 703Q267 703 303 683T354 618T370 498Q370 424 355 379T303 314T207 293Q147 293 111 313T60 379T45 498Q45 573 60 617T111 682T207 703ZM207 644Q173 644 154 631T127 585T118 498Q118 443 126 411T154 366T207
352Q241 352 260 365T288 411T296 498Q296 553 288 585T261 630T207 644ZM700 690L260 0H193L634 690H700ZM689 400Q750 400 785 379T836 314T851 196Q851 122 836 77T786 11T689 -9Q629 -9 593 11T542 76T527 196Q527 269 542 313T593 379T689 400ZM688 341Q654
341 635 328T608 283T600 196Q600 141 607 109T634 63T688 49Q723 49 742 62T769 108T778 196Q778 251 770 282T742 327T688 341Z" />
<glyph unicode="&amp;" horiz-adv-x="771" d="M347 700Q379 700 420 699T506 690L495 618Q485 619 467 619T428 620T384 621T344 621Q284 621 250 613T200 581T185 507Q185 462 197 438T236 404T312 394H705L704 321H307Q256 321 226 310T182 271T169 192Q169
147 180 121T218 85T292 74Q362 75 413 95T502 158L516 99Q485 59 450 35T370 0T267 -10Q195 -10 150 7T85 65T64 175Q64 254 93 301T199 356V360Q136 366 110 406T84 521Q84 581 99 617T146 670T227 694T347 700ZM583 518V136Q583 102 597 88T644 74H715L727 5Q711
0 691 -3T650 -7T616 -9Q555 -9 524 21T492 107V362L502 518H583Z" />
<glyph unicode="&apos;" horiz-adv-x="209" d="M144 690L137 474H72L67 690H144Z" />
<glyph unicode="(" horiz-adv-x="360" d="M319 790L332 745Q234 697 190 589T146 313Q146 203 165 118T225 -27T332 -120L319 -165Q181 -113 116 2T51 312Q51 507 116 623T319 790Z" />
<glyph unicode=")" horiz-adv-x="360" d="M41 790Q180 739 245 623T310 312Q310 118 245 3T41 -165L30 -120Q95 -86 135 -27T195 117T215 313Q215 481 172 589T30 745L41 790Z" />
<glyph unicode="*" horiz-adv-x="451" d="M254 691L245 529L347 400L301 366L225 489L150 367L103 401L205 529L196 691H254ZM70 603L188 557L187 532L175 516L51 549L70 603ZM382 603L400 548L276 516L263 532L262 557L382 603Z" />
<glyph unicode="+" horiz-adv-x="548" d="M494 336V263H53V336H494ZM311 510L310 88H238L237 510H311Z" />
<glyph unicode="," horiz-adv-x="231" d="M129 124Q149 124 156 117T164 89V25Q164 -6 159 -33T146 -86T126 -135L82 -122Q88 -90 90 -64T93 0Q66 0 66 31V89Q67 109 75 116T102 124H129Z" />
<glyph unicode="-" horiz-adv-x="442" d="M373 288V218H69V288H373Z" />
<glyph unicode="." horiz-adv-x="232" d="M130 124Q150 124 158 117T166 89V36Q166 16 158 8T130 0H101Q81 0 73 8T65 36V89Q65 109 73 116T101 124H130Z" />
<glyph unicode="/" horiz-adv-x="524" d="M498 690L105 -67H26L419 690H498Z" />
<glyph unicode="0" horiz-adv-x="608" d="M304 703Q395 703 448 667T524 551T547 345Q547 218 524 139T448 24T304 -13Q214 -13 161 23T84 139T61 345Q61 472 84 551T160 666T304 703ZM303 618Q262 618 235 604T191 557T167 473T159 345Q159 270 166 218T190 133T234
87T303 72Q345 72 373 86T418 133T442 217T449 345Q449 421 442 473T418 557T373 603T303 618Z" />
<glyph unicode="1" horiz-adv-x="404" d="M296 690V0H196V536Q196 552 197 567T201 599L33 548L20 619L196 690H296Z" />
<glyph unicode="2" horiz-adv-x="566" d="M273 702Q340 702 388 691T463 647T489 551Q489 509 478 472T441 395T368 304L173 90Q199 92 228 93T284 94H514V0H53V60Q53 72 56 83T68 103L262 321Q327 390 358 444T388 545Q387 576 373 590T331 610T265 615Q233 615
204 614T142 610T65 600L59 676Q106 687 142 692T210 700T273 702Z" />
<glyph unicode="3" horiz-adv-x="558" d="M261 703Q338 703 385 689T454 639T476 543Q476 498 467 462T437 401T374 369V365Q443 354 468 309T495 192Q496 122 475 77T405 9T272 -13Q217 -13 161 -8T50 5L56 84Q91 81 122 79T184 75T247 74Q301 74 333 86T381
126T396 203Q396 240 386 267T348 309T265 325L136 324V399H265Q304 399 327 409T362 436T377 474T381 519Q380 561 368 582T326 610T246 617Q196 617 150 615T69 610L62 685Q114 694 163 698T261 703Z" />
<glyph unicode="4" horiz-adv-x="619" d="M335 690L147 284Q138 265 146 255T171 244H578V176L487 166H111Q83 166 64 182T39 223T44 273L237 690H335ZM490 558V0H396V444L413 558H490Z" />
<glyph unicode="5" horiz-adv-x="539" d="M466 690L461 608H172L162 430L241 423Q309 418 355 404T431 365T473 301T486 208Q486 165 477 126T444 56T376 7T259 -12Q217 -12 162 -6T49 12L60 92Q108 84 154 80T236 75Q299 75 331 90T375 136T388 209Q389 254 377
280T339 319T270 337T165 346L112 351Q96 353 86 364T76 392L92 690H466Z" />
<glyph unicode="6" horiz-adv-x="575" d="M335 702Q357 702 396 700T479 686L471 616Q448 618 429 619T388 620T335 620Q286 620 252 609T198 568T170 480T161 325Q161 251 165 202T183 124T225 83T301 70Q358 70 385 87T420 140T428 225Q428 279 418 311T382
358T306 373Q274 373 247 365T191 338T124 282L120 329Q153 376 183 402T248 440T333 451Q406 451 447 429T506 358T523 225Q523 171 515 127T483 52T416 5T300 -12Q227 -12 180 4T108 60T73 164T63 329Q63 451 80 524T130 636T215 688T335 702Z" />
<glyph unicode="7" horiz-adv-x="515" d="M432 690Q453 690 466 682T483 660T481 625L266 0H167L357 552Q363 567 368 580T380 606H41L37 690H432Z" />
<glyph unicode="8" horiz-adv-x="610" d="M306 700Q373 700 416 689T485 656T519 600T529 518Q529 474 519 440T487 385T430 360V356Q475 352 499 328T534 265T544 172Q544 108 525 68T454 9T306 -10Q211 -10 159 8T87 67T66 172Q66 225 76 264T112 328T181 356V360Q146
364 124 385T91 440T81 518Q81 565 91 599T126 656T194 689T306 700ZM308 320Q263 320 234 315T189 295T167 256T160 192Q160 147 172 121T216 84T307 73Q365 73 395 84T437 121T449 192Q449 232 443 257T421 295T379 314T308 320ZM307 623Q252 623 224 613T184
577T173 508Q173 463 184 439T224 405T308 396Q363 396 391 405T428 439T438 508Q438 552 428 577T390 612T307 623Z" />
<glyph unicode="9" horiz-adv-x="575" d="M278 702Q354 702 400 685T470 628T501 521T509 353Q509 237 494 165T447 55T364 2T238 -12Q215 -12 174 -10T84 4L92 75Q117 73 136 72T179 71T238 71Q289 71 322 83T376 126T404 212T413 356Q413 433 410 484T394 565T354
607T277 620Q222 620 194 602T157 549T148 464Q148 415 158 383T194 333T268 316Q300 316 326 324T381 352T448 407L452 361Q420 314 390 288T324 250T241 239Q169 239 128 268T70 347T52 463Q52 543 73 596T143 675T278 702Z" />
<glyph unicode=":" horiz-adv-x="240" d="M131 442Q151 442 159 435T167 407V354Q167 334 159 326T131 318H102Q82 318 74 326T66 354V407Q66 427 74 434T102 442H131ZM131 124Q151 124 159 117T167 89V36Q167 16 159 8T131 0H102Q82 0 74 8T66 36V89Q66 109 74
116T102 124H131Z" />
<glyph unicode=";" horiz-adv-x="241" d="M135 442Q155 442 163 435T171 407V354Q171 334 163 326T135 318H106Q86 318 78 326T70 354V407Q70 427 78 434T106 442H135ZM134 124Q154 124 161 117T169 89V25Q169 -6 164 -33T151 -86T131 -135L87 -122Q93 -90 95
-64T98 0Q71 0 71 31V89Q72 109 80 116T107 124H134Z" />
<glyph unicode="&lt;" horiz-adv-x="528" d="M459 509V432L134 298L459 167V90L50 260V337L459 509Z" />
<glyph unicode="=" horiz-adv-x="584" d="M513 435V364H71V435H513ZM513 224V152H71V224H513Z" />
<glyph unicode="&gt;" horiz-adv-x="527" d="M68 509L477 337V260L68 90V167L393 298L68 432V509Z" />
<glyph unicode="?" horiz-adv-x="508" d="M263 712Q365 712 416 675T467 557Q467 512 449 480T405 421T353 366T307 301T285 213H203Q202 267 217 307T257 377T305 432T346 483T365 539Q367 586 337 608T241 631Q192 631 161 630T104 627T44 622L39 690Q65 695
86 699T131 706T186 710T263 712ZM257 124Q276 124 284 117T292 89V36Q292 16 284 8T257 0H232Q212 0 205 8T197 36V89Q197 109 204 116T232 124H257Z" />
<glyph unicode="@" horiz-adv-x="726" d="M501 588Q575 588 616 555T657 442V133H584L576 206Q558 188 528 169T460 137T381 124Q341 124 311 137T264 178T247 244V294Q247 343 277 371T365 399H566V439Q566 477 549 493T483 510H356Q292 510 254 505T196 477T170
404T163 266Q163 194 167 148T185 75T223 37T289 22T391 19H654V-51Q589 -55 524 -57T392 -60Q306 -61 248 -55T155 -29T102 26T78 121T72 266Q72 351 77 408T98 501T145 555T228 580T356 588H501ZM566 344L398 339Q365 338 351 326T337 285V260Q337 227 353 213T400
198Q428 198 458 205T516 226T566 260V344Z" />
<glyph unicode="A" horiz-adv-x="628" d="M365 690Q378 690 388 683T402 663L620 0H516L344 555Q340 570 336 585T328 613H300Q296 600 292 585T283 555L111 0H8L226 663Q230 675 240 682T263 690H365ZM489 293V210H137V293H489Z" />
<glyph unicode="B" horiz-adv-x="624" d="M315 698Q401 698 451 683T524 628T547 518Q547 444 520 405T430 360V356Q507 349 538 302T569 172Q569 101 547 62T475 8T346 -8Q285 -8 242 -8T161 -5T84 0L98 77Q120 76 183 75T330 74Q382 74 412 83T455 117T468 190Q468
242 455 269T410 308T324 321H97V394H323Q371 395 399 404T439 437T451 506Q451 551 438 575T394 607T310 616Q260 616 220 616T150 616T98 613L84 690Q120 694 152 695T223 697T315 698ZM182 690V0H84V690H182Z" />
<glyph unicode="C" horiz-adv-x="573" d="M333 702Q378 702 410 700T469 694T525 681L515 606Q485 609 459 610T404 613T333 614Q269 614 232 589T180 506T164 345Q164 243 179 185T232 101T333 76Q398 76 442 78T529 87L539 12Q495 -1 449 -6T333 -12Q233 -12
173 22T85 135T58 345Q58 477 85 555T172 667T333 702Z" />
<glyph unicode="D" horiz-adv-x="667" d="M334 699Q410 699 462 681T547 623T593 514T608 345Q608 245 594 177T547 68T463 9T334 -9Q262 -9 201 -7T84 0L126 80Q168 78 219 77T334 75Q398 75 435 100T487 183T503 345Q503 448 488 506T435 590T334 616Q272 616
223 615T127 613L84 690Q139 694 200 696T334 699ZM184 690V0H84V690H184Z" />
<glyph unicode="E" horiz-adv-x="563" d="M214 691Q264 691 316 691T418 690T515 685L511 608H236Q206 608 192 593T178 545V145Q178 112 192 97T236 81H511L515 5Q469 2 419 1T316 0T214 -1Q152 -1 116 32T78 122V568Q79 625 115 658T214 691ZM96 402H472V325H96V402Z" />
<glyph unicode="F" horiz-adv-x="542" d="M218 691Q267 691 317 691T416 689T509 684L504 608H247Q213 608 198 593T182 545V0H82V564Q82 624 119 657T218 691ZM99 392H466V314H99V392Z" />
<glyph unicode="G" horiz-adv-x="632" d="M351 703Q388 703 421 701T486 695T548 681L538 607Q506 610 475 611T413 613T355 614Q302 614 265 604T207 565T175 482T165 341Q165 242 178 184T223 100T308 74Q345 74 375 84T431 110T482 144L495 86Q478 66 447 43T373
3T278 -13Q201 -13 153 25T82 142T59 347Q59 483 87 561T179 671T351 703ZM567 399V0H494L478 102L469 124V399H567Z" />
<glyph unicode="H" horiz-adv-x="672" d="M184 690V0H84V690H184ZM499 410V327H176V410H499ZM589 690V0H488V690H589Z" />
<glyph unicode="I" horiz-adv-x="268" d="M184 690V0H84V690H184Z" />
<glyph unicode="J" horiz-adv-x="346" d="M265 690V143Q265 68 229 30T127 -9Q113 -9 94 -8T58 -3T28 5L39 74H89Q165 74 165 146V690H265Z" />
<glyph unicode="K" horiz-adv-x="599" d="M569 690L372 406Q363 392 354 382T332 360V358Q345 346 357 334T377 308L583 0H470L231 361L460 690H569ZM183 690V478Q183 447 180 419T169 361Q175 333 179 304T183 249V0H84V690H183ZM281 398V321H149V398H281Z" />
<glyph unicode="L" horiz-adv-x="518" d="M181 690V146Q181 114 197 99T246 83H493L498 6Q431 1 362 0T224 -1Q148 -1 115 36T82 131V690H181Z" />
<glyph unicode="M" horiz-adv-x="884" d="M746 690Q785 690 786 649L814 0H716L691 609H671L525 114Q517 81 483 81H401Q366 81 357 114L211 609H191L168 0H70L97 649Q99 690 137 690H245Q277 690 287 657L408 249Q416 226 421 203T433 155H450Q457 180 462 203T475
251L596 657Q604 690 638 690H746Z" />
<glyph unicode="N" horiz-adv-x="708" d="M624 690V39Q624 0 587 0H501Q484 0 475 8T458 31L232 497Q223 517 211 542T193 590H178Q180 567 181 544T182 496V0H84V651Q84 690 122 690H205Q222 690 232 682T249 659L467 205Q478 184 490 157T515 104H531Q529 131
528 157T527 210V690H624Z" />
<glyph unicode="O" horiz-adv-x="672" d="M336 703Q412 703 465 685T551 626T597 516T612 345Q612 244 598 175T551 64T466 5T336 -13Q260 -13 207 5T121 64T73 174T58 345Q58 447 73 516T120 626T206 685T336 703ZM336 616Q271 616 233 591T180 508T164 345Q164
242 179 183T233 99T336 74Q401 74 438 99T492 183T508 345Q508 449 492 507T439 591T336 616Z" />
<glyph unicode="P" horiz-adv-x="595" d="M326 699Q411 699 461 680T532 614T554 481Q554 396 533 349T465 283T338 264Q295 264 256 266T183 272T127 280T94 289L97 347Q151 347 209 347T325 347Q373 348 401 359T441 399T453 481Q453 535 441 564T401 604T325
616Q241 616 180 615T98 612L84 690Q122 694 156 696T230 698T326 699ZM184 690V0H84V690H184Z" />
<glyph unicode="Q" horiz-adv-x="673" d="M337 703Q413 703 466 685T552 626T598 516T613 345Q613 244 599 175T552 64T467 5T337 -13Q260 -13 207 5T122 64T74 174T59 345Q59 447 74 516T121 626T207 685T337 703ZM294 -41Q355 -67 422 -83T565 -112L535 -208Q454
-191 388 -162T267 -99L294 -41ZM337 616Q272 616 234 591T181 508T165 345Q165 242 180 183T234 99T337 74Q402 74 439 99T492 183T509 345Q509 449 493 507T439 591T337 616Z" />
<glyph unicode="R" horiz-adv-x="623" d="M327 699Q409 699 459 682T533 621T556 499Q556 444 543 407T503 349T428 322V317Q445 313 462 301T494 269T516 217L581 0H475L415 215Q403 253 382 269T327 285Q264 285 219 285T144 287T94 288L97 368H325Q374 369
402 379T442 417T455 493Q455 542 443 568T402 605T325 616Q241 616 180 615T98 614L84 690Q122 694 156 696T230 698T327 699ZM183 690V0H84V690H183Z" />
<glyph unicode="S" horiz-adv-x="566" d="M282 702Q332 701 385 697T492 681L485 610Q442 612 389 613T285 614Q250 614 225 612T184 601T161 572T153 517Q153 464 173 443T238 410L377 373Q457 353 487 306T517 178Q517 118 504 81T462 24T388 -4T281 -12Q247
-12 191 -9T62 8L69 81Q128 79 165 78T230 76T284 76Q334 76 363 83T404 113T416 179Q416 216 408 237T381 268T333 286L190 325Q115 346 84 393T53 518Q53 578 66 615T108 670T179 695T282 702Z" />
<glyph unicode="T" horiz-adv-x="585" d="M342 690V0H242V690H342ZM562 690V604H23V690H562Z" />
<glyph unicode="U" horiz-adv-x="670" d="M591 690V266Q591 165 567 104T487 15T340 -13Q244 -13 187 14T105 103T79 266V690H179V266Q179 194 193 152T242 92T335 74Q393 74 426 91T475 151T491 266V690H591Z" />
<glyph unicode="V" horiz-adv-x="615" d="M600 690L394 28Q390 17 380 9T357 0H258Q244 0 234 8T220 28L15 690H119L275 152Q280 133 285 115T294 77H321Q325 96 330 115T341 153L496 690H600Z" />
<glyph unicode="W" horiz-adv-x="953" d="M923 690L788 29Q785 17 775 9T750 0H642Q627 0 617 8T604 30L502 536Q498 556 494 576T486 616H466Q462 597 459 576T451 536L350 30Q347 17 337 9T312 0H203Q188 0 178 8T165 29L30 690H134L235 163Q239 143 242 121T249
75H271Q275 98 279 120T287 163L388 658Q390 672 400 681T426 690H527Q542 690 552 681T565 658L666 163Q671 140 674 119T680 75H705Q707 97 710 119T717 162L819 690H923Z" />
<glyph unicode="X" horiz-adv-x="617" d="M582 690L402 357L595 0H488L302 357L476 690H582ZM141 690L315 357L129 0H22L214 357L35 690H141ZM365 394V321H250V394H365Z" />
<glyph unicode="Y" horiz-adv-x="577" d="M567 690L334 231H243L9 690H115L255 406Q264 387 271 367T285 326H292Q299 346 306 366T322 405L462 690H567ZM338 299V0H238V299H338Z" />
<glyph unicode="Z" horiz-adv-x="570" d="M408 609L517 608L157 81L46 82L408 609ZM524 82V0H46V82H524ZM517 690V608H53V690H517Z" />
<glyph unicode="[" horiz-adv-x="332" d="M293 768V705H195Q180 705 180 689V-86Q180 -102 195 -102H293V-165H147Q122 -165 105 -152T88 -107V710Q88 736 105 752T147 768H293Z" />
<glyph unicode="\" horiz-adv-x="525" d="M106 690L499 -67H419L26 690H106Z" />
<glyph unicode="]" horiz-adv-x="332" d="M185 768Q211 768 227 752T243 710V-107Q243 -133 227 -149T185 -165H39V-102H137Q152 -102 152 -86V689Q152 705 137 705H39V768H185Z" />
<glyph unicode="^" horiz-adv-x="433" d="M252 605L403 392L364 368L221 541H213L69 368L30 392L182 605H252Z" />
<glyph unicode="_" horiz-adv-x="439" d="M439 0V-70H0V0H439Z" />
<glyph unicode="`" horiz-adv-x="322" d="M88 727L266 581L234 537L36 656L88 727Z" />
<glyph unicode="a" horiz-adv-x="553" d="M310 500Q366 500 404 486T462 436T482 340V0H406L391 106L385 118V340Q385 383 365 402T289 421Q251 421 194 417T80 409L71 478Q105 484 146 489T231 497T310 500ZM438 301L437 233L207 232Q173 231 160 215T146 169V139Q146
103 163 87T219 70Q247 70 281 80T351 112T414 167V104Q404 90 384 71T336 33T273 3T197 -9Q153 -9 120 6T67 52T48 127V180Q48 237 84 269T186 301H438Z" />
<glyph unicode="b" horiz-adv-x="575" d="M346 500Q437 500 480 442T523 246Q523 184 513 136T477 55T410 5T302 -12Q277 -12 247 -10T186 -4T126 7T73 24L150 87Q176 79 201 74T252 68T300 66Q345 68 371 84T410 139T423 246Q423 311 414 348T380 402T310 419Q272
419 238 399T159 344L152 404Q181 435 212 456T277 489T346 500ZM170 700V522Q170 491 168 464T159 409L169 395L170 19L73 24V700H170Z" />
<glyph unicode="c" horiz-adv-x="493" d="M287 500Q310 500 337 498T394 491T449 476L437 414Q402 417 366 418T303 420Q247 420 215 405T168 351T154 245Q154 177 168 138T214 84T303 69Q318 69 342 70T394 73T448 79L457 15Q420 1 375 -5T286 -12Q200 -12 149
13T74 94T51 245Q51 339 74 395T149 475T287 500Z" />
<glyph unicode="d" horiz-adv-x="577" d="M238 500Q287 500 334 488T423 447L417 391Q373 405 339 413T264 421Q224 421 200 407T164 355T152 247Q152 178 163 140T198 86T259 71Q287 71 310 78T358 101T417 141L425 79Q387 41 337 15T225 -12Q133 -12 93 53T53
246Q53 342 73 397T135 476T238 500ZM502 700V0H426L415 86L405 94V426L411 441Q407 469 406 496T405 553V700H502Z" />
<glyph unicode="e" horiz-adv-x="542" d="M281 500Q394 500 444 460T495 340Q496 274 467 238T371 202H89V271H346Q379 271 389 292T399 340Q398 385 373 404T285 423Q234 423 205 408T165 356T153 252Q153 177 167 138T214 83T301 68Q339 68 386 71T473 80L483
17Q459 7 425 1T355 -9T289 -12Q203 -12 151 14T75 96T51 245Q51 341 75 397T150 476T281 500Z" />
<glyph unicode="f" horiz-adv-x="384" d="M260 718Q276 718 302 717T354 715T401 710L393 641H294Q248 641 230 623T211 562V0H114V573Q114 619 128 651T174 700T260 718ZM363 488V416H26V483L118 488H363Z" />
<glyph unicode="g" horiz-adv-x="562" d="M273 500Q352 500 398 485T465 435T485 345Q485 292 465 258T398 207T272 190Q192 190 146 206T79 257T59 344Q59 400 79 434T146 484T273 500ZM272 431Q202 431 175 412T148 345Q148 299 175 279T272 259Q342 259 368
279T395 345Q395 392 369 411T272 431ZM542 488L537 438L411 427L376 488H542ZM133 221L186 214Q170 200 164 179T167 141T207 119L389 91Q459 82 487 49T515 -47Q515 -106 493 -139T418 -186T278 -200Q209 -200 163 -193T90 -168T50 -122T38 -53Q38 -21 47 1T79
40T136 73L199 104L241 89L193 54Q172 39 159 25T138 -5T131 -43Q131 -75 143 -92T188 -115T277 -121Q334 -121 365 -115T408 -92T421 -44Q421 -20 415 -8T390 11T338 23L167 45Q134 49 115 65T89 104T84 149T100 192T133 221Z" />
<glyph unicode="h" horiz-adv-x="585" d="M380 500Q513 500 513 366V0H415V338Q415 384 401 401T350 419Q307 419 264 400T161 342L156 406Q212 450 268 475T380 500ZM171 700L172 511Q172 477 170 447T161 394L171 380V0H75V700H171Z" />
<glyph unicode="i" horiz-adv-x="253" d="M174 488V0H79V488H174ZM149 697Q178 697 178 668V611Q178 582 149 582H104Q75 582 75 611V668Q75 697 104 697H149Z" />
<glyph unicode="j" horiz-adv-x="255" d="M176 488V-5Q176 -46 164 -82T130 -149T76 -202L23 -160Q53 -124 66 -88T80 -5V488H176ZM151 698Q179 698 179 669V612Q179 583 151 583H106Q77 583 77 612V669Q77 698 106 698H151Z" />
<glyph unicode="k" horiz-adv-x="518" d="M488 488L339 311Q332 301 321 291T303 275V273Q310 268 321 256T339 231L504 0H392L204 279L376 488H488ZM171 700L172 393Q172 361 170 334T161 276Q167 248 169 219T171 164V0H75V700H171ZM252 309V241H138V309H252Z" />
<glyph unicode="l" horiz-adv-x="303" d="M172 700L171 139Q171 108 188 92T237 76H283L294 5Q284 0 267 -3T231 -7T199 -9Q143 -9 110 23T76 116V700H172Z" />
<glyph unicode="m" horiz-adv-x="877" d="M674 500Q738 500 771 466T805 366V0H709V338Q709 380 693 399T637 419Q613 419 591 411T542 387T477 342L472 407Q524 454 573 477T674 500ZM154 488L161 394L171 380V0H75V488H154ZM357 500Q420 500 453 467T487 366V0H394V338Q394
382 376 400T322 419Q298 419 276 412T227 388T160 342L154 407Q206 454 255 477T357 500Z" />
<glyph unicode="n" horiz-adv-x="585" d="M380 500Q513 500 513 366V0H416V338Q416 384 401 401T350 419Q307 419 264 399T161 342L157 407Q213 452 269 476T380 500ZM155 488L164 394L171 380V0H75V488H155Z" />
<glyph unicode="o" horiz-adv-x="572" d="M286 500Q372 500 423 475T497 394T520 244Q520 150 498 94T424 12T286 -13Q201 -13 150 12T75 93T52 244Q52 337 75 393T149 475T286 500ZM286 422Q236 422 207 406T166 352T154 244Q154 175 166 136T207 82T286 66Q336
66 365 81T407 136T419 244Q419 313 407 351T366 406T286 422Z" />
<glyph unicode="p" horiz-adv-x="584" d="M362 500Q452 500 491 434T530 241Q530 146 510 91T450 12T346 -12Q297 -12 251 1T161 43L167 97Q211 84 245 76T319 68Q360 68 384 82T420 134T431 241Q431 309 421 347T388 402T328 419Q290 419 253 402T168 347L158
407Q183 435 216 456T288 488T362 500ZM154 488L164 389L171 376V62L167 50Q170 22 171 -5T171 -62V-199H75V488H154Z" />
<glyph unicode="q" horiz-adv-x="575" d="M276 500Q299 500 328 498T389 492T449 481T502 466L423 402Q399 409 373 414T322 421T276 422Q230 421 203 405T163 350T151 237Q151 151 172 111T255 71Q299 71 335 89T416 138L428 80Q398 53 365 32T296 -1T221 -13Q135
-13 94 48T52 242Q52 305 62 353T98 434T167 483T276 500ZM405 469L502 466V-199H405L404 -35Q404 -3 406 23T415 78L405 92V469Z" />
<glyph unicode="r" horiz-adv-x="406" d="M150 488L162 394L171 380V0H75V488H150ZM389 500L379 410H348Q307 410 265 394T161 348L154 407Q207 451 261 475T367 500H389Z" />
<glyph unicode="s" horiz-adv-x="512" d="M242 500Q274 500 311 498T384 493T451 485L444 417Q397 419 351 420T258 422Q214 423 189 420T153 405T142 364Q142 329 159 318T212 299L351 267Q410 252 438 223T466 131Q466 71 444 41T374 0T255 -11Q228 -11 175
-9T57 4L64 71Q87 70 114 69T171 68T233 68Q287 68 317 72T360 90T373 131Q373 164 353 175T297 195L160 227Q118 237 94 254T59 298T48 365Q48 421 68 450T130 490T242 500Z" />
<glyph unicode="t" horiz-adv-x="386" d="M210 631V139Q210 105 224 91T274 76H346L357 5Q340 0 319 -3T276 -7T241 -9Q179 -9 146 25T113 123V631H210ZM362 488V416H25V483L121 488H362Z" />
<glyph unicode="u" horiz-adv-x="574" d="M168 488V150Q168 106 185 88T242 70Q281 70 319 88T413 141L424 78Q368 33 315 10T206 -13Q72 -13 72 121V488H168ZM500 488V0H422L413 93L403 108V488H500Z" />
<glyph unicode="v" horiz-adv-x="537" d="M520 488L345 24Q340 13 332 7T311 0H225Q213 0 205 6T191 24L16 488H119L234 153Q242 132 248 110T261 67H274Q282 89 289 110T303 153L417 488H520Z" />
<glyph unicode="w" horiz-adv-x="829" d="M805 488L667 27Q664 15 654 8T631 0H547Q534 0 524 8T511 30L436 352Q432 371 429 390T420 430H408Q405 409 401 390T392 352L318 30Q315 17 305 9T280 0H198Q185 0 175 7T162 27L23 488H123L218 137Q222 118 226 100T233
62H246Q250 81 254 99T263 137L339 458Q341 471 350 479T375 488H455Q469 488 478 480T491 457L566 137Q570 118 574 100T582 62H595Q600 81 603 99T611 137L706 488H805Z" />
<glyph unicode="x" horiz-adv-x="535" d="M503 488L353 251L515 0H412L255 251L400 488H503ZM135 488L280 251L124 0H21L182 251L32 488H135ZM325 289V218H211V289H325Z" />
<glyph unicode="y" horiz-adv-x="536" d="M519 488L327 -23Q315 -56 297 -88T251 -146T188 -189T103 -205L94 -144Q154 -125 186 -94T238 -18L263 42Q271 63 279 88T294 133L415 488H519ZM119 488L242 133Q247 118 251 103T259 71H283L252 0H224Q212 0 203 6T190
25L16 488H119Z" />
<glyph unicode="z" horiz-adv-x="513" d="M354 413L463 412L156 74L47 75L354 413ZM466 75V0H47V75H466ZM463 488V412H50V488H463Z" />
<glyph unicode="{" horiz-adv-x="323" d="M281 768V707Q231 707 213 689T194 626V453Q195 411 187 387T159 349T102 328Q140 317 160 303T189 265T198 207V-25Q198 -68 216 -86T285 -104V-165Q221 -170 181 -156T123 -110T105 -31V222Q105 248 99 260T79 279T44
294V362Q67 370 79 375T96 394T101 438V634Q101 681 119 713T177 759T281 768Z" />
<glyph unicode="|" horiz-adv-x="249" d="M159 781V-169H89V781H159Z" />
<glyph unicode="}" horiz-adv-x="324" d="M43 768Q108 774 147 760T204 713T223 634V438Q223 407 227 394T244 376T280 362V294Q258 286 245 279T225 260T219 222V-31Q219 -78 201 -110T143 -156T39 -165V-104Q90 -104 108 -86T126 -25V207Q127 242 135 265T164
302T222 328Q185 335 165 348T138 386T130 453V626Q130 671 112 689T43 707V768Z" />
<glyph unicode="~" horiz-adv-x="523" d="M152 351Q177 350 204 342T258 323T310 304T358 293Q384 290 393 302T402 346H450Q457 283 435 252T372 223Q343 225 315 232T261 250T211 269T165 280Q139 283 131 270T122 226H74Q69 270 78 297T107 338T152 351Z" />
<glyph unicode="&#xa0;" horiz-adv-x="222" />
<glyph unicode="&#xa1;" horiz-adv-x="261" d="M169 283L179 100V-194H83V100L92 283H169ZM144 496Q163 496 171 488T179 460V406Q179 387 171 379T144 371H119Q100 371 92 379T84 406V460Q84 480 92 488T119 496H144Z" />
<glyph unicode="&#xa2;" horiz-adv-x="511" d="M286 605Q309 605 337 603T394 595T448 580L436 517Q402 522 366 523T302 525Q244 525 211 510T162 456T147 349Q147 280 162 242T210 188T302 172Q317 172 342 173T394 176T447 183L457 120Q419 106 374 100T286
93Q200 93 149 117T74 198T51 349Q51 443 74 499T149 580T286 605ZM299 137L285 0H239L253 137H299ZM336 551L300 135H253L289 551H336ZM350 690L336 549H290L303 690H350Z" />
<glyph unicode="&#xa3;" horiz-adv-x="572" d="M316 702Q337 702 366 701T429 698T500 692L495 614Q476 615 460 616T425 617T381 618T318 618Q261 618 239 597T220 518L237 267Q239 220 232 186T209 127T164 80Q182 83 199 83T233 84H523V0H60V84Q112 110 127
158T138 267L122 520Q119 579 131 615T168 670T231 695T316 702ZM436 393L434 333H55L54 393H436Z" />
<glyph unicode="&#xa4;" horiz-adv-x="592" d="M295 492Q258 492 226 473T175 423T156 352Q156 314 175 282T226 232T295 213Q333 213 364 231T414 282T433 352Q433 391 415 422T365 473T295 492ZM108 582L191 498L149 456L66 540L108 582ZM485 582L528 540L445
458L404 500L485 582ZM152 255L197 210L108 121L63 166L152 255ZM439 250L528 162L485 121L397 208L439 250ZM295 549Q350 549 394 523T465 451T492 351Q492 297 466 252T394 181T295 154Q241 154 196 180T125 252T98 351Q98 406 124 451T196 522T295 549Z" />
<glyph unicode="&#xa5;" horiz-adv-x="627" d="M592 690L359 250H267L34 690H138L277 420Q287 402 294 381T310 341H318Q325 360 333 381T349 420L488 690H592ZM363 318V0H263V318H363ZM539 212V156H93L92 212H539ZM539 326V270H93L92 326H539Z" />
<glyph unicode="&#xa6;" horiz-adv-x="251" d="M160 781V381H90V781H160ZM160 231V-169H90V231H160Z" />
<glyph unicode="&#xa7;" horiz-adv-x="546" d="M146 383Q143 340 147 311T168 260T216 221L386 125Q416 108 439 88T475 40T488 -32Q488 -91 463 -119T393 -156T286 -165Q256 -164 219 -163T142 -159T66 -153L74 -79Q107 -81 135 -82T194 -84T261 -86Q299 -86
326 -83T368 -68T384 -28Q386 6 368 25T322 60L164 147Q114 173 91 206T66 283T76 383H146ZM262 703Q292 703 330 702T408 698T481 691L474 618Q446 620 421 621T365 622T288 623Q250 624 222 621T179 607T163 569Q162 535 180 516T227 481L384 393Q435 367 457
333T482 256T471 156H401Q405 199 400 228T379 279T331 319L160 416Q131 434 108 453T72 501T59 571Q59 627 82 655T151 693T262 703Z" />
<glyph unicode="&#xa8;" horiz-adv-x="413" d="M313 696Q338 696 338 670V614Q338 589 313 589H281Q255 589 255 614V670Q255 696 281 696H313ZM134 696Q159 696 159 670V614Q159 589 134 589H102Q77 589 77 614V670Q77 696 102 696H134Z" />
<glyph unicode="&#xa9;" horiz-adv-x="831" d="M416 703Q491 703 556 677T670 602T747 489T775 345Q775 267 748 202T671 88T556 14T416 -13Q340 -13 275 13T161 88T84 201T56 345Q56 423 84 488T161 602T275 676T416 703ZM420 565Q468 565 497 562T556 551L547
498Q515 499 489 499T419 500Q374 500 348 486T312 439T301 347Q301 289 311 256T348 208T419 194Q466 194 497 194T559 199L566 145Q534 137 502 133T420 129Q349 129 306 150T244 219T225 347Q225 427 244 475T306 544T420 565ZM415 652Q352 652 297 630T199
565T132 468T108 345Q108 279 132 223T198 125T296 61T415 38Q479 38 535 60T633 125T699 223T723 345Q723 412 699 467T633 565T535 629T415 652Z" />
<glyph unicode="&#xaa;" horiz-adv-x="440" d="M253 609Q309 609 339 585T370 497V272H313L302 344L298 353V498Q298 522 285 535T238 549Q205 549 164 547T84 542L76 594Q100 597 129 600T190 606T253 609ZM339 473L338 436L179 426Q153 425 143 415T132 386V369Q132
345 145 336T184 326Q207 326 232 335T281 359T320 390V351Q312 340 297 326T262 298T216 275T161 266Q116 266 89 288T61 354V391Q61 430 86 451T156 473H339Z" />
<glyph unicode="&#xab;" horiz-adv-x="491" d="M387 460L439 426L316 251L439 71L388 38L228 240V262L387 460ZM201 460L253 426L130 251L253 71L202 38L42 240V262L201 460Z" />
<glyph unicode="&#xac;" horiz-adv-x="588" d="M513 335V262H71V335H513ZM513 326V133L439 132V325L513 326Z" />
<glyph unicode="&#xad;" horiz-adv-x="442" d="M373 288V218H69V288H373Z" />
<glyph unicode="&#xae;" horiz-adv-x="547" d="M274 702Q336 702 386 672T466 592T496 480Q496 418 466 368T386 287T274 257Q212 257 162 287T81 367T51 480Q51 542 81 592T161 672T274 702ZM219 608V354H174V608H219ZM274 671Q222 671 179 645T111 576T85 480Q85
428 110 385T179 316T274 290Q326 290 368 315T437 384T463 480Q463 533 437 576T369 645T274 671ZM283 611Q338 611 362 596T386 537Q386 509 373 494T328 474V472Q340 471 351 462T367 434L396 354H349L323 432Q317 446 308 452T283 458Q240 458 216 458T179
459L180 489H282Q315 490 328 499T341 533Q342 560 329 568T282 577Q245 577 218 577T181 576L174 608Q200 610 222 610T283 611Z" />
<glyph unicode="&#xaf;" horiz-adv-x="400" d="M341 676V607H59V676H341Z" />
<glyph unicode="&#xb0;" horiz-adv-x="359" d="M180 703Q216 703 245 686T292 640T310 575Q310 540 293 511T246 464T180 446Q145 446 115 463T67 510T49 575Q49 610 66 639T114 685T180 703ZM180 648Q150 648 129 628T107 575Q107 555 117 538T143 511T180 501Q200
501 216 511T243 538T253 575Q253 607 232 627T180 648Z" />
<glyph unicode="&#xb1;" horiz-adv-x="585" d="M513 398V326H72V398H513ZM513 138V65H72V138H513ZM330 529L329 194H256V529H330Z" />
<glyph unicode="&#xb2;" horiz-adv-x="416" d="M200 774Q250 774 283 766T333 738T350 677Q350 644 330 611T270 537L153 423Q171 425 185 425T217 425L366 424L365 359H55V399Q55 408 58 416T67 431L187 549Q214 574 231 594T257 633T266 668Q268 695 249 702T196
710Q165 710 136 708T64 702L60 759Q106 769 141 771T200 774Z" />
<glyph unicode="&#xb3;" horiz-adv-x="407" d="M195 775Q275 775 307 755T339 681Q339 639 324 612T268 576V574Q314 567 331 542T350 472Q352 409 318 380T202 351Q164 351 126 354T54 363L59 419Q83 417 103 416T142 414T183 413Q234 413 253 428T273 482Q273
499 267 513T245 535T194 544H109V598L194 599Q228 599 242 609T261 633T265 662Q265 692 248 702T183 713Q152 713 120 712T65 707L61 762Q95 768 128 771T195 775Z" />
<glyph unicode="&#xb4;" horiz-adv-x="321" d="M226 733L278 660L80 542L48 585L226 733Z" />
<glyph unicode="&#xb5;" horiz-adv-x="583" d="M171 488V159Q171 109 190 92T247 75Q289 75 324 101T381 171T404 268L407 100Q392 70 366 44T305 3T228 -12Q185 -12 151 3T96 51T75 133V488H171ZM170 87V-75L158 -199H75V181L170 87ZM501 488V113Q501 97 503
85T510 67T529 61H560L567 5Q547 -2 526 -6T484 -10Q448 -10 428 11T407 77V100L404 116V488H501Z" />
<glyph unicode="&#xb6;" horiz-adv-x="596" d="M347 702Q379 702 422 699T502 685L496 628Q472 633 440 635T378 639T325 640L278 200Q149 210 94 268T38 450Q38 543 69 598T168 677T347 702ZM339 685V-210H268V685H339ZM502 685V0H431V685H502Z" />
<glyph unicode="&#xb7;" horiz-adv-x="239" d="M134 320Q154 320 162 313T170 285V232Q170 212 162 204T134 196H105Q85 196 77 204T69 232V285Q69 305 77 312T105 320H134Z" />
<glyph unicode="&#xb8;" horiz-adv-x="237" d="M88 -42Q130 -38 155 -42T194 -61T205 -107Q204 -150 181 -180T120 -224T32 -230L46 -182Q86 -183 111 -165T138 -115Q140 -98 128 -92T78 -85L88 -42Z" />
<glyph unicode="&#xb9;" horiz-adv-x="297" d="M216 768V359H141V662Q141 671 141 681T144 702L37 674L28 726L141 768H216Z" />
<glyph unicode="&#xba;" horiz-adv-x="443" d="M222 609Q313 609 350 570T387 436Q387 374 371 336T319 281T222 264Q130 264 93 303T56 436Q56 531 93 570T222 609ZM222 551Q171 551 152 527T132 436Q132 370 151 347T222 323Q272 323 291 346T311 436Q311 503
292 527T222 551Z" />
<glyph unicode="&#xbb;" horiz-adv-x="491" d="M103 460L262 262V240L102 38L51 71L174 251L52 426L103 460ZM290 460L449 262V240L289 38L238 71L361 251L239 426L290 460Z" />
<glyph unicode="&#xbc;" horiz-adv-x="871" d="M649 690L207 0H140L581 690H649ZM227 690V276H152V583Q152 594 153 604T156 624L45 597L36 647L152 690H227ZM675 414L557 173Q553 165 557 159T573 153H830V102L774 95H519Q494 95 479 113T479 160L604 414H675ZM783
335V0H712V267L725 335H783Z" />
<glyph unicode="&#xbd;" horiz-adv-x="892" d="M643 690L202 0H134L576 690H643ZM227 690V276H152V583Q152 594 153 604T156 624L45 597L36 647L152 690H227ZM675 421Q725 421 759 414T810 386T828 324Q828 291 809 258T748 184L624 64Q643 67 658 67T692 67L845
66L844 0H529V42Q529 51 531 59T540 73L664 192Q704 231 724 261T746 316Q747 344 727 350T670 357Q637 357 609 356T537 350L533 406Q581 416 615 418T675 421Z" />
<glyph unicode="&#xbe;" horiz-adv-x="960" d="M747 690L306 0H239L680 690H747ZM198 695Q281 695 313 675T346 600Q346 558 331 530T270 495V493Q320 486 338 460T357 389Q359 325 325 296T205 266Q167 266 128 269T54 277L58 333Q82 331 103 330T144 329T186
328Q238 328 259 343T280 398Q280 417 274 431T251 453T198 462L112 464V514L198 517Q232 518 248 527T268 551T272 580Q272 612 254 623T186 634Q152 634 121 633T66 630L62 685Q97 690 130 692T198 695ZM764 414L646 173Q642 165 647 159T663 153H920V102L864
95H608Q583 95 569 113T568 160L693 414H764ZM869 335V0H799V267L812 335H869Z" />
<glyph unicode="&#xbf;" horiz-adv-x="503" d="M302 288Q304 234 289 194T249 125T201 70T160 19T141 -39Q139 -86 169 -107T264 -129Q315 -129 346 -129T403 -126T462 -121L467 -190Q441 -194 420 -198T375 -205T320 -209T243 -211Q142 -211 91 -173T39 -56Q39
-11 57 21T101 80T153 136T199 201T221 288H302ZM274 501Q295 501 302 493T310 466V411Q310 392 303 385T274 377H251Q231 377 223 384T215 411V466Q215 485 223 493T251 501H274Z" />
<glyph unicode="&#xc0;" horiz-adv-x="628" d="M365 690Q378 690 388 683T402 663L620 0H516L344 555Q340 570 336 585T328 613H300Q296 600 292 585T283 555L111 0H8L226 663Q230 675 240 682T263 690H365ZM489 293V210H137V293H489ZM198 912L376 766L344 722L146
841L198 912Z" />
<glyph unicode="&#xc1;" horiz-adv-x="628" d="M365 690Q378 690 388 683T402 663L620 0H516L344 555Q340 570 336 585T328 613H300Q296 600 292 585T283 555L111 0H8L226 663Q230 675 240 682T263 690H365ZM489 293V210H137V293H489ZM418 918L470 845L272 727L240
770L418 918Z" />
<glyph unicode="&#xc2;" horiz-adv-x="628" d="M365 690Q378 690 388 683T402 663L620 0H516L344 555Q340 570 336 585T328 613H300Q296 600 292 585T283 555L111 0H8L226 663Q230 675 240 682T263 690H365ZM489 293V210H137V293H489ZM349 893L482 765L451 725L319
821H311L178 725L147 765L280 893H349Z" />
<glyph unicode="&#xc3;" horiz-adv-x="628" d="M365 690Q378 690 388 683T402 663L620 0H516L344 555Q340 570 336 585T328 613H300Q296 600 292 585T283 555L111 0H8L226 663Q230 675 240 682T263 690H365ZM489 293V210H137V293H489ZM232 876Q255 874 274 867T310
851T344 834T383 822Q411 818 420 831T430 871H474Q481 813 459 782T396 754Q362 757 337 769T290 795T243 810Q216 813 207 800T198 757H153Q149 799 158 826T188 865T232 876Z" />
<glyph unicode="&#xc4;" horiz-adv-x="628" d="M365 690Q378 690 388 683T402 663L620 0H516L344 555Q340 570 336 585T328 613H300Q296 600 292 585T283 555L111 0H8L226 663Q230 675 240 682T263 690H365ZM489 293V210H137V293H489ZM420 867Q445 867 445 841V785Q445
760 420 760H388Q362 760 362 785V841Q362 867 388 867H420ZM241 867Q266 867 266 841V785Q266 760 241 760H209Q184 760 184 785V841Q184 867 209 867H241Z" />
<glyph unicode="&#xc5;" horiz-adv-x="628" d="M365 690Q378 690 388 683T402 663L620 0H516L344 555Q340 570 336 585T328 613H300Q296 600 292 585T283 555L111 0H8L226 663Q230 675 240 682T263 690H365ZM489 293V210H137V293H489ZM314 928Q343 928 368 914T408
876T423 821Q423 792 408 768T369 729T314 714Q284 714 259 728T220 767T205 821Q205 852 219 875T259 913T314 928ZM314 881Q290 881 273 865T256 821Q256 794 273 778T314 762Q339 762 355 778T372 821Q372 848 356 864T314 881Z" />
<glyph unicode="&#xc6;" horiz-adv-x="917" d="M568 691Q661 691 730 690T868 685L864 607H611Q581 607 564 590T546 541V146Q546 114 562 98T611 82H864L868 5Q796 1 721 0T571 -1Q517 -1 485 34T452 122V552Q452 573 461 593T482 623H474Q461 616 447 600T419
562L101 0H-3L331 578Q349 610 370 632T418 667T482 685T568 691ZM478 299V219H173L180 299H478ZM465 403L825 402V325L465 324V403Z" />
<glyph unicode="&#xc7;" horiz-adv-x="573" d="M333 702Q378 702 410 700T469 694T525 681L515 606Q485 609 459 610T404 613T333 614Q269 614 232 589T180 506T164 345Q164 243 179 185T232 101T333 76Q398 76 442 78T529 87L539 12Q495 -1 449 -6T333 -12Q233
-12 173 22T85 135T58 345Q58 477 85 555T172 667T333 702ZM279 -56Q321 -52 346 -56T385 -75T396 -121Q395 -164 372 -194T311 -238T223 -244L237 -196Q277 -197 302 -179T329 -129Q331 -112 319 -106T269 -99L279 -56Z" />
<glyph unicode="&#xc8;" horiz-adv-x="563" d="M214 691Q264 691 316 691T418 690T515 685L511 608H236Q206 608 192 593T178 545V145Q178 112 192 97T236 81H511L515 5Q469 2 419 1T316 0T214 -1Q152 -1 116 32T78 122V568Q79 625 115 658T214 691ZM96 402H472V325H96V402ZM194
931L372 785L340 741L142 860L194 931Z" />
<glyph unicode="&#xc9;" horiz-adv-x="563" d="M214 691Q264 691 316 691T418 690T515 685L511 608H236Q206 608 192 593T178 545V145Q178 112 192 97T236 81H511L515 5Q469 2 419 1T316 0T214 -1Q152 -1 116 32T78 122V568Q79 625 115 658T214 691ZM96 402H472V325H96V402ZM415
937L467 864L269 746L237 789L415 937Z" />
<glyph unicode="&#xca;" horiz-adv-x="563" d="M214 691Q264 691 316 691T418 690T515 685L511 608H236Q206 608 192 593T178 545V145Q178 112 192 97T236 81H511L515 5Q469 2 419 1T316 0T214 -1Q152 -1 116 32T78 122V568Q79 625 115 658T214 691ZM96 402H472V325H96V402ZM346
912L479 784L448 744L316 840H308L175 744L144 784L277 912H346Z" />
<glyph unicode="&#xcb;" horiz-adv-x="563" d="M214 691Q264 691 316 691T418 690T515 685L511 608H236Q206 608 192 593T178 545V145Q178 112 192 97T236 81H511L515 5Q469 2 419 1T316 0T214 -1Q152 -1 116 32T78 122V568Q79 625 115 658T214 691ZM96 402H472V325H96V402ZM416
885Q441 885 441 859V803Q441 778 416 778H384Q358 778 358 803V859Q358 885 384 885H416ZM237 885Q262 885 262 859V803Q262 778 237 778H205Q180 778 180 803V859Q180 885 205 885H237Z" />
<glyph unicode="&#xcc;" horiz-adv-x="268" d="M184 690V0H84V690H184ZM17 919L195 773L163 729L-35 848L17 919Z" />
<glyph unicode="&#xcd;" horiz-adv-x="268" d="M184 690V0H84V690H184ZM238 925L290 852L92 734L60 777L238 925Z" />
<glyph unicode="&#xce;" horiz-adv-x="268" d="M184 690V0H84V690H184ZM168 899L301 771L270 731L138 827H130L-3 731L-34 771L99 899H168Z" />
<glyph unicode="&#xcf;" horiz-adv-x="268" d="M184 690V0H84V690H184ZM239 874Q264 874 264 848V792Q264 767 239 767H207Q181 767 181 792V848Q181 874 207 874H239ZM60 874Q85 874 85 848V792Q85 767 60 767H28Q3 767 3 792V848Q3 874 28 874H60Z" />
<glyph unicode="&#xd0;" horiz-adv-x="672" d="M334 393V339H21V393H334ZM338 699Q413 699 465 681T550 623T597 514T612 345Q612 245 597 177T550 68T466 9T338 -9Q266 -9 204 -7T87 0L130 80Q171 78 223 77T338 75Q401 75 438 100T491 183T507 345Q507 448 492
506T439 590T338 616Q276 616 227 615T131 613L87 690Q142 694 203 696T338 699ZM187 690V0H87V690H187Z" />
<glyph unicode="&#xd1;" horiz-adv-x="708" d="M624 690V39Q624 0 587 0H501Q484 0 475 8T458 31L232 497Q223 517 211 542T193 590H178Q180 567 181 544T182 496V0H84V651Q84 690 122 690H205Q222 690 232 682T249 659L467 205Q478 184 490 157T515 104H531Q529
131 528 157T527 210V690H624ZM283 883Q306 881 325 874T361 858T395 841T434 829Q462 825 471 838T481 878H525Q532 820 510 789T447 761Q413 764 388 776T341 802T294 817Q267 820 258 807T249 764H204Q200 806 209 833T239 872T283 883Z" />
<glyph unicode="&#xd2;" horiz-adv-x="672" d="M336 703Q412 703 465 685T551 626T597 516T612 345Q612 244 598 175T551 64T466 5T336 -13Q260 -13 207 5T121 64T73 174T58 345Q58 447 73 516T120 626T206 685T336 703ZM336 616Q271 616 233 591T180 508T164
345Q164 242 179 183T233 99T336 74Q401 74 438 99T492 183T508 345Q508 449 492 507T439 591T336 616ZM221 919L399 773L367 729L169 848L221 919Z" />
<glyph unicode="&#xd3;" horiz-adv-x="672" d="M336 703Q412 703 465 685T551 626T597 516T612 345Q612 244 598 175T551 64T466 5T336 -13Q260 -13 207 5T121 64T73 174T58 345Q58 447 73 516T120 626T206 685T336 703ZM336 616Q271 616 233 591T180 508T164
345Q164 242 179 183T233 99T336 74Q401 74 438 99T492 183T508 345Q508 449 492 507T439 591T336 616ZM441 927L493 854L295 736L263 779L441 927Z" />
<glyph unicode="&#xd4;" horiz-adv-x="672" d="M336 703Q412 703 465 685T551 626T597 516T612 345Q612 244 598 175T551 64T466 5T336 -13Q260 -13 207 5T121 64T73 174T58 345Q58 447 73 516T120 626T206 685T336 703ZM336 616Q271 616 233 591T180 508T164
345Q164 242 179 183T233 99T336 74Q401 74 438 99T492 183T508 345Q508 449 492 507T439 591T336 616ZM372 899L505 771L474 731L342 827H334L201 731L170 771L303 899H372Z" />
<glyph unicode="&#xd5;" horiz-adv-x="672" d="M336 703Q412 703 465 685T551 626T597 516T612 345Q612 244 598 175T551 64T466 5T336 -13Q260 -13 207 5T121 64T73 174T58 345Q58 447 73 516T120 626T206 685T336 703ZM336 616Q271 616 233 591T180 508T164
345Q164 242 179 183T233 99T336 74Q401 74 438 99T492 183T508 345Q508 449 492 507T439 591T336 616ZM254 883Q277 881 296 874T332 858T366 841T405 829Q433 825 442 838T452 878H496Q503 820 481 789T418 761Q384 764 359 776T312 802T265 817Q238 820 229
807T220 764H175Q171 806 180 833T210 872T254 883Z" />
<glyph unicode="&#xd6;" horiz-adv-x="672" d="M336 703Q412 703 465 685T551 626T597 516T612 345Q612 244 598 175T551 64T466 5T336 -13Q260 -13 207 5T121 64T73 174T58 345Q58 447 73 516T120 626T206 685T336 703ZM336 616Q271 616 233 591T180 508T164
345Q164 242 179 183T233 99T336 74Q401 74 438 99T492 183T508 345Q508 449 492 507T439 591T336 616ZM442 874Q467 874 467 848V792Q467 767 442 767H410Q384 767 384 792V848Q384 874 410 874H442ZM263 874Q288 874 288 848V792Q288 767 263 767H231Q206 767
206 792V848Q206 874 231 874H263Z" />
<glyph unicode="&#xd7;" horiz-adv-x="486" d="M401 479L43 158L91 101L448 423L401 479ZM91 479L43 422L401 101L448 158L91 479Z" />
<glyph unicode="&#xd8;" horiz-adv-x="672" d="M494 751L541 731L171 -59L125 -39L494 751ZM336 703Q412 703 465 685T551 626T597 516T612 345Q612 244 598 175T551 64T466 5T336 -13Q260 -13 207 5T121 64T73 174T58 345Q58 447 73 516T120 626T206 685T336
703ZM336 616Q271 616 233 591T180 508T164 345Q164 242 179 183T233 99T336 74Q401 74 438 99T492 183T508 345Q508 449 492 507T439 591T336 616Z" />
<glyph unicode="&#xd9;" horiz-adv-x="670" d="M591 690V266Q591 165 567 104T487 15T340 -13Q244 -13 187 14T105 103T79 266V690H179V266Q179 194 193 152T242 92T335 74Q393 74 426 91T475 151T491 266V690H591ZM219 919L397 773L365 729L167 848L219 919Z" />
<glyph unicode="&#xda;" horiz-adv-x="670" d="M591 690V266Q591 165 567 104T487 15T340 -13Q244 -13 187 14T105 103T79 266V690H179V266Q179 194 193 152T242 92T335 74Q393 74 426 91T475 151T491 266V690H591ZM440 925L492 852L294 734L262 777L440 925Z" />
<glyph unicode="&#xdb;" horiz-adv-x="670" d="M591 690V266Q591 165 567 104T487 15T340 -13Q244 -13 187 14T105 103T79 266V690H179V266Q179 194 193 152T242 92T335 74Q393 74 426 91T475 151T491 266V690H591ZM370 899L503 771L472 731L340 827H332L199 731L168
771L301 899H370Z" />
<glyph unicode="&#xdc;" horiz-adv-x="670" d="M591 690V266Q591 165 567 104T487 15T340 -13Q244 -13 187 14T105 103T79 266V690H179V266Q179 194 193 152T242 92T335 74Q393 74 426 91T475 151T491 266V690H591ZM442 874Q467 874 467 848V792Q467 767 442 767H410Q384
767 384 792V848Q384 874 410 874H442ZM263 874Q288 874 288 848V792Q288 767 263 767H231Q206 767 206 792V848Q206 874 231 874H263Z" />
<glyph unicode="&#xdd;" horiz-adv-x="577" d="M567 690L334 231H243L9 690H115L255 406Q264 387 271 367T285 326H292Q299 346 306 366T322 405L462 690H567ZM338 299V0H238V299H338ZM393 916L445 843L247 725L215 768L393 916Z" />
<glyph unicode="&#xde;" horiz-adv-x="596" d="M326 568Q411 568 460 549T531 483T553 348Q553 262 532 214T464 148T337 129Q294 129 255 131T183 138T127 146T94 154L97 212Q151 212 209 212T324 212Q372 213 400 224T440 264T452 348Q452 404 440 433T400 474T324
486Q240 486 180 485T98 482L84 560Q122 564 156 565T229 567T326 568ZM184 690V0H84V690H184Z" />
<glyph unicode="&#xdf;" horiz-adv-x="681" d="M344 723Q426 723 476 711T550 669T573 588Q573 561 566 540T542 500T489 458Q460 441 439 429T407 405T396 369Q396 344 413 331T460 304L559 258Q590 243 609 227T637 187T647 127Q647 71 627 41T567 0T467 -11Q435
-11 395 -9T305 0L311 70Q348 67 383 66T448 65Q485 66 507 70T541 88T552 132Q552 154 544 166T521 188T484 208L385 253Q348 271 326 297T304 365Q304 402 320 424T362 462T421 497Q456 518 469 536T482 584Q482 605 471 618T431 639T347 646Q295 646 265 637T223
605T210 535V0H114V545Q114 603 129 638T173 691T245 716T344 723ZM163 488V415H26V486L117 488H163Z" />
<glyph unicode="&#xe0;" horiz-adv-x="553" d="M310 500Q366 500 404 486T462 436T482 340V0H406L391 106L385 118V340Q385 383 365 402T289 421Q251 421 194 417T80 409L71 478Q105 484 146 489T231 497T310 500ZM438 301L437 233L207 232Q173 231 160 215T146
169V139Q146 103 163 87T219 70Q247 70 281 80T351 112T414 167V104Q404 90 384 71T336 33T273 3T197 -9Q153 -9 120 6T67 52T48 127V180Q48 237 84 269T186 301H438ZM160 740L338 594L306 550L108 669L160 740Z" />
<glyph unicode="&#xe1;" horiz-adv-x="553" d="M310 500Q366 500 404 486T462 436T482 340V0H406L391 106L385 118V340Q385 383 365 402T289 421Q251 421 194 417T80 409L71 478Q105 484 146 489T231 497T310 500ZM438 301L437 233L207 232Q173 231 160 215T146
169V139Q146 103 163 87T219 70Q247 70 281 80T351 112T414 167V104Q404 90 384 71T336 33T273 3T197 -9Q153 -9 120 6T67 52T48 127V180Q48 237 84 269T186 301H438ZM380 746L432 673L234 555L202 598L380 746Z" />
<glyph unicode="&#xe2;" horiz-adv-x="553" d="M310 500Q366 500 404 486T462 436T482 340V0H406L391 106L385 118V340Q385 383 365 402T289 421Q251 421 194 417T80 409L71 478Q105 484 146 489T231 497T310 500ZM438 301L437 233L207 232Q173 231 160 215T146
169V139Q146 103 163 87T219 70Q247 70 281 80T351 112T414 167V104Q404 90 384 71T336 33T273 3T197 -9Q153 -9 120 6T67 52T48 127V180Q48 237 84 269T186 301H438ZM311 720L444 592L413 552L281 648H273L140 552L109 592L242 720H311Z" />
<glyph unicode="&#xe3;" horiz-adv-x="553" d="M310 500Q366 500 404 486T462 436T482 340V0H406L391 106L385 118V340Q385 383 365 402T289 421Q251 421 194 417T80 409L71 478Q105 484 146 489T231 497T310 500ZM438 301L437 233L207 232Q173 231 160 215T146
169V139Q146 103 163 87T219 70Q247 70 281 80T351 112T414 167V104Q404 90 384 71T336 33T273 3T197 -9Q153 -9 120 6T67 52T48 127V180Q48 237 84 269T186 301H438ZM193 703Q216 701 235 694T271 678T305 661T344 649Q372 645 381 658T391 698H435Q442 640 420
609T357 581Q323 584 298 596T251 622T204 637Q177 640 168 627T159 584H114Q110 626 119 653T149 692T193 703Z" />
<glyph unicode="&#xe4;" horiz-adv-x="553" d="M310 500Q366 500 404 486T462 436T482 340V0H406L391 106L385 118V340Q385 383 365 402T289 421Q251 421 194 417T80 409L71 478Q105 484 146 489T231 497T310 500ZM438 301L437 233L207 232Q173 231 160 215T146
169V139Q146 103 163 87T219 70Q247 70 281 80T351 112T414 167V104Q404 90 384 71T336 33T273 3T197 -9Q153 -9 120 6T67 52T48 127V180Q48 237 84 269T186 301H438ZM382 951Q407 951 407 925V869Q407 844 382 844H350Q324 844 324 869V925Q324 951 350 951H382ZM203
951Q228 951 228 925V869Q228 844 203 844H171Q146 844 146 869V925Q146 951 171 951H203Z" />
<glyph unicode="&#xe5;" horiz-adv-x="553" d="M310 500Q366 500 404 486T462 436T482 340V0H406L391 106L385 118V340Q385 383 365 402T289 421Q251 421 194 417T80 409L71 478Q105 484 146 489T231 497T310 500ZM438 301L437 233L207 232Q173 231 160 215T146
169V139Q146 103 163 87T219 70Q247 70 281 80T351 112T414 167V104Q404 90 384 71T336 33T273 3T197 -9Q153 -9 120 6T67 52T48 127V180Q48 237 84 269T186 301H438ZM276 755Q305 755 330 741T370 703T385 648Q385 619 370 595T331 556T276 541Q246 541 221 555T182
594T167 648Q167 679 181 702T221 740T276 755ZM276 708Q252 708 235 692T218 648Q218 621 235 605T276 589Q301 589 317 605T334 648Q334 675 318 691T276 708Z" />
<glyph unicode="&#xe6;" horiz-adv-x="872" d="M612 500Q725 500 775 460T826 340Q826 295 812 265T769 218T693 202H420V271H667Q705 271 717 291T729 340Q729 384 703 403T616 423Q565 423 536 408T495 356T483 252Q483 177 497 138T545 83T632 68Q671 68 717
71T805 80L814 17Q791 7 757 1T686 -9T620 -12Q535 -12 483 14T407 96T384 245Q384 341 407 397T481 476T612 500ZM438 300L437 233L207 232Q173 231 160 215T146 169V139Q146 103 163 87T219 70Q247 70 282 80T353 113T418 170L419 106Q408 91 388 72T339 33T274
3T196 -9Q153 -9 120 6T67 52T48 127V180Q48 237 84 268T186 300H438ZM310 500Q365 500 403 486T461 436T481 340V239H384V340Q384 383 364 402T289 421Q251 421 194 417T80 409L71 478Q105 484 146 489T231 497T310 500Z" />
<glyph unicode="&#xe7;" horiz-adv-x="493" d="M287 500Q310 500 337 498T394 491T449 476L437 414Q402 417 366 418T303 420Q247 420 215 405T168 351T154 245Q154 177 168 138T214 84T303 69Q318 69 342 70T394 73T448 79L457 15Q420 1 375 -5T286 -12Q200 -12
149 13T74 94T51 245Q51 339 74 395T149 475T287 500ZM232 -54Q274 -50 299 -54T338 -73T349 -119Q348 -162 325 -192T264 -236T176 -242L190 -194Q230 -195 255 -177T282 -127Q284 -110 272 -104T222 -97L232 -54Z" />
<glyph unicode="&#xe8;" horiz-adv-x="542" d="M281 500Q394 500 444 460T495 340Q496 274 467 238T371 202H89V271H346Q379 271 389 292T399 340Q398 385 373 404T285 423Q234 423 205 408T165 356T153 252Q153 177 167 138T214 83T301 68Q339 68 386 71T473
80L483 17Q459 7 425 1T355 -9T289 -12Q203 -12 151 14T75 96T51 245Q51 341 75 397T150 476T281 500ZM167 739L345 593L313 549L115 668L167 739Z" />
<glyph unicode="&#xe9;" horiz-adv-x="542" d="M281 500Q394 500 444 460T495 340Q496 274 467 238T371 202H89V271H346Q379 271 389 292T399 340Q398 385 373 404T285 423Q234 423 205 408T165 356T153 252Q153 177 167 138T214 83T301 68Q339 68 386 71T473
80L483 17Q459 7 425 1T355 -9T289 -12Q203 -12 151 14T75 96T51 245Q51 341 75 397T150 476T281 500ZM388 745L440 672L242 554L210 597L388 745Z" />
<glyph unicode="&#xea;" horiz-adv-x="542" d="M281 500Q394 500 444 460T495 340Q496 274 467 238T371 202H89V271H346Q379 271 389 292T399 340Q398 385 373 404T285 423Q234 423 205 408T165 356T153 252Q153 177 167 138T214 83T301 68Q339 68 386 71T473
80L483 17Q459 7 425 1T355 -9T289 -12Q203 -12 151 14T75 96T51 245Q51 341 75 397T150 476T281 500ZM319 719L452 591L421 551L289 647H281L148 551L117 591L250 719H319Z" />
<glyph unicode="&#xeb;" horiz-adv-x="542" d="M281 500Q394 500 444 460T495 340Q496 274 467 238T371 202H89V271H346Q379 271 389 292T399 340Q398 385 373 404T285 423Q234 423 205 408T165 356T153 252Q153 177 167 138T214 83T301 68Q339 68 386 71T473
80L483 17Q459 7 425 1T355 -9T289 -12Q203 -12 151 14T75 96T51 245Q51 341 75 397T150 476T281 500ZM390 950Q415 950 415 924V868Q415 843 390 843H358Q332 843 332 868V924Q332 950 358 950H390ZM211 950Q236 950 236 924V868Q236 843 211 843H179Q154 843
154 868V924Q154 950 179 950H211Z" />
<glyph unicode="&#xec;" horiz-adv-x="254" d="M176 488V0H79V488H176ZM266 740L444 594L412 550L214 669L266 740Z" />
<glyph unicode="&#xed;" horiz-adv-x="254" d="M176 488V0H79V488H176ZM231 746L283 673L85 555L53 598L231 746Z" />
<glyph unicode="&#xee;" horiz-adv-x="254" d="M176 488V0H79V488H176ZM418 719L551 591L520 551L388 647H380L247 551L216 591L349 719H418Z" />
<glyph unicode="&#xef;" horiz-adv-x="254" d="M176 488V0H79V488H176ZM488 950Q513 950 513 924V868Q513 843 488 843H456Q430 843 430 868V924Q430 950 456 950H488ZM309 950Q334 950 334 924V868Q334 843 309 843H277Q252 843 252 868V924Q252 950 277 950H309Z" />
<glyph unicode="&#xf0;" horiz-adv-x="563" d="M131 698Q188 701 242 690T344 650T427 573T482 453T503 284Q503 216 493 161T459 68T390 8T277 -13Q163 -13 108 42T52 219Q52 292 72 343T138 421T259 448Q286 448 317 443T380 422T440 377L433 336Q394 354 357
362T276 371Q230 371 204 354T166 302T155 219Q155 134 184 100T278 66Q333 66 359 91T393 165T402 287Q402 377 387 439T344 539T280 598T203 625T120 630L131 698ZM415 714L447 673L239 511L206 551L415 714Z" />
<glyph unicode="&#xf1;" horiz-adv-x="585" d="M380 500Q513 500 513 366V0H416V338Q416 384 401 401T350 419Q307 419 264 399T161 342L157 407Q213 452 269 476T380 500ZM155 488L164 394L171 380V0H75V488H155ZM221 703Q244 701 263 694T299 678T333 661T372
649Q400 645 409 658T419 698H463Q470 640 448 609T385 581Q351 584 326 596T279 622T232 637Q205 640 196 627T187 584H142Q138 626 147 653T177 692T221 703Z" />
<glyph unicode="&#xf2;" horiz-adv-x="572" d="M286 500Q372 500 423 475T497 394T520 244Q520 150 498 94T424 12T286 -13Q201 -13 150 12T75 93T52 244Q52 337 75 393T149 475T286 500ZM286 422Q236 422 207 406T166 352T154 244Q154 175 166 136T207 82T286
66Q336 66 365 81T407 136T419 244Q419 313 407 351T366 406T286 422ZM171 734L349 588L317 544L119 663L171 734Z" />
<glyph unicode="&#xf3;" horiz-adv-x="572" d="M286 500Q372 500 423 475T497 394T520 244Q520 150 498 94T424 12T286 -13Q201 -13 150 12T75 93T52 244Q52 337 75 393T149 475T286 500ZM286 422Q236 422 207 406T166 352T154 244Q154 175 166 136T207 82T286
66Q336 66 365 81T407 136T419 244Q419 313 407 351T366 406T286 422ZM391 740L443 667L245 549L213 592L391 740Z" />
<glyph unicode="&#xf4;" horiz-adv-x="572" d="M286 500Q372 500 423 475T497 394T520 244Q520 150 498 94T424 12T286 -13Q201 -13 150 12T75 93T52 244Q52 337 75 393T149 475T286 500ZM286 422Q236 422 207 406T166 352T154 244Q154 175 166 136T207 82T286
66Q336 66 365 81T407 136T419 244Q419 313 407 351T366 406T286 422ZM322 971L455 843L424 803L292 899H284L151 803L120 843L253 971H322Z" />
<glyph unicode="&#xf5;" horiz-adv-x="572" d="M286 500Q372 500 423 475T497 394T520 244Q520 150 498 94T424 12T286 -13Q201 -13 150 12T75 93T52 244Q52 337 75 393T149 475T286 500ZM286 422Q236 422 207 406T166 352T154 244Q154 175 166 136T207 82T286
66Q336 66 365 81T407 136T419 244Q419 313 407 351T366 406T286 422ZM205 954Q228 952 247 945T283 929T317 912T356 900Q384 896 393 909T403 949H447Q454 891 432 860T369 832Q335 835 310 847T263 873T216 888Q189 891 180 878T171 835H126Q122 877 131 904T161
943T205 954Z" />
<glyph unicode="&#xf6;" horiz-adv-x="572" d="M286 500Q372 500 423 475T497 394T520 244Q520 150 498 94T424 12T286 -13Q201 -13 150 12T75 93T52 244Q52 337 75 393T149 475T286 500ZM286 422Q236 422 207 406T166 352T154 244Q154 175 166 136T207 82T286
66Q336 66 365 81T407 136T419 244Q419 313 407 351T366 406T286 422ZM393 945Q418 945 418 919V863Q418 838 393 838H361Q335 838 335 863V919Q335 945 361 945H393ZM214 945Q239 945 239 919V863Q239 838 214 838H182Q157 838 157 863V919Q157 945 182 945H214Z"
/>
<glyph unicode="&#xf7;" horiz-adv-x="568" d="M504 331V259H62V331H504ZM295 176Q314 176 322 168T331 140V95Q331 74 323 66T295 58H270Q250 58 243 66T235 95V140Q235 160 242 168T270 176H295ZM295 530Q314 530 322 522T331 494V448Q331 428 323 420T295 412H270Q250
412 243 420T235 448V494Q235 513 242 521T270 530H295Z" />
<glyph unicode="&#xf8;" horiz-adv-x="572" d="M408 563L448 544L159 -77L119 -57L408 563ZM286 500Q372 500 423 475T497 394T520 244Q520 150 498 94T424 12T286 -13Q201 -13 150 12T75 93T52 244Q52 337 75 393T149 475T286 500ZM286 422Q236 422 207 406T166
352T154 244Q154 175 166 136T207 82T286 66Q336 66 365 81T407 136T419 244Q419 313 407 351T366 406T286 422Z" />
<glyph unicode="&#xf9;" horiz-adv-x="574" d="M168 488V150Q168 106 185 88T242 70Q281 70 319 88T413 141L424 78Q368 33 315 10T206 -13Q72 -13 72 121V488H168ZM500 488V0H422L413 93L403 108V488H500ZM170 742L348 596L316 552L118 671L170 742Z" />
<glyph unicode="&#xfa;" horiz-adv-x="574" d="M168 488V150Q168 106 185 88T242 70Q281 70 319 88T413 141L424 78Q368 33 315 10T206 -13Q72 -13 72 121V488H168ZM500 488V0H422L413 93L403 108V488H500ZM391 748L443 675L245 557L213 600L391 748Z" />
<glyph unicode="&#xfb;" horiz-adv-x="574" d="M168 488V150Q168 106 185 88T242 70Q281 70 319 88T413 141L424 78Q368 33 315 10T206 -13Q72 -13 72 121V488H168ZM500 488V0H422L413 93L403 108V488H500ZM321 722L454 594L423 554L291 650H283L150 554L119 594L252
722H321Z" />
<glyph unicode="&#xfc;" horiz-adv-x="574" d="M168 488V150Q168 106 185 88T242 70Q281 70 319 88T413 141L424 78Q368 33 315 10T206 -13Q72 -13 72 121V488H168ZM500 488V0H422L413 93L403 108V488H500ZM393 697Q418 697 418 671V615Q418 590 393 590H361Q335
590 335 615V671Q335 697 361 697H393ZM214 697Q239 697 239 671V615Q239 590 214 590H182Q157 590 157 615V671Q157 697 182 697H214Z" />
<glyph unicode="&#xfd;" horiz-adv-x="536" d="M519 488L327 -23Q315 -56 297 -88T251 -146T188 -189T103 -205L94 -144Q154 -125 186 -94T238 -18L263 42Q271 63 279 88T294 133L415 488H519ZM119 488L242 133Q247 118 251 103T259 71H283L252 0H224Q212 0 203
6T190 25L16 488H119ZM375 746L427 673L229 555L197 598L375 746Z" />
<glyph unicode="&#xfe;" horiz-adv-x="578" d="M348 500Q444 500 484 438T524 240Q524 146 505 90T447 11T345 -13Q293 -13 242 1T144 47L160 102Q205 84 241 74T313 64Q354 64 378 79T413 134T424 241Q424 311 413 349T379 404T316 420Q280 420 245 403T168 355L147
413Q189 453 238 476T348 500ZM171 700V537Q172 507 171 480T167 424L171 412V62L167 50Q170 22 171 -5T171 -62V-199H75V700H171Z" />
<glyph unicode="&#xff;" horiz-adv-x="536" d="M519 488L327 -23Q315 -56 297 -88T251 -146T188 -189T103 -205L94 -144Q154 -125 186 -94T238 -18L263 42Q271 63 279 88T294 133L415 488H519ZM119 488L242 133Q247 118 251 103T259 71H283L252 0H224Q212 0 203
6T190 25L16 488H119ZM375 950Q400 950 400 924V868Q400 843 375 843H343Q317 843 317 868V924Q317 950 343 950H375ZM196 950Q221 950 221 924V868Q221 843 196 843H164Q139 843 139 868V924Q139 950 164 950H196Z" />
<glyph unicode="&#x2013;" horiz-adv-x="586" d="M517 288V218H69V288H517Z" />
<glyph unicode="&#x2014;" horiz-adv-x="889" d="M819 288V218H69V288H819Z" />
<glyph unicode="&#x2018;" horiz-adv-x="217" d="M96 487Q76 487 69 494T62 521V580Q63 608 67 634T79 683T99 728L142 716Q136 687 134 662T131 603Q158 603 158 574V521Q157 502 149 495T122 487H96Z" />
<glyph unicode="&#x2019;" horiz-adv-x="214" d="M120 720Q140 720 147 713T154 687V628Q153 599 149 573T137 524T117 479L75 491Q80 520 82 545T85 605Q59 605 59 634V687Q60 706 68 713T94 720H120Z" />
<glyph unicode="&#x201a;" horiz-adv-x="228" d="M128 118Q148 118 155 111T162 84V25Q162 -5 158 -31T145 -80T124 -126L82 -113Q87 -84 89 -59T92 1Q66 1 66 30V84Q67 103 75 110T102 118H128Z" />
<glyph unicode="&#x201c;" horiz-adv-x="374" d="M96 487Q76 487 69 494T62 521V580Q63 608 67 634T79 683T99 728L142 716Q136 687 134 662T131 603Q158 603 158 574V521Q157 502 149 495T122 487H96ZM253 487Q234 487 227 494T219 521V580Q220 608 224 634T237
683T256 728L299 716Q294 687 292 662T288 603Q315 603 315 574V521Q314 502 306 495T279 487H253Z" />
<glyph unicode="&#x201d;" horiz-adv-x="372" d="M278 720Q297 720 304 713T312 687V628Q311 599 307 573T294 524T275 479L232 491Q237 520 239 545T243 605Q216 605 216 634V687Q217 706 225 713T252 720H278ZM120 720Q140 720 147 713T154 687V628Q153 599
149 573T137 524T117 479L75 491Q80 520 82 545T85 605Q59 605 59 634V687Q60 706 68 713T94 720H120Z" />
<glyph unicode="&#x201e;" horiz-adv-x="386" d="M285 115Q304 115 311 108T319 82V23Q318 -6 314 -32T301 -81T282 -126L239 -114Q244 -85 247 -60T250 0Q223 0 223 29V82Q224 101 232 108T259 115H285ZM127 115Q147 115 154 108T161 82V23Q161 -6 157 -32T144
-81T124 -126L82 -114Q87 -85 89 -60T92 0Q66 0 66 29V82Q67 101 75 108T102 115H127Z" />
<glyph unicode="&#x2022;" horiz-adv-x="365" d="M190 362Q239 362 258 343T277 275V263Q277 212 258 193T190 173H178Q126 173 107 192T88 263V275Q88 324 107 343T178 362H190Z" />
<glyph unicode="&#x2039;" horiz-adv-x="288" d="M194 460L246 426L123 251L246 71L195 38L35 240V262L194 460Z" />
<glyph unicode="&#x203a;" horiz-adv-x="290" d="M93 460L253 262V240L92 38L42 71L165 251L43 426L93 460Z" />
</font>
</defs>
</svg>
