<?xml version="1.0" standalone="no"?>
<!DOCTYPE svg PUBLIC "-//W3C//DTD SVG 1.1//EN" "http://www.w3.org/Graphics/SVG/1.1/DTD/svg11.dtd">
<svg xmlns="http://www.w3.org/2000/svg">
<defs >
<font id="Exo2" horiz-adv-x="559" ><font-face
    font-family="Exo 2 Medium"
    units-per-em="1000"
    panose-1="0 0 0 0 0 0 0 0 0 0"
    ascent="999"
    descent="-201"
    alphabetic="0" />
<glyph unicode=" " horiz-adv-x="222" />
<glyph unicode="!" horiz-adv-x="276" d="M242 695L200 396L165 213H89L105 396L147 695H242ZM125 124Q144 124 152 115T157 87L150 34Q148 17 139 9T113 0H88Q50 0 54 37L62 92Q67 124 100 124H125Z" />
<glyph unicode="&quot;" horiz-adv-x="354" d="M344 690L308 474H244L268 690H344ZM197 690L160 474H96L121 690H197Z" />
<glyph unicode="#" horiz-adv-x="688" d="M623 690L406 0H331L548 690H623ZM601 271L582 210H29L49 271H601ZM372 690L155 0H80L297 690H372ZM677 505L656 444H104L125 505H677Z" />
<glyph unicode="$" horiz-adv-x="566" d="M335 702Q386 701 439 697T543 681L532 610Q499 612 466 612T400 613T331 614Q299 614 275 613T232 603T203 575T187 519Q183 487 187 468T207 438T253 416L386 365Q438 345 465 319T500 257T501 169Q491 94 462 55T379
2T241 -12Q209 -12 153 -9T26 8L38 81Q97 79 134 78T195 76T240 76Q296 76 328 83T378 112T401 178Q405 211 401 229T381 259T335 281L199 333Q150 352 123 379T88 443T87 527Q95 585 114 620T165 672T239 696T335 702ZM273 354L315 352L212 -125H169L273 354ZM421
798L323 352L281 354L377 798H421Z" />
<glyph unicode="%" horiz-adv-x="896" d="M759 690L221 0H149L687 690H759ZM258 644Q219 644 197 630T164 583T144 495Q137 441 140 410T159 365T208 352Q247 352 269 366T303 413T323 501Q330 555 328 586T308 631T258 644ZM256 703Q318 703 352 682T396 615T396
495Q386 422 365 378T307 313T210 293Q150 293 116 314T72 382T72 501Q83 575 103 619T161 683T256 703ZM701 341Q663 341 641 327T608 279T588 190Q581 137 583 106T602 61T652 48Q691 48 713 62T747 109T766 198Q774 252 772 283T752 327T701 341ZM700 400Q761
400 795 379T840 311T839 190Q829 118 808 74T750 10T653 -10Q593 -10 559 11T515 78T516 198Q526 272 546 315T604 379T700 400Z" />
<glyph unicode="&amp;" horiz-adv-x="755" d="M379 700Q420 700 460 696T549 679L532 606Q500 614 460 617T382 621Q326 621 292 613T239 579T214 505Q207 461 215 437T252 403T328 394H730L719 321H318Q264 321 230 310T176 271T147 189Q142 154 145 132T161
97T196 79T251 73Q333 73 387 101T476 181Q517 241 528 326T539 518H625Q627 402 613 309T555 145Q525 93 480 59T375 7T241 -11Q163 -11 116 7T51 67T41 179Q49 234 69 272T125 331T212 356L213 361Q171 364 147 384T115 440T116 524Q129 600 162 637T249 687T379
700Z" />
<glyph unicode="&apos;" horiz-adv-x="207" d="M197 690L160 474H96L121 690H197Z" />
<glyph unicode="(" horiz-adv-x="358" d="M385 791L396 744Q293 697 232 591T148 310Q132 200 138 116T177 -27T269 -120L257 -164Q126 -112 76 6T53 317Q81 509 160 624T385 791Z" />
<glyph unicode=")" horiz-adv-x="358" d="M107 789Q238 739 288 622T311 307Q283 116 204 1T-21 -166L-32 -119Q73 -69 133 40T217 316Q233 427 226 512T187 655T94 745L107 789Z" />
<glyph unicode="*" horiz-adv-x="449" d="M309 691L277 529L362 400L314 366L254 489L161 367L117 402L237 529L251 691H309ZM107 603L223 557L220 532L206 517L85 550L107 603ZM423 603L435 546L307 516L296 532L298 557L423 603Z" />
<glyph unicode="+" horiz-adv-x="544" d="M340 510L281 88H207L266 510H340ZM499 336L489 263H48L58 336H499Z" />
<glyph unicode="," horiz-adv-x="230" d="M106 124Q126 124 133 116T137 87L128 23Q125 -3 117 -30T96 -85T69 -136L23 -119Q33 -89 41 -62T57 2Q41 1 34 9T28 33L36 90Q40 110 49 117T79 124H106Z" />
<glyph unicode="-" horiz-adv-x="441" d="M371 288L362 218H58L68 288H371Z" />
<glyph unicode="." horiz-adv-x="228" d="M104 124Q123 124 131 115T136 87L129 34Q127 17 118 9T91 0H62Q24 0 28 37L36 92Q41 124 75 124H104Z" />
<glyph unicode="/" horiz-adv-x="531" d="M559 690L60 -67H-22L477 690H559Z" />
<glyph unicode="0" horiz-adv-x="606" d="M269 -13Q199 -13 152 10T81 84T58 213Q58 279 65 348T91 481T142 594T226 673T351 703Q423 703 470 680T540 607T564 479Q564 411 557 341T532 207T481 94T397 16T269 -13ZM275 72Q330 72 365 98T421 167T451 263T464
371T468 474Q468 552 437 585T343 618Q291 618 257 592T202 523T171 427T158 319T154 216Q153 138 183 105T275 72Z" />
<glyph unicode="1" horiz-adv-x="402" d="M350 690L253 0H154L229 538Q231 554 234 569T242 601L67 548L64 619L250 690H350Z" />
<glyph unicode="2" horiz-adv-x="560" d="M323 702Q383 702 428 693T499 656T525 575Q525 521 505 476T450 388T370 302L148 89Q174 92 201 93T254 94H484L471 0H11L20 62Q22 75 25 85T36 104L263 322Q305 361 341 401T400 482T423 560Q423 585 411 596T374 611T315
615Q281 615 251 614T187 610T109 600V676Q158 687 195 692T263 700T323 702Z" />
<glyph unicode="3" horiz-adv-x="552" d="M310 703Q418 703 463 670T509 566Q509 520 495 475T453 400T383 365L382 361Q434 352 459 320T485 235Q485 157 454 103T362 19T216 -13Q172 -14 120 -10T12 5L23 81Q59 79 89 76T150 72T208 74Q294 80 339 122T385 239Q385
263 375 282T340 313T272 325L141 326L151 399H278Q349 400 381 438T414 551Q414 590 388 603T290 617Q251 617 202 615T116 610L114 685Q169 694 219 698T310 703Z" />
<glyph unicode="4" horiz-adv-x="614" d="M390 690L145 282Q133 264 137 254T160 244H568L558 176L467 166H107Q73 166 53 183T29 228T42 281L290 690H390ZM524 558L446 0H352L414 444L448 558H524Z" />
<glyph unicode="5" horiz-adv-x="535" d="M520 690L503 608H216L182 430L254 423Q325 418 374 400T448 345T474 250Q474 131 407 63T216 -12Q174 -14 122 -9T14 12L31 92Q76 81 118 77T195 75Q282 80 329 122T376 248Q376 284 358 304T300 333T196 345L127 351Q108
353 97 366T90 399L146 690H520Z" />
<glyph unicode="6" horiz-adv-x="572" d="M378 702Q393 702 418 702T473 698T531 686L513 616Q491 618 471 619T427 620T373 620Q327 620 294 608T236 565T194 476T164 325Q155 253 151 205T156 127T191 84T267 70Q324 70 358 97T407 173T423 284Q423 327 404
349T328 372Q278 372 230 346T123 256L122 314Q160 364 195 394T268 437T355 450Q439 450 478 413T517 309Q517 209 491 137T407 27T257 -12Q189 -12 146 5T81 62T57 167T67 329Q84 447 109 520T171 633T260 687T378 702Z" />
<glyph unicode="7" horiz-adv-x="514" d="M483 690Q518 690 528 673T525 624L222 0H123L391 554Q398 568 405 581T422 608L81 606L88 690H483Z" />
<glyph unicode="8" horiz-adv-x="609" d="M354 700Q445 700 492 680T553 620T558 515Q552 471 538 438T499 384T437 359L435 355Q478 351 500 327T527 262T524 169Q516 106 492 67T415 9T268 -10Q178 -10 127 9T58 70T48 175Q55 228 70 267T114 330T187 358L189
362Q138 368 120 410T112 521Q121 584 144 623T217 682T354 700ZM307 320Q263 320 235 315T188 297T160 257T144 189Q139 144 146 119T184 83T275 72Q332 72 364 83T412 122T434 196Q439 235 437 259T421 297T380 315T307 320ZM349 623Q293 623 263 612T220 576T201
505Q195 461 202 437T237 405T321 396Q362 396 388 401T430 419T453 454T466 512Q473 554 467 578T433 613T349 623Z" />
<glyph unicode="9" horiz-adv-x="572" d="M334 702Q403 702 446 684T510 624T532 516T518 349Q500 237 476 166T415 56T328 3T205 -12Q177 -12 135 -9T44 4L57 75Q80 73 103 72T150 71T200 70Q256 72 293 85T354 131T393 218T423 360Q435 435 438 485T433 564T399
607T327 620Q273 620 241 604T194 553T170 462Q163 409 169 377T199 331T265 316Q300 317 329 327T390 363T463 434L464 379Q428 326 394 296T323 253T243 239Q187 238 152 255T98 303T75 376T77 467Q85 530 103 575T153 648T230 689T334 702Z" />
<glyph unicode=":" horiz-adv-x="239" d="M152 442Q171 442 179 433T184 405L177 352Q175 335 166 327T139 318H110Q72 318 76 355L84 410Q89 442 123 442H152ZM107 124Q126 124 134 115T139 87L132 34Q130 17 121 9T94 0H65Q27 0 31 37L39 92Q44 124 78 124H107Z" />
<glyph unicode=";" horiz-adv-x="242" d="M154 442Q173 442 181 433T186 405L179 352Q177 335 168 327T141 318H112Q74 318 78 355L86 410Q91 442 125 442H154ZM113 124Q133 124 140 116T144 87L135 23Q132 -3 124 -30T103 -85T76 -136L30 -119Q40 -89 48 -62T64
2Q48 1 41 9T35 33L43 90Q47 110 56 117T86 124H113Z" />
<glyph unicode="&lt;" horiz-adv-x="524" d="M488 508L477 427L132 297L439 165L429 90L44 260L54 337L488 508Z" />
<glyph unicode="=" horiz-adv-x="585" d="M533 435L523 363H81L91 435H533ZM504 224L494 151H52L62 224H504Z" />
<glyph unicode="&gt;" horiz-adv-x="524" d="M97 509L482 337L470 260L38 90L49 171L392 303L86 435L97 509Z" />
<glyph unicode="?" horiz-adv-x="503" d="M311 712Q411 712 460 673T499 554Q493 509 471 477T418 418T357 363T302 299T268 211L187 212Q194 266 215 305T265 375T321 432T369 484T394 543Q403 594 379 612T290 631Q238 631 206 630T148 627T88 622L87 690Q113
696 135 699T181 706T236 710T311 712ZM225 124Q245 124 253 115T259 87L251 34Q250 17 241 9T214 0H189Q151 0 155 37L163 91Q169 124 202 124H225Z" />
<glyph unicode="@" horiz-adv-x="777" d="M430 643Q530 644 592 633T685 589T719 490T708 315Q696 219 681 156T641 58T581 7T490 -9Q452 -9 428 2T390 34T374 82T375 142L420 428H513L465 118Q462 92 470 81T499 69Q527 69 546 81T578 122T600 200T620 322Q630
393 632 439T626 511T594 548T530 563T428 566H108L115 635Q166 638 219 639T326 642T430 643ZM293 451Q347 451 399 445T513 428L472 372Q410 375 376 376T321 377Q274 377 244 372T195 350T166 304T146 222Q136 163 137 129T155 81T203 67Q255 67 300 101T404
206L422 164Q393 119 359 79T282 13T180 -12Q138 -12 109 2T65 46T47 121T54 229Q66 301 86 345T135 412T203 443T293 451Z" />
<glyph unicode="A" horiz-adv-x="625" d="M419 690Q433 690 442 682T453 661L578 0H478L385 554Q383 569 381 584T378 614H348Q342 601 336 585T322 554L74 0H-32L280 664Q284 678 294 684T317 690H419ZM489 293L479 209H127L138 293H489Z" />
<glyph unicode="B" horiz-adv-x="622" d="M366 698Q449 698 499 682T567 626T576 515Q566 442 535 404T438 359L437 355Q515 348 539 299T551 169Q540 98 513 60T437 7T309 -8Q247 -8 203 -8T121 -5T42 0L64 77Q88 76 149 75T293 74Q348 74 380 83T429 119T452
193Q460 244 451 271T414 309T331 321H101L111 394H335Q382 395 412 404T458 439T480 510Q487 554 478 577T440 608T361 616Q310 616 270 616T199 616T146 614L139 690Q175 694 207 695T278 697T366 698ZM237 690L140 0H42L139 690H237Z" />
<glyph unicode="C" horiz-adv-x="569" d="M384 702Q429 702 462 700T521 694T575 680L560 606Q531 609 505 610T450 613T382 614Q333 614 299 602T239 560T198 477T170 342Q156 240 162 183T201 101T297 76Q364 76 408 79T496 87L501 11Q455 -2 409 -7T295 -12Q194
-12 138 25T64 142T65 348Q80 447 103 515T163 624T254 683T384 702Z" />
<glyph unicode="D" horiz-adv-x="666" d="M370 699Q477 699 537 666T615 554T614 342Q598 230 573 161T509 55T413 5T278 -9Q223 -9 161 -7T42 0L93 80Q134 78 186 77T277 75Q333 75 372 86T437 126T481 209T510 348Q522 431 521 483T504 564T455 604T368 616Q342
616 308 616T238 615T176 613L139 690Q173 693 214 695T296 698T370 699ZM239 690L142 0H42L139 690H239Z" />
<glyph unicode="E" horiz-adv-x="561" d="M264 691Q315 691 367 691T470 690T566 685L553 608H281Q248 608 233 593T212 542L158 145Q153 112 165 97T211 82H478L476 5Q432 2 384 1T287 0T192 -1Q115 -1 81 37T56 141L116 570Q124 627 161 659T264 691ZM110 401H485L475
325H99L110 401Z" />
<glyph unicode="F" horiz-adv-x="540" d="M267 691Q343 691 418 690T560 684L547 608H293Q256 608 239 594T216 542L140 0H40L119 566Q128 627 167 659T267 691ZM111 389H479L468 315L100 314L111 389Z" />
<glyph unicode="G" horiz-adv-x="628" d="M397 703Q433 703 467 701T534 694T598 680L584 607Q553 610 522 611T461 613T406 614Q348 614 308 603T242 562T198 479T170 342Q159 243 164 184T196 100T272 75Q310 75 339 87T398 123T459 178L470 116Q448 88 423
65T370 23T308 -4T237 -13Q165 -13 122 24T65 141T66 348Q80 456 106 525T174 633T270 687T397 703ZM580 400L523 0H451L452 108L446 130L484 400H580Z" />
<glyph unicode="H" horiz-adv-x="670" d="M240 690L143 0H42L139 690H240ZM514 409L503 326H180L192 409H514ZM643 690L546 0H447L544 690H643Z" />
<glyph unicode="I" horiz-adv-x="267" d="M240 690L143 0H42L139 690H240Z" />
<glyph unicode="J" horiz-adv-x="344" d="M320 690L242 141Q232 67 193 29T89 -9Q74 -9 55 -7T19 -2T-10 5L8 74H54Q94 74 116 93T144 147L219 690H320Z" />
<glyph unicode="K" horiz-adv-x="600" d="M628 690L392 404Q382 391 370 380T343 358V354Q352 345 361 331T378 303L543 0H431L239 361L509 690H628ZM239 690L208 475Q204 444 197 416T178 358Q181 329 181 301T176 246L142 0H42L139 690H239ZM295 398L284 321H154L164
398H295Z" />
<glyph unicode="L" horiz-adv-x="513" d="M237 690L160 146Q157 117 168 100T214 83H462L459 5Q394 1 324 0T186 -1Q144 -1 113 15T68 64T61 143L136 690H237Z" />
<glyph unicode="M" horiz-adv-x="883" d="M797 690Q817 690 827 679T835 647L772 0H674L737 609H717L503 113Q496 96 486 89T457 81H375Q358 81 348 90T335 117L254 609H234L126 0H29L147 652Q151 671 161 680T190 690H295Q311 690 320 681T332 654L400 248Q405
224 407 201T412 153H430Q440 179 449 202T468 247L645 658Q652 675 663 682T690 689L797 690Z" />
<glyph unicode="N" horiz-adv-x="706" d="M679 690L586 37Q584 18 575 9T547 0H468Q451 0 443 9T428 33L260 499Q253 518 246 543T232 590H216Q216 567 214 544T209 496L140 0H42L133 653Q137 672 146 681T174 690H252Q269 690 277 681T291 657L455 204Q463 182
471 155T488 102H506Q507 129 509 154T515 205L581 690H679Z" />
<glyph unicode="O" horiz-adv-x="669" d="M387 703Q484 703 542 669T618 555T618 342Q605 241 581 173T519 63T428 5T299 -13Q202 -13 144 21T67 134T65 348Q80 447 103 514T163 624T256 684T387 703ZM382 616Q316 616 275 592T209 507T170 342Q156 239 163 181T203
99T302 74Q368 74 409 99T474 184T514 348Q530 454 523 512T481 593T382 616Z" />
<glyph unicode="P" horiz-adv-x="593" d="M377 699Q459 699 507 678T573 609T578 478Q566 390 539 344T461 281T331 264Q292 264 254 266T184 273T128 281T95 290L101 347Q155 347 213 347T327 347Q379 347 409 359T455 400T479 486Q487 538 479 566T446 605T374
616Q289 616 228 615T145 612L139 690Q177 694 211 696T283 698T377 699ZM239 690L142 0H42L139 690H239Z" />
<glyph unicode="Q" horiz-adv-x="669" d="M387 703Q484 703 542 669T618 555T618 342Q605 241 581 173T519 63T428 5T299 -13Q202 -13 144 21T67 134T65 348Q80 447 103 514T163 624T256 684T387 703ZM242 -42Q299 -70 364 -89T505 -119L466 -215Q386 -196 322
-166T205 -99L242 -42ZM382 616Q316 616 275 592T209 507T170 342Q156 239 163 181T203 99T302 74Q368 74 409 99T474 184T514 348Q530 454 523 512T481 593T382 616Z" />
<glyph unicode="R" horiz-adv-x="623" d="M377 699Q451 699 500 681T572 619T584 495Q577 444 559 408T510 350T429 322L428 317Q447 312 462 300T487 266T503 215L545 0H443L404 217Q397 255 380 270T329 285Q265 286 221 286T146 287T95 288L106 368H332Q381
369 411 380T459 419T483 498Q489 543 482 569T449 605T375 616Q288 616 228 615T145 614L139 690Q177 694 212 696T286 698T377 699ZM237 690L140 0H42L139 690H237Z" />
<glyph unicode="S" horiz-adv-x="564" d="M333 702Q384 701 438 697T541 681L532 610Q498 612 465 612T398 613T330 614Q298 614 273 613T230 603T201 575T184 519Q181 487 185 468T205 438T251 416L384 365Q437 345 464 319T498 257T499 169Q489 94 460 55T377
2T239 -12Q207 -12 151 -9T24 8L36 81Q95 79 132 78T194 76T239 76Q294 76 327 83T377 112T400 178Q404 211 400 229T379 259T334 281L198 333Q149 352 122 379T87 443T85 527Q92 585 112 620T163 672T237 696T333 702Z" />
<glyph unicode="T" horiz-adv-x="577" d="M394 690L297 0H197L294 690H394ZM613 690L602 604H63L75 690H613Z" />
<glyph unicode="U" horiz-adv-x="667" d="M646 690L586 265Q572 164 539 103T447 14T300 -13Q211 -13 156 15T80 105T75 269L133 690H234L174 265Q164 193 172 151T210 91T299 74Q358 74 395 92T454 153T487 269L545 690H646Z" />
<glyph unicode="V" horiz-adv-x="611" d="M652 690L352 26Q342 0 314 0H216Q203 0 194 9T183 30L68 690H169L250 152Q253 133 255 114T259 75H285Q292 94 299 114T315 154L547 690H652Z" />
<glyph unicode="W" horiz-adv-x="948" d="M975 690L745 27Q741 14 731 7T706 0H600Q585 0 575 9T564 32L532 537Q532 558 530 577T527 616H507Q500 596 494 575T480 534L309 28Q305 14 295 7T269 0H164Q149 0 139 9T127 31L82 690H184L210 162Q212 141 212 119T212
73H235Q243 97 250 120T264 165L434 659Q443 690 474 690H574Q588 690 597 680T607 656L645 161Q646 139 647 117T648 73H672Q678 94 685 118T699 163L871 690H975Z" />
<glyph unicode="X" horiz-adv-x="615" d="M193 690L322 347L93 0H-21L223 357L92 690H193ZM379 394L368 321H253L264 394H379ZM638 690L411 357L553 0H452L312 368L530 690H638Z" />
<glyph unicode="Y" horiz-adv-x="573" d="M619 690L322 231H231L62 690H164L263 404Q269 385 274 365T282 324H291Q297 343 308 366T331 406L510 690H619ZM335 299L293 0H192L235 299H335Z" />
<glyph unicode="Z" horiz-adv-x="565" d="M448 609L560 608L126 81L15 82L448 609ZM493 82L481 0H4L15 82H493ZM572 690L560 608H95L107 690H572Z" />
<glyph unicode="[" horiz-adv-x="329" d="M357 768L348 705H254Q247 705 241 700T233 687L124 -87Q122 -102 135 -102H235L226 -165H83Q58 -165 43 -151T31 -105L146 712Q149 738 166 753T210 768H357Z" />
<glyph unicode="\" horiz-adv-x="515" d="M154 690L443 -67H367L78 690H154Z" />
<glyph unicode="]" horiz-adv-x="329" d="M247 768Q273 768 288 751T300 708L185 -109Q182 -134 164 -149T121 -165H-26L-18 -102H76Q83 -102 89 -97T98 -83L206 690Q209 705 195 705H96L105 768H247Z" />
<glyph unicode="^" horiz-adv-x="433" d="M302 606L424 391L382 368L266 541H258L88 368L50 392L231 606H302Z" />
<glyph unicode="_" horiz-adv-x="439" d="M405 0L394 -70H-45L-34 0H405Z" />
<glyph unicode="`" horiz-adv-x="321" d="M129 725L305 578L271 535L80 659L129 725Z" />
<glyph unicode="a" horiz-adv-x="577" d="M300 500Q326 500 356 499T416 494T476 486T530 477L480 419Q428 421 387 422T321 423Q274 423 244 417T195 393T166 339T146 245Q136 174 137 136T153 84T201 70Q236 70 270 86T340 132T415 205L434 162Q410 114 371
75T283 12T177 -12Q118 -12 85 13T44 96T49 250Q61 333 81 383T132 458T204 492T300 500ZM433 478L530 477L463 0H387L393 114L382 123L433 478Z" />
<glyph unicode="b" horiz-adv-x="577" d="M386 500Q442 500 475 477T519 398T515 239Q504 159 484 110T436 34T368 -3T276 -13Q248 -13 217 -11T153 -3T90 8T34 24L87 74Q120 71 151 69T207 66T247 65Q294 65 323 71T369 97T397 152T416 246Q427 317 425 354T407
404T359 418Q321 418 267 386T148 295L130 336Q150 364 179 393T243 446T314 485T386 500ZM225 700L199 505Q194 471 188 442T171 382L179 370L130 19L34 24L129 700H225Z" />
<glyph unicode="c" horiz-adv-x="489" d="M308 500Q345 500 390 495T470 475L455 415Q421 418 384 419T323 420Q266 420 230 406T174 353T145 241Q135 169 143 133T181 83T265 69Q281 69 306 70T359 73T413 79L420 14Q381 0 336 -6T248 -12Q163 -12 113 14T47
97T44 248Q58 341 87 396T170 476T308 500Z" />
<glyph unicode="d" horiz-adv-x="576" d="M280 500Q336 500 398 493T507 475L484 421Q431 423 389 424T318 425Q271 425 242 419T194 394T165 340T146 245Q136 178 137 141T152 87T199 71Q250 72 299 103T413 198L432 153Q415 128 389 100T328 46T253 4T169 -12Q118
-12 87 13T45 96T48 250Q59 332 79 381T128 456T194 491T280 500ZM560 700L462 0H386L392 112L383 120L430 464L439 480Q439 506 441 530T447 582L464 700H560Z" />
<glyph unicode="e" horiz-adv-x="542" d="M315 500Q395 500 438 483T496 430T502 342Q495 295 473 267T413 226T315 207L75 185L84 252L309 274Q341 277 360 284T391 307T408 350Q413 384 403 400T369 420T305 423Q267 423 241 417T196 392T167 341T146 255Q134
177 144 137T185 82T264 68Q291 68 323 69T387 74T446 80L453 17Q427 6 391 0T317 -9T250 -12Q163 -12 115 16T50 104T45 255Q55 328 74 375T126 450T204 489T315 500Z" />
<glyph unicode="f" horiz-adv-x="381" d="M313 718Q330 718 356 717T409 715T455 710L440 641H344Q298 641 277 625T247 560L159 -57Q150 -125 112 -162T2 -200Q-21 -200 -51 -199T-118 -192L-103 -123H-29Q16 -123 37 -107T65 -42L152 575Q162 643 201 680T313
718ZM389 488L378 416H43L52 483L144 488H389Z" />
<glyph unicode="g" horiz-adv-x="579" d="M436 478L533 477L466 17Q460 -37 440 -79T385 -150T301 -194T185 -210Q172 -210 142 -210T77 -205T14 -193L23 -130Q44 -131 65 -131T113 -132T178 -131Q249 -129 302 -102T369 -6Q377 28 384 59T409 118L385 128L436
478ZM287 500Q328 500 371 497T456 489T531 477L482 419Q429 421 388 422T319 423Q272 423 243 417T195 392T167 339T148 245Q137 175 138 137T155 85T202 70Q237 71 271 86T341 132T417 205L436 164Q412 117 373 78T283 14T176 -11Q122 -11 89 13T45 94T50 250Q62
334 82 383T132 458T200 492T287 500Z" />
<glyph unicode="h" horiz-adv-x="582" d="M405 500Q467 500 499 466T522 365L470 0H373L422 340Q427 385 416 402T372 419Q326 419 279 390T165 309L163 374Q231 437 290 468T405 500ZM228 700L201 508Q196 467 187 426T169 360L177 347L129 0H32L131 700H228Z" />
<glyph unicode="i" horiz-adv-x="251" d="M201 488L133 0H37L105 488H201ZM202 697Q218 697 225 689T229 666L222 609Q218 582 191 582H147Q116 582 119 614L127 669Q130 697 158 697H202Z" />
<glyph unicode="j" horiz-adv-x="252" d="M201 488L132 -8Q126 -48 110 -84T67 -151T8 -203L-44 -158Q-9 -123 10 -87T36 -3L105 488H201ZM202 697Q218 697 225 689T229 666L222 609Q218 582 190 582H147Q116 582 119 614L127 669Q130 697 158 697H202Z" />
<glyph unicode="k" horiz-adv-x="529" d="M228 700L183 368Q179 334 171 305T148 243Q150 230 153 218T158 193L129 0H33L131 700H228ZM507 488Q484 414 443 362T349 274T242 213T135 165L128 241Q191 268 249 304T349 387T408 488H507ZM329 284Q342 268 353 250T373
212L469 0H366L255 255L329 284Z" />
<glyph unicode="l" horiz-adv-x="299" d="M229 700L149 136Q144 104 156 90T203 76H251L255 4Q245 -1 227 -3T191 -7T161 -9Q103 -9 73 24T50 118L132 700H229Z" />
<glyph unicode="m" horiz-adv-x="873" d="M175 488L170 364L177 350L129 0H32L101 488H175ZM381 500Q445 500 474 464T495 365L444 0H351L399 340Q404 381 393 400T343 419Q319 419 294 408T239 374T164 310L159 374Q221 439 274 469T381 500ZM697 500Q763 500
792 464T813 365L762 0H667L714 340Q720 385 706 402T659 419Q635 419 612 409T558 375T483 311L479 374Q541 440 592 470T697 500Z" />
<glyph unicode="n" horiz-adv-x="582" d="M406 500Q447 500 474 485T515 440T522 365L470 0H373L422 339Q427 385 416 402T371 419Q326 418 279 390T165 310L163 374Q230 436 289 468T406 500ZM178 488L171 361L177 347L129 0H32L101 488H178Z" />
<glyph unicode="o" horiz-adv-x="569" d="M309 500Q393 500 442 475T508 392T511 239Q498 147 469 92T386 12T248 -13Q165 -13 116 12T49 95T44 247Q57 339 86 395T170 475T309 500ZM309 422Q257 422 225 407T175 352T145 239Q135 172 141 134T173 81T249 66Q301
66 333 82T383 138T412 247Q422 316 416 353T384 406T309 422Z" />
<glyph unicode="p" horiz-adv-x="579" d="M389 500Q446 500 479 476T520 395T516 238Q504 156 485 106T436 31T367 -4T278 -13Q254 -13 225 -11T167 -6T109 2T58 13L80 67Q134 65 176 64T243 62Q291 62 321 68T370 94T398 148T418 243Q428 314 427 352T410 404T363
418Q339 418 304 403T229 359T150 290L132 333Q150 361 179 390T244 444T317 484T389 500ZM178 488L172 377L181 368L135 25L126 8Q125 -18 124 -41T118 -93L101 -201H3L102 488H178Z" />
<glyph unicode="q" horiz-adv-x="574" d="M281 500Q311 500 344 498T409 491T472 480T528 466L476 414Q442 419 412 420T356 423T312 424Q268 424 239 418T193 392T164 338T145 244Q136 176 137 138T154 86T203 71Q238 71 268 84T334 126T414 197L432 153Q406
116 367 78T280 14T173 -12Q122 -12 90 11T46 92T47 249Q59 329 78 379T126 455T193 490T281 500ZM431 469L528 466L433 -201H336L363 -18Q368 19 375 49T395 112L382 120L431 469Z" />
<glyph unicode="r" horiz-adv-x="403" d="M175 488L169 357L176 343L129 0H32L101 488H175ZM417 500L394 410H367Q325 410 279 384T165 310L161 371Q223 433 281 466T391 500H417Z" />
<glyph unicode="s" horiz-adv-x="510" d="M265 500Q300 500 338 498T411 492T475 485L463 418Q417 420 371 421T271 423Q230 423 205 421T167 409T152 376Q148 348 163 336T210 309L343 252Q381 237 404 219T437 176T442 112Q435 57 406 31T329 -3T211 -11Q166
-11 138 -9T83 -4T19 4L29 71Q52 69 79 69T134 68T187 67Q248 68 281 72T329 87T348 120Q351 139 344 149T323 167T286 184L152 241Q117 257 94 275T63 320T58 383Q64 431 88 456T157 491T265 500Z" />
<glyph unicode="t" horiz-adv-x="383" d="M255 631L186 136Q181 103 192 90T238 76H312L316 5Q299 0 277 -3T234 -7T201 -9Q137 -9 108 26T88 125L160 631H255ZM387 488L376 416H40L49 483L145 488H387Z" />
<glyph unicode="u" horiz-adv-x="571" d="M195 488L146 148Q140 106 153 88T201 70Q246 70 288 98T393 182L404 119Q339 53 282 20T165 -13Q97 -13 67 23T47 124L98 488H195ZM526 488L457 0H382L390 134L383 148L429 488H526Z" />
<glyph unicode="v" horiz-adv-x="538" d="M526 488Q516 439 502 389T470 294T437 212Q415 161 392 120T353 56Q340 36 326 24T293 6T248 0H166Q154 0 146 7T135 26L44 488H146L213 73H228Q246 73 258 79T283 105Q296 123 315 159T354 246Q382 310 397 365T425 488H526Z" />
<glyph unicode="w" horiz-adv-x="857" d="M144 488L206 73H218Q232 73 242 81T265 111Q277 133 290 167T317 244Q327 275 335 306T350 374T366 464Q368 475 375 481T393 488H494Q504 488 511 482T519 465L564 73H575Q589 73 598 83T616 108Q635 139 650 168T682
247Q704 304 718 363T743 488H843Q833 441 820 394T792 301T759 212Q738 164 716 122T677 56Q664 37 651 25T620 6T578 0H520Q508 0 500 7T490 26L449 426H436Q433 400 427 365T412 293T392 221Q384 193 374 165T352 113T330 70Q315 42 297 27T258 6T213 0H158Q146
0 138 7T128 26L45 488H144Z" />
<glyph unicode="x" horiz-adv-x="533" d="M156 488L271 243L85 0H-21L176 252L61 488H156ZM324 289L313 218H200L210 289H324ZM530 488L347 251L472 0H376L251 259L427 488H530Z" />
<glyph unicode="y" horiz-adv-x="547" d="M533 488Q523 444 512 401T488 316T458 233T423 153T383 74Q330 -22 279 -80T173 -166T52 -206L37 -140Q75 -131 108 -115T174 -72T237 -2T300 104Q331 165 355 223T398 345T432 488H533ZM145 488L215 91Q220 73 238 73H295L256
0H191Q169 0 154 13T134 46L43 488H145Z" />
<glyph unicode="z" horiz-adv-x="507" d="M364 413L476 412L127 74L14 75L364 413ZM432 75L421 0H5L15 75H432ZM486 488L475 412H67L77 488H486Z" />
<glyph unicode="{" horiz-adv-x="323" d="M345 768L341 707Q291 707 269 688T240 624L215 450Q210 409 200 385T168 347T108 327Q142 316 160 302T184 264T185 205L153 -25Q146 -68 161 -86T227 -104L223 -165Q161 -170 123 -156T69 -109T60 -29L96 223Q100 249
95 261T77 280T43 295L51 363Q76 371 89 377T110 397T122 441L150 636Q156 683 177 715T239 760T345 768Z" />
<glyph unicode="|" horiz-adv-x="248" d="M227 781L94 -169H24L157 781H227Z" />
<glyph unicode="}" horiz-adv-x="323" d="M105 768Q171 774 209 759T261 710T268 633L241 437Q237 406 239 393T254 374T290 361L281 293Q258 285 243 278T219 258T206 219L172 -33Q166 -80 145 -111T83 -156T-25 -165L-21 -104Q31 -104 52 -85T80 -22L113 210Q119
245 129 267T162 303T225 329Q191 336 173 349T150 388T151 455L176 629Q182 671 167 689T101 707L105 768Z" />
<glyph unicode="~" horiz-adv-x="520" d="M153 351Q179 350 205 342T257 323T306 304T351 293Q379 290 391 303T408 347L455 343Q454 281 429 251T366 223Q336 225 309 232T257 250T210 269T167 280Q139 284 127 270T111 224L63 228Q64 272 76 299T109 339T153 351Z" />
<glyph unicode="&#xa0;" horiz-adv-x="222" />
<glyph unicode="&#xa1;" horiz-adv-x="260" d="M167 283L151 100L110 -194H14L55 100L91 283H167ZM169 496Q188 496 196 487T201 459L194 405Q192 388 183 380T156 371H132Q93 371 100 408L106 462Q111 496 145 496H169Z" />
<glyph unicode="&#xa2;" horiz-adv-x="508" d="M322 604Q358 604 404 599T484 578L469 518Q435 521 398 522T336 524Q280 524 245 510T189 457T160 345Q151 274 159 237T196 186T278 172Q295 172 320 173T373 176T427 183L434 117Q395 104 350 98T261 91Q176 91
127 117T62 201T59 351Q73 444 102 499T185 579T322 604ZM272 137L240 0H197L229 137H272ZM368 551L274 135H231L324 551H368ZM402 690L368 549H325L359 690H402Z" />
<glyph unicode="&#xa3;" horiz-adv-x="571" d="M368 702Q401 702 450 700T554 692L543 614Q524 615 508 615T474 616T431 617T369 618Q310 618 284 596T252 516L233 266Q229 220 218 186T187 127T135 79Q151 82 168 83T201 84H494L483 0H17L28 85Q84 111 107 159T135
268L155 522Q161 581 177 616T220 670T284 695T368 702ZM449 392L438 336H62L69 392H449Z" />
<glyph unicode="&#xa4;" horiz-adv-x="594" d="M324 550Q385 550 427 524T489 452T502 349Q495 291 466 247T390 179T284 155Q226 155 184 180T121 251T107 355Q115 414 143 458T218 526T324 550ZM149 259L188 213L90 124L49 170L149 259ZM442 240L520 153L476
113L399 199L442 240ZM322 495Q256 495 214 456T165 350Q158 287 190 249T284 210Q328 210 362 227T417 278T444 356Q449 397 435 428T393 477T322 495ZM137 595L211 509L166 469L92 554L137 595ZM519 583L559 536L467 456L426 500L519 583Z" />
<glyph unicode="&#xa5;" horiz-adv-x="623" d="M644 690L348 239H257L88 690H189L289 411Q295 392 300 372T307 331H317Q323 350 335 373T358 414L535 690H644ZM361 306L317 0H217L261 306H361ZM522 212L514 156H69L75 212H522ZM538 326L530 270H85L91 326H538Z" />
<glyph unicode="&#xa6;" horiz-adv-x="248" d="M228 781L172 381H101L158 781H228ZM151 231L95 -169H24L80 231H151Z" />
<glyph unicode="&#xa7;" horiz-adv-x="544" d="M88 381L158 380Q149 338 149 309T160 260T202 220L359 123Q379 111 395 97T423 64T439 22T439 -35Q431 -93 403 -120T330 -156T225 -165Q196 -164 159 -163T82 -160T6 -153L18 -79Q66 -82 107 -83T200 -86Q238 -86
267 -83T314 -66T337 -25Q341 8 328 27T290 60L145 148Q99 175 80 208T64 283T88 381ZM311 703Q340 703 379 702T459 698T532 691L520 618Q493 620 469 621T415 622T337 623Q295 624 266 621T221 605T201 565Q196 533 209 514T249 479L395 390Q441 363 459 329T474
253T450 154L380 155Q389 197 389 227T377 280T335 321L179 418Q151 436 131 456T102 505T99 575Q106 629 133 657T205 694T311 703Z" />
<glyph unicode="&#xa8;" horiz-adv-x="413" d="M201 696Q216 696 221 690T224 672L215 615Q214 602 208 596T188 590H155Q130 590 133 614L141 671Q143 684 149 690T170 696H201ZM372 696Q387 696 391 690T394 672L386 615Q385 602 379 596T358 590H325Q301 590
304 614L312 672Q314 684 320 690T341 696H372Z" />
<glyph unicode="&#xa9;" horiz-adv-x="830" d="M461 703Q566 703 643 658T758 531T781 342Q768 239 716 159T578 33T382 -13Q301 -13 238 13T132 89T71 204T63 348Q76 450 128 530T265 656T461 703ZM462 565Q500 565 529 562T588 551L578 498Q547 499 520 500T466
501Q414 501 382 490T334 445T307 344Q300 286 305 254T334 208T401 194Q431 193 455 193T501 195T542 199L547 145Q515 137 482 133T410 129Q332 129 290 150T235 220T233 351Q245 433 270 479T341 545T462 565ZM464 655Q369 655 294 615T173 504T114 342Q104
249 134 180T229 74T381 36Q475 36 550 76T672 186T730 348Q742 438 712 507T619 615T464 655Z" />
<glyph unicode="&#xaa;" horiz-adv-x="446" d="M250 608Q289 608 335 604T415 591L379 548Q343 550 313 550T268 550Q228 550 205 544T171 513T151 437Q144 390 146 367T159 336T192 328Q222 328 257 349T331 408L346 378Q332 350 308 324T249 281T174 265Q135
264 110 280T77 335T76 440Q85 498 100 531T137 581T188 603T250 608ZM344 592L415 591L371 272H312L314 341L309 348L344 592Z" />
<glyph unicode="&#xab;" horiz-adv-x="484" d="M407 460L449 424L302 250L407 71L358 38L221 244L222 266L407 460ZM221 460L263 424L116 250L221 71L172 38L35 244L36 266L221 460Z" />
<glyph unicode="&#xac;" horiz-adv-x="585" d="M517 335L506 262H65L75 335H517ZM517 335L488 133H414L441 327L517 335Z" />
<glyph unicode="&#xad;" horiz-adv-x="441" d="M626 288L617 218H313L323 288H626Z" />
<glyph unicode="&#xae;" horiz-adv-x="548" d="M321 702Q384 702 432 676T505 599T522 476Q515 409 483 360T400 284T282 257Q214 257 166 286T94 366T78 485Q86 552 118 600T203 675T321 702ZM261 608L226 355H182L218 608H261ZM320 672Q227 672 174 618T111
480Q105 419 125 376T186 309T282 286Q342 286 386 311T458 380T490 484Q496 545 476 586T416 650T320 672ZM324 611Q354 611 377 606T412 585T419 534Q416 508 403 494T359 472V470Q369 466 375 458T385 432L404 355H358L340 433Q337 449 329 453T308 458Q273
458 254 458T224 459T205 460L207 490H306Q339 491 355 498T375 536Q378 563 366 570T324 578Q300 578 280 578T245 578T224 577L218 608Q245 610 267 610T324 611Z" />
<glyph unicode="&#xaf;" horiz-adv-x="400" d="M401 676L393 607H110L119 676H401Z" />
<glyph unicode="&#xb0;" horiz-adv-x="360" d="M228 703Q268 703 296 685T339 638T350 570Q345 514 306 480T209 446Q169 446 141 464T99 513T89 579Q94 634 132 668T228 703ZM225 648Q193 648 172 628T146 576Q143 542 161 521T213 500Q245 500 267 520T292 574Q295
606 278 627T225 648Z" />
<glyph unicode="&#xb1;" horiz-adv-x="582" d="M361 529L314 194H241L287 529H361ZM490 137L479 65H39L49 137H490ZM526 398L516 326H75L85 398H526Z" />
<glyph unicode="&#xb2;" horiz-adv-x="416" d="M275 774Q342 774 377 759T412 696Q412 665 398 638T361 586T312 537L179 423Q196 425 210 425T242 425L392 424L381 359H71L77 399Q79 408 82 416T93 431L231 549Q255 569 277 591T313 635T327 678Q327 699 310
704T262 710Q230 710 201 708T129 702L133 759Q180 769 215 771T275 774Z" />
<glyph unicode="&#xb3;" horiz-adv-x="407" d="M268 775Q339 775 371 759T403 703Q403 655 382 619T315 576V574Q353 569 368 550T384 500Q384 446 366 413T311 366T221 351Q180 351 142 354T71 363L83 419Q107 417 127 416T167 414T209 413Q259 413 283 432T308
498Q308 517 294 530T237 544H152L159 598L245 599Q287 599 306 618T326 675Q326 698 310 705T251 713Q218 713 186 712T131 707L134 762Q170 768 202 771T268 775Z" />
<glyph unicode="&#xb4;" horiz-adv-x="321" d="M297 727L340 653L128 535L100 579L297 727Z" />
<glyph unicode="&#xb5;" horiz-adv-x="588" d="M207 488L158 149Q153 111 167 94T218 77Q249 77 286 96T357 158T404 277L383 103Q362 69 332 43T266 2T191 -13Q144 -13 114 8T69 64T61 137L110 488H207ZM530 488L478 113Q474 88 477 75T500 61H540L539 5Q518
-1 495 -5T450 -10Q411 -10 392 10T379 77L382 102L381 116L434 488H530ZM147 75L127 -75L96 -195H14L67 184L147 75Z" />
<glyph unicode="&#xb6;" horiz-adv-x="590" d="M392 702Q427 702 472 698T552 685L541 629Q518 634 487 636T427 639T376 640L264 200Q180 207 131 237T64 322T58 458Q71 551 108 604T215 679T392 702ZM390 685L264 -210H193L319 685H390ZM552 685L456 0H385L482
685H552Z" />
<glyph unicode="&#xb7;" horiz-adv-x="236" d="M135 320Q154 320 162 311T167 283L160 230Q158 213 149 205T122 196H93Q55 196 59 233L67 288Q72 320 106 320H135Z" />
<glyph unicode="&#xb8;" horiz-adv-x="237" d="M45 -42Q85 -38 111 -42T150 -62T155 -111Q149 -154 123 -183T56 -224T-33 -230L-16 -182Q24 -183 53 -164T88 -112Q91 -96 81 -91T34 -85L45 -42Z" />
<glyph unicode="&#xb9;" horiz-adv-x="297" d="M290 768L232 359H157L200 662Q202 671 203 681T209 702L98 674L96 726L214 768H290Z" />
<glyph unicode="&#xba;" horiz-adv-x="440" d="M257 609Q350 609 383 569T403 432Q395 370 374 333T316 280T221 264Q131 264 96 304T74 440Q87 533 128 571T257 609ZM257 551Q221 551 200 541T167 504T149 432Q140 369 155 346T222 323Q273 323 296 347T329 440Q339
506 324 528T257 551Z" />
<glyph unicode="&#xbb;" horiz-adv-x="485" d="M65 36L23 72L170 246L65 425L114 458L251 252L250 230L65 36ZM251 36L209 72L356 246L251 425L300 458L437 252L436 230L251 36Z" />
<glyph unicode="&#xbc;" horiz-adv-x="867" d="M702 690L164 0H94L634 690H702ZM280 690L222 276H146L189 585Q191 596 192 606T198 626L85 597L84 647L204 690H280ZM690 414L539 172Q534 164 536 158T549 152H812L804 102L744 95H492Q475 95 463 104T448 128T458
163L617 414H690ZM786 335L739 0H670L706 267L728 335H786Z" />
<glyph unicode="&#xbd;" horiz-adv-x="884" d="M696 690L158 0H89L627 690H696ZM279 690L221 276H145L189 585Q191 596 192 606T198 626L85 597L84 647L204 690H279ZM684 421Q735 421 769 414T819 385T828 320Q824 288 801 256T731 183L586 64Q604 67 620 67T654
67L810 66L800 0H484L490 43Q492 53 494 61T504 75L644 194Q689 232 715 262T746 319Q752 346 734 352T681 358Q659 358 639 358T597 356T544 351L543 406Q593 417 626 419T684 421Z" />
<glyph unicode="&#xbe;" horiz-adv-x="957" d="M802 690L264 0H194L733 690H802ZM246 695Q332 695 363 674T386 596Q383 570 374 549T348 514T299 495L294 492Q342 485 357 458T368 385Q363 345 346 319T295 279T204 266Q165 266 127 269T53 277L58 333Q84 331
104 330T145 329T185 328Q239 328 263 345T293 403Q296 420 293 433T273 455T223 463H135L141 517H227Q260 518 277 528T302 553T311 585Q316 614 301 624T238 634Q205 634 173 633T115 631L113 685Q148 690 181 692T246 695ZM779 414L628 172Q623 164 625 159T638
153H901L894 102L833 95H581Q564 95 552 104T537 128T547 163L706 414H779ZM873 335L826 0H756L793 267L815 335H873Z" />
<glyph unicode="&#xbf;" horiz-adv-x="498" d="M299 287Q292 233 271 193T222 123T167 68T119 16T92 -42Q84 -87 108 -108T197 -129Q248 -129 281 -129T341 -126T399 -121V-190Q373 -194 351 -198T305 -205T251 -209T176 -211Q71 -211 25 -168T-12 -52Q-6 -8 16
24T68 83T130 138T186 202T219 287H299ZM298 501Q317 501 325 492T332 464L324 410Q322 392 313 385T286 377H263Q225 377 229 414L237 468Q241 501 275 501H298Z" />
<glyph unicode="&#xc0;" horiz-adv-x="625" d="M419 690Q433 690 442 682T453 661L578 0H478L385 554Q383 569 381 584T378 614H348Q342 601 336 585T322 554L74 0H-32L280 664Q284 678 294 684T317 690H419ZM489 293L479 209H127L138 293H489ZM259 917L435 770L401
727L210 851L259 917Z" />
<glyph unicode="&#xc1;" horiz-adv-x="625" d="M419 690Q433 690 442 682T453 661L578 0H478L385 554Q383 569 381 584T378 614H348Q342 601 336 585T322 554L74 0H-32L280 664Q284 678 294 684T317 690H419ZM489 293L479 209H127L138 293H489ZM509 919L552 845L340
727L312 771L509 919Z" />
<glyph unicode="&#xc2;" horiz-adv-x="625" d="M419 690Q433 690 442 682T453 661L578 0H478L385 554Q383 569 381 584T378 614H348Q342 601 336 585T322 554L74 0H-32L280 664Q284 678 294 684T317 690H419ZM489 293L479 209H127L138 293H489ZM429 899L554 765L520
729L398 829H390L240 730L213 771L362 899H429Z" />
<glyph unicode="&#xc3;" horiz-adv-x="625" d="M419 690Q433 690 442 682T453 661L578 0H478L385 554Q383 569 381 584T378 614H348Q342 601 336 585T322 554L74 0H-32L280 664Q284 678 294 684T317 690H419ZM489 293L479 209H127L138 293H489ZM310 883Q333 882
351 875T385 857T416 839T452 829Q481 825 494 839T511 881L556 877Q555 817 530 788T466 761Q441 763 422 770T386 788T354 806T322 817Q293 820 280 806T263 762L219 766Q221 829 247 857T310 883Z" />
<glyph unicode="&#xc4;" horiz-adv-x="625" d="M419 690Q433 690 442 682T453 661L578 0H478L385 554Q383 569 381 584T378 614H348Q342 601 336 585T322 554L74 0H-32L280 664Q284 678 294 684T317 690H419ZM489 293L479 209H127L138 293H489ZM325 873Q340 873
345 867T348 849L339 792Q338 779 332 773T312 767H279Q254 767 257 791L265 848Q267 861 273 867T294 873H325ZM496 873Q511 873 515 867T518 849L510 792Q509 779 503 773T482 767H449Q425 767 428 791L436 849Q438 861 444 867T465 873H496Z" />
<glyph unicode="&#xc5;" horiz-adv-x="625" d="M419 690Q433 690 442 682T453 661L578 0H478L385 554Q383 569 381 584T378 614H348Q342 601 336 585T322 554L74 0H-32L280 664Q284 678 294 684T317 690H419ZM489 293L479 209H127L138 293H489ZM396 928Q442 928
470 901T499 831Q499 781 467 748T383 715Q338 715 309 742T280 813Q280 862 313 895T396 928ZM395 881Q365 881 348 863T331 817Q331 793 345 778T385 762Q414 762 431 781T448 827Q448 851 434 866T395 881Z" />
<glyph unicode="&#xc6;" horiz-adv-x="916" d="M619 691Q715 691 784 690T922 685L908 608H656Q625 608 606 593T581 542L527 145Q523 112 535 97T580 82H835L831 5Q763 1 694 0T555 -1Q491 -1 457 36T432 139L490 555Q492 575 503 594T528 624H523Q509 616 493
600T459 560L63 0H-43L370 579Q393 613 417 634T469 668T534 685T619 691ZM480 300L468 218H163L182 302L480 300ZM482 401L841 400L831 325H470L482 401Z" />
<glyph unicode="&#xc7;" horiz-adv-x="569" d="M384 702Q429 702 462 700T521 694T575 680L560 606Q531 609 505 610T450 613T382 614Q333 614 299 602T239 560T198 477T170 342Q156 240 162 183T201 101T297 76Q364 76 408 79T496 87L501 11Q455 -2 409 -7T295
-12Q194 -12 138 25T64 142T65 348Q80 447 103 515T163 624T254 683T384 702ZM225 -55Q265 -51 291 -55T330 -75T335 -124Q329 -167 303 -196T236 -237T147 -243L164 -195Q204 -196 233 -177T268 -125Q271 -109 261 -104T214 -98L225 -55Z" />
<glyph unicode="&#xc8;" horiz-adv-x="561" d="M264 691Q315 691 367 691T470 690T566 685L553 608H281Q248 608 233 593T212 542L158 145Q153 112 165 97T211 82H478L476 5Q432 2 384 1T287 0T192 -1Q115 -1 81 37T56 141L116 570Q124 627 161 659T264 691ZM110
401H485L475 325H99L110 401ZM255 936L431 789L397 746L206 870L255 936Z" />
<glyph unicode="&#xc9;" horiz-adv-x="561" d="M264 691Q315 691 367 691T470 690T566 685L553 608H281Q248 608 233 593T212 542L158 145Q153 112 165 97T211 82H478L476 5Q432 2 384 1T287 0T192 -1Q115 -1 81 37T56 141L116 570Q124 627 161 659T264 691ZM110
401H485L475 325H99L110 401ZM505 938L548 864L336 746L308 790L505 938Z" />
<glyph unicode="&#xca;" horiz-adv-x="561" d="M264 691Q315 691 367 691T470 690T566 685L553 608H281Q248 608 233 593T212 542L158 145Q153 112 165 97T211 82H478L476 5Q432 2 384 1T287 0T192 -1Q115 -1 81 37T56 141L116 570Q124 627 161 659T264 691ZM110
401H485L475 325H99L110 401ZM425 918L550 784L516 748L394 848H386L236 749L209 790L358 918H425Z" />
<glyph unicode="&#xcb;" horiz-adv-x="561" d="M264 691Q315 691 367 691T470 690T566 685L553 608H281Q248 608 233 593T212 542L158 145Q153 112 165 97T211 82H478L476 5Q432 2 384 1T287 0T192 -1Q115 -1 81 37T56 141L116 570Q124 627 161 659T264 691ZM110
401H485L475 325H99L110 401ZM322 891Q337 891 342 885T345 867L336 810Q335 797 329 791T309 785H276Q251 785 254 809L262 866Q264 879 270 885T291 891H322ZM493 891Q508 891 512 885T515 867L507 810Q506 797 500 791T479 785H446Q422 785 425 809L433 867Q435
879 441 885T462 891H493Z" />
<glyph unicode="&#xcc;" horiz-adv-x="267" d="M240 690L143 0H42L139 690H240ZM78 917L254 770L220 727L29 851L78 917Z" />
<glyph unicode="&#xcd;" horiz-adv-x="267" d="M240 690L143 0H42L139 690H240ZM328 919L371 845L159 727L131 771L328 919Z" />
<glyph unicode="&#xce;" horiz-adv-x="267" d="M240 690L143 0H42L139 690H240ZM248 899L373 765L339 729L217 829H209L59 730L32 771L181 899H248Z" />
<glyph unicode="&#xcf;" horiz-adv-x="267" d="M240 690L143 0H42L139 690H240ZM145 873Q160 873 165 867T168 849L159 792Q158 779 152 773T132 767H99Q74 767 77 791L85 848Q87 861 93 867T114 873H145ZM316 873Q331 873 335 867T338 849L330 792Q329 779 323
773T302 767H269Q245 767 248 791L256 849Q258 861 264 867T285 873H316Z" />
<glyph unicode="&#xd0;" horiz-adv-x="666" d="M345 393L338 339H25L33 393H345ZM370 699Q477 699 537 666T615 554T614 342Q598 230 573 161T509 55T413 5T278 -9Q223 -9 161 -7T42 0L93 80Q134 78 186 77T277 75Q333 75 372 86T437 126T481 209T510 348Q522
431 521 483T504 564T455 604T368 616Q342 616 308 616T238 615T176 613L139 690Q173 693 214 695T296 698T370 699ZM239 690L142 0H42L139 690H239Z" />
<glyph unicode="&#xd1;" horiz-adv-x="706" d="M679 690L586 37Q584 18 575 9T547 0H468Q451 0 443 9T428 33L260 499Q253 518 246 543T232 590H216Q216 567 214 544T209 496L140 0H42L133 653Q137 672 146 681T174 690H252Q269 690 277 681T291 657L455 204Q463
182 471 155T488 102H506Q507 129 509 154T515 205L581 690H679ZM355 883Q378 882 396 875T430 857T461 839T497 829Q526 825 539 839T556 881L601 877Q600 817 575 788T511 761Q486 763 467 770T431 788T399 806T367 817Q338 820 325 806T308 762L264 766Q266
829 292 857T355 883Z" />
<glyph unicode="&#xd2;" horiz-adv-x="669" d="M387 703Q484 703 542 669T618 555T618 342Q605 241 581 173T519 63T428 5T299 -13Q202 -13 144 21T67 134T65 348Q80 447 103 514T163 624T256 684T387 703ZM382 616Q316 616 275 592T209 507T170 342Q156 239 163
181T203 99T302 74Q368 74 409 99T474 184T514 348Q530 454 523 512T481 593T382 616ZM274 917L450 770L416 727L225 851L274 917Z" />
<glyph unicode="&#xd3;" horiz-adv-x="669" d="M387 703Q484 703 542 669T618 555T618 342Q605 241 581 173T519 63T428 5T299 -13Q202 -13 144 21T67 134T65 348Q80 447 103 514T163 624T256 684T387 703ZM382 616Q316 616 275 592T209 507T170 342Q156 239 163
181T203 99T302 74Q368 74 409 99T474 184T514 348Q530 454 523 512T481 593T382 616ZM525 919L568 845L356 727L328 771L525 919Z" />
<glyph unicode="&#xd4;" horiz-adv-x="669" d="M387 703Q484 703 542 669T618 555T618 342Q605 241 581 173T519 63T428 5T299 -13Q202 -13 144 21T67 134T65 348Q80 447 103 514T163 624T256 684T387 703ZM382 616Q316 616 275 592T209 507T170 342Q156 239 163
181T203 99T302 74Q368 74 409 99T474 184T514 348Q530 454 523 512T481 593T382 616ZM445 899L570 765L536 729L414 829H406L256 730L229 771L378 899H445Z" />
<glyph unicode="&#xd5;" horiz-adv-x="669" d="M387 703Q484 703 542 669T618 555T618 342Q605 241 581 173T519 63T428 5T299 -13Q202 -13 144 21T67 134T65 348Q80 447 103 514T163 624T256 684T387 703ZM382 616Q316 616 275 592T209 507T170 342Q156 239 163
181T203 99T302 74Q368 74 409 99T474 184T514 348Q530 454 523 512T481 593T382 616ZM327 883Q350 882 368 875T402 857T433 839T469 829Q498 825 511 839T528 881L573 877Q572 817 547 788T483 761Q458 763 439 770T403 788T371 806T339 817Q310 820 297 806T280
762L236 766Q238 829 264 857T327 883Z" />
<glyph unicode="&#xd6;" horiz-adv-x="669" d="M387 703Q484 703 542 669T618 555T618 342Q605 241 581 173T519 63T428 5T299 -13Q202 -13 144 21T67 134T65 348Q80 447 103 514T163 624T256 684T387 703ZM382 616Q316 616 275 592T209 507T170 342Q156 239 163
181T203 99T302 74Q368 74 409 99T474 184T514 348Q530 454 523 512T481 593T382 616ZM342 873Q357 873 362 867T365 849L356 792Q355 779 349 773T329 767H296Q271 767 274 791L282 848Q284 861 290 867T311 873H342ZM513 873Q528 873 532 867T535 849L527 792Q526
779 520 773T499 767H466Q442 767 445 791L453 849Q455 861 461 867T482 873H513Z" />
<glyph unicode="&#xd7;" horiz-adv-x="525" d="M444 481L487 420L82 99L39 160L444 481ZM132 475L443 154L391 100L79 422L132 475Z" />
<glyph unicode="&#xd8;" horiz-adv-x="669" d="M561 753L605 729L125 -61L82 -36L561 753ZM387 703Q484 703 542 669T618 555T618 342Q605 241 581 173T519 63T428 5T299 -13Q202 -13 144 21T67 134T65 348Q80 447 103 514T163 624T256 684T387 703ZM382 616Q316
616 275 592T209 507T170 342Q156 239 163 181T203 99T302 74Q368 74 409 99T474 184T514 348Q530 454 523 512T481 593T382 616Z" />
<glyph unicode="&#xd9;" horiz-adv-x="667" d="M646 690L586 265Q572 164 539 103T447 14T300 -13Q211 -13 156 15T80 105T75 269L133 690H234L174 265Q164 193 172 151T210 91T299 74Q358 74 395 92T454 153T487 269L545 690H646ZM274 917L450 770L416 727L225
851L274 917Z" />
<glyph unicode="&#xda;" horiz-adv-x="667" d="M646 690L586 265Q572 164 539 103T447 14T300 -13Q211 -13 156 15T80 105T75 269L133 690H234L174 265Q164 193 172 151T210 91T299 74Q358 74 395 92T454 153T487 269L545 690H646ZM525 919L568 845L356 727L328
771L525 919Z" />
<glyph unicode="&#xdb;" horiz-adv-x="667" d="M646 690L586 265Q572 164 539 103T447 14T300 -13Q211 -13 156 15T80 105T75 269L133 690H234L174 265Q164 193 172 151T210 91T299 74Q358 74 395 92T454 153T487 269L545 690H646ZM445 899L570 765L536 729L414
829H406L256 730L229 771L378 899H445Z" />
<glyph unicode="&#xdc;" horiz-adv-x="667" d="M646 690L586 265Q572 164 539 103T447 14T300 -13Q211 -13 156 15T80 105T75 269L133 690H234L174 265Q164 193 172 151T210 91T299 74Q358 74 395 92T454 153T487 269L545 690H646ZM342 873Q357 873 362 867T365
849L356 792Q355 779 349 773T329 767H296Q271 767 274 791L282 848Q284 861 290 867T311 873H342ZM513 873Q528 873 532 867T535 849L527 792Q526 779 520 773T499 767H466Q442 767 445 791L453 849Q455 861 461 867T482 873H513Z" />
<glyph unicode="&#xdd;" horiz-adv-x="573" d="M619 690L322 231H231L62 690H164L263 404Q269 385 274 365T282 324H291Q297 343 308 366T331 406L510 690H619ZM335 299L293 0H192L235 299H335ZM470 919L513 845L301 727L273 771L470 919Z" />
<glyph unicode="&#xde;" horiz-adv-x="593" d="M359 568Q437 568 486 549T553 481T559 345Q547 260 520 213T444 147T320 129Q262 129 211 133T125 144T76 154L82 212Q137 212 195 212T308 212Q357 213 387 224T435 266T460 353Q468 406 461 435T429 475T356 486Q271
486 211 485T128 482L121 560Q161 564 194 565T265 567T359 568ZM239 690L142 0H42L139 690H239Z" />
<glyph unicode="&#xdf;" horiz-adv-x="678" d="M396 723Q483 723 534 710T603 667T615 585Q612 560 602 539T571 497T516 456Q490 442 467 430T428 403T409 368Q405 347 418 334T459 303L552 246Q593 219 611 191T622 111Q615 61 591 35T526 -1T426 -11Q394 -11
354 -9T266 0L276 71Q313 69 347 68T408 67Q446 67 470 71T508 88T525 125Q528 144 522 156T505 178T475 200L381 257Q346 278 329 306T316 371Q320 402 337 422T382 460T445 497Q469 513 486 526T512 553T523 587Q525 606 517 619T484 639T403 646Q348 646 315
637T266 603T243 532L160 -57Q153 -105 134 -136T81 -184T-3 -200Q-18 -200 -49 -199T-117 -192L-102 -123H-29Q16 -123 37 -107T66 -42L148 546Q156 605 176 639T227 692T300 717T396 723ZM190 488L179 416H42L51 482L144 488H190Z" />
<glyph unicode="&#xe0;" horiz-adv-x="577" d="M300 500Q326 500 356 499T416 494T476 486T530 477L480 419Q428 421 387 422T321 423Q274 423 244 417T195 393T166 339T146 245Q136 174 137 136T153 84T201 70Q236 70 270 86T340 132T415 205L434 162Q410 114
371 75T283 12T177 -12Q118 -12 85 13T44 96T49 250Q61 333 81 383T132 458T204 492T300 500ZM433 478L530 477L463 0H387L393 114L382 123L433 478ZM208 737L384 590L350 547L159 671L208 737Z" />
<glyph unicode="&#xe1;" horiz-adv-x="577" d="M300 500Q326 500 356 499T416 494T476 486T530 477L480 419Q428 421 387 422T321 423Q274 423 244 417T195 393T166 339T146 245Q136 174 137 136T153 84T201 70Q236 70 270 86T340 132T415 205L434 162Q410 114
371 75T283 12T177 -12Q118 -12 85 13T44 96T49 250Q61 333 81 383T132 458T204 492T300 500ZM433 478L530 477L463 0H387L393 114L382 123L433 478ZM458 739L501 665L289 547L261 591L458 739Z" />
<glyph unicode="&#xe2;" horiz-adv-x="577" d="M300 500Q326 500 356 499T416 494T476 486T530 477L480 419Q428 421 387 422T321 423Q274 423 244 417T195 393T166 339T146 245Q136 174 137 136T153 84T201 70Q236 70 270 86T340 132T415 205L434 162Q410 114
371 75T283 12T177 -12Q118 -12 85 13T44 96T49 250Q61 333 81 383T132 458T204 492T300 500ZM433 478L530 477L463 0H387L393 114L382 123L433 478ZM379 718L504 584L470 548L348 648H340L190 549L163 590L312 718H379Z" />
<glyph unicode="&#xe3;" horiz-adv-x="577" d="M300 500Q326 500 356 499T416 494T476 486T530 477L480 419Q428 421 387 422T321 423Q274 423 244 417T195 393T166 339T146 245Q136 174 137 136T153 84T201 70Q236 70 270 86T340 132T415 205L434 162Q410 114
371 75T283 12T177 -12Q118 -12 85 13T44 96T49 250Q61 333 81 383T132 458T204 492T300 500ZM433 478L530 477L463 0H387L393 114L382 123L433 478ZM261 703Q284 702 302 695T336 677T367 659T403 649Q432 645 445 659T462 701L507 697Q506 637 481 608T417 581Q392
583 373 590T337 608T305 626T273 637Q244 640 231 626T214 582L170 586Q172 649 198 677T261 703Z" />
<glyph unicode="&#xe4;" horiz-adv-x="577" d="M300 500Q326 500 356 499T416 494T476 486T530 477L480 419Q428 421 387 422T321 423Q274 423 244 417T195 393T166 339T146 245Q136 174 137 136T153 84T201 70Q236 70 270 86T340 132T415 205L434 162Q410 114
371 75T283 12T177 -12Q118 -12 85 13T44 96T49 250Q61 333 81 383T132 458T204 492T300 500ZM433 478L530 477L463 0H387L393 114L382 123L433 478ZM276 948Q291 948 296 942T299 924L290 867Q289 854 283 848T263 842H230Q205 842 208 866L216 923Q218 936 224
942T245 948H276ZM447 948Q462 948 466 942T469 924L461 867Q460 854 454 848T433 842H400Q376 842 379 866L387 924Q389 936 395 942T416 948H447Z" />
<glyph unicode="&#xe5;" horiz-adv-x="577" d="M300 500Q326 500 356 499T416 494T476 486T530 477L480 419Q428 421 387 422T321 423Q274 423 244 417T195 393T166 339T146 245Q136 174 137 136T153 84T201 70Q236 70 270 86T340 132T415 205L434 162Q410 114
371 75T283 12T177 -12Q118 -12 85 13T44 96T49 250Q61 333 81 383T132 458T204 492T300 500ZM433 478L530 477L463 0H387L393 114L382 123L433 478ZM345 747Q391 747 419 720T448 650Q448 600 416 567T332 534Q287 534 258 561T229 632Q229 681 262 714T345 747ZM344
700Q314 700 297 682T280 636Q280 612 294 597T334 581Q363 581 380 600T397 646Q397 670 383 685T344 700Z" />
<glyph unicode="&#xe6;" horiz-adv-x="877" d="M293 500Q333 501 376 497T460 488T536 474L484 417Q448 419 418 420T362 422T319 423Q273 423 243 417T195 392T167 338T147 245Q138 175 138 137T154 85T198 70Q234 70 267 86T336 132T410 205L428 163Q405 115
368 76T282 12T174 -12Q115 -12 83 14T43 98T48 250Q60 333 80 383T130 458T201 492T293 500ZM651 500Q731 500 774 483T831 430T838 342Q831 295 809 267T749 226T651 207L411 185L421 252L645 274Q676 277 696 284T727 307T743 350Q748 384 739 400T705 420T642
423Q603 423 577 417T532 392T502 341T482 255Q470 177 480 137T520 82T601 68Q626 68 657 69T721 74T778 80L785 17Q760 6 724 0T652 -9T585 -12Q500 -12 451 16T386 104T382 255Q392 328 411 375T461 450T540 489T651 500Z" />
<glyph unicode="&#xe7;" horiz-adv-x="489" d="M308 500Q345 500 390 495T470 475L455 415Q421 418 384 419T323 420Q266 420 230 406T174 353T145 241Q135 169 143 133T181 83T265 69Q281 69 306 70T359 73T413 79L420 14Q381 0 336 -6T248 -12Q163 -12 113 14T47
97T44 248Q58 341 87 396T170 476T308 500ZM180 -54Q220 -50 246 -54T285 -74T290 -123Q284 -166 258 -195T191 -236T102 -242L119 -194Q159 -195 188 -176T223 -124Q226 -108 216 -103T169 -97L180 -54Z" />
<glyph unicode="&#xe8;" horiz-adv-x="542" d="M315 500Q395 500 438 483T496 430T502 342Q495 295 473 267T413 226T315 207L75 185L84 252L309 274Q341 277 360 284T391 307T408 350Q413 384 403 400T369 420T305 423Q267 423 241 417T196 392T167 341T146 255Q134
177 144 137T185 82T264 68Q291 68 323 69T387 74T446 80L453 17Q427 6 391 0T317 -9T250 -12Q163 -12 115 16T50 104T45 255Q55 328 74 375T126 450T204 489T315 500ZM202 737L378 590L344 547L153 671L202 737Z" />
<glyph unicode="&#xe9;" horiz-adv-x="542" d="M315 500Q395 500 438 483T496 430T502 342Q495 295 473 267T413 226T315 207L75 185L84 252L309 274Q341 277 360 284T391 307T408 350Q413 384 403 400T369 420T305 423Q267 423 241 417T196 392T167 341T146 255Q134
177 144 137T185 82T264 68Q291 68 323 69T387 74T446 80L453 17Q427 6 391 0T317 -9T250 -12Q163 -12 115 16T50 104T45 255Q55 328 74 375T126 450T204 489T315 500ZM453 739L496 665L284 547L256 591L453 739Z" />
<glyph unicode="&#xea;" horiz-adv-x="542" d="M315 500Q395 500 438 483T496 430T502 342Q495 295 473 267T413 226T315 207L75 185L84 252L309 274Q341 277 360 284T391 307T408 350Q413 384 403 400T369 420T305 423Q267 423 241 417T196 392T167 341T146 255Q134
177 144 137T185 82T264 68Q291 68 323 69T387 74T446 80L453 17Q427 6 391 0T317 -9T250 -12Q163 -12 115 16T50 104T45 255Q55 328 74 375T126 450T204 489T315 500ZM373 718L498 584L464 548L342 648H334L184 549L157 590L306 718H373Z" />
<glyph unicode="&#xeb;" horiz-adv-x="542" d="M315 500Q395 500 438 483T496 430T502 342Q495 295 473 267T413 226T315 207L75 185L84 252L309 274Q341 277 360 284T391 307T408 350Q413 384 403 400T369 420T305 423Q267 423 241 417T196 392T167 341T146 255Q134
177 144 137T185 82T264 68Q291 68 323 69T387 74T446 80L453 17Q427 6 391 0T317 -9T250 -12Q163 -12 115 16T50 104T45 255Q55 328 74 375T126 450T204 489T315 500ZM270 948Q285 948 290 942T293 924L284 867Q283 854 277 848T257 842H224Q199 842 202 866L210
923Q212 936 218 942T239 948H270ZM441 948Q456 948 460 942T463 924L455 867Q454 854 448 848T427 842H394Q370 842 373 866L381 924Q383 936 389 942T410 948H441Z" />
<glyph unicode="&#xec;" horiz-adv-x="252" d="M202 488L133 0H36L105 488H202ZM301 737L477 590L443 547L252 671L301 737Z" />
<glyph unicode="&#xed;" horiz-adv-x="252" d="M202 488L133 0H36L105 488H202ZM552 739L595 665L383 547L355 591L552 739Z" />
<glyph unicode="&#xee;" horiz-adv-x="252" d="M202 488L133 0H36L105 488H202ZM472 718L597 584L563 548L441 648H433L283 549L256 590L405 718H472Z" />
<glyph unicode="&#xef;" horiz-adv-x="252" d="M202 488L133 0H36L105 488H202ZM369 948Q384 948 389 942T392 924L383 867Q382 854 376 848T356 842H323Q298 842 301 866L309 923Q311 936 317 942T338 948H369ZM540 948Q555 948 559 942T562 924L554 867Q553
854 547 848T526 842H493Q469 842 472 866L480 924Q482 936 488 942T509 948H540Z" />
<glyph unicode="&#xf0;" horiz-adv-x="560" d="M183 698Q242 700 295 689T392 650T463 574T502 453T499 279Q490 211 473 157T425 65T348 7T233 -13Q157 -13 111 12T48 90T42 222Q56 329 108 388T268 448Q291 448 315 444T363 429T408 397T447 341L440 302Q418
329 394 344T343 365T290 372Q241 372 211 354T165 301T142 216Q129 133 152 100T238 66Q291 66 323 90T372 164T400 292Q412 381 406 442T379 540T326 598T253 624T169 630L183 698ZM470 712L497 674L267 513L242 549L470 712Z" />
<glyph unicode="&#xf1;" horiz-adv-x="582" d="M406 500Q447 500 474 485T515 440T522 365L470 0H373L422 339Q427 385 416 402T371 419Q326 418 279 390T165 310L163 374Q230 436 289 468T406 500ZM178 488L171 361L177 347L129 0H32L101 488H178ZM264 703Q287
702 305 695T339 677T370 659T406 649Q435 645 448 659T465 701L510 697Q509 637 484 608T420 581Q395 583 376 590T340 608T308 626T276 637Q247 640 234 626T217 582L173 586Q175 649 201 677T264 703Z" />
<glyph unicode="&#xf2;" horiz-adv-x="569" d="M309 500Q393 500 442 475T508 392T511 239Q498 147 469 92T386 12T248 -13Q165 -13 116 12T49 95T44 247Q57 339 86 395T170 475T309 500ZM309 422Q257 422 225 407T175 352T145 239Q135 172 141 134T173 81T249
66Q301 66 333 82T383 138T412 247Q422 316 416 353T384 406T309 422ZM202 737L378 590L344 547L153 671L202 737Z" />
<glyph unicode="&#xf3;" horiz-adv-x="569" d="M309 500Q393 500 442 475T508 392T511 239Q498 147 469 92T386 12T248 -13Q165 -13 116 12T49 95T44 247Q57 339 86 395T170 475T309 500ZM309 422Q257 422 225 407T175 352T145 239Q135 172 141 134T173 81T249
66Q301 66 333 82T383 138T412 247Q422 316 416 353T384 406T309 422ZM453 739L496 665L284 547L256 591L453 739Z" />
<glyph unicode="&#xf4;" horiz-adv-x="569" d="M309 500Q393 500 442 475T508 392T511 239Q498 147 469 92T386 12T248 -13Q165 -13 116 12T49 95T44 247Q57 339 86 395T170 475T309 500ZM309 422Q257 422 225 407T175 352T145 239Q135 172 141 134T173 81T249
66Q301 66 333 82T383 138T412 247Q422 316 416 353T384 406T309 422ZM373 718L498 584L464 548L342 648H334L184 549L157 590L306 718H373Z" />
<glyph unicode="&#xf5;" horiz-adv-x="569" d="M309 500Q393 500 442 475T508 392T511 239Q498 147 469 92T386 12T248 -13Q165 -13 116 12T49 95T44 247Q57 339 86 395T170 475T309 500ZM309 422Q257 422 225 407T175 352T145 239Q135 172 141 134T173 81T249
66Q301 66 333 82T383 138T412 247Q422 316 416 353T384 406T309 422ZM254 703Q277 702 295 695T329 677T360 659T396 649Q425 645 438 659T455 701L500 697Q499 637 474 608T410 581Q385 583 366 590T330 608T298 626T266 637Q237 640 224 626T207 582L163 586Q165
649 191 677T254 703Z" />
<glyph unicode="&#xf6;" horiz-adv-x="569" d="M309 500Q393 500 442 475T508 392T511 239Q498 147 469 92T386 12T248 -13Q165 -13 116 12T49 95T44 247Q57 339 86 395T170 475T309 500ZM309 422Q257 422 225 407T175 352T145 239Q135 172 141 134T173 81T249
66Q301 66 333 82T383 138T412 247Q422 316 416 353T384 406T309 422ZM270 948Q285 948 290 942T293 924L284 867Q283 854 277 848T257 842H224Q199 842 202 866L210 923Q212 936 218 942T239 948H270ZM441 948Q456 948 460 942T463 924L455 867Q454 854 448 848T427
842H394Q370 842 373 866L381 924Q383 936 389 942T410 948H441Z" />
<glyph unicode="&#xf7;" horiz-adv-x="563" d="M509 331L497 259H56L67 331H509ZM274 176Q294 176 302 167T308 137L301 92Q299 74 290 66T262 58H237Q217 58 210 67T205 97L211 140Q214 159 223 167T249 176H274ZM324 530Q345 529 353 521T357 492L352 446Q349
428 340 420T312 412H288Q268 412 260 421T254 450L260 495Q263 514 272 522T300 530H324Z" />
<glyph unicode="&#xf8;" horiz-adv-x="569" d="M452 566L491 544L115 -77L77 -55L452 566ZM309 500Q393 500 442 475T508 392T511 239Q498 147 469 92T386 12T248 -13Q165 -13 116 12T49 95T44 247Q57 339 86 395T170 475T309 500ZM309 422Q257 422 225 407T175
352T145 239Q135 172 141 134T173 81T249 66Q301 66 333 82T383 138T412 247Q422 316 416 353T384 406T309 422Z" />
<glyph unicode="&#xf9;" horiz-adv-x="571" d="M195 488L146 148Q140 106 153 88T201 70Q246 70 288 98T393 182L404 119Q339 53 282 20T165 -13Q97 -13 67 23T47 124L98 488H195ZM526 488L457 0H382L390 134L383 148L429 488H526ZM206 741L382 594L348 551L157
675L206 741Z" />
<glyph unicode="&#xfa;" horiz-adv-x="571" d="M195 488L146 148Q140 106 153 88T201 70Q246 70 288 98T393 182L404 119Q339 53 282 20T165 -13Q97 -13 67 23T47 124L98 488H195ZM526 488L457 0H382L390 134L383 148L429 488H526ZM456 743L499 669L287 551L259
595L456 743Z" />
<glyph unicode="&#xfb;" horiz-adv-x="571" d="M195 488L146 148Q140 106 153 88T201 70Q246 70 288 98T393 182L404 119Q339 53 282 20T165 -13Q97 -13 67 23T47 124L98 488H195ZM526 488L457 0H382L390 134L383 148L429 488H526ZM376 723L501 589L467 553L345
653H337L187 554L160 595L309 723H376Z" />
<glyph unicode="&#xfc;" horiz-adv-x="571" d="M195 488L146 148Q140 106 153 88T201 70Q246 70 288 98T393 182L404 119Q339 53 282 20T165 -13Q97 -13 67 23T47 124L98 488H195ZM526 488L457 0H382L390 134L383 148L429 488H526ZM273 697Q288 697 293 691T296
673L287 616Q286 603 280 597T260 591H227Q202 591 205 615L213 672Q215 685 221 691T242 697H273ZM444 697Q459 697 463 691T466 673L458 616Q457 603 451 597T430 591H397Q373 591 376 615L384 673Q386 685 392 691T413 697H444Z" />
<glyph unicode="&#xfd;" horiz-adv-x="547" d="M533 488Q523 444 512 401T488 316T458 233T423 153T383 74Q330 -22 279 -80T173 -166T52 -206L37 -140Q75 -131 108 -115T174 -72T237 -2T300 104Q331 165 355 223T398 345T432 488H533ZM145 488L215 91Q220 73
238 73H295L256 0H191Q169 0 154 13T134 46L43 488H145ZM427 739L470 665L258 547L230 591L427 739Z" />
<glyph unicode="&#xfe;" horiz-adv-x="577" d="M388 500Q443 500 475 476T518 395T516 238Q504 157 484 108T435 32T368 -3T280 -13Q228 -13 167 -6T60 13L82 68Q135 67 177 66T244 64Q291 64 321 70T368 95T396 148T416 243Q426 314 425 351T410 403T363 418Q328
418 294 402T224 357T150 285L132 329Q156 375 194 413T283 476T388 500ZM228 700L203 521Q199 492 195 465T182 409L184 399L137 52L131 38Q130 10 127 -17T119 -74L101 -199H5L131 700H228Z" />
<glyph unicode="&#xff;" horiz-adv-x="547" d="M533 488Q523 444 512 401T488 316T458 233T423 153T383 74Q330 -22 279 -80T173 -166T52 -206L37 -140Q75 -131 108 -115T174 -72T237 -2T300 104Q331 165 355 223T398 345T432 488H533ZM145 488L215 91Q220 73
238 73H295L256 0H191Q169 0 154 13T134 46L43 488H145ZM243 948Q258 948 263 942T266 924L257 867Q256 854 250 848T230 842H197Q172 842 175 866L183 923Q185 936 191 942T212 948H243ZM414 948Q429 948 433 942T436 924L428 867Q427 854 421 848T400 842H367Q343
842 346 866L354 924Q356 936 362 942T383 948H414Z" />
<glyph unicode="&#x2013;" horiz-adv-x="585" d="M515 288L506 218H58L68 288H515Z" />
<glyph unicode="&#x2014;" horiz-adv-x="888" d="M818 288L808 218H58L68 288H818Z" />
<glyph unicode="&#x2018;" horiz-adv-x="217" d="M122 482Q104 482 97 490T92 517L101 575Q104 600 112 625T133 676T159 724L203 708Q194 680 186 655T171 595Q186 597 193 589T198 567L190 513Q187 495 179 489T149 482H122Z" />
<glyph unicode="&#x2019;" horiz-adv-x="216" d="M181 715Q199 715 206 707T211 680L202 621Q199 596 191 571T170 520T144 473L99 488Q109 516 117 542T132 601Q117 599 110 607T105 629L113 683Q116 701 124 708T154 715H181Z" />
<glyph unicode="&#x201a;" horiz-adv-x="228" d="M104 113Q122 113 129 106T134 79L125 20Q122 -4 114 -30T93 -81T67 -129L22 -113Q32 -85 40 -60T55 0Q40 -1 33 6T27 28L35 82Q39 101 47 107T77 113H104Z" />
<glyph unicode="&#x201c;" horiz-adv-x="374" d="M122 482Q104 482 97 490T92 517L101 575Q104 600 112 625T133 676T159 724L203 708Q194 680 186 655T171 595Q186 597 193 589T198 567L190 513Q187 495 179 489T149 482H122ZM279 482Q260 482 253 490T249 517L258
575Q261 600 269 625T289 676T316 724L360 708Q350 680 342 655T327 595Q343 597 349 589T354 567L346 513Q343 495 335 489T305 482H279Z" />
<glyph unicode="&#x201d;" horiz-adv-x="373" d="M337 715Q356 715 363 707T367 680L358 621Q355 596 347 571T326 520T300 473L256 488Q265 516 273 542T288 601Q273 599 266 607T262 629L269 683Q273 701 281 708T311 715H337ZM181 715Q199 715 206 707T211
680L202 621Q199 596 191 571T170 520T144 473L99 488Q109 516 117 542T132 601Q117 599 110 607T105 629L113 683Q116 701 124 708T154 715H181Z" />
<glyph unicode="&#x201e;" horiz-adv-x="385" d="M260 113Q279 113 286 106T290 79L281 20Q278 -5 270 -30T249 -81T223 -129L179 -113Q188 -85 196 -60T211 0Q196 -2 189 6T185 28L192 82Q196 100 204 106T234 113H260ZM104 113Q122 113 129 106T134 79L125 20Q122
-5 114 -30T93 -81T67 -129L23 -113Q32 -85 40 -60T55 0Q40 -2 33 6T28 28L36 82Q39 100 47 106T77 113H104Z" />
<glyph unicode="&#x2022;" horiz-adv-x="363" d="M197 362Q245 362 262 342T274 273L272 260Q268 225 258 207T228 181T175 173H162Q111 173 93 193T83 265L85 279Q89 312 99 329T130 354T184 362H197Z" />
<glyph unicode="&#x2039;" horiz-adv-x="298" d="M221 460L263 424L116 250L221 71L172 38L35 244L36 266L221 460Z" />
<glyph unicode="&#x203a;" horiz-adv-x="299" d="M114 460L251 255L250 233L65 38L23 73L170 249L66 428L114 460Z" />
</font>
</defs>
</svg>
