<?xml version="1.0" standalone="no"?>
<!DOCTYPE svg PUBLIC "-//W3C//DTD SVG 1.1//EN" "http://www.w3.org/Graphics/SVG/1.1/DTD/svg11.dtd">
<svg xmlns="http://www.w3.org/2000/svg">
<defs >
<font id="Exo2" horiz-adv-x="559" ><font-face
    font-family="Exo 2"
    units-per-em="1000"
    panose-1="0 0 0 0 0 0 0 0 0 0"
    ascent="999"
    descent="-201"
    alphabetic="0" />
<glyph unicode=" " horiz-adv-x="216" />
<glyph unicode="!" horiz-adv-x="301" d="M224 695V425L209 219H92L77 425V695H224ZM168 152Q197 152 208 141T220 100V52Q220 23 209 12T168 0H134Q104 0 93 11T82 52V100Q82 129 93 140T134 152H168Z" />
<glyph unicode="&quot;" horiz-adv-x="373" d="M321 690L312 468H223L214 690H321ZM160 690L151 468H61L52 690H160Z" />
<glyph unicode="#" horiz-adv-x="713" d="M347 690L227 0H115L235 690H347ZM598 690L478 0H366L486 690H598ZM680 515L662 426H75L92 515H680ZM638 286L620 197H33L50 286H638Z" />
<glyph unicode="$" horiz-adv-x="580" d="M295 703Q346 703 405 698T520 675L510 574Q467 575 409 576T294 577Q267 577 248 576T217 568T200 548T195 512Q195 477 211 461T269 432L398 389Q479 361 511 313T543 187Q543 128 530 89T486 28T408 -3T290 -13Q256
-13 194 -9T52 14L61 123Q119 122 162 121T236 119T289 119Q328 119 350 124T382 143T391 185Q391 209 385 223T364 246T324 262L187 310Q109 339 77 386T44 510Q44 570 58 607T102 666T181 695T295 703ZM262 358L311 357L269 -118H220L262 358ZM369 794L326 357L276
358L319 794H369Z" />
<glyph unicode="%" horiz-adv-x="908" d="M205 704Q269 704 307 685T361 620T377 498Q377 422 361 377T307 312T205 292Q142 292 105 312T51 377T34 498Q34 575 50 620T104 684T205 704ZM205 622Q181 622 168 612T150 576T144 498Q144 447 149 421T168 384T205
374Q230 374 243 384T261 420T267 498Q267 549 262 575T243 612T205 622ZM706 690L293 0H200L613 690H706ZM702 399Q766 399 803 380T857 316T873 194Q873 118 857 73T804 8T702 -12Q639 -12 602 7T548 72T531 194Q531 271 547 315T601 379T702 399ZM701 317Q677
317 664 308T645 272T640 194Q640 143 645 116T663 80T701 70Q726 70 739 79T758 116T764 194Q764 245 758 271T739 307T701 317Z" />
<glyph unicode="&amp;" horiz-adv-x="766" d="M341 702Q373 702 416 701T504 690L486 587Q474 588 457 588T420 589T379 590T337 590Q295 590 271 584T236 557T226 497Q226 461 234 441T263 413T320 405H713V306H312Q273 306 251 297T221 267T212 205Q212 167
219 146T247 117T303 108Q355 109 402 123T482 164L496 81Q467 48 434 27T360 -3T260 -12Q186 -12 140 6T72 65T51 176Q51 255 81 301T187 355V361Q124 367 98 406T72 520Q72 581 87 617T134 672T218 696T341 702ZM607 513V157Q607 130 618 118T655 106H717L734
8Q717 2 693 -2T645 -9T605 -12Q539 -12 504 22T468 116V360L482 513H607Z" />
<glyph unicode="&apos;" horiz-adv-x="212" d="M160 690L151 468H61L52 690H160Z" />
<glyph unicode="(" horiz-adv-x="366" d="M330 790L347 725Q258 685 221 580T183 313Q183 208 199 125T252 -14T347 -100L330 -165Q179 -117 109 -2T39 312Q39 511 109 627T330 790Z" />
<glyph unicode=")" horiz-adv-x="366" d="M36 790Q187 743 257 627T327 312Q327 114 257 -1T36 -165L19 -100Q78 -71 114 -15T166 125T183 313Q183 474 146 579T19 725L36 790Z" />
<glyph unicode="*" horiz-adv-x="453" d="M268 692L256 523L362 394L297 346L227 467L157 347L90 395L198 523L185 692H268ZM64 612L180 563L179 527L161 505L38 534L64 612ZM390 612L415 533L293 505L274 527L273 563L390 612Z" />
<glyph unicode="+" horiz-adv-x="537" d="M496 356V246H41V356H496ZM323 523V79H214L213 523H323Z" />
<glyph unicode="," horiz-adv-x="242" d="M137 152Q166 152 177 141T189 100V36Q189 -3 183 -35T165 -94T138 -147L78 -129Q86 -96 89 -66T93 0Q51 0 50 46L52 100Q53 129 64 140T104 152H137Z" />
<glyph unicode="-" horiz-adv-x="414" d="M356 302V208H58V302H356Z" />
<glyph unicode="." horiz-adv-x="244" d="M141 152Q170 152 181 141T193 100V52Q193 23 182 12T141 0H103Q74 0 63 11T51 52V100Q51 129 62 140T103 152H141Z" />
<glyph unicode="/" horiz-adv-x="553" d="M532 690L139 -73H21L414 690H532Z" />
<glyph unicode="0" horiz-adv-x="631" d="M315 704Q414 704 472 669T556 556T582 345Q582 213 557 135T473 21T315 -14Q216 -14 158 21T74 134T49 345Q49 477 74 555T157 669T315 704ZM314 584Q281 584 259 573T224 536T206 464T200 345Q200 274 205 227T224 154T259
117T314 106Q348 106 370 117T406 154T425 227T431 345Q431 417 426 463T407 536T371 573T314 584Z" />
<glyph unicode="1" horiz-adv-x="432" d="M340 690V0H188V489Q188 508 189 526T194 564L30 522L12 621L188 690H340Z" />
<glyph unicode="2" horiz-adv-x="581" d="M284 702Q356 702 408 690T489 642T518 541Q518 502 509 469T475 399T404 314L223 127Q248 131 273 132T325 134H538V0H44V82Q44 100 49 115T65 144L237 328Q298 391 330 440T362 525Q361 547 351 557T319 570T267 573Q232
573 202 573T137 570T56 564L50 678Q99 689 138 694T213 700T284 702Z" />
<glyph unicode="3" horiz-adv-x="567" d="M272 704Q354 704 403 690T475 640T498 543Q498 495 489 459T457 399T391 369V365Q462 354 489 311T517 192Q518 120 495 75T420 8T279 -14Q219 -14 158 -9T40 5L46 117Q86 114 117 113T178 110T237 109Q286 109 314 117T354
148T366 212Q366 244 358 265T326 298T259 309L128 308V409H259Q292 409 311 416T339 436T352 466T355 503Q354 536 345 553T312 576T246 582Q194 582 146 581T60 578L53 685Q109 695 163 699T272 704Z" />
<glyph unicode="4" horiz-adv-x="637" d="M356 690L190 293Q183 277 190 269T211 260H607V169L522 154H101Q73 154 53 169T27 209T31 259L212 690H356ZM523 556V0H382V446L407 556H523Z" />
<glyph unicode="5" horiz-adv-x="552" d="M490 690L485 575H198L190 445L291 434Q354 428 396 410T464 363T500 296T511 211Q511 166 500 126T463 54T389 6T269 -12Q221 -12 161 -7T38 9L52 126Q101 121 147 118T230 114Q283 114 310 125T347 158T360 215Q361
248 353 267T325 298T274 313T196 321L110 331Q89 334 76 348T64 384L81 690H490Z" />
<glyph unicode="6" horiz-adv-x="590" d="M341 702Q366 702 411 700T505 683L497 587Q471 588 449 588T402 589T341 589Q297 589 269 580T225 543T204 464T198 326Q198 257 201 213T214 145T247 111T308 101Q353 101 374 115T401 158T407 232Q407 276 399 301T370
336T309 346Q281 346 258 339T208 316T142 269L138 327Q171 377 201 404T267 442T353 453Q430 453 472 431T532 362T550 235Q550 174 541 128T505 50T431 4T306 -12Q231 -12 181 4T103 58T62 164T50 334Q50 454 68 527T122 638T213 689T341 702Z" />
<glyph unicode="7" horiz-adv-x="528" d="M443 690Q468 690 484 679T507 650T505 609L294 0H144L320 501Q326 518 333 534T350 566H33L26 690H443Z" />
<glyph unicode="8" horiz-adv-x="623" d="M312 702Q387 702 434 691T507 658T544 601T554 518Q554 478 544 444T511 387T451 360V356Q499 352 525 327T561 261T571 172Q571 106 550 65T473 6T312 -12Q209 -12 153 6T75 65T53 172Q53 221 63 261T99 326T173 356V360Q136
364 113 386T80 443T69 518Q69 566 79 601T116 658T190 691T312 702ZM314 307Q278 307 255 303T219 287T201 255T196 201Q196 163 205 141T240 111T313 102Q359 102 383 110T417 141T426 201Q426 234 421 254T404 286T370 302T314 307ZM313 596Q270 596 248 588T216
559T207 499Q207 462 216 443T248 416T315 409Q358 409 380 416T409 443T417 499Q417 538 409 559T379 588T313 596Z" />
<glyph unicode="9" horiz-adv-x="590" d="M286 702Q366 702 415 686T491 630T528 524T538 352Q538 235 522 163T472 53T383 2T248 -12Q221 -12 174 -10T71 7L79 104Q108 103 130 103T180 102T248 102Q293 102 321 113T364 152T385 231T391 360Q391 430 389 475T376
545T345 579T285 589Q241 589 220 575T192 532T185 457Q185 417 193 392T222 355T281 343Q309 343 331 350T380 375T446 421L450 363Q417 313 387 286T321 248T236 237Q161 237 119 264T59 341T41 454Q41 540 62 594T137 675T286 702Z" />
<glyph unicode=":" horiz-adv-x="257" d="M142 451Q171 451 182 440T194 399V351Q194 322 183 311T142 299H104Q75 299 64 310T52 351V399Q52 428 63 439T104 451H142ZM142 153Q171 153 182 142T194 101V53Q194 24 183 13T142 1H104Q75 1 64 12T52 53V101Q52 130
63 141T104 153H142Z" />
<glyph unicode=";" horiz-adv-x="257" d="M149 451Q178 451 189 440T201 399V351Q201 322 190 311T149 299H111Q82 299 71 310T59 351V399Q59 428 70 439T111 451H149ZM145 152Q174 152 185 141T197 100V36Q197 -3 191 -35T173 -94T146 -147L86 -129Q94 -96 97
-66T101 0Q59 0 58 46L60 100Q61 129 72 140T112 152H145Z" />
<glyph unicode="&lt;" horiz-adv-x="517" d="M460 524V408L165 301L460 195V79L39 243V358L460 524Z" />
<glyph unicode="=" horiz-adv-x="578" d="M519 457V352H59V457H519ZM519 243V138H59V243H519Z" />
<glyph unicode="&gt;" horiz-adv-x="516" d="M57 524L476 358V243L57 79V195L351 301L57 408V524Z" />
<glyph unicode="?" horiz-adv-x="521" d="M274 712Q383 712 436 675T489 557Q489 513 472 481T429 423T377 369T331 306T307 219H188Q186 272 199 311T233 381T277 435T314 482T332 527Q335 562 313 577T239 593Q189 593 157 593T98 591T37 588L32 687Q60 693
83 697T132 704T191 710T274 712ZM265 152Q294 152 305 141T316 100V52Q316 23 305 12T265 0H229Q200 0 189 11T178 52V100Q178 129 189 140T229 152H265Z" />
<glyph unicode="@" horiz-adv-x="760" d="M528 601Q612 601 657 565T703 435V135H594L582 204Q566 185 540 167T479 137T405 125Q365 125 333 139T281 180T262 248V296Q262 348 296 377T393 407H567V434Q567 466 553 480T499 494H376Q315 494 279 489T224 464T199
397T193 268Q193 200 197 157T214 89T252 55T317 42T418 40H702V-56Q632 -62 561 -65T419 -69Q321 -69 256 -62T151 -36T90 21T64 118T57 268Q57 356 62 415T86 511T139 567T232 594T376 601H528ZM567 337L443 332Q418 331 406 321T394 290V270Q394 246 407 235T446
223Q465 223 487 228T529 243T567 267V337Z" />
<glyph unicode="A" horiz-adv-x="653" d="M399 690Q418 690 432 679T452 650L652 0H496L355 507Q351 524 347 541T340 575H313Q310 559 307 542T298 507L157 0H0L201 650Q206 668 220 679T254 690H399ZM505 297V182H147V297H505Z" />
<glyph unicode="B" horiz-adv-x="640" d="M331 698Q421 698 474 683T552 628T576 518Q576 444 548 406T454 361V355Q534 348 566 302T598 172Q598 101 574 62T498 8T363 -8Q296 -8 247 -8T155 -5T69 0L84 106Q108 105 176 104T336 103Q378 103 402 111T435 140T445
202Q445 245 435 267T401 299T333 309H83V406H331Q368 407 389 414T420 441T429 497Q429 534 420 553T387 580T323 587Q267 587 224 587T147 587T84 584L69 690Q109 694 146 695T228 697T331 698ZM219 690V0H69V690H219Z" />
<glyph unicode="C" horiz-adv-x="588" d="M339 702Q388 702 422 700T486 692T546 678L534 566Q501 568 474 569T415 570T339 571Q288 571 260 551T219 482T207 345Q207 258 219 209T259 139T339 119Q408 119 455 121T548 128L561 16Q513 1 463 -5T339 -12Q232
-12 168 22T75 135T46 345Q46 477 74 555T167 667T339 702Z" />
<glyph unicode="D" horiz-adv-x="683" d="M340 700Q422 700 478 683T569 625T620 517T636 345Q636 242 620 174T570 65T479 8T340 -10Q261 -10 195 -7T69 0L133 113Q171 111 223 110T340 108Q391 108 420 128T462 201T475 345Q475 437 463 489T421 562T340 583Q279
583 231 583T137 582L69 690Q129 694 194 697T340 700ZM222 690V0H69V690H222Z" />
<glyph unicode="E" horiz-adv-x="578" d="M211 693Q267 693 324 693T436 690T539 683L532 572H267Q242 572 230 559T217 521V169Q217 144 229 131T267 118H532L539 7Q491 3 436 1T324 -2T211 -3Q145 -3 105 35T64 136V554Q64 617 104 655T211 693ZM82 413H495V305H82V413Z"
/>
<glyph unicode="F" horiz-adv-x="557" d="M216 693Q269 693 324 693T433 690T533 682L525 572H275Q248 572 234 559T220 521V0H67V552Q67 616 108 654T216 693ZM85 401H488V293H85V401Z" />
<glyph unicode="G" horiz-adv-x="648" d="M354 704Q399 704 436 701T506 693T572 678L560 567Q525 569 492 570T426 571T357 572Q314 572 286 563T240 530T216 460T208 343Q208 257 219 208T256 139T326 118Q356 118 381 124T427 140T466 161L482 89Q467 68 438
44T366 3T270 -14Q192 -14 143 23T70 139T47 346Q47 481 76 559T173 670T354 704ZM596 398V0H483L462 105L448 133V398H596Z" />
<glyph unicode="H" horiz-adv-x="691" d="M223 690V0H70V690H223ZM479 425V310H215V425H479ZM621 690V0H468V690H621Z" />
<glyph unicode="I" horiz-adv-x="292" d="M222 690V0H70V690H222Z" />
<glyph unicode="J" horiz-adv-x="372" d="M305 690V136Q305 64 264 26T147 -12Q129 -12 105 -10T57 -3T20 8L36 107H85Q153 107 153 163V690H305Z" />
<glyph unicode="K" horiz-adv-x="634" d="M617 690L437 412Q426 394 413 381T387 359V356Q401 348 417 332T443 298L629 0H458L245 361L452 690H617ZM222 690V495Q222 461 217 428T201 362Q209 331 215 299T222 238V0H70V690H222ZM300 412V306H176V412H300Z" />
<glyph unicode="L" horiz-adv-x="536" d="M220 690V174Q220 149 234 136T274 123H515L522 8Q451 0 374 -1T219 -3Q144 -3 106 37T67 141V690H220Z" />
<glyph unicode="M" horiz-adv-x="915" d="M776 690Q830 690 832 634L858 0H717L694 572H676L565 142Q556 94 505 94H409Q358 94 347 142L236 572H219L198 0H56L82 634Q84 690 139 690H282Q331 690 342 641L431 294Q437 270 441 246T450 196H463Q468 221 472 245T482
295L570 641Q580 690 630 690H776Z" />
<glyph unicode="N" horiz-adv-x="722" d="M653 690V55Q653 0 598 0H514Q489 0 476 11T452 46L261 408Q249 431 238 459T218 513H207Q210 486 212 459T214 404V0H69V635Q69 690 125 690H208Q232 690 244 679T269 644L454 293Q466 270 479 242T504 184H516Q513 214
512 242T510 299L509 690H653Z" />
<glyph unicode="O" horiz-adv-x="688" d="M344 704Q426 704 483 687T574 629T625 519T641 345Q641 241 625 172T575 62T483 4T344 -14Q262 -14 205 3T113 61T62 171T46 345Q46 449 62 518T113 628T205 686T344 704ZM344 583Q291 583 262 562T220 490T207 345Q207
253 219 201T261 128T344 107Q396 107 425 128T467 201T480 345Q480 438 468 489T426 562T344 583Z" />
<glyph unicode="P" horiz-adv-x="618" d="M334 700Q431 700 486 680T564 611T588 474Q588 386 566 337T492 269T354 249Q308 249 264 253T182 263T117 275T80 288L83 364Q142 364 205 364T331 364Q371 365 393 374T425 407T435 474Q435 518 426 542T394 575T331
585Q239 585 173 584T84 580L69 690Q111 695 148 697T228 699T334 700ZM222 690V0H69V690H222Z" />
<glyph unicode="Q" horiz-adv-x="688" d="M344 704Q426 704 483 687T575 629T625 519T641 345Q641 241 626 172T575 62T483 4T344 -14Q262 -14 205 3T113 61T63 171T47 345Q47 449 62 518T113 628T205 686T344 704ZM294 -34Q361 -61 434 -77T591 -106L551 -238Q461
-216 388 -183T258 -113L294 -34ZM344 583Q292 583 262 562T220 490T208 345Q208 253 220 201T262 128T344 107Q396 107 425 128T467 201T480 345Q480 438 468 489T426 562T344 583Z" />
<glyph unicode="R" horiz-adv-x="647" d="M335 700Q426 700 482 682T565 619T592 495Q592 447 580 411T538 352T459 324V319Q477 316 496 305T533 273T558 215L618 0H457L404 210Q395 244 378 257T329 270Q261 270 215 270T137 272T80 274L83 385H332Q372 385
395 393T428 424T438 485Q438 525 429 546T396 576T332 585Q238 585 173 584T84 581L69 690Q111 695 148 697T229 699T335 700ZM220 690V0H69V690H220Z" />
<glyph unicode="S" horiz-adv-x="586" d="M297 703Q348 703 408 698T525 675L515 574Q471 575 412 576T296 577Q268 577 249 576T217 568T200 548T195 512Q195 477 211 461T268 432L401 389Q484 361 516 313T548 187Q548 128 534 89T490 28T411 -3T291 -13Q257
-13 194 -9T50 14L60 122Q119 121 162 120T237 118T291 117Q331 117 353 122T385 142T394 185Q394 209 388 223T367 246T327 262L187 310Q108 339 75 386T42 510Q42 570 56 607T101 666T180 695T297 703Z" />
<glyph unicode="T" horiz-adv-x="602" d="M377 690V0H224V690H377ZM585 690V570H17V690H585Z" />
<glyph unicode="U" horiz-adv-x="686" d="M621 690V275Q621 170 595 107T510 15T351 -14Q246 -14 183 14T92 106T64 275V690H217V275Q217 210 228 174T268 122T343 107Q390 107 417 122T456 173T468 275V690H621Z" />
<glyph unicode="V" horiz-adv-x="640" d="M632 690L444 42Q439 24 425 12T390 0H250Q229 0 215 12T196 42L7 690H165L291 192Q295 173 299 154T307 115H333Q336 134 340 154T350 193L475 690H632Z" />
<glyph unicode="W" horiz-adv-x="976" d="M950 690L837 42Q834 24 819 12T783 0H640Q620 0 605 12T586 43L509 492Q506 515 503 537T497 582H478Q476 560 473 537T467 492L390 43Q387 24 372 12T336 0H192Q172 0 157 12T138 42L25 690H179L251 210Q254 188 256
163T260 110H279Q283 134 287 160T295 210L371 643Q374 664 389 677T425 690H551Q572 690 586 677T604 643L681 209Q685 185 689 160T696 110H716Q718 134 720 160T725 208L796 690H950Z" />
<glyph unicode="X" horiz-adv-x="644" d="M621 690L451 354L634 0H478L306 354L466 690H621ZM178 690L338 354L166 0H10L192 354L23 690H178ZM396 403V309H239V403H396Z" />
<glyph unicode="Y" horiz-adv-x="612" d="M611 690L378 219H234L0 690H159L275 436Q284 416 290 393T301 349H311Q317 370 323 393T337 436L452 690H611ZM382 312V0H229V312H382Z" />
<glyph unicode="Z" horiz-adv-x="586" d="M372 577L540 576L207 113L38 114L372 577ZM548 114V0H38V114H548ZM540 690V576H46V690H540Z" />
<glyph unicode="[" horiz-adv-x="346" d="M314 768V676H233Q215 676 215 657V-54Q215 -73 233 -73H314V-165H154Q119 -165 98 -148T76 -87V690Q76 725 97 746T154 768H314Z" />
<glyph unicode="\" horiz-adv-x="553" d="M139 690L532 -73H414L21 690H139Z" />
<glyph unicode="]" horiz-adv-x="346" d="M192 768Q226 768 248 747T270 690V-87Q270 -122 248 -143T192 -165H32V-73H113Q131 -73 131 -54V657Q131 676 113 676H32V768H192Z" />
<glyph unicode="^" horiz-adv-x="462" d="M285 627L432 402L374 370L236 535H228L88 370L30 402L178 627H285Z" />
<glyph unicode="_" horiz-adv-x="445" d="M445 0V-94H0V0H445Z" />
<glyph unicode="`" horiz-adv-x="354" d="M102 745L305 597L262 534L38 646L102 745Z" />
<glyph unicode="a" horiz-adv-x="570" d="M321 507Q383 507 426 491T491 435T514 326V0H396L375 107L365 122V327Q365 362 349 378T286 394Q248 394 191 392T74 385L60 483Q96 490 143 495T237 503T321 507ZM453 304L452 221L232 220Q205 220 194 207T182 172V148Q182
123 196 110T241 96Q267 96 297 107T358 138T411 185V121Q402 106 385 84T340 40T277 3T195 -12Q150 -12 114 4T57 51T36 128V179Q36 238 76 271T186 304H453Z" />
<glyph unicode="b" horiz-adv-x="594" d="M371 507Q469 507 511 448T554 251Q554 194 544 146T507 63T433 8T311 -12Q285 -12 251 -10T182 -3T114 9T59 27L177 112Q196 106 219 102T266 96T308 95Q342 96 362 109T392 156T401 250Q401 305 394 335T367 378T312
391Q279 391 252 377T192 340L181 410Q207 438 237 460T301 494T371 507ZM207 700L208 540Q208 506 205 475T192 413L206 400L207 20L59 27V700H207Z" />
<glyph unicode="c" horiz-adv-x="509" d="M290 507Q317 507 349 505T413 496T473 477L457 384Q417 385 381 386T315 387Q270 387 244 375T207 333T195 248Q195 193 206 162T244 119T315 107Q331 107 356 108T410 110T467 116L481 22Q441 4 390 -4T289 -12Q197
-12 143 13T64 96T40 248Q40 343 64 400T144 482T290 507Z" />
<glyph unicode="d" horiz-adv-x="597" d="M229 507Q281 507 329 492T415 443L405 375Q371 385 344 393T281 401Q250 401 231 390T203 347T194 252Q194 193 202 163T229 121T277 109Q303 109 322 114T360 131T403 160L414 87Q384 45 336 17T218 -12Q123 -12 83
56T42 251Q42 350 62 405T125 484T229 507ZM536 700V0H419L404 91L388 102V426L394 439Q391 470 390 501T388 566V700H536Z" />
<glyph unicode="e" horiz-adv-x="564" d="M294 507Q419 507 473 465T528 338Q529 270 494 237T373 203H97V286H332Q366 286 375 300T385 341Q384 376 365 389T299 403Q258 403 235 392T203 350T194 260Q194 198 205 165T242 118T316 105Q350 105 400 107T502 116L516
25Q487 11 450 3T374 -8T299 -12Q205 -12 148 15T65 100T39 246Q39 343 65 400T147 482T294 507Z" />
<glyph unicode="f" horiz-adv-x="404" d="M267 721Q285 721 314 720T374 717T427 710L414 615H320Q282 615 267 600T252 548V0H104V567Q104 614 119 648T171 701T267 721ZM390 494V397H18V489L107 494H390Z" />
<glyph unicode="g" horiz-adv-x="581" d="M280 507Q366 507 416 491T489 441T512 350Q512 295 490 261T417 210T279 194Q193 194 142 210T68 260T45 350Q45 406 67 440T142 491T280 507ZM279 416Q224 416 203 402T182 350Q182 313 203 298T279 283Q334 283 354
298T374 350Q374 387 354 401T279 416ZM569 494L561 431L429 414L393 494H569ZM130 224L204 211Q190 203 185 186T187 154T222 136L404 115Q482 107 514 72T546 -32Q546 -96 520 -130T437 -178T285 -191Q207 -191 157 -184T77 -159T36 -115T24 -46Q24 -15 35 7T72
48T147 81L220 107L273 86L233 60Q208 42 193 30T171 5T164 -27Q164 -50 174 -62T210 -79T283 -84Q331 -84 358 -80T395 -63T406 -29Q406 -10 399 -1T374 12T325 21L170 38Q131 42 109 59T79 100T74 150T92 195T130 224Z" />
<glyph unicode="h" horiz-adv-x="601" d="M404 507Q544 507 544 370V0H395V324Q395 357 384 369T343 382Q311 382 277 370T193 331L180 408Q235 456 292 481T404 507ZM208 700L209 529Q209 490 205 455T194 396L208 383V0H60V700H208Z" />
<glyph unicode="i" horiz-adv-x="276" d="M211 494V0H64V494H211ZM170 712Q214 712 214 667V614Q214 569 170 569H106Q62 569 62 614V667Q62 712 106 712H170Z" />
<glyph unicode="j" horiz-adv-x="277" d="M213 494V23Q213 -22 198 -64T154 -141T85 -196L3 -132Q37 -94 51 -58T65 23V494H213ZM170 717Q213 717 213 673V619Q213 574 170 574H105Q62 574 62 619V673Q62 717 105 717H170Z" />
<glyph unicode="k" d="M538 494L409 322Q400 308 386 295T363 276V272Q372 267 386 251T409 219L555 0H390L221 278L373 494H538ZM208 700L209 411Q209 376 205 343T193 278Q200 247 204 215T208 154V0H60V700H208ZM277 320V230H162V320H277Z" />
<glyph unicode="l" horiz-adv-x="328" d="M209 700L208 158Q208 133 223 121T267 108H307L324 8Q312 2 290 -2T245 -9T206 -12Q139 -12 100 23T61 121V700H209Z" />
<glyph unicode="m" horiz-adv-x="881" d="M686 507Q753 507 788 472T823 370V0H676V324Q676 355 664 368T622 382Q604 382 588 377T551 361T500 331L492 413Q540 460 586 483T686 507ZM178 494L193 396L208 383V0H60V494H178ZM378 507Q444 507 478 473T513 370V0H371V324Q371
356 358 369T316 382Q299 382 283 378T245 362T192 331L183 413Q232 460 278 483T378 507Z" />
<glyph unicode="n" horiz-adv-x="601" d="M404 507Q544 507 544 370V0H396V324Q396 357 384 369T343 382Q311 382 277 370T193 331L186 414Q239 459 294 483T404 507ZM179 494L196 396L208 383V0H60V494H179Z" />
<glyph unicode="o" horiz-adv-x="590" d="M295 507Q388 507 444 482T524 399T549 246Q549 152 525 95T444 13T295 -12Q203 -12 147 13T65 95T40 246Q40 342 65 399T146 481T295 507ZM295 399Q257 399 235 386T204 340T195 246Q195 186 204 153T235 108T295 95Q333
95 355 107T386 153T395 246Q395 307 386 340T355 386T295 399Z" />
<glyph unicode="p" horiz-adv-x="600" d="M385 506Q478 506 518 438T558 243Q558 144 538 88T476 10T372 -13Q319 -13 271 2T186 52L196 118Q229 108 256 101T319 93Q351 93 370 104T397 147T406 242Q406 303 398 335T372 380T325 393Q293 393 266 381T205 345L186
413Q206 440 237 461T307 494T385 506ZM180 494L194 404L208 389V68L203 56Q206 26 207 -6T208 -71V-190H60V494H180Z" />
<glyph unicode="q" horiz-adv-x="594" d="M285 507Q310 507 343 505T412 498T480 486T535 469L416 382Q399 388 376 392T329 399T287 400Q252 399 231 386T202 338T193 242Q193 168 210 139T277 109Q313 109 341 122T404 155L417 91Q394 65 363 42T296 3T218 -12Q124
-12 83 52T41 244Q41 304 51 353T88 436T163 488T285 507ZM387 475L535 469V-190H387V-42Q386 -8 390 24T402 85L387 98V475Z" />
<glyph unicode="r" horiz-adv-x="427" d="M176 494L194 396L208 383V0H60V494H176ZM417 507L403 370H362Q327 370 289 360T193 330L183 413Q235 459 288 483T391 507H417Z" />
<glyph unicode="s" horiz-adv-x="531" d="M248 507Q284 507 326 505T408 498T479 488L469 396Q421 397 373 397T278 398Q239 399 218 397T189 388T180 361Q180 339 195 332T245 315L374 284Q436 268 466 237T496 142Q496 80 473 47T400 2T271 -11Q240 -11 179
-8T45 7L55 99Q73 98 101 98T162 97T228 97Q279 97 306 99T343 111T353 138Q353 160 336 168T282 185L157 216Q110 229 84 249T48 298T37 367Q37 418 57 448T124 493T248 507Z" />
<glyph unicode="t" horiz-adv-x="410" d="M253 631V158Q253 131 265 120T307 108H371L387 8Q369 2 343 -2T291 -9T247 -12Q180 -12 143 24T105 125L104 631H253ZM391 494V397H18V489L114 494H391Z" />
<glyph unicode="u" horiz-adv-x="593" d="M205 494V169Q205 138 218 125T262 112Q293 112 323 123T399 160L411 79Q357 32 305 9T198 -14Q57 -14 57 124V494H205ZM532 494V0H415L398 97L384 111V494H532Z" />
<glyph unicode="v" horiz-adv-x="566" d="M558 494L395 35Q389 19 377 10T347 0H218Q201 0 189 9T170 35L7 494H164L255 185Q261 163 266 140T276 96H289Q295 118 300 140T312 185L401 494H558Z" />
<glyph unicode="w" horiz-adv-x="850" d="M834 494L712 39Q708 21 694 11T661 0H549Q529 0 514 12T496 45L442 323Q439 344 437 364T431 406H419Q416 385 413 365T407 323L353 45Q350 25 335 13T300 0H189Q170 0 156 10T138 39L16 494H165L233 174Q237 154 240
134T245 93H258Q261 113 264 133T271 174L325 449Q328 469 342 481T377 494H473Q493 494 507 482T525 448L578 174Q581 154 585 134T592 93H604Q608 114 610 133T617 174L685 494H834Z" />
<glyph unicode="x" horiz-adv-x="567" d="M546 494L403 253L557 0H407L261 253L396 494H546ZM171 494L306 253L161 0H10L164 253L21 494H171ZM362 301V209H206V301H362Z" />
<glyph unicode="y" horiz-adv-x="566" d="M557 494L380 -6Q368 -43 347 -80T293 -148T215 -193T107 -201L96 -117Q157 -101 191 -74T244 -3L275 66Q284 88 292 119T307 174L399 494H557ZM165 494L259 174Q263 155 267 136T274 98H301L254 0H218Q201 0 188 10T170
36L7 494H165Z" />
<glyph unicode="z" horiz-adv-x="526" d="M312 392L482 391L209 101L39 102L312 392ZM487 102V0H39V102H487ZM482 494V391H43V494H482Z" />
<glyph unicode="{" horiz-adv-x="339" d="M303 768V677Q259 677 243 665T227 615V464Q228 422 220 395T189 351T124 328Q166 316 189 299T221 256T231 196V-14Q231 -51 247 -62T307 -74V-165Q230 -175 182 -160T112 -109T89 -25V213Q89 237 84 248T66 266T34 280V376Q55
383 66 388T81 405T85 447V628Q85 678 107 712T178 762T303 768Z" />
<glyph unicode="|" horiz-adv-x="261" d="M183 781V-169H78V781H183Z" />
<glyph unicode="}" horiz-adv-x="340" d="M36 768Q114 778 162 763T232 713T254 628V447Q254 418 258 406T273 388T306 376V280Q286 272 274 266T256 249T250 213V-25Q250 -74 228 -109T158 -159T32 -165V-74Q77 -74 93 -63T109 -14V196Q110 231 119 256T151 298T215
328Q174 335 152 351T121 394T113 464V615Q113 653 97 665T36 677V768Z" />
<glyph unicode="~" horiz-adv-x="512" d="M142 362Q164 362 192 355T250 338T306 321T349 311Q374 308 380 319T386 357H452Q464 284 439 248T371 213Q347 214 319 221T261 237T206 254T163 264Q138 268 133 257T127 217H61Q53 268 63 300T94 348T142 362Z" />
<glyph unicode="&#xa0;" horiz-adv-x="216" />
<glyph unicode="&#xa1;" horiz-adv-x="284" d="M200 288L216 81V-185H69V81L84 288H200ZM160 507Q189 507 200 496T212 454V407Q212 377 201 366T160 355H126Q96 355 85 366T73 407V454Q73 484 84 495T126 507H160Z" />
<glyph unicode="&#xa2;" horiz-adv-x="525" d="M291 608Q317 608 349 605T415 596T475 577L459 488Q418 491 382 491T316 492Q266 492 238 480T197 437T185 348Q185 291 197 260T237 216T316 203Q332 203 357 203T411 206T469 212L483 123Q442 104 391 97T290
89Q198 89 143 114T64 196T39 348Q39 444 63 500T143 582T291 608ZM312 154L295 0H245L262 154H312ZM351 523L314 153H263L301 523H351ZM372 690L353 522H303L321 690H372Z" />
<glyph unicode="&#xa3;" horiz-adv-x="586" d="M318 703Q339 703 372 702T444 699T524 693L517 580Q500 580 487 580T456 581T410 582T336 582Q292 582 275 566T260 509L279 284Q282 238 274 207T248 155T206 115Q225 120 244 120T282 121H547V0H50V121Q102 147
116 189T127 284L111 515Q107 573 119 610T157 667T223 695T318 703ZM460 403L457 324H47L45 403H460Z" />
<glyph unicode="&#xa4;" horiz-adv-x="584" d="M291 471Q260 471 234 455T191 412T175 353Q175 320 191 293T233 251T291 235Q323 235 349 250T392 293T408 353Q408 385 392 412T350 455T291 471ZM114 592L199 506L138 445L52 530L114 592ZM472 592L534 530L451
447L389 509L472 592ZM140 270L206 203L114 111L48 178L140 270ZM443 262L534 172L472 111L382 200L443 262ZM291 555Q348 555 393 528T466 454T494 352Q494 296 467 250T393 177T292 149Q236 149 190 176T117 250T89 352Q89 408 116 454T190 527T291 555Z" />
<glyph unicode="&#xa5;" horiz-adv-x="664" d="M637 690L404 230H260L27 690H184L300 444Q310 424 316 401T328 357H338Q344 378 350 401T365 444L479 690H637ZM409 323V0H256V323H409ZM571 219V143H97L95 219H571ZM571 341V264H97L95 341H571Z" />
<glyph unicode="&#xa6;" horiz-adv-x="263" d="M184 781V381H79V781H184ZM184 231V-169H79V231H184Z" />
<glyph unicode="&#xa7;" horiz-adv-x="555" d="M171 359Q169 319 174 295T197 253T247 217L406 130Q431 116 454 98T492 50T508 -31Q508 -93 482 -125T405 -169T284 -180Q258 -179 219 -178T136 -174T57 -168L67 -63Q96 -64 121 -65T174 -66T241 -67Q276 -67 299
-65T335 -54T349 -26Q352 0 336 15T296 42L157 114Q102 142 77 176T51 256T67 359H171ZM272 704Q298 704 338 703T421 699T498 692L488 587Q462 589 439 589T387 590T315 590Q280 591 256 589T220 578T206 551Q203 525 219 510T260 483L399 411Q455 383 479 348T504
269T488 166H384Q386 205 381 229T358 272T308 308L149 396Q125 410 102 428T63 476T47 556Q47 616 72 648T148 692T272 704Z" />
<glyph unicode="&#xa8;" horiz-adv-x="424" d="M328 707Q360 707 360 675V616Q360 584 328 584H279Q248 584 248 616V675Q248 707 279 707H328ZM145 707Q176 707 176 675V616Q176 584 145 584H96Q65 584 65 616V675Q65 707 96 707H145Z" />
<glyph unicode="&#xa9;" horiz-adv-x="809" d="M405 704Q480 704 545 678T660 603T738 489T766 345Q766 267 738 201T661 87T546 13T405 -14Q329 -14 263 12T148 87T71 201T43 345Q43 423 71 489T148 603T263 677T405 704ZM409 554Q457 554 486 551T546 539L536
461Q504 461 478 461T408 462Q377 462 359 452T335 417T328 346Q328 301 334 276T359 241T408 231Q454 231 485 231T547 235L555 157Q523 148 491 144T409 139Q338 139 295 159T233 224T214 346Q214 423 233 468T295 534T409 554ZM404 632Q345 632 294 611T203
551T141 460T118 345Q118 283 140 231T202 140T294 80T404 58Q464 58 516 79T607 139T668 230T691 345Q691 407 669 459T607 550T516 610T404 632Z" />
<glyph unicode="&#xaa;" horiz-adv-x="437" d="M248 615Q312 615 346 589T381 490V275H294L279 347L273 358V491Q273 512 262 522T224 533Q194 533 155 532T74 527L64 600Q88 604 120 607T186 613T248 615ZM337 478L336 431L189 419Q169 418 161 411T152 390V377Q152
361 162 353T192 345Q212 345 233 353T273 375T306 403V362Q300 351 288 335T257 303T212 277T154 267Q109 267 78 290T47 358V394Q47 433 74 455T149 478H337Z" />
<glyph unicode="&#xab;" horiz-adv-x="519" d="M399 465L477 415L371 251L478 82L400 32L240 235V267L399 465ZM191 465L269 415L163 251L270 82L192 32L32 235V267L191 465Z" />
<glyph unicode="&#xac;" horiz-adv-x="580" d="M518 356V251H57V356H518ZM518 346V135H407V340L518 346Z" />
<glyph unicode="&#xad;" horiz-adv-x="414" d="M356 302V208H58V302H356Z" />
<glyph unicode="&#xae;" horiz-adv-x="523" d="M262 703Q324 703 374 673T454 593T484 481Q484 419 454 369T374 288T262 258Q200 258 150 288T69 368T39 481Q39 543 69 593T149 673T262 703ZM225 600V367H162V600H225ZM262 660Q213 660 173 636T108 571T83 481Q83
432 107 391T172 326T262 302Q311 302 351 326T415 391T439 481Q439 530 415 570T351 635T262 660ZM269 603Q323 603 347 589T372 534Q372 512 360 497T318 477V476Q329 475 341 468T358 440L381 367H315L296 437Q291 449 285 452T266 456Q224 456 203 456T167
457L168 496H266Q291 497 300 503T308 527Q309 546 300 552T266 558Q231 558 205 558T169 556L162 600Q188 602 209 602T269 603Z" />
<glyph unicode="&#xaf;" horiz-adv-x="400" d="M350 693V599H50V693H350Z" />
<glyph unicode="&#xb0;" horiz-adv-x="344" d="M172 704Q209 704 240 686T289 638T308 571Q308 534 290 503T240 454T172 436Q135 436 104 454T55 503T36 571Q36 607 54 637T104 685T172 704ZM173 632Q147 632 129 615T111 570Q111 553 119 539T142 516T173 508Q189
508 202 516T224 538T233 570Q233 598 216 615T173 632Z" />
<glyph unicode="&#xb1;" horiz-adv-x="573" d="M514 428V319H59V428H514ZM514 154V44H59V154H514ZM341 549V199H232V549H341Z" />
<glyph unicode="&#xb2;" horiz-adv-x="423" d="M201 777Q256 777 293 769T348 738T366 670Q366 644 348 613T294 548L188 451Q205 455 218 456T249 456L380 454L379 360H47V417Q47 431 50 442T63 463L163 557Q187 579 203 596T230 628T242 655Q245 673 231 678T190
683Q158 683 129 682T55 679L51 764Q99 773 138 775T201 777Z" />
<glyph unicode="&#xb3;" horiz-adv-x="409" d="M201 779Q286 779 320 759T354 683Q354 638 339 612T279 579V577Q328 570 346 546T366 474Q367 408 330 380T204 351Q163 351 122 354T44 363L48 445Q76 443 96 443T134 442T173 441Q219 441 234 451T249 489Q249
503 245 513T227 528T187 534L101 535V607L187 610Q213 610 225 616T240 631T243 653Q243 675 231 682T181 689Q147 689 114 689T56 687L52 766Q90 772 127 775T201 779Z" />
<glyph unicode="&#xb4;" horiz-adv-x="353" d="M247 739L311 639L88 528L44 591L247 739Z" />
<glyph unicode="&#xb5;" horiz-adv-x="607" d="M208 494V181Q208 140 222 127T263 114Q294 114 321 135T365 196T384 289L387 93Q373 64 349 40T294 2T226 -13Q180 -13 143 1T83 47T60 131V494H208ZM207 101V-70L189 -190H60V184L207 101ZM531 494V135Q531 119
533 108T540 92T558 86H589L595 10Q572 1 543 -5T483 -12Q441 -12 414 10T387 79V93L384 109V494H531Z" />
<glyph unicode="&#xb6;" horiz-adv-x="607" d="M352 702Q387 702 435 699T523 685L517 600Q492 605 460 607T396 611T340 612L272 200Q142 210 86 268T30 450Q30 543 62 598T165 677T352 702ZM359 685V-210H262V685H359ZM523 685V0H427V685H523Z" />
<glyph unicode="&#xb7;" horiz-adv-x="251" d="M144 334Q173 334 184 323T196 282V234Q196 205 185 194T144 182H106Q77 182 66 193T54 234V282Q54 311 65 322T106 334H144Z" />
<glyph unicode="&#xb8;" horiz-adv-x="249" d="M81 -38Q132 -32 164 -34T211 -52T225 -103Q223 -153 196 -185T124 -231T24 -237L41 -175Q78 -176 103 -163T131 -116Q133 -101 121 -98T67 -94L81 -38Z" />
<glyph unicode="&#xb9;" horiz-adv-x="308" d="M243 771V360H129V630Q129 642 130 654T133 679L31 657L18 730L129 771H243Z" />
<glyph unicode="&#xba;" horiz-adv-x="439" d="M220 615Q317 615 357 576T397 439Q397 377 380 339T324 284T220 267Q122 267 83 305T43 439Q43 536 82 575T220 615ZM220 537Q183 537 170 518T156 440Q156 382 169 363T220 344Q257 344 270 363T283 440Q283 499
270 518T220 537Z" />
<glyph unicode="&#xbb;" horiz-adv-x="519" d="M119 465L278 267V235L118 32L40 82L147 251L41 415L119 465ZM327 465L486 267V235L327 32L249 82L355 251L250 415L327 465Z" />
<glyph unicode="&#xbc;" horiz-adv-x="904" d="M664 690L247 0H154L570 690H664ZM251 690V276H137V549Q137 561 138 573T142 598L41 577L28 649L137 690H251ZM709 414L607 180Q604 172 607 168T620 164H871V96L820 86H536Q509 86 494 105T492 151L607 414H709ZM824
333V0H719V269L738 333H824Z" />
<glyph unicode="&#xbd;" horiz-adv-x="915" d="M661 690L244 0H150L567 690H661ZM251 690V276H137V549Q137 561 138 573T142 598L41 577L28 649L137 690H251ZM696 421Q752 421 789 413T844 382T862 314Q862 288 844 257T790 192L683 92Q700 96 714 97T745 97L876
95L875 0H543V59Q543 73 546 84T559 105L659 199Q694 232 714 257T739 300Q741 318 727 322T685 327Q652 327 624 327T551 324L547 408Q596 417 634 419T696 421Z" />
<glyph unicode="&#xbe;" horiz-adv-x="986" d="M753 690L336 0H242L658 690H753ZM200 696Q287 696 320 676T354 599Q354 555 339 528T277 494V492Q328 485 346 461T365 388Q367 322 331 294T203 265Q163 265 122 268T43 276L47 358Q75 357 95 357T134 356T172
355Q218 355 233 365T249 404Q249 420 245 430T227 445T187 451L101 452V522L187 524Q213 524 225 530T240 546T243 569Q243 592 231 599T180 606Q145 607 113 607T56 605L52 684Q90 690 126 693T200 696ZM792 414L690 180Q687 172 691 168T704 164H954V96L903
86H619Q592 86 577 105T575 151L689 414H792ZM906 333V0H801V269L819 333H906Z" />
<glyph unicode="&#xbf;" horiz-adv-x="516" d="M331 290Q333 237 320 198T285 128T242 74T205 27T187 -19Q184 -53 206 -68T280 -84Q331 -84 362 -84T421 -82T482 -79L487 -179Q458 -184 435 -188T387 -196T328 -201T245 -203Q137 -203 84 -165T30 -48Q30 -4 47
28T90 86T142 141T188 204T212 290H331ZM289 509Q319 509 330 498T341 457V408Q341 379 330 368T289 357H255Q225 357 214 368T203 408V457Q203 486 214 497T255 509H289Z" />
<glyph unicode="&#xc0;" horiz-adv-x="653" d="M399 690Q418 690 432 679T452 650L652 0H496L355 507Q351 524 347 541T340 575H313Q310 559 307 542T298 507L157 0H0L201 650Q206 668 220 679T254 690H399ZM505 297V182H147V297H505ZM203 941L406 793L363 730L139
842L203 941Z" />
<glyph unicode="&#xc1;" horiz-adv-x="653" d="M399 690Q418 690 432 679T452 650L652 0H496L355 507Q351 524 347 541T340 575H313Q310 559 307 542T298 507L157 0H0L201 650Q206 668 220 679T254 690H399ZM505 297V182H147V297H505ZM443 935L507 835L284 724L240
787L443 935Z" />
<glyph unicode="&#xc2;" horiz-adv-x="653" d="M399 690Q418 690 432 679T452 650L652 0H496L355 507Q351 524 347 541T340 575H313Q310 559 307 542T298 507L157 0H0L201 650Q206 668 220 679T254 690H399ZM505 297V182H147V297H505ZM382 910L516 776L477 723L333
818H325L178 723L139 780L275 910H382Z" />
<glyph unicode="&#xc3;" horiz-adv-x="653" d="M399 690Q418 690 432 679T452 650L652 0H496L355 507Q351 524 347 541T340 575H313Q310 559 307 542T298 507L157 0H0L201 650Q206 668 220 679T254 690H399ZM505 297V182H147V297H505ZM234 897Q259 895 279 889T317
874T354 859T393 848Q419 844 425 855T432 892H496Q507 821 482 785T414 751Q380 754 353 764T302 786T254 801Q229 804 223 793T216 755H152Q145 805 155 837T187 884T234 897Z" />
<glyph unicode="&#xc4;" horiz-adv-x="653" d="M399 690Q418 690 432 679T452 650L652 0H496L355 507Q351 524 347 541T340 575H313Q310 559 307 542T298 507L157 0H0L201 650Q206 668 220 679T254 690H399ZM505 297V182H147V297H505ZM442 884Q474 884 474 852V793Q474
761 442 761H393Q362 761 362 793V852Q362 884 393 884H442ZM259 884Q290 884 290 852V793Q290 761 259 761H210Q179 761 179 793V852Q179 884 210 884H259Z" />
<glyph unicode="&#xc5;" horiz-adv-x="653" d="M399 690Q418 690 432 679T452 650L652 0H496L355 507Q351 524 347 541T340 575H313Q310 559 307 542T298 507L157 0H0L201 650Q206 668 220 679T254 690H399ZM505 297V182H147V297H505ZM328 944Q360 944 387 929T430
887T446 829Q446 797 430 771T387 729T328 713Q296 713 269 728T225 770T209 829Q209 861 225 887T268 928T328 944ZM327 881Q306 881 291 867T276 828Q276 805 291 791T327 776Q350 776 364 790T379 828Q379 852 365 866T327 881Z" />
<glyph unicode="&#xc6;" horiz-adv-x="934" d="M572 692Q666 692 741 691T894 683L888 573H642Q618 573 604 559T589 520V168Q589 143 602 130T642 117H888L894 7Q820 0 739 -1T577 -3Q517 -3 482 36T446 136V528Q446 546 452 565T469 595H458Q448 586 438 572T418
541L147 0H-10L282 558Q300 595 322 620T377 661T457 684T572 692ZM483 304V193H153L158 304H483ZM457 411L851 410V307H457V411Z" />
<glyph unicode="&#xc7;" horiz-adv-x="588" d="M339 702Q388 702 422 700T486 692T546 678L534 566Q501 568 474 569T415 570T339 571Q288 571 260 551T219 482T207 345Q207 258 219 209T259 139T339 119Q408 119 455 121T548 128L561 16Q513 1 463 -5T339 -12Q232
-12 168 22T75 135T46 345Q46 477 74 555T167 667T339 702ZM268 -60Q319 -54 351 -56T398 -74T412 -125Q410 -175 383 -207T311 -253T211 -259L228 -197Q265 -198 290 -185T318 -138Q320 -123 308 -120T254 -116L268 -60Z" />
<glyph unicode="&#xc8;" horiz-adv-x="578" d="M211 693Q267 693 324 693T436 690T539 683L532 572H267Q242 572 230 559T217 521V169Q217 144 229 131T267 118H532L539 7Q491 3 436 1T324 -2T211 -3Q145 -3 105 35T64 136V554Q64 617 104 655T211 693ZM82 413H495V305H82V413ZM192
952L395 804L352 741L128 853L192 952Z" />
<glyph unicode="&#xc9;" horiz-adv-x="578" d="M211 693Q267 693 324 693T436 690T539 683L532 572H267Q242 572 230 559T217 521V169Q217 144 229 131T267 118H532L539 7Q491 3 436 1T324 -2T211 -3Q145 -3 105 35T64 136V554Q64 617 104 655T211 693ZM82 413H495V305H82V413ZM432
946L496 846L273 735L229 798L432 946Z" />
<glyph unicode="&#xca;" horiz-adv-x="578" d="M211 693Q267 693 324 693T436 690T539 683L532 572H267Q242 572 230 559T217 521V169Q217 144 229 131T267 118H532L539 7Q491 3 436 1T324 -2T211 -3Q145 -3 105 35T64 136V554Q64 617 104 655T211 693ZM82 413H495V305H82V413ZM370
920L504 786L465 733L321 828H313L166 733L127 790L263 920H370Z" />
<glyph unicode="&#xcb;" horiz-adv-x="578" d="M211 693Q267 693 324 693T436 690T539 683L532 572H267Q242 572 230 559T217 521V169Q217 144 229 131T267 118H532L539 7Q491 3 436 1T324 -2T211 -3Q145 -3 105 35T64 136V554Q64 617 104 655T211 693ZM82 413H495V305H82V413ZM431
894Q463 894 463 862V803Q463 771 431 771H382Q351 771 351 803V862Q351 894 382 894H431ZM248 894Q279 894 279 862V803Q279 771 248 771H199Q168 771 168 803V862Q168 894 199 894H248Z" />
<glyph unicode="&#xcc;" horiz-adv-x="292" d="M222 690V0H70V690H222ZM22 945L225 797L182 734L-42 846L22 945Z" />
<glyph unicode="&#xcd;" horiz-adv-x="292" d="M222 690V0H70V690H222ZM262 939L326 839L103 728L59 791L262 939Z" />
<glyph unicode="&#xce;" horiz-adv-x="292" d="M222 690V0H70V690H222ZM200 913L334 779L295 726L151 821H143L-4 726L-43 783L93 913H200Z" />
<glyph unicode="&#xcf;" horiz-adv-x="292" d="M222 690V0H70V690H222ZM261 888Q293 888 293 856V797Q293 765 261 765H212Q181 765 181 797V856Q181 888 212 888H261ZM78 888Q109 888 109 856V797Q109 765 78 765H29Q-2 765 -2 797V856Q-2 888 29 888H78Z" />
<glyph unicode="&#xd0;" horiz-adv-x="685" d="M350 400V323H14V400H350ZM342 700Q424 700 480 683T571 625T622 517T638 345Q638 242 622 174T572 65T481 8T342 -10Q263 -10 197 -7T71 0L135 113Q173 111 225 110T342 108Q393 108 422 128T464 201T477 345Q477
437 465 489T423 562T342 583Q281 583 233 583T139 582L71 690Q131 694 196 697T342 700ZM224 690V0H71V690H224Z" />
<glyph unicode="&#xd1;" horiz-adv-x="722" d="M653 690V55Q653 0 598 0H514Q489 0 476 11T452 46L261 408Q249 431 238 459T218 513H207Q210 486 212 459T214 404V0H69V635Q69 690 125 690H208Q232 690 244 679T269 644L454 293Q466 270 479 242T504 184H516Q513
214 512 242T510 299L509 690H653ZM279 900Q304 898 324 892T362 877T399 862T438 851Q464 847 470 858T477 895H541Q552 824 527 788T459 754Q425 757 398 767T347 789T299 804Q274 807 268 796T261 758H197Q190 808 200 840T232 887T279 900Z" />
<glyph unicode="&#xd2;" horiz-adv-x="688" d="M344 704Q426 704 483 687T574 629T625 519T641 345Q641 241 625 172T575 62T483 4T344 -14Q262 -14 205 3T113 61T62 171T46 345Q46 449 62 518T113 628T205 686T344 704ZM344 583Q291 583 262 562T220 490T207
345Q207 253 219 201T261 128T344 107Q396 107 425 128T467 201T480 345Q480 438 468 489T426 562T344 583ZM220 945L423 797L380 734L156 846L220 945Z" />
<glyph unicode="&#xd3;" horiz-adv-x="688" d="M344 704Q426 704 483 687T574 629T625 519T641 345Q641 241 625 172T575 62T483 4T344 -14Q262 -14 205 3T113 61T62 171T46 345Q46 449 62 518T113 628T205 686T344 704ZM344 583Q291 583 262 562T220 490T207
345Q207 253 219 201T261 128T344 107Q396 107 425 128T467 201T480 345Q480 438 468 489T426 562T344 583ZM459 949L523 849L300 738L256 801L459 949Z" />
<glyph unicode="&#xd4;" horiz-adv-x="688" d="M344 704Q426 704 483 687T574 629T625 519T641 345Q641 241 625 172T575 62T483 4T344 -14Q262 -14 205 3T113 61T62 171T46 345Q46 449 62 518T113 628T205 686T344 704ZM344 583Q291 583 262 562T220 490T207
345Q207 253 219 201T261 128T344 107Q396 107 425 128T467 201T480 345Q480 438 468 489T426 562T344 583ZM398 913L532 779L493 726L349 821H341L194 726L155 783L291 913H398Z" />
<glyph unicode="&#xd5;" horiz-adv-x="688" d="M344 704Q426 704 483 687T574 629T625 519T641 345Q641 241 625 172T575 62T483 4T344 -14Q262 -14 205 3T113 61T62 171T46 345Q46 449 62 518T113 628T205 686T344 704ZM344 583Q291 583 262 562T220 490T207
345Q207 253 219 201T261 128T344 107Q396 107 425 128T467 201T480 345Q480 438 468 489T426 562T344 583ZM250 900Q275 898 295 892T333 877T370 862T409 851Q435 847 441 858T448 895H512Q523 824 498 788T430 754Q396 757 369 767T318 789T270 804Q245 807
239 796T232 758H168Q161 808 171 840T203 887T250 900Z" />
<glyph unicode="&#xd6;" horiz-adv-x="688" d="M344 704Q426 704 483 687T574 629T625 519T641 345Q641 241 625 172T575 62T483 4T344 -14Q262 -14 205 3T113 61T62 171T46 345Q46 449 62 518T113 628T205 686T344 704ZM344 583Q291 583 262 562T220 490T207
345Q207 253 219 201T261 128T344 107Q396 107 425 128T467 201T480 345Q480 438 468 489T426 562T344 583ZM459 888Q491 888 491 856V797Q491 765 459 765H410Q379 765 379 797V856Q379 888 410 888H459ZM276 888Q307 888 307 856V797Q307 765 276 765H227Q196
765 196 797V856Q196 888 227 888H276Z" />
<glyph unicode="&#xd7;" horiz-adv-x="495" d="M397 496L32 170L102 87L467 412L397 496ZM102 496L32 412L397 87L467 170L102 496Z" />
<glyph unicode="&#xd8;" horiz-adv-x="688" d="M500 754L552 730L180 -65L129 -41L500 754ZM344 704Q426 704 483 687T574 629T625 519T641 345Q641 241 625 172T575 62T483 4T344 -14Q262 -14 205 3T113 61T62 171T46 345Q46 449 62 518T113 628T205 686T344
704ZM344 583Q291 583 262 562T220 490T207 345Q207 253 219 201T261 128T344 107Q396 107 425 128T467 201T480 345Q480 438 468 489T426 562T344 583Z" />
<glyph unicode="&#xd9;" horiz-adv-x="686" d="M621 690V275Q621 170 595 107T510 15T351 -14Q246 -14 183 14T92 106T64 275V690H217V275Q217 210 228 174T268 122T343 107Q390 107 417 122T456 173T468 275V690H621ZM220 945L423 797L380 734L156 846L220 945Z" />
<glyph unicode="&#xda;" horiz-adv-x="686" d="M621 690V275Q621 170 595 107T510 15T351 -14Q246 -14 183 14T92 106T64 275V690H217V275Q217 210 228 174T268 122T343 107Q390 107 417 122T456 173T468 275V690H621ZM460 939L524 839L301 728L257 791L460 939Z" />
<glyph unicode="&#xdb;" horiz-adv-x="686" d="M621 690V275Q621 170 595 107T510 15T351 -14Q246 -14 183 14T92 106T64 275V690H217V275Q217 210 228 174T268 122T343 107Q390 107 417 122T456 173T468 275V690H621ZM398 913L532 779L493 726L349 821H341L194
726L155 783L291 913H398Z" />
<glyph unicode="&#xdc;" horiz-adv-x="686" d="M621 690V275Q621 170 595 107T510 15T351 -14Q246 -14 183 14T92 106T64 275V690H217V275Q217 210 228 174T268 122T343 107Q390 107 417 122T456 173T468 275V690H621ZM459 888Q491 888 491 856V797Q491 765 459
765H410Q379 765 379 797V856Q379 888 410 888H459ZM276 888Q307 888 307 856V797Q307 765 276 765H227Q196 765 196 797V856Q196 888 227 888H276Z" />
<glyph unicode="&#xdd;" horiz-adv-x="612" d="M611 690L378 219H234L0 690H159L275 436Q284 416 290 393T301 349H311Q317 370 323 393T337 436L452 690H611ZM382 312V0H229V312H382ZM423 934L487 834L264 723L220 786L423 934Z" />
<glyph unicode="&#xde;" horiz-adv-x="613" d="M331 573Q426 573 480 553T558 484T581 346Q581 257 559 208T487 140T351 120Q305 120 262 124T181 134T117 147T80 159L83 235Q141 235 203 235T328 235Q366 236 388 245T419 278T428 346Q428 391 419 415T388 448T328
458Q237 458 172 457T84 454L70 564Q111 568 147 570T226 572T331 573ZM223 690V0H70V690H223Z" />
<glyph unicode="&#xdf;" horiz-adv-x="707" d="M355 732Q448 732 501 718T575 670T597 581Q597 558 592 540T573 502T531 460Q510 444 494 432T469 407T460 377Q460 356 478 342T522 311L600 267Q631 246 649 229T676 190T685 134Q685 81 667 50T606 4T494 -11Q457
-11 417 -9T323 0L332 96Q364 95 395 95T460 94Q489 94 505 96T529 108T537 139Q537 156 528 168T502 193T464 219L396 252Q362 274 342 300T321 368Q321 397 333 416T366 451T412 491Q440 515 450 531T461 573Q461 592 453 603T422 620T358 626Q316 626 293 619T260
593T251 538V0H103V555Q103 609 118 643T164 697T242 724T355 732ZM176 494V396H18V490L105 494H176Z" />
<glyph unicode="&#xe0;" horiz-adv-x="570" d="M321 507Q383 507 426 491T491 435T514 326V0H396L375 107L365 122V327Q365 362 349 378T286 394Q248 394 191 392T74 385L60 483Q96 490 143 495T237 503T321 507ZM453 304L452 221L232 220Q205 220 194 207T182
172V148Q182 123 196 110T241 96Q267 96 297 107T358 138T411 185V121Q402 106 385 84T340 40T277 3T195 -12Q150 -12 114 4T57 51T36 128V179Q36 238 76 271T186 304H453ZM164 770L367 622L324 559L100 671L164 770Z" />
<glyph unicode="&#xe1;" horiz-adv-x="570" d="M321 507Q383 507 426 491T491 435T514 326V0H396L375 107L365 122V327Q365 362 349 378T286 394Q248 394 191 392T74 385L60 483Q96 490 143 495T237 503T321 507ZM453 304L452 221L232 220Q205 220 194 207T182
172V148Q182 123 196 110T241 96Q267 96 297 107T358 138T411 185V121Q402 106 385 84T340 40T277 3T195 -12Q150 -12 114 4T57 51T36 128V179Q36 238 76 271T186 304H453ZM404 764L468 664L245 553L201 616L404 764Z" />
<glyph unicode="&#xe2;" horiz-adv-x="570" d="M321 507Q383 507 426 491T491 435T514 326V0H396L375 107L365 122V327Q365 362 349 378T286 394Q248 394 191 392T74 385L60 483Q96 490 143 495T237 503T321 507ZM453 304L452 221L232 220Q205 220 194 207T182
172V148Q182 123 196 110T241 96Q267 96 297 107T358 138T411 185V121Q402 106 385 84T340 40T277 3T195 -12Q150 -12 114 4T57 51T36 128V179Q36 238 76 271T186 304H453ZM343 738L477 604L438 551L294 646H286L139 551L100 608L236 738H343Z" />
<glyph unicode="&#xe3;" horiz-adv-x="570" d="M321 507Q383 507 426 491T491 435T514 326V0H396L375 107L365 122V327Q365 362 349 378T286 394Q248 394 191 392T74 385L60 483Q96 490 143 495T237 503T321 507ZM453 304L452 221L232 220Q205 220 194 207T182
172V148Q182 123 196 110T241 96Q267 96 297 107T358 138T411 185V121Q402 106 385 84T340 40T277 3T195 -12Q150 -12 114 4T57 51T36 128V179Q36 238 76 271T186 304H453ZM195 725Q220 723 240 717T278 702T315 687T354 676Q380 672 386 683T393 720H457Q468 649
443 613T375 579Q341 582 314 592T263 614T215 629Q190 632 184 621T177 583H113Q106 633 116 665T148 712T195 725Z" />
<glyph unicode="&#xe4;" horiz-adv-x="570" d="M321 507Q383 507 426 491T491 435T514 326V0H396L375 107L365 122V327Q365 362 349 378T286 394Q248 394 191 392T74 385L60 483Q96 490 143 495T237 503T321 507ZM453 304L452 221L232 220Q205 220 194 207T182
172V148Q182 123 196 110T241 96Q267 96 297 107T358 138T411 185V121Q402 106 385 84T340 40T277 3T195 -12Q150 -12 114 4T57 51T36 128V179Q36 238 76 271T186 304H453ZM403 713Q435 713 435 681V622Q435 590 403 590H354Q323 590 323 622V681Q323 713 354 713H403ZM220
713Q251 713 251 681V622Q251 590 220 590H171Q140 590 140 622V681Q140 713 171 713H220Z" />
<glyph unicode="&#xe5;" horiz-adv-x="570" d="M321 507Q383 507 426 491T491 435T514 326V0H396L375 107L365 122V327Q365 362 349 378T286 394Q248 394 191 392T74 385L60 483Q96 490 143 495T237 503T321 507ZM453 304L452 221L232 220Q205 220 194 207T182
172V148Q182 123 196 110T241 96Q267 96 297 107T358 138T411 185V121Q402 106 385 84T340 40T277 3T195 -12Q150 -12 114 4T57 51T36 128V179Q36 238 76 271T186 304H453ZM289 773Q321 773 348 758T391 716T407 658Q407 626 391 600T348 558T289 542Q257 542 230
557T186 599T170 658Q170 690 186 716T229 757T289 773ZM288 710Q267 710 252 696T237 657Q237 634 252 620T288 605Q311 605 325 619T340 657Q340 681 326 695T288 710Z" />
<glyph unicode="&#xe6;" horiz-adv-x="879" d="M611 507Q736 507 789 465T844 338Q844 292 829 262T778 218T683 203H417V286H643Q678 286 689 300T700 341Q700 375 681 389T616 403Q574 403 551 392T519 350T510 260Q510 198 521 165T558 118T633 105Q667 105
716 107T817 116L831 25Q802 11 766 3T692 -8T616 -12Q523 -12 467 15T385 100T360 246Q360 343 385 400T465 482T611 507ZM449 302L448 220H231Q205 220 194 207T182 172V148Q182 123 196 110T239 96Q265 96 295 107T356 138T409 186L414 118Q405 102 387 81T342
38T278 3T193 -12Q149 -12 113 4T57 51T36 128V179Q36 236 75 269T184 302H449ZM318 507Q380 507 422 491T487 435T509 326V232H360V327Q360 362 344 378T283 394Q245 394 189 392T73 385L60 483Q95 490 141 495T234 503T318 507Z" />
<glyph unicode="&#xe7;" horiz-adv-x="509" d="M290 507Q317 507 349 505T413 496T473 477L457 384Q417 385 381 386T315 387Q270 387 244 375T207 333T195 248Q195 193 206 162T244 119T315 107Q331 107 356 108T410 110T467 116L481 22Q441 4 390 -4T289 -12Q197
-12 143 13T64 96T40 248Q40 343 64 400T144 482T290 507ZM221 -53Q272 -47 304 -49T351 -67T365 -118Q363 -168 336 -200T264 -246T164 -252L181 -190Q218 -191 243 -178T271 -131Q273 -116 261 -113T207 -109L221 -53Z" />
<glyph unicode="&#xe8;" horiz-adv-x="564" d="M294 507Q419 507 473 465T528 338Q529 270 494 237T373 203H97V286H332Q366 286 375 300T385 341Q384 376 365 389T299 403Q258 403 235 392T203 350T194 260Q194 198 205 165T242 118T316 105Q350 105 400 107T502
116L516 25Q487 11 450 3T374 -8T299 -12Q205 -12 148 15T65 100T39 246Q39 343 65 400T147 482T294 507ZM172 766L375 618L332 555L108 667L172 766Z" />
<glyph unicode="&#xe9;" horiz-adv-x="564" d="M294 507Q419 507 473 465T528 338Q529 270 494 237T373 203H97V286H332Q366 286 375 300T385 341Q384 376 365 389T299 403Q258 403 235 392T203 350T194 260Q194 198 205 165T242 118T316 105Q350 105 400 107T502
116L516 25Q487 11 450 3T374 -8T299 -12Q205 -12 148 15T65 100T39 246Q39 343 65 400T147 482T294 507ZM413 760L477 660L254 549L210 612L413 760Z" />
<glyph unicode="&#xea;" horiz-adv-x="564" d="M294 507Q419 507 473 465T528 338Q529 270 494 237T373 203H97V286H332Q366 286 375 300T385 341Q384 376 365 389T299 403Q258 403 235 392T203 350T194 260Q194 198 205 165T242 118T316 105Q350 105 400 107T502
116L516 25Q487 11 450 3T374 -8T299 -12Q205 -12 148 15T65 100T39 246Q39 343 65 400T147 482T294 507ZM351 734L485 600L446 547L302 642H294L147 547L108 604L244 734H351Z" />
<glyph unicode="&#xeb;" horiz-adv-x="564" d="M294 507Q419 507 473 465T528 338Q529 270 494 237T373 203H97V286H332Q366 286 375 300T385 341Q384 376 365 389T299 403Q258 403 235 392T203 350T194 260Q194 198 205 165T242 118T316 105Q350 105 400 107T502
116L516 25Q487 11 450 3T374 -8T299 -12Q205 -12 148 15T65 100T39 246Q39 343 65 400T147 482T294 507ZM412 709Q444 709 444 677V618Q444 586 412 586H363Q332 586 332 618V677Q332 709 363 709H412ZM229 709Q260 709 260 677V618Q260 586 229 586H180Q149 586
149 618V677Q149 709 180 709H229Z" />
<glyph unicode="&#xec;" horiz-adv-x="277" d="M213 494V0H64V494H213ZM269 766L472 618L429 555L205 667L269 766Z" />
<glyph unicode="&#xed;" horiz-adv-x="277" d="M213 494V0H64V494H213ZM254 760L318 660L95 549L51 612L254 760Z" />
<glyph unicode="&#xee;" horiz-adv-x="277" d="M213 494V0H64V494H213ZM447 734L581 600L542 547L398 642H390L243 547L204 604L340 734H447Z" />
<glyph unicode="&#xef;" horiz-adv-x="277" d="M213 494V0H64V494H213ZM508 709Q540 709 540 677V618Q540 586 508 586H459Q428 586 428 618V677Q428 709 459 709H508ZM325 709Q356 709 356 677V618Q356 586 325 586H276Q245 586 245 618V677Q245 709 276 709H325Z" />
<glyph unicode="&#xf0;" horiz-adv-x="582" d="M138 698Q210 703 271 689T382 642T465 560T517 441T536 287Q536 210 523 154T481 60T404 5T286 -14Q160 -14 101 41T41 216Q41 294 62 346T130 424T256 451Q282 451 315 446T381 425T436 376L428 316Q399 330 364
337T288 344Q254 344 234 332T205 293T196 218Q196 148 217 122T288 95Q329 95 348 114T374 176T381 289Q381 366 371 421T340 513T288 570T216 597T124 602L138 698ZM423 723L464 673L242 489L199 539L423 723Z" />
<glyph unicode="&#xf1;" horiz-adv-x="601" d="M404 507Q544 507 544 370V0H396V324Q396 357 384 369T343 382Q311 382 277 370T193 331L186 414Q239 459 294 483T404 507ZM179 494L196 396L208 383V0H60V494H179ZM214 721Q239 719 259 713T297 698T334 683T373
672Q399 668 405 679T412 716H476Q487 645 462 609T394 575Q360 578 333 588T282 610T234 625Q209 628 203 617T196 579H132Q125 629 135 661T167 708T214 721Z" />
<glyph unicode="&#xf2;" horiz-adv-x="590" d="M295 507Q388 507 444 482T524 399T549 246Q549 152 525 95T444 13T295 -12Q203 -12 147 13T65 95T40 246Q40 342 65 399T146 481T295 507ZM295 399Q257 399 235 386T204 340T195 246Q195 186 204 153T235 108T295
95Q333 95 355 107T386 153T395 246Q395 307 386 340T355 386T295 399ZM172 759L375 611L332 548L108 660L172 759Z" />
<glyph unicode="&#xf3;" horiz-adv-x="590" d="M295 507Q388 507 444 482T524 399T549 246Q549 152 525 95T444 13T295 -12Q203 -12 147 13T65 95T40 246Q40 342 65 399T146 481T295 507ZM295 399Q257 399 235 386T204 340T195 246Q195 186 204 153T235 108T295
95Q333 95 355 107T386 153T395 246Q395 307 386 340T355 386T295 399ZM411 753L475 653L252 542L208 605L411 753Z" />
<glyph unicode="&#xf4;" horiz-adv-x="590" d="M295 507Q388 507 444 482T524 399T549 246Q549 152 525 95T444 13T295 -12Q203 -12 147 13T65 95T40 246Q40 342 65 399T146 481T295 507ZM295 399Q257 399 235 386T204 340T195 246Q195 186 204 153T235 108T295
95Q333 95 355 107T386 153T395 246Q395 307 386 340T355 386T295 399ZM350 983L484 849L445 796L301 891H293L146 796L107 853L243 983H350Z" />
<glyph unicode="&#xf5;" horiz-adv-x="590" d="M295 507Q388 507 444 482T524 399T549 246Q549 152 525 95T444 13T295 -12Q203 -12 147 13T65 95T40 246Q40 342 65 399T146 481T295 507ZM295 399Q257 399 235 386T204 340T195 246Q195 186 204 153T235 108T295
95Q333 95 355 107T386 153T395 246Q395 307 386 340T355 386T295 399ZM202 714Q227 712 247 706T285 691T322 676T361 665Q387 661 393 672T400 709H464Q475 638 450 602T382 568Q348 571 321 581T270 603T222 618Q197 621 191 610T184 572H120Q113 622 123 654T155
701T202 714Z" />
<glyph unicode="&#xf6;" horiz-adv-x="590" d="M295 507Q388 507 444 482T524 399T549 246Q549 152 525 95T444 13T295 -12Q203 -12 147 13T65 95T40 246Q40 342 65 399T146 481T295 507ZM295 399Q257 399 235 386T204 340T195 246Q195 186 204 153T235 108T295
95Q333 95 355 107T386 153T395 246Q395 307 386 340T355 386T295 399ZM411 958Q443 958 443 926V867Q443 835 411 835H362Q331 835 331 867V926Q331 958 362 958H411ZM228 958Q259 958 259 926V867Q259 835 228 835H179Q148 835 148 867V926Q148 958 179 958H228Z"
/>
<glyph unicode="&#xf7;" horiz-adv-x="553" d="M506 346V241H46V346H506ZM293 176Q324 176 336 164T348 121V88Q348 58 336 46T293 34H257Q226 34 215 46T203 88V121Q203 152 214 164T257 176H293ZM293 551Q324 551 336 539T348 497V463Q348 433 336 421T293 409H257Q226
409 215 421T203 463V497Q203 527 214 539T257 551H293Z" />
<glyph unicode="&#xf8;" horiz-adv-x="590" d="M421 579L464 558L165 -84L123 -64L421 579ZM295 507Q388 507 444 482T524 399T549 246Q549 152 525 95T444 13T295 -12Q203 -12 147 13T65 95T40 246Q40 342 65 399T146 481T295 507ZM295 399Q257 399 235 386T204
340T195 246Q195 186 204 153T235 108T295 95Q333 95 355 107T386 153T395 246Q395 307 386 340T355 386T295 399Z" />
<glyph unicode="&#xf9;" horiz-adv-x="593" d="M205 494V169Q205 138 218 125T262 112Q293 112 323 123T399 160L411 79Q357 32 305 9T198 -14Q57 -14 57 124V494H205ZM532 494V0H415L398 97L384 111V494H532ZM171 767L374 619L331 556L107 668L171 767Z" />
<glyph unicode="&#xfa;" horiz-adv-x="593" d="M205 494V169Q205 138 218 125T262 112Q293 112 323 123T399 160L411 79Q357 32 305 9T198 -14Q57 -14 57 124V494H205ZM532 494V0H415L398 97L384 111V494H532ZM411 761L475 661L252 550L208 613L411 761Z" />
<glyph unicode="&#xfb;" horiz-adv-x="593" d="M205 494V169Q205 138 218 125T262 112Q293 112 323 123T399 160L411 79Q357 32 305 9T198 -14Q57 -14 57 124V494H205ZM532 494V0H415L398 97L384 111V494H532ZM349 736L483 602L444 549L300 644H292L145 549L106
606L242 736H349Z" />
<glyph unicode="&#xfc;" horiz-adv-x="593" d="M205 494V169Q205 138 218 125T262 112Q293 112 323 123T399 160L411 79Q357 32 305 9T198 -14Q57 -14 57 124V494H205ZM532 494V0H415L398 97L384 111V494H532ZM411 710Q443 710 443 678V619Q443 587 411 587H362Q331
587 331 619V678Q331 710 362 710H411ZM228 710Q259 710 259 678V619Q259 587 228 587H179Q148 587 148 619V678Q148 710 179 710H228Z" />
<glyph unicode="&#xfd;" horiz-adv-x="566" d="M557 494L380 -6Q368 -43 347 -80T293 -148T215 -193T107 -201L96 -117Q157 -101 191 -74T244 -3L275 66Q284 88 292 119T307 174L399 494H557ZM165 494L259 174Q263 155 267 136T274 98H301L254 0H218Q201 0 188
10T170 36L7 494H165ZM403 760L467 660L244 549L200 612L403 760Z" />
<glyph unicode="&#xfe;" horiz-adv-x="597" d="M376 506Q473 506 514 440T555 242Q555 143 535 88T474 9T371 -14Q317 -14 266 2T176 54L192 121Q225 108 253 100T315 91Q347 91 366 103T393 147T402 242Q402 304 394 336T367 381T318 393Q287 393 261 381T205
349L180 417Q212 455 259 480T376 506ZM208 700V565Q209 533 208 501T203 439L208 427V68L203 56Q206 26 207 -6T208 -71V-190H60V700H208Z" />
<glyph unicode="&#xff;" horiz-adv-x="566" d="M557 494L380 -6Q368 -43 347 -80T293 -148T215 -193T107 -201L96 -117Q157 -101 191 -74T244 -3L275 66Q284 88 292 119T307 174L399 494H557ZM165 494L259 174Q263 155 267 136T274 98H301L254 0H218Q201 0 188
10T170 36L7 494H165ZM401 709Q433 709 433 677V618Q433 586 401 586H352Q321 586 321 618V677Q321 709 352 709H401ZM218 709Q249 709 249 677V618Q249 586 218 586H169Q138 586 138 618V677Q138 709 169 709H218Z" />
<glyph unicode="&#x2013;" horiz-adv-x="560" d="M502 302V208H58V302H502Z" />
<glyph unicode="&#x2014;" horiz-adv-x="857" d="M799 302V208H58V302H799Z" />
<glyph unicode="&#x2018;" horiz-adv-x="219" d="M96 446Q69 446 59 456T49 493V552Q49 588 54 617T70 671T95 720L150 703Q142 673 140 645T136 585Q174 585 175 543L174 493Q173 466 163 456T126 446H96Z" />
<glyph unicode="&#x2019;" horiz-adv-x="216" d="M122 711Q149 711 159 701T169 663V605Q169 568 164 539T148 485T123 437L68 453Q76 483 78 511T82 572Q44 572 43 614L44 663Q45 690 55 700T92 711H122Z" />
<glyph unicode="&#x201a;" horiz-adv-x="230" d="M130 148Q157 148 167 137T178 97V36Q178 -3 172 -34T156 -91T131 -142L76 -124Q84 -93 86 -64T90 0Q52 0 51 46L52 97Q53 126 64 137T100 148H130Z" />
<glyph unicode="&#x201c;" horiz-adv-x="395" d="M96 446Q69 446 59 456T49 493V552Q49 588 54 617T70 671T95 720L150 703Q142 673 140 645T136 585Q174 585 175 543L174 493Q173 466 163 456T126 446H96ZM272 446Q246 446 236 456T225 493V552Q226 588 231 617T247
671T272 720L326 703Q318 673 316 645T312 585Q350 585 351 543L350 493Q349 466 339 456T302 446H272Z" />
<glyph unicode="&#x201d;" horiz-adv-x="392" d="M298 711Q325 711 335 701T345 663V605Q345 568 340 539T324 485T299 437L245 453Q252 483 255 511T258 572Q220 572 220 614L221 663Q222 690 232 700T268 711H298ZM122 711Q149 711 159 701T169 663V605Q169
568 164 539T148 485T123 437L68 453Q76 483 78 511T82 572Q44 572 43 614L44 663Q45 690 55 700T92 711H122Z" />
<glyph unicode="&#x201e;" horiz-adv-x="405" d="M306 132Q332 132 342 122T353 85V26Q352 -11 347 -40T331 -94T306 -142L252 -126Q260 -96 262 -68T266 -7Q228 -7 227 35L228 85Q229 112 239 122T276 132H306ZM130 132Q156 132 166 122T177 85V26Q176 -11 171
-40T155 -94T130 -142L76 -126Q83 -96 86 -68T89 -7Q51 -7 51 35L52 85Q53 112 63 122T99 132H130Z" />
<glyph unicode="&#x2022;" horiz-adv-x="372" d="M196 380Q254 380 276 358T299 278V263Q299 201 277 178T196 155H182Q120 155 97 178T73 263V278Q73 335 96 357T182 380H196Z" />
<glyph unicode="&#x2039;" horiz-adv-x="301" d="M187 465L265 415L159 251L266 82L188 32L28 235V267L187 465Z" />
<glyph unicode="&#x203a;" horiz-adv-x="302" d="M113 465L273 267V235L113 32L35 82L142 251L36 415L113 465Z" />
</font>
</defs>
</svg>
