<?xml version="1.0" standalone="no"?>
<!DOCTYPE svg PUBLIC "-//W3C//DTD SVG 1.1//EN" "http://www.w3.org/Graphics/SVG/1.1/DTD/svg11.dtd">
<svg xmlns="http://www.w3.org/2000/svg">
<defs >
<font id="Exo" horiz-adv-x="533" ><font-face
    font-family="Exo ExtraLight"
    units-per-em="1000"
    panose-1="0 0 0 0 0 0 0 0 0 0"
    ascent="1002"
    descent="-327"
    alphabetic="0" />
<glyph unicode=" " horiz-adv-x="277" />
<glyph unicode="!" horiz-adv-x="262" d="M114 197L109 732H149L143 197H114ZM119 0Q105 0 105 13V80Q105 94 119 94H140Q153 94 153 80V13Q153 6 149 3T140 0H119Z" />
<glyph unicode="&quot;" horiz-adv-x="221" d="M50 513L43 675V742H84V675L77 513H50ZM144 513L137 675V742H178V675L171 513H144Z" />
<glyph unicode="#" horiz-adv-x="663" d="M161 0L200 243H26L30 267H205L235 461H59L64 485H240L280 732H304L264 485H440L480 732H504L464 485H641L637 461H459L429 267H606L602 243H424L385 0H361L400 243H224L185 0H161ZM229 267H405L435 461H259L229 267Z" />
<glyph unicode="$" horiz-adv-x="609" d="M294 731L278 742L289 824L305 813L294 731ZM278 -88V4L305 3V-88H278ZM285 -6Q267 -6 237 -5T175 -2T114 3T68 9V38Q89 36 124 35T201 32T284 31Q334 31 374 41T440 79T465 162V225Q465 285 435 317T336 349H248Q165
349 117 385T68 512V557Q68 659 120 699T268 739Q295 739 334 737T411 730T473 722V692Q429 695 375 698T270 702Q220 702 184 690T128 646T108 556V514Q108 441 145 415T247 389H338Q397 389 433 368T487 311T505 227V163Q505 96 474 60T393 9T285 -6Z" />
<glyph unicode="%" horiz-adv-x="955" d="M237 0L677 732H708L269 0H237ZM182 349Q109 349 82 380T54 475V606Q54 670 81 701T184 732H285Q359 732 386 701T413 606V475Q413 411 386 380T283 349H182ZM184 376H280Q335 376 360 396T386 478V603Q386 659 365 682T282
705H186Q131 705 106 686T81 603V478Q81 419 105 398T184 376ZM672 3Q599 3 572 34T544 129V260Q544 324 571 355T674 386H775Q849 386 876 355T903 260V129Q903 65 876 34T773 3H672ZM674 30H770Q825 30 850 50T876 132V257Q876 313 855 336T772 359H676Q621 359
596 340T571 257V132Q571 73 595 52T674 30Z" />
<glyph unicode="&amp;" horiz-adv-x="659" d="M238 -6Q183 -6 139 17T70 84T44 187Q44 237 66 285T141 377L210 436L188 467Q157 509 146 544T135 607Q135 654 157 681T216 721T297 733Q336 733 364 732T413 729T454 724V696H302Q248 696 212 676T176 604Q176
575 187 547T227 479L459 163L612 309L628 292L558 205L483 134L582 0H534L454 108L423 80Q371 33 328 14T238 -6ZM242 33Q280 33 315 48T394 105L429 138L231 406L171 356Q121 315 103 273T84 190Q84 118 126 76T242 33Z" />
<glyph unicode="&apos;" horiz-adv-x="127" d="M50 513L43 675V742H84V675L77 513H50Z" />
<glyph unicode="(" horiz-adv-x="325" d="M257 -210Q208 -126 172 -42T116 133T95 326Q95 426 116 516T173 692T257 860H298Q251 776 215 690T157 515T136 326Q136 227 156 137T214 -38T299 -210H257Z" />
<glyph unicode=")" horiz-adv-x="324" d="M25 -210Q78 -121 114 -36T169 138T188 326Q188 424 170 511T115 684T25 860H67Q119 773 155 689T210 516T229 326Q229 225 211 136T157 -37T67 -210H25Z" />
<glyph unicode="*" horiz-adv-x="464" d="M300 530L278 554L390 637L402 620L300 530ZM159 404L141 410L173 544L206 538L159 404ZM206 584L64 589V609L206 614V584ZM355 421L233 491L249 520L366 436L355 421ZM256 592L201 723L219 729L286 605L256 592Z" />
<glyph unicode="+" horiz-adv-x="609" d="M286 132V580H322V132H286ZM80 338V374H528V338H80Z" />
<glyph unicode="," horiz-adv-x="180" d="M82 -72Q76 -72 73 -71T69 -70V-58Q79 -58 83 -55T87 -43V1H80Q75 1 71 5T67 16V79Q67 94 80 94H100Q108 94 110 90T113 79V-34Q113 -51 108 -59T96 -69T82 -72Z" />
<glyph unicode="-" horiz-adv-x="340" d="M26 272V308H313V272H26Z" />
<glyph unicode="." horiz-adv-x="180" d="M80 0Q67 0 67 13V80Q67 94 80 94H101Q115 94 115 80V13Q115 6 111 3T101 0H80Z" />
<glyph unicode="/" horiz-adv-x="369" d="M25 -72L306 770H343L62 -72H25Z" />
<glyph unicode="0" horiz-adv-x="660" d="M264 -1Q216 -1 176 15T113 68T89 165V572Q89 628 112 665T175 720T264 739H401Q462 739 499 717T554 658T571 572V165Q571 76 524 38T400 -1H264ZM268 37H395Q468 37 499 72T530 168V570Q530 635 497 668T396 702H268Q205
702 168 668T130 570V168Q130 103 167 70T268 37Z" />
<glyph unicode="1" horiz-adv-x="356" d="M214 0V698L51 643V670L216 741H255V0H214Z" />
<glyph unicode="2" horiz-adv-x="596" d="M59 0V35L345 304Q393 350 421 388T460 467T472 555Q472 596 457 629T402 681T285 701H90V731Q134 734 188 736T296 739Q378 739 425 716T493 651T513 557Q513 504 499 460T455 374T374 283L117 39H542V0H59Z" />
<glyph unicode="3" horiz-adv-x="589" d="M305 -6Q225 -6 159 -4T47 2V32H295Q340 32 377 43T438 83T462 167V225Q462 272 440 299T384 337T317 349L125 357V384L316 391Q375 393 413 418T451 504V567Q451 630 410 665T288 701H76V731Q115 735 171 737T301 739Q368
739 410 717T472 657T492 572V505Q492 467 479 442T447 402T409 379T378 370Q392 368 413 359T455 333T490 289T504 223V163Q504 80 452 37T305 -6Z" />
<glyph unicode="4" horiz-adv-x="581" d="M400 2V205H41L28 234L326 733H368L74 241H400V466L411 525H441V241H555V213L441 205V2H400Z" />
<glyph unicode="5" horiz-adv-x="643" d="M351 -4Q280 -4 213 -3T97 3V33H350Q399 33 439 49T504 96T528 174V272Q528 332 491 366T379 401H290Q237 401 205 377T162 301H124L145 733H547V696H182L166 373Q176 396 209 416T296 437H387Q445 437 485 417T547 360T569
277V168Q569 112 540 74T462 16T351 -4Z" />
<glyph unicode="6" horiz-adv-x="632" d="M276 -1Q233 -1 198 15T137 72T97 186T83 372Q83 466 100 535T149 649T227 717T333 739Q371 739 422 737T513 732V702H327Q235 702 180 626T124 391Q158 394 200 395T283 397T347 398Q410 398 457 386T530 343T557 253V151Q557
94 535 61T475 13T393 -1H276ZM279 36H388Q422 36 451 45T499 79T517 153V249Q517 297 496 321T436 354T342 362H124Q124 265 134 201T165 101T214 51T279 36Z" />
<glyph unicode="7" horiz-adv-x="538" d="M161 0L440 692H38V733H471L490 705L208 0H161Z" />
<glyph unicode="8" horiz-adv-x="651" d="M265 -1Q225 -1 194 7T141 33T107 76T95 137V245Q95 285 112 311T153 351T196 370Q164 383 145 403T118 449T109 500V585Q109 640 129 673T184 722T264 738H401Q447 738 478 723T526 674T543 585V500Q543 481 538 462T523
427T497 398T463 379Q495 373 515 355T546 311T557 253V137Q557 90 538 60T484 15T400 -1H265ZM269 36H395Q455 36 485 61T516 138V246Q516 307 488 331T389 356H268Q251 356 229 351T185 333T150 299T136 246V138Q136 83 174 60T269 36ZM268 392H389Q430 392 455
408T491 449T503 496V578Q503 646 477 674T396 702H269Q205 702 178 672T150 578V496Q150 454 178 423T268 392Z" />
<glyph unicode="9" horiz-adv-x="632" d="M301 -4Q262 -4 211 -2T120 3V33H306Q399 33 454 109T509 344Q476 341 433 340T351 337T286 336Q224 336 177 348T103 392T76 482V584Q76 641 99 674T159 721T240 736H358Q401 736 436 720T496 663T536 549T550 363Q550
269 534 200T485 86T406 18T301 -4ZM291 373H509Q509 470 499 534T468 634T419 684T354 699H245Q211 699 182 690T134 656T116 582V486Q116 438 138 414T199 382T291 373Z" />
<glyph unicode=":" horiz-adv-x="180" d="M80 0Q67 0 67 13V80Q67 94 80 94H101Q115 94 115 80V13Q115 6 111 3T101 0H80ZM80 438Q67 438 67 451V518Q67 532 80 532H101Q115 532 115 518V451Q115 444 111 441T101 438H80Z" />
<glyph unicode=";" horiz-adv-x="180" d="M80 438Q67 438 67 451V518Q67 532 80 532H101Q115 532 115 518V451Q115 444 111 441T101 438H80ZM82 -72Q76 -72 73 -71T69 -70V-58Q79 -58 83 -55T87 -43V1H80Q75 1 71 5T67 16V79Q67 94 80 94H100Q108 94 110 90T113
79V-34Q113 -51 108 -59T96 -69T82 -72Z" />
<glyph unicode="&lt;" horiz-adv-x="609" d="M511 193L96 329V368L511 503V468L133 349L511 228V193Z" />
<glyph unicode="=" horiz-adv-x="609" d="M80 474V510H528V474H80ZM80 458V494H528V458H80Z" />
<glyph unicode="&gt;" horiz-adv-x="609" d="M98 193V228L476 348L98 468V503L513 368V329L98 193Z" />
<glyph unicode="?" horiz-adv-x="532" d="M182 196V332H221Q319 332 360 360T402 465V540Q402 629 367 665T252 702Q197 702 150 693T46 661V688Q96 716 149 727T258 739Q330 740 369 717T425 649T442 543V465Q442 379 390 338T216 296V196H182ZM188 0Q175 0 175
13V80Q175 94 188 94H209Q222 94 222 80V13Q222 6 218 3T209 0H188Z" />
<glyph unicode="@" horiz-adv-x="868" d="M258 -153Q219 -153 187 -142T132 -107T96 -49T83 31V371Q83 385 85 406T96 450T124 494T175 528T258 541H455Q483 541 511 535T562 513T598 469T612 398V29H586L577 92Q576 92 556 81T503 56T433 31T361 20Q323 20 294
35T249 78T233 140V191Q233 244 267 275T365 307H576V395Q576 453 543 479T453 505H258Q217 505 186 493T137 451T119 370V33Q119 -25 140 -57T193 -103T258 -116H577Q652 -116 688 -79T725 33V535Q725 605 689 650T577 695H186V719Q210 724 255 726T357 729T477
730H577Q617 730 650 718T709 682T747 622T761 535V33Q761 -20 744 -62T687 -129T578 -153H258ZM374 56Q402 56 440 66T516 90T576 116V284L373 275Q353 274 329 268T288 245T270 190V148Q270 106 298 81T374 56Z" />
<glyph unicode="A" horiz-adv-x="669" d="M44 0L307 733H362L625 0H581L494 241H174L87 0H44ZM184 278H481L334 695L184 278Z" />
<glyph unicode="B" horiz-adv-x="590" d="M85 0V733H337Q423 733 469 688T515 548Q515 501 500 467T461 411T410 381Q428 376 450 366T493 335T528 282T542 204Q542 124 517 80T448 18T345 0H85ZM126 37H344Q391 37 426 51T482 102T502 209Q502 258 481 292T423
344T344 362H126V37ZM126 396H343Q399 396 436 436T475 544Q478 629 439 662T337 696H126V396Z" />
<glyph unicode="C" horiz-adv-x="578" d="M322 -6Q254 -6 206 9T127 63T82 176T67 369Q67 479 81 551T127 664T209 722T329 739Q350 739 384 736T457 729T530 717V688Q513 691 482 694T410 699T331 702Q271 702 228 688T159 638T120 536T108 368Q108 261 120 194T158
92T225 44T327 31Q402 31 450 35T530 45V15Q497 9 460 4T386 -3T322 -6Z" />
<glyph unicode="D" horiz-adv-x="663" d="M85 0V733H363Q425 733 469 711T541 643T582 528T596 366Q596 256 570 174T492 46T363 0H85ZM126 37H361Q428 37 470 78T534 194T555 366Q555 454 544 516T510 619T450 677T361 696H126V37Z" />
<glyph unicode="E" horiz-adv-x="581" d="M228 -3Q203 -3 178 1T132 18T98 57T85 128V598Q85 636 96 662T126 704T168 726T217 733Q270 732 320 731T420 729T517 726V695H223Q179 695 153 671T126 594V382L476 379V349L126 345V133Q126 89 141 68T180 41T231 35H517V4Q470
2 422 1T325 -1T228 -3Z" />
<glyph unicode="F" horiz-adv-x="559" d="M85 0V598Q85 636 96 662T126 704T168 726T217 733Q265 732 315 731T416 729T517 726V695H222Q178 695 152 671T126 594V368L476 364V334L126 331V0H85Z" />
<glyph unicode="G" horiz-adv-x="645" d="M308 -5Q237 -6 191 14T117 78T78 195T67 370Q67 466 78 536T116 651T189 717T302 739Q334 739 376 737T459 729T533 718V688Q513 690 476 693T395 699T306 702Q229 702 186 668T126 561T108 368Q108 272 117 208T149
105T212 50T314 33Q366 33 422 48T520 80V338H317V365Q336 368 361 370T417 373T479 375Q502 375 523 375T561 371V0H532L524 53Q484 34 427 15T308 -5Z" />
<glyph unicode="H" horiz-adv-x="669" d="M85 0V733H126V374H544V733H585V0H544V337H126V0H85Z" />
<glyph unicode="I" horiz-adv-x="210" d="M85 0V733H126V0H85Z" />
<glyph unicode="J" horiz-adv-x="374" d="M136 -6Q110 -6 79 1T27 18V48Q49 42 79 37T131 31Q166 31 192 41T233 77T248 153V733H289V150Q289 90 271 56T220 8T136 -6Z" />
<glyph unicode="K" horiz-adv-x="583" d="M85 0V733H126V386H273L502 733H546L305 367L547 0H502L272 348H126V0H85Z" />
<glyph unicode="L" horiz-adv-x="530" d="M217 0Q183 0 153 11T104 51T85 133V733H126V136Q126 95 140 74T177 46T223 39H502V0H217Z" />
<glyph unicode="M" horiz-adv-x="809" d="M65 0L146 733H194L404 59L610 733H660L744 0H704L623 701L632 698L423 0H386L171 698L181 699L104 0H65Z" />
<glyph unicode="N" horiz-adv-x="670" d="M103 0V733H138L563 72V733H604V0H569L144 661V0H103Z" />
<glyph unicode="O" horiz-adv-x="679" d="M340 -6Q271 -6 220 7T135 57T84 167T67 362Q67 484 84 558T135 672T221 725T340 739Q410 739 461 725T546 672T596 559T613 362Q613 241 596 168T545 57T460 7T340 -6ZM340 31Q401 31 445 43T517 89T558 188T572 362Q572
476 558 544T517 646T445 691T340 702Q283 702 240 691T167 646T123 544T108 362Q108 254 120 189T159 89T231 43T340 31Z" />
<glyph unicode="P" horiz-adv-x="594" d="M85 0V733H366Q396 733 427 725T486 693T530 625T547 509Q547 436 529 391T482 320T420 286T358 277Q343 277 312 277T244 279T175 282T126 284V0H85ZM126 314H355Q395 314 429 330T484 388T505 508Q505 585 485 625T432
681T364 696H126V314Z" />
<glyph unicode="Q" horiz-adv-x="679" d="M502 -155Q471 -155 442 -142T390 -101T361 -33H389Q404 -78 436 -98T503 -119Q516 -119 528 -117T551 -111V-147Q539 -150 527 -152T502 -155ZM340 -6Q271 -6 220 7T135 57T84 167T67 362Q67 484 84 558T135 672T221
725T340 739Q410 739 461 725T546 672T596 559T613 362Q613 241 596 168T545 57T460 7T340 -6ZM340 31Q401 31 445 43T517 89T558 188T572 362Q572 476 558 544T517 646T445 691T340 702Q283 702 240 691T167 646T123 544T108 362Q108 254 120 189T159 89T231 43T340
31Z" />
<glyph unicode="R" horiz-adv-x="597" d="M85 0V733H365Q397 733 428 726T486 698T529 637T546 528Q546 463 531 423T493 361T443 331T392 320L550 0H509L353 316Q334 316 305 317T243 318T179 320T126 322V0H85ZM126 351H361Q390 351 415 357T461 382T493 436T505
528Q505 582 493 615T460 665T415 689T361 696H126V351Z" />
<glyph unicode="S" horiz-adv-x="572" d="M285 -6Q267 -6 237 -5T175 -2T114 3T68 9V38Q89 36 124 35T201 32T284 31Q334 31 374 41T440 79T465 162V225Q465 285 435 317T336 349H248Q165 349 117 385T68 512V557Q68 659 120 699T268 739Q295 739 334 737T411
730T473 722V692Q429 695 375 698T270 702Q220 702 184 690T128 646T108 556V514Q108 441 145 415T247 389H338Q397 389 433 368T487 311T505 227V163Q505 96 474 60T393 9T285 -6Z" />
<glyph unicode="T" horiz-adv-x="555" d="M257 0V696H16V733H539V696H298V0H257Z" />
<glyph unicode="U" horiz-adv-x="670" d="M335 -6Q273 -6 225 5T143 43T92 113T75 222V733H116V223Q116 147 142 106T217 48T335 31Q404 31 453 47T529 105T555 223V733H596V222Q596 157 579 113T528 43T446 6T335 -6Z" />
<glyph unicode="V" horiz-adv-x="669" d="M307 0L44 733H86L334 40L583 733H625L362 0H307Z" />
<glyph unicode="W" horiz-adv-x="991" d="M239 0L44 733H86L266 48L472 733H520L725 48L906 733H947L752 0H702L496 683L289 0H239Z" />
<glyph unicode="X" horiz-adv-x="601" d="M510 0L46 733H90L555 0H510ZM49 0L284 375L304 339L93 0H49ZM318 349L301 391L511 733H555L318 349Z" />
<glyph unicode="Y" horiz-adv-x="612" d="M286 0V255L46 733H89L307 296L524 733H567L327 255V0H286Z" />
<glyph unicode="Z" horiz-adv-x="552" d="M46 0V35L464 696H46V733H514V698L95 37H514V0H46Z" />
<glyph unicode="[" horiz-adv-x="329" d="M250 -210Q204 -210 175 -192T132 -146T113 -87T108 -33V667Q108 693 113 722T133 779T176 824T250 842H304V807H256Q209 807 179 774T149 664V-32Q149 -72 159 -104T193 -156T256 -175H304V-210H250Z" />
<glyph unicode="\" horiz-adv-x="369" d="M306 -72L25 770H62L343 -72H306Z" />
<glyph unicode="]" horiz-adv-x="329" d="M25 -210V-175H73Q113 -175 136 -156T170 -105T180 -32V664Q180 741 151 774T73 807H25V842H79Q125 842 153 825T196 780T216 723T221 667V-33Q221 -57 217 -87T198 -145T155 -192T79 -210H25Z" />
<glyph unicode="^" horiz-adv-x="404" d="M64 531L193 662H224L341 531H314L208 640L91 531H64Z" />
<glyph unicode="_" horiz-adv-x="609" d="M0 -148V-111H609V-148H0Z" />
<glyph unicode="`" horiz-adv-x="205" d="M156 631L25 765H64L180 631H156Z" />
<glyph unicode="a" horiz-adv-x="541" d="M185 -6Q127 -6 89 28T51 126V160Q51 223 92 262T213 301H418V383Q418 421 405 448T360 491T268 507H99V532Q132 535 176 537T277 541Q342 542 382 525T440 472T459 384V0H429L419 63Q417 62 395 52T337 28T261 4T185
-6ZM195 29Q217 28 246 34T305 48T360 65T402 80T418 86V277L214 271Q147 268 120 237T92 160V134Q92 95 108 72T148 39T195 29Z" />
<glyph unicode="b" horiz-adv-x="574" d="M317 -6Q278 -6 243 4T178 28T127 56L117 0H86V763H127V477Q170 502 222 520T316 538Q378 538 420 512T485 426T508 263Q508 184 489 124T429 29T317 -6ZM309 29Q363 29 398 56T450 136T467 264Q467 362 447 413T392 484T309
503Q255 503 215 489T127 450V82Q164 64 209 47T309 29Z" />
<glyph unicode="c" horiz-adv-x="490" d="M273 -6Q229 -6 192 5T126 46T82 129T66 266Q66 349 81 402T123 484T189 525T274 537Q309 537 357 535T444 529V503H280Q226 503 188 485T128 414T107 263Q107 168 129 117T190 47T280 28H452V3Q430 1 402 -1T341 -4T273 -6Z" />
<glyph unicode="d" horiz-adv-x="570" d="M258 -6Q191 -6 149 23T86 113T66 263Q66 362 86 422T151 510T268 538Q317 538 364 527T447 504V763H487V0H457L447 56Q433 44 401 30T330 5T258 -6ZM265 29Q320 29 365 46T447 83V475Q402 487 364 495T275 504Q215 504
178 482T124 407T107 264Q107 183 123 131T174 54T265 29Z" />
<glyph unicode="e" horiz-adv-x="543" d="M279 -6Q198 -6 151 20T85 105T66 268Q66 373 87 431T155 514T282 538Q348 538 391 523T455 470T477 366Q477 323 460 297T412 258T336 246H107Q107 166 121 119T174 50T286 28H466V2Q417 -2 375 -4T279 -6ZM107 277H334Q387
277 413 296T439 366Q439 420 424 450T374 492T282 505Q214 505 176 486T122 417T107 277Z" />
<glyph unicode="f" horiz-adv-x="354" d="M111 0V497H26V523L111 532V608Q111 657 122 693T164 749T250 769Q285 769 307 767T349 762V734H255Q212 734 190 720T160 677T152 609V532H333V497H152V0H111Z" />
<glyph unicode="g" horiz-adv-x="572" d="M213 -244Q161 -244 122 -230T60 -185T37 -109V-81Q37 -33 63 -2T128 44T207 59L213 35Q178 35 147 24T96 -12T75 -77V-105Q75 -164 114 -187T219 -211H354Q427 -211 468 -183T510 -96V-73Q510 -40 498 -16T455 21T367
35H183Q137 35 108 57T78 119Q78 158 102 179T170 208Q129 222 107 248T77 304T68 364Q68 427 94 464T164 518T264 534H548V509L406 501Q421 493 441 479T475 434T490 351Q490 312 474 275T417 214T304 189H224Q173 189 145 175T116 122Q116 94 136 82T177 69H371Q432
69 471 53T529 7T548 -69V-95Q548 -165 499 -204T356 -244H213ZM238 223H300Q362 223 394 242T439 290T451 353Q451 407 433 439T383 485T311 499H254Q186 499 147 469T107 362Q107 289 142 256T238 223Z" />
<glyph unicode="h" horiz-adv-x="584" d="M86 0V763H127V471Q169 499 223 520T337 541Q391 541 427 517T482 454T501 368V0H460V365Q460 403 445 434T400 485T329 504Q288 504 256 497T193 476T127 444V0H86Z" />
<glyph unicode="i" horiz-adv-x="214" d="M95 637Q82 637 82 650V717Q82 730 95 730H120Q126 730 129 726T132 717V650Q132 637 120 637H95ZM86 0V532H127V0H86Z" />
<glyph unicode="j" horiz-adv-x="214" d="M95 637Q82 637 82 650V717Q82 730 95 730H120Q126 730 129 726T132 717V650Q132 637 120 637H95ZM86 -237V532H127V24Q127 -53 123 -122T115 -237H86Z" />
<glyph unicode="k" horiz-adv-x="480" d="M86 0V763H127V305H211L399 532H445L241 286L455 0H408L207 268H127V0H86Z" />
<glyph unicode="l" horiz-adv-x="283" d="M211 0Q172 0 144 15T101 66T86 170V763H127V173Q127 116 137 88T167 49T213 35L273 28V0H211Z" />
<glyph unicode="m" horiz-adv-x="958" d="M86 0V532H115L127 471Q170 499 223 520T338 541Q389 541 425 518T480 460Q506 479 544 497T626 528T710 541Q764 541 801 517T856 453T875 367V0H834V365Q834 403 819 434T774 485T702 504Q649 504 593 484T487 436Q494
419 497 401T501 365V0H460V365Q460 403 445 434T400 485T329 504Q288 504 255 497T192 476T127 444V0H86Z" />
<glyph unicode="n" horiz-adv-x="584" d="M86 0V532H115L127 471Q169 499 223 520T337 541Q392 541 428 517T482 453T501 368V0H460V365Q460 403 445 434T400 485T329 504Q288 504 255 497T192 476T127 444V0H86Z" />
<glyph unicode="o" horiz-adv-x="578" d="M288 -6Q235 -6 194 5T124 45T81 128T66 266Q66 352 80 405T123 488T193 527T288 538Q341 538 383 527T453 488T497 406T512 266Q512 181 497 127T454 45T383 5T288 -6ZM288 29Q331 29 365 37T422 69T458 141T471 267Q471
346 459 393T423 463T365 495T288 503Q245 503 211 495T154 464T119 393T107 267Q107 189 119 142T154 70T211 37T288 29Z" />
<glyph unicode="p" horiz-adv-x="574" d="M86 -237V532H117L127 476Q145 487 176 502T245 527T316 538Q369 538 406 515T465 452T498 364T508 268Q508 176 486 115T422 24T316 -6Q268 -6 219 10T127 53V-237H86ZM309 29Q356 29 391 52T446 127T467 268Q467 351
444 403T386 479T310 503Q254 503 209 486T127 450V82Q171 59 217 44T309 29Z" />
<glyph unicode="q" horiz-adv-x="570" d="M447 -237V56Q403 28 352 11T252 -6Q184 -6 143 25T84 117T66 268Q66 355 86 415T150 507T262 538Q310 538 351 537T427 533T487 528V-237H447ZM258 29Q309 29 354 43T447 83V504H266Q205 504 171 473T122 389T107 269Q107
187 122 134T171 55T258 29Z" />
<glyph unicode="r" horiz-adv-x="407" d="M86 0V532H116L127 433Q167 479 216 508T328 538Q343 538 356 537T380 532V491Q369 493 355 494T325 496Q284 496 253 486T191 454T127 403V0H86Z" />
<glyph unicode="s" horiz-adv-x="497" d="M264 -6Q248 -6 219 -6T157 -4T98 -1T60 2V28H268Q307 28 337 34T385 61T403 126V154Q403 197 375 221T286 246H215Q167 246 131 257T76 295T57 370V397Q57 446 76 477T133 522T229 537Q255 537 290 536T362 533T421 527V502H225Q163
502 129 481T95 397V372Q95 334 110 315T154 289T219 283H290Q358 283 399 251T441 157V125Q441 71 417 43T353 5T264 -6Z" />
<glyph unicode="t" horiz-adv-x="355" d="M248 0Q203 0 171 16T124 69T108 162L111 497H25V523L110 532L119 681H149V532H317V497H149V163Q149 121 158 96T182 59T213 41T244 35L309 29V0H248Z" />
<glyph unicode="u" horiz-adv-x="584" d="M249 -6Q171 -6 129 32T86 159V532H127V165Q127 86 162 59T264 31Q321 31 365 45T460 88V532H501V0H472L460 61Q418 34 364 14T249 -6Z" />
<glyph unicode="v" horiz-adv-x="521" d="M235 0L22 532H64L258 39L457 532H498L281 0H235Z" />
<glyph unicode="w" horiz-adv-x="781" d="M196 0L22 532H64L220 39L372 532H411L562 39L717 532H759L586 0H541L391 483L240 0H196Z" />
<glyph unicode="x" horiz-adv-x="488" d="M416 0L29 532H73L460 0H416ZM29 0L226 274L244 241L71 0H29ZM261 255L242 285L417 531L460 532L261 255Z" />
<glyph unicode="y" horiz-adv-x="526" d="M216 -237L290 0Q275 1 252 9T206 41T166 115L22 532H66L205 124Q218 88 233 70T264 45T290 38T300 38L461 532H503L289 -138L243 -237H216Z" />
<glyph unicode="z" horiz-adv-x="489" d="M55 0V34L392 497H48V532H441V498L101 35H441V0H55Z" />
<glyph unicode="{" horiz-adv-x="306" d="M280 -210Q223 -210 190 -195T139 -155T117 -100T111 -38V242Q111 265 98 281T65 306T25 313V354Q42 356 62 362T97 382T112 425V656Q112 705 126 747T176 816T280 842V807Q239 807 211 792T168 743T153 648V422Q153 384
129 362T71 334Q105 329 128 306T152 249V-31Q152 -114 184 -145T280 -176V-210Z" />
<glyph unicode="|" horiz-adv-x="254" d="M108 -72V770H145V-72H108Z" />
<glyph unicode="}" horiz-adv-x="306" d="M25 -210V-176Q90 -176 121 -145T153 -31V249Q153 282 177 305T235 334Q201 339 177 361T152 422V648Q152 708 138 742T96 792T25 807V842Q94 842 130 816T179 748T193 656V425Q193 397 208 383T243 362T280 354V313Q260
315 241 307T208 282T194 242V-38Q194 -69 189 -99T167 -155T116 -195T25 -210Z" />
<glyph unicode="~" horiz-adv-x="466" d="M296 540Q280 540 263 550T229 574T197 598T170 609Q143 609 120 595T70 561L64 575Q89 598 115 616T172 634Q188 634 205 624T238 600T270 576T297 565Q325 565 351 583T395 617L403 603Q379 578 354 559T296 540Z" />
<glyph unicode="&#xa0;" horiz-adv-x="277" />
<glyph unicode="&#xa1;" horiz-adv-x="262" d="M147 335L153 -200H112L119 335H147ZM143 532Q156 532 156 519V451Q156 438 143 438H122Q109 438 109 451V519Q109 526 113 529T122 532H143Z" />
<glyph unicode="&#xa2;" horiz-adv-x="488" d="M248 -83V-5Q207 -5 171 5T109 43T67 125T51 266Q51 354 65 407T106 488T168 526T248 536V620H275V535Q311 533 353 526T430 509V485Q392 492 349 497T247 502Q210 502 181 493T132 459T102 387T92 262Q92 189 103
143T135 72T185 38T252 29Q292 29 321 32T378 39T437 51V25Q389 9 354 4T275 -4V-83H248Z" />
<glyph unicode="&#xa3;" horiz-adv-x="609" d="M67 0V29L185 37V344L67 348V371L185 377V530Q185 614 209 658T278 718T380 734Q417 734 455 732T520 727V697H382Q331 697 296 685T244 637T226 532V377L458 372V348L226 344V37H536V0H67Z" />
<glyph unicode="&#xa4;" horiz-adv-x="609" d="M304 198Q261 198 226 219T169 277T147 356Q147 400 168 435T225 492T304 514Q348 514 383 493T440 436T462 356Q462 313 441 277T384 220T304 198ZM107 136L84 159L192 267L215 244L107 136ZM188 449L84 553L107
576L211 472L188 449ZM501 136L395 242L418 265L524 159L501 136ZM304 229Q339 229 368 246T414 293T431 356Q431 391 414 420T368 466T304 483Q270 483 242 466T196 420T179 356Q179 322 196 293T241 247T304 229ZM418 447L395 470L501 576L524 553L418 447Z"
/>
<glyph unicode="&#xa5;" horiz-adv-x="609" d="M80 260V291H529V260H80ZM80 141V172H529V141H80ZM274 0V255L33 733H77L294 296L512 733H555L314 255V0H274Z" />
<glyph unicode="&#xa6;" horiz-adv-x="254" d="M108 429V770H145V429H108ZM108 -72V256H145V-72H108Z" />
<glyph unicode="&#xa7;" horiz-adv-x="556" d="M317 -6Q299 -6 270 -6T209 -4T148 -2T107 1V29H313Q369 29 397 40T435 71T446 116V183Q446 209 440 223T413 244T346 250H204Q152 250 121 259T75 291T61 350V409Q61 458 78 476T127 501Q94 509 83 535T71 590V658Q71
706 89 733T142 772T225 784Q243 784 274 784T340 783T406 781T450 777V749H228Q192 749 166 743T125 716T111 655V591Q111 548 135 536T209 524H351Q411 524 442 514T484 480T496 419V360Q496 316 483 297T434 272Q458 267 469 253T483 221T486 185V115Q486 70
467 44T409 6T317 -6ZM209 284H346Q396 284 419 288T449 307T456 356V415Q456 445 448 461T415 483T346 489H209Q146 489 124 474T101 413V355Q101 332 109 317T141 293T209 284Z" />
<glyph unicode="&#xa8;" horiz-adv-x="421" d="M299 662Q285 662 285 675V742Q285 755 299 755H317Q324 755 327 752T330 742V675Q330 662 317 662H299ZM104 662Q91 662 91 675V742Q91 755 104 755H123Q130 755 133 752T136 742V675Q136 662 123 662H104Z" />
<glyph unicode="&#xa9;" horiz-adv-x="857" d="M314 0Q259 0 218 24T149 88T103 177T78 275T70 368Q70 430 81 494T118 612T193 699T314 732H565Q624 732 664 708T728 643T766 554T783 457T787 368Q787 294 774 227T733 109T664 29T565 0H314ZM392 147Q353 147
320 164T266 229T246 365Q246 446 265 493T317 562T392 583Q413 583 444 581T508 575T569 565V548Q539 553 505 555T442 559T396 560Q358 560 330 541T286 478T270 362Q270 270 298 220T396 170Q448 170 494 174T575 186V169Q528 155 485 151T392 147ZM314 23H564Q620
23 665 62T736 177T763 368Q763 437 753 498T720 607T659 682T565 709H314Q273 709 234 693T164 638T114 534T94 368Q93 309 106 249T146 137T215 54T314 23Z" />
<glyph unicode="&#xaa;" horiz-adv-x="407" d="M38 269V295H356V269H38ZM73 460Q73 432 84 416T113 392T148 385Q168 385 195 390T249 404T292 419T310 425V563L161 557Q113 556 93 533T73 478V460ZM38 479Q38 526 68 553T158 580H310V640Q310 680 288 704T200
728H73V751Q98 754 131 756T209 759Q257 760 287 747T332 708T347 642V360H320L311 406Q309 405 292 397T250 380T195 363T138 356Q95 356 67 381T38 453V479Z" />
<glyph unicode="&#xab;" horiz-adv-x="606" d="M276 69L64 279L272 484L296 460L112 279L302 94L276 69ZM526 69L314 279L522 484L546 460L362 279L552 94L526 69Z" />
<glyph unicode="&#xac;" horiz-adv-x="609" d="M491 218V467H528V218H491ZM80 458V494H528V458H80Z" />
<glyph unicode="&#xad;" horiz-adv-x="340" d="M26 272V308H313V272H26Z" />
<glyph unicode="&#xae;" horiz-adv-x="857" d="M314 0Q259 0 218 24T149 88T103 177T78 275T70 368Q70 430 81 494T118 612T193 699T314 732H565Q624 732 664 708T728 643T766 554T783 457T787 368Q787 294 774 227T733 109T664 29T565 0H314ZM314 23H564Q620
23 665 62T736 177T763 368Q763 437 753 498T720 607T659 682T565 709H314Q273 709 234 693T164 638T114 534T94 368Q93 309 106 249T146 137T215 54T314 23ZM280 153V580H458Q491 580 519 571T565 534T583 453Q583 411 572 389T543 358T508 347T477 343L585 153H559L451
342L304 347V153H280ZM304 363H463Q510 363 534 379T559 452Q559 512 534 534T463 557H304V363Z" />
<glyph unicode="&#xaf;" horiz-adv-x="383" d="M64 685V710H320V685H64Z" />
<glyph unicode="&#xb0;" horiz-adv-x="335" d="M169 506Q115 506 80 541T44 631Q44 668 60 696T104 740T169 757Q223 757 257 721T292 631Q292 577 258 542T169 506ZM169 527Q214 527 242 557T270 631Q270 676 242 706T169 736Q124 736 95 706T65 631Q65 587 94
557T169 527Z" />
<glyph unicode="&#xb1;" horiz-adv-x="609" d="M80 138V174H528V138H80ZM286 282V730H322V282H286ZM80 488V524H528V488H80Z" />
<glyph unicode="&#xb2;" horiz-adv-x="457" d="M52 280V310L263 507Q315 556 335 596T356 687Q356 716 345 739T305 777T220 791H74V817Q107 820 148 822T229 824Q291 824 327 807T378 759T393 690Q393 651 383 619T350 555T289 488L103 314H415V280H52Z" />
<glyph unicode="&#xb3;" horiz-adv-x="457" d="M236 276Q177 276 128 277T42 283V309H227Q260 309 287 317T332 346T350 405V447Q350 480 334 499T293 526T244 535L101 540V565L243 570Q286 572 314 590T342 651V696Q342 740 312 765T222 791H64V817Q95 821 136
822T234 824Q308 824 343 789T378 700V652Q378 615 363 595T327 565T294 553Q309 550 331 539T370 505T388 445V401Q388 340 348 308T236 276Z" />
<glyph unicode="&#xb4;" horiz-adv-x="205" d="M25 631L141 765H180L49 631H25Z" />
<glyph unicode="&#xb5;" horiz-adv-x="584" d="M256 -6Q213 -6 181 7T128 46T97 105T86 180V533H127V165Q127 112 144 83T193 43T264 31Q322 31 366 45T460 88V533H501V0H472L461 61Q421 33 368 14T256 -6ZM86 -268V223H127V-268H86Z" />
<glyph unicode="&#xb6;" horiz-adv-x="572" d="M288 -270V324Q281 319 260 316T205 314Q151 314 115 335T60 390T42 467V593Q42 641 66 672T127 718T207 733H549V697H464V0H430V699H322V-270H288ZM208 348H288V699H208Q143 699 110 668T76 588V471Q76 429 92 405T131
368T175 352T208 348Z" />
<glyph unicode="&#xb7;" horiz-adv-x="263" d="M122 354Q108 354 108 367V390Q108 403 122 403H143Q156 403 156 390V367Q156 361 152 358T143 354H122Z" />
<glyph unicode="&#xb8;" horiz-adv-x="264" d="M64 -185V-168L89 -166Q119 -164 135 -152T152 -115Q152 -96 138 -82T75 -67L95 -57Q141 -57 159 -73T178 -119Q178 -151 155 -168T88 -185H64ZM75 -67L127 11H148L96 -67H75Z" />
<glyph unicode="&#xb9;" horiz-adv-x="457" d="M218 280V789L82 749V774L220 826H254V280H218ZM74 280V313H398V280H74Z" />
<glyph unicode="&#xba;" horiz-adv-x="434" d="M57 269V295H377V269H57ZM85 556Q85 481 100 445T145 397T217 385Q258 385 287 396T333 444T349 556Q349 632 333 668T288 716T217 727Q175 727 146 716T101 669T85 556ZM48 556Q48 640 67 683T124 741T217 756Q271
756 308 741T365 683T385 556Q385 473 366 430T309 372T217 356Q162 356 125 371T68 430T48 556Z" />
<glyph unicode="&#xbb;" horiz-adv-x="606" d="M84 69L60 93L245 274L55 459L81 484L293 274L84 69ZM334 69L310 93L495 274L305 459L331 484L543 274L334 69Z" />
<glyph unicode="&#xbc;" horiz-adv-x="1275" d="M430 0L809 770H843L465 0H430ZM1111 1V148H844L835 175L1054 540H1091L875 179H1111V337L1121 386H1147V179H1230V155L1147 148V1H1111ZM227 280V789L91 749V774L229 826H263V280H227ZM83 280V313H407V280H83Z" />
<glyph unicode="&#xbd;" horiz-adv-x="1275" d="M430 0L809 770H843L465 0H430ZM847 0V30L1058 227Q1110 276 1130 316T1151 407Q1151 436 1140 459T1100 497T1015 511H869V537Q902 540 943 542T1024 544Q1086 544 1122 527T1173 479T1188 410Q1188 371 1178 339T1145
275T1084 208L898 34H1210V0H847ZM227 280V789L91 749V774L229 826H263V280H227ZM83 280V313H407V280H83Z" />
<glyph unicode="&#xbe;" horiz-adv-x="1275" d="M430 0L809 770H843L465 0H430ZM1111 1V148H844L835 175L1054 540H1091L875 179H1111V337L1121 386H1147V179H1230V155L1147 148V1H1111ZM246 276Q187 276 138 277T52 283V309H237Q270 309 297 317T342 346T360
405V447Q360 480 344 499T303 526T254 535L111 540V565L253 570Q296 572 324 590T352 651V696Q352 740 322 765T232 791H74V817Q105 821 146 822T244 824Q318 824 353 789T388 700V652Q388 615 373 595T337 565T304 553Q319 550 341 539T380 505T398 445V401Q398
340 358 308T246 276Z" />
<glyph unicode="&#xbf;" horiz-adv-x="532" d="M350 336V200H310Q213 200 172 172T130 66V-8Q130 -97 165 -133T280 -170Q334 -170 382 -160T485 -129V-156Q436 -185 383 -195T273 -207Q203 -208 163 -185T106 -117T89 -11V67Q89 153 141 194T316 236V336H350ZM344
532Q357 532 357 519V451Q357 438 344 438H323Q309 438 309 451V519Q309 526 313 529T323 532H344Z" />
<glyph unicode="&#xc0;" horiz-adv-x="669" d="M44 0L307 733H362L625 0H581L494 241H174L87 0H44ZM184 278H481L334 695L184 278ZM321 791L190 925H229L345 791H321Z" />
<glyph unicode="&#xc1;" horiz-adv-x="669" d="M44 0L307 733H362L625 0H581L494 241H174L87 0H44ZM184 278H481L334 695L184 278ZM325 791L441 925H480L349 791H325Z" />
<glyph unicode="&#xc2;" horiz-adv-x="669" d="M44 0L307 733H362L625 0H581L494 241H174L87 0H44ZM184 278H481L334 695L184 278ZM192 791L321 923H352L469 791H442L336 901L219 791H192Z" />
<glyph unicode="&#xc3;" horiz-adv-x="669" d="M44 0L307 733H362L625 0H581L494 241H174L87 0H44ZM184 278H481L334 695L184 278ZM171 817Q172 853 185 873T220 902T261 911Q285 911 305 901T345 877T383 853T422 842Q452 842 472 859T493 912H515Q515 869 491
843T422 817Q400 817 380 827T341 851T302 875T261 886Q235 886 214 870T193 817H171Z" />
<glyph unicode="&#xc4;" horiz-adv-x="669" d="M44 0L307 733H362L625 0H581L494 241H174L87 0H44ZM184 278H481L334 695L184 278ZM441 822Q427 822 427 835V902Q427 915 441 915H459Q466 915 469 912T472 902V835Q472 822 459 822H441ZM192 822Q179 822 179 835V902Q179
915 192 915H211Q218 915 221 912T224 902V835Q224 822 211 822H192Z" />
<glyph unicode="&#xc5;" horiz-adv-x="669" d="M44 0L307 733H362L625 0H581L494 241H174L87 0H44ZM184 278H481L334 695L184 278ZM334 761Q284 761 257 783T229 865Q229 923 256 946T334 969Q385 969 411 946T437 865Q437 806 412 784T334 761ZM334 782Q376 782
395 799T414 865Q414 913 395 930T334 948Q293 948 273 931T252 865Q252 816 272 799T334 782Z" />
<glyph unicode="&#xc6;" horiz-adv-x="954" d="M627 -3Q562 -4 525 23T486 120V240H236L86 0H44L431 630Q451 662 474 685T529 721T605 733Q678 732 749 730T889 726V695H603Q559 695 542 678T524 623V382L848 379V349L524 345V133Q524 98 536 77T573 45T631 35H889V4Q825
2 760 1T627 -3ZM256 276H486V644L256 276Z" />
<glyph unicode="&#xc7;" horiz-adv-x="578" d="M322 -6Q254 -6 206 9T127 63T82 176T67 369Q67 479 81 551T127 664T209 722T329 739Q350 739 384 736T457 729T530 717V688Q513 691 482 694T410 699T331 702Q271 702 228 688T159 638T120 536T108 368Q108 261
120 194T158 92T225 44T327 31Q402 31 450 35T530 45V15Q497 9 460 4T386 -3T322 -6ZM265 -185V-168L290 -166Q320 -164 336 -152T353 -115Q353 -96 339 -82T276 -67L296 -57Q342 -57 360 -73T379 -119Q379 -151 356 -168T289 -185H265ZM276 -67L328 11H349L297
-67H276Z" />
<glyph unicode="&#xc8;" horiz-adv-x="581" d="M228 -3Q203 -3 178 1T132 18T98 57T85 128V598Q85 636 96 662T126 704T168 726T217 733Q270 732 320 731T420 729T517 726V695H223Q179 695 153 671T126 594V382L476 379V349L126 345V133Q126 89 141 68T180 41T231
35H517V4Q470 2 422 1T325 -1T228 -3ZM297 791L166 925H205L321 791H297Z" />
<glyph unicode="&#xc9;" horiz-adv-x="581" d="M228 -3Q203 -3 178 1T132 18T98 57T85 128V598Q85 636 96 662T126 704T168 726T217 733Q270 732 320 731T420 729T517 726V695H223Q179 695 153 671T126 594V382L476 379V349L126 345V133Q126 89 141 68T180 41T231
35H517V4Q470 2 422 1T325 -1T228 -3ZM301 791L417 925H456L325 791H301Z" />
<glyph unicode="&#xca;" horiz-adv-x="581" d="M228 -3Q203 -3 178 1T132 18T98 57T85 128V598Q85 636 96 662T126 704T168 726T217 733Q270 732 320 731T420 729T517 726V695H223Q179 695 153 671T126 594V382L476 379V349L126 345V133Q126 89 141 68T180 41T231
35H517V4Q470 2 422 1T325 -1T228 -3ZM168 791L297 923H328L445 791H418L312 901L195 791H168Z" />
<glyph unicode="&#xcb;" horiz-adv-x="581" d="M228 -3Q203 -3 178 1T132 18T98 57T85 128V598Q85 636 96 662T126 704T168 726T217 733Q270 732 320 731T420 729T517 726V695H223Q179 695 153 671T126 594V382L476 379V349L126 345V133Q126 89 141 68T180 41T231
35H517V4Q470 2 422 1T325 -1T228 -3ZM417 822Q403 822 403 835V902Q403 915 417 915H435Q442 915 445 912T448 902V835Q448 822 435 822H417ZM168 822Q155 822 155 835V902Q155 915 168 915H187Q194 915 197 912T200 902V835Q200 822 187 822H168Z" />
<glyph unicode="&#xcc;" horiz-adv-x="210" d="M85 0V733H126V0H85ZM92 791L-39 925H0L116 791H92Z" />
<glyph unicode="&#xcd;" horiz-adv-x="210" d="M85 0V733H126V0H85ZM96 791L212 925H251L120 791H96Z" />
<glyph unicode="&#xce;" horiz-adv-x="210" d="M85 0V733H126V0H85ZM-37 791L92 923H123L240 791H213L107 901L-10 791H-37Z" />
<glyph unicode="&#xcf;" horiz-adv-x="210" d="M85 0V733H126V0H85ZM212 822Q198 822 198 835V902Q198 915 212 915H230Q237 915 240 912T243 902V835Q243 822 230 822H212ZM-37 822Q-50 822 -50 835V902Q-50 915 -37 915H-18Q-11 915 -8 912T-5 902V835Q-5 822
-18 822H-37Z" />
<glyph unicode="&#xd0;" horiz-adv-x="663" d="M16 356V388H322V356H16ZM85 0V733H363Q425 733 469 711T541 643T582 528T596 366Q596 256 570 174T492 46T363 0H85ZM126 37H361Q428 37 470 78T534 194T555 366Q555 454 544 516T510 619T450 677T361 696H126V37Z" />
<glyph unicode="&#xd1;" horiz-adv-x="670" d="M103 0V733H138L563 72V733H604V0H569L144 661V0H103ZM175 817Q176 853 189 873T224 902T265 911Q289 911 309 901T349 877T387 853T426 842Q456 842 476 859T497 912H519Q519 869 495 843T426 817Q404 817 384 827T345
851T306 875T265 886Q239 886 218 870T197 817H175Z" />
<glyph unicode="&#xd2;" horiz-adv-x="679" d="M340 -6Q271 -6 220 7T135 57T84 167T67 362Q67 484 84 558T135 672T221 725T340 739Q410 739 461 725T546 672T596 559T613 362Q613 241 596 168T545 57T460 7T340 -6ZM340 31Q401 31 445 43T517 89T558 188T572
362Q572 476 558 544T517 646T445 691T340 702Q283 702 240 691T167 646T123 544T108 362Q108 254 120 189T159 89T231 43T340 31ZM327 791L196 925H235L351 791H327Z" />
<glyph unicode="&#xd3;" horiz-adv-x="679" d="M340 -6Q271 -6 220 7T135 57T84 167T67 362Q67 484 84 558T135 672T221 725T340 739Q410 739 461 725T546 672T596 559T613 362Q613 241 596 168T545 57T460 7T340 -6ZM340 31Q401 31 445 43T517 89T558 188T572
362Q572 476 558 544T517 646T445 691T340 702Q283 702 240 691T167 646T123 544T108 362Q108 254 120 189T159 89T231 43T340 31ZM331 791L447 925H486L355 791H331Z" />
<glyph unicode="&#xd4;" horiz-adv-x="679" d="M340 -6Q271 -6 220 7T135 57T84 167T67 362Q67 484 84 558T135 672T221 725T340 739Q410 739 461 725T546 672T596 559T613 362Q613 241 596 168T545 57T460 7T340 -6ZM340 31Q401 31 445 43T517 89T558 188T572
362Q572 476 558 544T517 646T445 691T340 702Q283 702 240 691T167 646T123 544T108 362Q108 254 120 189T159 89T231 43T340 31ZM197 791L326 923H357L474 791H447L341 901L224 791H197Z" />
<glyph unicode="&#xd5;" horiz-adv-x="679" d="M340 -6Q271 -6 220 7T135 57T84 167T67 362Q67 484 84 558T135 672T221 725T340 739Q410 739 461 725T546 672T596 559T613 362Q613 241 596 168T545 57T460 7T340 -6ZM340 31Q401 31 445 43T517 89T558 188T572
362Q572 476 558 544T517 646T445 691T340 702Q283 702 240 691T167 646T123 544T108 362Q108 254 120 189T159 89T231 43T340 31ZM177 817Q178 853 191 873T226 902T267 911Q291 911 311 901T351 877T389 853T428 842Q458 842 478 859T499 912H521Q521 869 497
843T428 817Q406 817 386 827T347 851T308 875T267 886Q241 886 220 870T199 817H177Z" />
<glyph unicode="&#xd6;" horiz-adv-x="679" d="M340 -6Q271 -6 220 7T135 57T84 167T67 362Q67 484 84 558T135 672T221 725T340 739Q410 739 461 725T546 672T596 559T613 362Q613 241 596 168T545 57T460 7T340 -6ZM340 31Q401 31 445 43T517 89T558 188T572
362Q572 476 558 544T517 646T445 691T340 702Q283 702 240 691T167 646T123 544T108 362Q108 254 120 189T159 89T231 43T340 31ZM447 822Q433 822 433 835V902Q433 915 447 915H465Q472 915 475 912T478 902V835Q478 822 465 822H447ZM198 822Q185 822 185 835V902Q185
915 198 915H217Q224 915 227 912T230 902V835Q230 822 217 822H198Z" />
<glyph unicode="&#xd7;" horiz-adv-x="609" d="M449 184L132 501L159 528L476 211L449 184ZM159 184L132 211L449 528L476 501L159 184Z" />
<glyph unicode="&#xd8;" horiz-adv-x="679" d="M81 0L563 733H598L116 0H81ZM340 -6Q271 -6 220 7T135 57T84 167T67 362Q67 484 84 558T135 672T221 725T340 739Q410 739 461 725T546 672T596 559T613 362Q613 241 596 168T545 57T460 7T340 -6ZM340 31Q401 31
445 43T517 89T558 188T572 362Q572 476 558 544T517 646T445 691T340 702Q283 702 240 691T167 646T123 544T108 362Q108 254 120 189T159 89T231 43T340 31Z" />
<glyph unicode="&#xd9;" horiz-adv-x="670" d="M335 -6Q273 -6 225 5T143 43T92 113T75 222V733H116V223Q116 147 142 106T217 48T335 31Q404 31 453 47T529 105T555 223V733H596V222Q596 157 579 113T528 43T446 6T335 -6ZM321 791L190 925H229L345 791H321Z" />
<glyph unicode="&#xda;" horiz-adv-x="670" d="M335 -6Q273 -6 225 5T143 43T92 113T75 222V733H116V223Q116 147 142 106T217 48T335 31Q404 31 453 47T529 105T555 223V733H596V222Q596 157 579 113T528 43T446 6T335 -6ZM325 791L441 925H480L349 791H325Z" />
<glyph unicode="&#xdb;" horiz-adv-x="670" d="M335 -6Q273 -6 225 5T143 43T92 113T75 222V733H116V223Q116 147 142 106T217 48T335 31Q404 31 453 47T529 105T555 223V733H596V222Q596 157 579 113T528 43T446 6T335 -6ZM192 791L321 923H352L469 791H442L336
901L219 791H192Z" />
<glyph unicode="&#xdc;" horiz-adv-x="670" d="M335 -6Q273 -6 225 5T143 43T92 113T75 222V733H116V223Q116 147 142 106T217 48T335 31Q404 31 453 47T529 105T555 223V733H596V222Q596 157 579 113T528 43T446 6T335 -6ZM441 822Q427 822 427 835V902Q427 915
441 915H459Q466 915 469 912T472 902V835Q472 822 459 822H441ZM192 822Q179 822 179 835V902Q179 915 192 915H211Q218 915 221 912T224 902V835Q224 822 211 822H192Z" />
<glyph unicode="&#xdd;" horiz-adv-x="612" d="M286 0V255L46 733H89L307 296L524 733H567L327 255V0H286ZM298 791L414 925H453L322 791H298Z" />
<glyph unicode="&#xde;" horiz-adv-x="546" d="M85 0V733H126V590H318Q348 590 379 582T438 553T482 490T499 384Q499 318 481 276T434 212T372 181T310 172Q298 172 273 172T219 174T164 177T126 179V0H85ZM126 209H307Q346 209 380 223T436 276T457 384Q457
453 437 489T384 539T316 553H126V209Z" />
<glyph unicode="&#xdf;" horiz-adv-x="571" d="M386 -8Q336 -8 289 -3T216 7V33Q244 32 288 30T381 28Q434 28 461 46T498 90T507 134V163Q507 192 491 207T449 230T394 246T339 263T297 293T280 347Q280 382 298 408T342 457T394 502T438 552T456 614Q456 672
414 702T291 732Q209 732 163 686T117 553V0H76V555Q76 614 99 662T170 740T291 769Q366 769 411 748T475 692T495 616Q495 575 477 546T434 493T382 448T338 404T320 350Q320 324 336 309T379 286T434 271T488 253T530 221T547 165V134Q547 99 535 73T502 28T451
1T386 -8Z" />
<glyph unicode="&#xe0;" horiz-adv-x="541" d="M185 -6Q127 -6 89 28T51 126V160Q51 223 92 262T213 301H418V383Q418 421 405 448T360 491T268 507H99V532Q132 535 176 537T277 541Q342 542 382 525T440 472T459 384V0H429L419 63Q417 62 395 52T337 28T261 4T185
-6ZM195 29Q217 28 246 34T305 48T360 65T402 80T418 86V277L214 271Q147 268 120 237T92 160V134Q92 95 108 72T148 39T195 29ZM275 631L144 765H183L299 631H275Z" />
<glyph unicode="&#xe1;" horiz-adv-x="541" d="M185 -6Q127 -6 89 28T51 126V160Q51 223 92 262T213 301H418V383Q418 421 405 448T360 491T268 507H99V532Q132 535 176 537T277 541Q342 542 382 525T440 472T459 384V0H429L419 63Q417 62 395 52T337 28T261 4T185
-6ZM195 29Q217 28 246 34T305 48T360 65T402 80T418 86V277L214 271Q147 268 120 237T92 160V134Q92 95 108 72T148 39T195 29ZM243 631L359 765H398L267 631H243Z" />
<glyph unicode="&#xe2;" horiz-adv-x="541" d="M185 -6Q127 -6 89 28T51 126V160Q51 223 92 262T213 301H418V383Q418 421 405 448T360 491T268 507H99V532Q132 535 176 537T277 541Q342 542 382 525T440 472T459 384V0H429L419 63Q417 62 395 52T337 28T261 4T185
-6ZM195 29Q217 28 246 34T305 48T360 65T402 80T418 86V277L214 271Q147 268 120 237T92 160V134Q92 95 108 72T148 39T195 29ZM128 631L257 763H288L405 631H378L272 741L155 631H128Z" />
<glyph unicode="&#xe3;" horiz-adv-x="541" d="M185 -6Q127 -6 89 28T51 126V160Q51 223 92 262T213 301H418V383Q418 421 405 448T360 491T268 507H99V532Q132 535 176 537T277 541Q342 542 382 525T440 472T459 384V0H429L419 63Q417 62 395 52T337 28T261 4T185
-6ZM195 29Q217 28 246 34T305 48T360 65T402 80T418 86V277L214 271Q147 268 120 237T92 160V134Q92 95 108 72T148 39T195 29ZM113 657Q114 693 127 713T162 742T203 751Q227 751 247 741T287 717T325 693T364 682Q394 682 414 699T435 752H457Q457 709 433 683T364
657Q342 657 322 667T283 691T244 715T203 726Q177 726 156 710T135 657H113Z" />
<glyph unicode="&#xe4;" horiz-adv-x="541" d="M185 -6Q127 -6 89 28T51 126V160Q51 223 92 262T213 301H418V383Q418 421 405 448T360 491T268 507H99V532Q132 535 176 537T277 541Q342 542 382 525T440 472T459 384V0H429L419 63Q417 62 395 52T337 28T261 4T185
-6ZM195 29Q217 28 246 34T305 48T360 65T402 80T418 86V277L214 271Q147 268 120 237T92 160V134Q92 95 108 72T148 39T195 29ZM358 662Q344 662 344 675V742Q344 755 358 755H376Q383 755 386 752T390 742V675Q390 662 376 662H358ZM163 662Q150 662 150 675V742Q150
755 163 755H182Q189 755 192 752T195 742V675Q195 662 182 662H163Z" />
<glyph unicode="&#xe5;" horiz-adv-x="541" d="M185 -6Q127 -6 89 28T51 126V160Q51 223 92 262T213 301H418V383Q418 421 405 448T360 491T268 507H99V532Q132 535 176 537T277 541Q342 542 382 525T440 472T459 384V0H429L419 63Q417 62 395 52T337 28T261 4T185
-6ZM195 29Q217 28 246 34T305 48T360 65T402 80T418 86V277L214 271Q147 268 120 237T92 160V134Q92 95 108 72T148 39T195 29ZM270 598Q220 598 193 620T165 702Q165 760 192 783T270 806Q321 806 347 783T373 702Q373 643 348 621T270 598ZM270 619Q312 619
331 636T350 702Q350 750 331 767T270 785Q229 785 209 768T188 702Q188 653 208 636T270 619Z" />
<glyph unicode="&#xe6;" horiz-adv-x="898" d="M186 -6Q143 -6 113 10T68 56T52 130V158Q52 200 70 230T123 277T208 294H418V383Q418 417 406 445T362 490T274 507H100V532Q134 536 173 538T277 541Q336 542 383 517T445 434Q464 495 512 516T627 538Q695 538
740 523T808 470T831 367Q831 304 794 283T688 262H459Q458 190 472 144T512 73T572 38T646 28H818V2Q774 -2 725 -4T636 -6Q575 -6 537 12T478 57T442 113Q414 82 374 55T287 11T186 -6ZM195 29Q258 29 321 58T433 140Q429 157 424 189T418 265L212 264Q145 263
119 233T93 158V134Q93 95 107 72T145 39T195 29ZM459 293H687Q717 293 740 297T778 317T792 368Q792 416 777 446T726 490T626 504Q562 504 526 488T475 426T459 293Z" />
<glyph unicode="&#xe7;" horiz-adv-x="490" d="M273 -6Q229 -6 192 5T126 46T82 129T66 266Q66 349 81 402T123 484T189 525T274 537Q309 537 357 535T444 529V503H280Q226 503 188 485T128 414T107 263Q107 168 129 117T190 47T280 28H452V3Q430 1 402 -1T341
-4T273 -6ZM204 -185V-168L229 -166Q259 -164 275 -152T292 -115Q292 -96 278 -82T215 -67L235 -57Q281 -57 299 -73T318 -119Q318 -151 295 -168T228 -185H204ZM215 -67L267 11H288L236 -67H215Z" />
<glyph unicode="&#xe8;" horiz-adv-x="543" d="M279 -6Q198 -6 151 20T85 105T66 268Q66 373 87 431T155 514T282 538Q348 538 391 523T455 470T477 366Q477 323 460 297T412 258T336 246H107Q107 166 121 119T174 50T286 28H466V2Q417 -2 375 -4T279 -6ZM107
277H334Q387 277 413 296T439 366Q439 420 424 450T374 492T282 505Q214 505 176 486T122 417T107 277ZM275 631L144 765H183L299 631H275Z" />
<glyph unicode="&#xe9;" horiz-adv-x="543" d="M279 -6Q198 -6 151 20T85 105T66 268Q66 373 87 431T155 514T282 538Q348 538 391 523T455 470T477 366Q477 323 460 297T412 258T336 246H107Q107 166 121 119T174 50T286 28H466V2Q417 -2 375 -4T279 -6ZM107
277H334Q387 277 413 296T439 366Q439 420 424 450T374 492T282 505Q214 505 176 486T122 417T107 277ZM243 631L359 765H398L267 631H243Z" />
<glyph unicode="&#xea;" horiz-adv-x="543" d="M279 -6Q198 -6 151 20T85 105T66 268Q66 373 87 431T155 514T282 538Q348 538 391 523T455 470T477 366Q477 323 460 297T412 258T336 246H107Q107 166 121 119T174 50T286 28H466V2Q417 -2 375 -4T279 -6ZM107
277H334Q387 277 413 296T439 366Q439 420 424 450T374 492T282 505Q214 505 176 486T122 417T107 277ZM128 631L257 763H288L405 631H378L272 741L155 631H128Z" />
<glyph unicode="&#xeb;" horiz-adv-x="543" d="M279 -6Q198 -6 151 20T85 105T66 268Q66 373 87 431T155 514T282 538Q348 538 391 523T455 470T477 366Q477 323 460 297T412 258T336 246H107Q107 166 121 119T174 50T286 28H466V2Q417 -2 375 -4T279 -6ZM107
277H334Q387 277 413 296T439 366Q439 420 424 450T374 492T282 505Q214 505 176 486T122 417T107 277ZM358 662Q344 662 344 675V742Q344 755 358 755H376Q383 755 386 752T390 742V675Q390 662 376 662H358ZM163 662Q150 662 150 675V742Q150 755 163 755H182Q189
755 192 752T195 742V675Q195 662 182 662H163Z" />
<glyph unicode="&#xec;" horiz-adv-x="210" d="M86 0V532H127V0H86ZM368 631L237 765H276L392 631H368Z" />
<glyph unicode="&#xed;" horiz-adv-x="210" d="M86 0V532H127V0H86ZM80 631L196 765H235L104 631H80Z" />
<glyph unicode="&#xee;" horiz-adv-x="210" d="M86 0V532H127V0H86ZM221 631L350 763H381L498 631H471L365 741L248 631H221Z" />
<glyph unicode="&#xef;" horiz-adv-x="210" d="M86 0V532H127V0H86ZM195 662Q181 662 181 675V742Q181 755 195 755H213Q220 755 223 752T227 742V675Q227 662 213 662H195ZM0 662Q-13 662 -13 675V742Q-13 755 0 755H19Q26 755 29 752T32 742V675Q32 662 19 662H0Z" />
<glyph unicode="&#xf0;" horiz-adv-x="578" d="M288 -6Q235 -6 194 5T124 44T81 127T66 266Q66 351 80 404T123 486T193 525T285 536Q333 536 369 527T432 492T473 421Q482 401 490 379T505 330T512 266Q512 181 497 127T454 45T383 5T288 -6ZM288 29Q331 29 365
37T422 69T458 140T471 266Q471 344 459 391T423 461T365 493T288 501Q245 501 211 493T154 462T119 391T107 266Q107 188 119 141T154 69T211 37T288 29ZM512 265L474 272Q474 402 452 488T388 627T288 705T159 739V768Q237 760 301 733T413 648T486 498T512 265ZM198
598L192 618L506 742L514 722L198 598Z" />
<glyph unicode="&#xf1;" horiz-adv-x="584" d="M86 0V532H115L127 471Q169 499 223 520T337 541Q392 541 428 517T482 453T501 368V0H460V365Q460 403 445 434T400 485T329 504Q288 504 255 497T192 476T127 444V0H86ZM134 657Q135 693 148 713T183 742T224 751Q248
751 268 741T308 717T346 693T385 682Q415 682 435 699T456 752H478Q478 709 454 683T385 657Q363 657 343 667T304 691T265 715T224 726Q198 726 177 710T156 657H134Z" />
<glyph unicode="&#xf2;" horiz-adv-x="578" d="M288 -6Q235 -6 194 5T124 45T81 128T66 266Q66 352 80 405T123 488T193 527T288 538Q341 538 383 527T453 488T497 406T512 266Q512 181 497 127T454 45T383 5T288 -6ZM288 29Q331 29 365 37T422 69T458 141T471
267Q471 346 459 393T423 463T365 495T288 503Q245 503 211 495T154 464T119 393T107 267Q107 189 119 142T154 70T211 37T288 29ZM293 631L162 765H201L317 631H293Z" />
<glyph unicode="&#xf3;" horiz-adv-x="578" d="M288 -6Q235 -6 194 5T124 45T81 128T66 266Q66 352 80 405T123 488T193 527T288 538Q341 538 383 527T453 488T497 406T512 266Q512 181 497 127T454 45T383 5T288 -6ZM288 29Q331 29 365 37T422 69T458 141T471
267Q471 346 459 393T423 463T365 495T288 503Q245 503 211 495T154 464T119 393T107 267Q107 189 119 142T154 70T211 37T288 29ZM261 631L377 765H416L285 631H261Z" />
<glyph unicode="&#xf4;" horiz-adv-x="578" d="M288 -6Q235 -6 194 5T124 45T81 128T66 266Q66 352 80 405T123 488T193 527T288 538Q341 538 383 527T453 488T497 406T512 266Q512 181 497 127T454 45T383 5T288 -6ZM288 29Q331 29 365 37T422 69T458 141T471
267Q471 346 459 393T423 463T365 495T288 503Q245 503 211 495T154 464T119 393T107 267Q107 189 119 142T154 70T211 37T288 29ZM146 631L275 763H306L423 631H396L290 741L173 631H146Z" />
<glyph unicode="&#xf5;" horiz-adv-x="578" d="M288 -6Q235 -6 194 5T124 45T81 128T66 266Q66 352 80 405T123 488T193 527T288 538Q341 538 383 527T453 488T497 406T512 266Q512 181 497 127T454 45T383 5T288 -6ZM288 29Q331 29 365 37T422 69T458 141T471
267Q471 346 459 393T423 463T365 495T288 503Q245 503 211 495T154 464T119 393T107 267Q107 189 119 142T154 70T211 37T288 29ZM131 657Q132 693 145 713T180 742T221 751Q245 751 265 741T305 717T343 693T382 682Q412 682 432 699T453 752H475Q475 709 451
683T382 657Q360 657 340 667T301 691T262 715T221 726Q195 726 174 710T153 657H131Z" />
<glyph unicode="&#xf6;" horiz-adv-x="578" d="M288 -6Q235 -6 194 5T124 45T81 128T66 266Q66 352 80 405T123 488T193 527T288 538Q341 538 383 527T453 488T497 406T512 266Q512 181 497 127T454 45T383 5T288 -6ZM288 29Q331 29 365 37T422 69T458 141T471
267Q471 346 459 393T423 463T365 495T288 503Q245 503 211 495T154 464T119 393T107 267Q107 189 119 142T154 70T211 37T288 29ZM376 662Q362 662 362 675V742Q362 755 376 755H394Q401 755 404 752T408 742V675Q408 662 394 662H376ZM181 662Q168 662 168 675V742Q168
755 181 755H200Q207 755 210 752T213 742V675Q213 662 200 662H181Z" />
<glyph unicode="&#xf7;" horiz-adv-x="609" d="M293 511Q269 511 269 534V568Q269 593 293 593H315Q340 593 340 568V534Q340 521 333 516T315 511H293ZM293 119Q269 119 269 142V176Q269 201 293 201H315Q340 201 340 176V142Q340 129 333 124T315 119H293ZM80
338V374H528V338H80Z" />
<glyph unicode="&#xf8;" horiz-adv-x="578" d="M64 0L485 532H513L93 0H64ZM288 -6Q235 -6 194 5T124 45T81 128T66 266Q66 352 80 405T123 488T193 527T288 538Q341 538 383 527T453 488T497 406T512 266Q512 181 497 127T454 45T383 5T288 -6ZM288 29Q331 29
365 37T422 69T458 141T471 267Q471 346 459 393T423 463T365 495T288 503Q245 503 211 495T154 464T119 393T107 267Q107 189 119 142T154 70T211 37T288 29Z" />
<glyph unicode="&#xf9;" horiz-adv-x="584" d="M249 -6Q171 -6 129 32T86 159V532H127V165Q127 86 162 59T264 31Q321 31 365 45T460 88V532H501V0H472L460 61Q418 34 364 14T249 -6ZM287 631L156 765H195L311 631H287Z" />
<glyph unicode="&#xfa;" horiz-adv-x="584" d="M249 -6Q171 -6 129 32T86 159V532H127V165Q127 86 162 59T264 31Q321 31 365 45T460 88V532H501V0H472L460 61Q418 34 364 14T249 -6ZM255 631L371 765H410L279 631H255Z" />
<glyph unicode="&#xfb;" horiz-adv-x="584" d="M249 -6Q171 -6 129 32T86 159V532H127V165Q127 86 162 59T264 31Q321 31 365 45T460 88V532H501V0H472L460 61Q418 34 364 14T249 -6ZM140 631L269 763H300L417 631H390L284 741L167 631H140Z" />
<glyph unicode="&#xfc;" horiz-adv-x="584" d="M249 -6Q171 -6 129 32T86 159V532H127V165Q127 86 162 59T264 31Q321 31 365 45T460 88V532H501V0H472L460 61Q418 34 364 14T249 -6ZM370 662Q356 662 356 675V742Q356 755 370 755H388Q395 755 398 752T402 742V675Q402
662 388 662H370ZM175 662Q162 662 162 675V742Q162 755 175 755H194Q201 755 204 752T207 742V675Q207 662 194 662H175Z" />
<glyph unicode="&#xfd;" horiz-adv-x="526" d="M216 -237L290 0Q275 1 252 9T206 41T166 115L22 532H66L205 124Q218 88 233 70T264 45T290 38T300 38L461 532H503L289 -138L243 -237H216ZM235 631L351 765H390L259 631H235Z" />
<glyph unicode="&#xfe;" horiz-adv-x="574" d="M86 -237V763H127V476Q145 487 176 502T245 527T316 538Q369 538 406 515T465 452T498 364T508 268Q508 176 486 115T422 24T316 -6Q268 -6 219 10T127 53V-237H86ZM309 29Q356 29 391 52T446 127T467 267Q467 351
444 403T386 479T310 503Q254 503 209 486T127 450V82Q171 59 217 44T309 29Z" />
<glyph unicode="&#xff;" horiz-adv-x="526" d="M216 -237L290 0Q275 1 252 9T206 41T166 115L22 532H66L205 124Q218 88 233 70T264 45T290 38T300 38L461 532H503L289 -138L243 -237H216ZM350 662Q336 662 336 675V742Q336 755 350 755H368Q375 755 378 752T382
742V675Q382 662 368 662H350ZM155 662Q142 662 142 675V742Q142 755 155 755H174Q181 755 184 752T187 742V675Q187 662 174 662H155Z" />
<glyph unicode="&#x2013;" horiz-adv-x="526" d="M26 271V308H499V271H26Z" />
<glyph unicode="&#x2014;" horiz-adv-x="749" d="M26 271V308H722V271H26Z" />
<glyph unicode="&#x2018;" horiz-adv-x="164" d="M69 544Q63 544 61 549T59 561V698Q59 717 65 727T79 740T93 743Q97 743 99 743T105 741V728Q93 728 89 724T84 708V646H92Q98 646 102 642T107 629V561Q107 544 92 544H69Z" />
<glyph unicode="&#x2019;" horiz-adv-x="164" d="M71 543Q69 543 66 543T60 544V558Q71 558 75 563T80 578V640H73Q66 640 62 644T58 657V725Q58 742 73 742H95Q101 742 103 737T106 725V588Q106 569 100 559T86 546T71 543Z" />
<glyph unicode="&#x201a;" horiz-adv-x="164" d="M71 -103Q69 -103 66 -103T60 -101V-88Q71 -88 75 -83T80 -68V-6H73Q66 -6 62 -2T58 11V79Q58 96 73 96H95Q101 96 103 91T106 79V-58Q106 -77 100 -87T86 -100T71 -103Z" />
<glyph unicode="&#x201c;" horiz-adv-x="256" d="M69 544Q63 544 61 549T59 561V698Q59 717 65 727T79 740T93 743Q97 743 99 743T105 741V728Q93 728 89 724T84 708V646H92Q98 646 102 642T107 629V561Q107 544 92 544H69ZM161 544Q155 544 153 549T151 561V698Q151
717 157 727T171 740T185 743Q189 743 191 743T197 741V728Q185 728 181 724T176 708V646H184Q190 646 194 642T199 629V561Q199 544 184 544H161Z" />
<glyph unicode="&#x201d;" horiz-adv-x="256" d="M71 543Q69 543 66 543T60 544V558Q71 558 75 563T80 578V640H73Q66 640 62 644T58 657V725Q58 742 73 742H95Q101 742 103 737T106 725V588Q106 569 100 559T86 546T71 543ZM163 543Q161 543 158 543T152 544V558Q163
558 167 563T172 578V640H165Q158 640 154 644T150 657V725Q150 742 165 742H187Q193 742 195 737T198 725V588Q198 569 192 559T178 546T163 543Z" />
<glyph unicode="&#x201e;" horiz-adv-x="256" d="M71 -103Q69 -103 66 -103T60 -101V-88Q71 -88 75 -83T80 -68V-6H73Q66 -6 62 -2T58 11V79Q58 96 73 96H95Q101 96 103 91T106 79V-58Q106 -77 100 -87T86 -100T71 -103ZM163 -103Q161 -103 158 -103T152 -101V-88Q163
-88 167 -83T172 -68V-6H165Q158 -6 154 -2T150 11V79Q150 96 165 96H187Q193 96 195 91T198 79V-58Q198 -77 192 -87T178 -100T163 -103Z" />
<glyph unicode="&#x2022;" horiz-adv-x="320" d="M141 328Q108 328 108 360V402Q108 418 116 427T141 437H177Q212 437 212 402V360Q212 342 202 335T177 328H141Z" />
<glyph unicode="&#x2039;" horiz-adv-x="356" d="M276 69L64 279L272 484L296 460L112 279L302 94L276 69Z" />
<glyph unicode="&#x203a;" horiz-adv-x="356" d="M84 69L60 93L245 274L55 459L81 484L293 274L84 69Z" />
</font>
</defs>
</svg>
