<?xml version="1.0" standalone="no"?>
<!DOCTYPE svg PUBLIC "-//W3C//DTD SVG 1.1//EN" "http://www.w3.org/Graphics/SVG/1.1/DTD/svg11.dtd">
<svg xmlns="http://www.w3.org/2000/svg">
<defs >
<font id="Exo" horiz-adv-x="531" ><font-face
    font-family="Exo ExtraLight"
    units-per-em="1000"
    panose-1="0 0 0 0 0 0 0 0 0 0"
    ascent="1002"
    descent="-327"
    alphabetic="0" />
<glyph unicode=" " horiz-adv-x="236" />
<glyph unicode="!" horiz-adv-x="262" d="M146 197L225 732H266L174 197H146ZM117 0Q106 0 106 11Q106 12 106 12T106 13L117 80Q119 94 132 94H153Q165 94 165 84Q165 83 165 82T165 80L154 13Q153 6 149 3T138 0H117Z" />
<glyph unicode="&quot;" horiz-adv-x="221" d="M132 513L150 675L160 742H201L191 675L159 513H132ZM226 513L244 675L254 742H295L285 675L253 513H226Z" />
<glyph unicode="#" horiz-adv-x="663" d="M161 0L238 243H64L72 267H247L309 461H133L141 485H317L396 732H420L341 485H517L596 732H620L541 485H718L710 461H532L471 267H648L640 243H462L385 0H361L438 243H262L185 0H161ZM271 267H447L508 461H332L271 267Z" />
<glyph unicode="$" horiz-adv-x="609" d="M415 731L401 742L424 824L438 813L415 731ZM269 -88L283 4L310 3L296 -88H269ZM298 -6Q263 -6 222 -4T143 0T77 8L81 37Q122 34 183 33T302 31Q354 31 395 41T463 80T498 164L508 224Q509 234 509 242T510 259Q510 306
483 327T394 349H290Q221 349 186 376T150 463Q150 480 153 501L163 566Q174 637 203 674T278 725T383 739Q400 739 428 738T487 734T547 728T594 722L590 692Q558 694 519 696T442 699T382 700Q330 700 293 690T234 650T202 564L193 503Q192 494 191 486T190 469Q190
423 216 406T296 389H403Q479 389 515 359T551 267Q551 249 548 226L538 160Q528 93 494 57T410 8T298 -6Z" />
<glyph unicode="%" horiz-adv-x="955" d="M237 0L793 732H824L269 0H237ZM237 349Q176 349 151 370T126 435Q126 454 129 475L150 606Q161 670 192 701T300 732H401Q462 732 487 711T513 646Q513 637 512 627T509 606L488 475Q478 411 446 380T338 349H237ZM244
376H340Q395 376 423 396T461 478L481 603Q483 613 483 621T484 638Q484 674 464 689T394 705H298Q243 705 215 686T176 603L156 478Q155 469 154 461T153 444Q153 404 175 390T244 376ZM672 3Q610 3 586 24T561 89Q561 108 564 129L585 260Q595 324 627 355T735
386H836Q897 386 922 365T947 300Q947 291 947 281T944 260L923 129Q913 65 881 34T773 3H672ZM679 30H775Q830 30 858 50T897 132L916 257Q918 267 919 275T920 292Q920 328 900 343T829 359H733Q679 359 650 340T611 257L591 132Q590 123 589 115T588 98Q588
58 610 44T679 30Z" />
<glyph unicode="&amp;" horiz-adv-x="659" d="M220 -6Q149 -6 105 37T61 154Q61 208 75 249T122 326T210 394L280 436L263 467Q244 501 236 532T228 591Q228 638 250 669T315 717T414 733Q449 733 472 732T514 728T550 724L545 696H413Q349 696 309 673T269 590Q269
566 276 539T302 478L484 161L662 309L674 292L592 204L504 131L581 0H535L472 108L436 80Q374 30 323 12T220 -6ZM230 33Q271 33 314 47T411 105L452 138L296 406L237 373Q183 342 154 311T114 244T103 160Q103 102 136 68T230 33Z" />
<glyph unicode="&apos;" horiz-adv-x="127" d="M132 513L150 675L160 742H201L191 675L159 513H132Z" />
<glyph unicode="(" horiz-adv-x="325" d="M224 -210Q193 -151 174 -88T145 44T135 182Q135 251 145 322T176 464T228 605T301 738T393 860H434Q371 788 323 707T243 538T194 363T177 190Q177 84 198 -16T266 -210H224Z" />
<glyph unicode=")" horiz-adv-x="324" d="M-8 -210Q58 -129 107 -45T187 125T235 298T251 470Q251 571 231 665T161 860H203Q236 796 255 734T284 608T293 476Q293 406 283 336T253 196T202 57T129 -79T34 -210H-8Z" />
<glyph unicode="*" horiz-adv-x="476" d="M363 530L345 554L471 637L480 620L363 530ZM402 421L290 491L311 520L416 436L402 421ZM203 404L186 410L239 544L271 538L203 404ZM137 589L140 609L283 614L279 584L137 589ZM330 592L295 723L315 729L361 605L330 592Z" />
<glyph unicode="+" horiz-adv-x="609" d="M307 132L377 580H414L344 132H307ZM134 338L140 374H588L582 338H134Z" />
<glyph unicode="," horiz-adv-x="180" d="M70 -72Q65 -72 62 -71T58 -70L60 -58Q70 -58 74 -55T80 -43L87 1H80Q69 1 69 12Q69 14 69 15T70 17L80 79Q81 94 95 94H115Q126 94 126 84Q126 82 126 81T126 77L108 -34Q105 -51 99 -59T85 -69T70 -72Z" />
<glyph unicode="-" horiz-adv-x="333" d="M67 272L73 308H360L354 272H67Z" />
<glyph unicode="." horiz-adv-x="180" d="M80 0Q69 0 69 11Q69 12 69 12T69 13L80 80Q82 94 95 94H116Q128 94 128 84Q128 83 128 82T128 80L117 13Q116 6 112 3T101 0H80Z" />
<glyph unicode="/" horiz-adv-x="369" d="M14 -72L428 770H465L51 -72H14Z" />
<glyph unicode="0" horiz-adv-x="660" d="M264 -1Q222 -1 188 12T133 53T112 128Q112 136 113 145T115 165L179 572Q188 628 217 665T289 720T381 739H518Q597 739 631 703T665 611Q665 601 665 592T662 572L598 165Q584 76 530 38T400 -1H264ZM274 37H401Q473
37 510 72T557 168L620 570Q622 579 622 587T623 602Q623 651 594 676T507 702H379Q316 702 273 668T220 570L157 168Q156 161 155 154T154 140Q154 89 186 63T274 37Z" />
<glyph unicode="1" horiz-adv-x="356" d="M214 0L324 691L152 636L156 662L332 733H371L255 0H214Z" />
<glyph unicode="2" horiz-adv-x="596" d="M59 0L64 35L375 304Q475 392 518 463T562 590Q562 622 548 647T497 686T396 701H200L206 731Q250 734 304 736T411 739Q482 739 524 721T585 670T603 596Q603 533 556 454T403 283L124 39H549L542 0H59Z" />
<glyph unicode="3" horiz-adv-x="589" d="M304 -6Q224 -6 159 -4T47 2L52 31H301Q345 31 384 42T451 83T489 166Q495 197 498 218T501 247Q501 285 481 307T431 339T370 350L181 357L186 384L378 390Q437 392 479 418T531 504Q537 541 539 558T542 583T543 594Q543
645 506 673T398 702H187L192 731Q232 735 287 737T416 739Q476 739 512 722T567 675T585 605Q585 600 585 592T582 564T572 505Q566 467 549 442T511 402T470 379T437 370Q450 368 467 361T502 339T530 303T542 249Q542 240 539 218T530 163Q517 80 458 37T304
-6Z" />
<glyph unicode="4" horiz-adv-x="581" d="M400 2L433 205H73L65 234L442 733H484L112 241H438L474 466L494 525H524L479 241H593L589 213L474 205L441 2H400Z" />
<glyph unicode="5" horiz-adv-x="643" d="M350 -4Q286 -4 227 -3T124 3L129 33H356Q405 33 447 49T519 96T556 174L571 272Q573 280 573 288T574 304Q574 353 542 380T445 408H355Q301 408 266 385T212 309H174L261 733H663L657 696H293L229 383Q242 406 277 425T367
444H458Q535 444 575 408T615 312Q615 303 615 295T613 277L595 168Q587 112 552 74T465 16T350 -4Z" />
<glyph unicode="6" horiz-adv-x="632" d="M275 -1Q231 -1 198 16T146 78T127 205Q127 285 138 363T174 509T236 628T327 709T450 739Q489 739 539 737T629 732L624 702H438Q382 702 331 668T241 566T186 391Q220 394 263 395T346 397T410 398Q467 398 509 389T576
355T600 285Q600 277 599 269T596 253L580 151Q572 94 544 61T476 13T393 -1H275ZM285 36H394Q428 36 458 45T511 79T541 153L556 249Q558 257 558 263T559 275Q559 312 539 330T484 355T399 362H181Q174 315 171 276T167 205Q167 139 181 103T221 51T285 36Z"
/>
<glyph unicode="7" horiz-adv-x="538" d="M169 0L558 692H156L163 733H596L610 705L217 0H169Z" />
<glyph unicode="8" horiz-adv-x="651" d="M264 -1Q214 -1 181 12T131 49T114 109Q114 115 115 122T117 136L134 245Q140 285 161 311T209 351T254 370Q218 387 202 414T186 473Q186 480 186 486T188 500L201 585Q211 641 236 674T299 723T381 738H519Q579 738
609 713T639 630Q639 620 638 609T635 585L622 500Q619 481 611 462T590 427T560 398T523 379Q561 371 580 344T599 280Q599 273 599 267T597 253L579 137Q571 91 548 61T487 15T401 -1H264ZM274 36H401Q461 36 495 61T538 138L555 246Q557 256 557 264T558 278Q558
320 532 338T445 356H324Q307 356 284 351T238 333T198 299T175 246L158 138Q157 133 157 129T156 119Q156 74 190 55T274 36ZM330 392H451Q493 392 520 408T562 449T581 496L594 578Q596 590 597 599T598 618Q598 664 576 683T507 702H380Q316 702 284 672T241
578L228 496Q227 492 227 487T227 477Q227 442 251 417T330 392Z" />
<glyph unicode="9" horiz-adv-x="632" d="M473 736Q518 736 551 719T602 657T621 530Q621 449 610 372T574 226T512 107T421 26T298 -4Q260 -4 209 -2T119 3L124 33H311Q367 33 418 67T507 170T562 344Q528 341 485 340T403 337T338 336Q282 336 239 346T172 380T148
450Q148 458 149 466T152 482L168 584Q177 641 204 674T272 721T355 736H473ZM463 699H354Q320 699 290 690T237 656T207 582L192 486Q191 479 190 472T189 460Q189 423 209 405T264 380T349 373H567Q575 420 578 459T581 530Q581 596 567 632T527 684T463 699Z"
/>
<glyph unicode=":" horiz-adv-x="180" d="M80 0Q69 0 69 11Q69 12 69 12T69 13L80 80Q82 94 95 94H116Q128 94 128 84Q128 83 128 82T128 80L117 13Q116 6 112 3T101 0H80ZM150 438Q139 438 139 449Q139 450 139 450T139 451L150 518Q152 532 165 532H186Q198
532 198 522Q198 521 198 520T198 518L187 451Q186 444 182 441T171 438H150Z" />
<glyph unicode=";" horiz-adv-x="180" d="M150 438Q139 438 139 449Q139 450 139 450T139 451L150 518Q152 532 165 532H186Q198 532 198 522Q198 521 198 520T198 518L187 451Q186 444 182 441T171 438H150ZM70 -72Q65 -72 62 -71T58 -70L60 -58Q70 -58 74 -55T80
-43L87 1H80Q69 1 69 12Q69 14 69 15T70 17L80 79Q81 94 95 94H115Q126 94 126 84Q126 82 126 81T126 77L108 -34Q105 -51 99 -59T85 -69T70 -72Z" />
<glyph unicode="&lt;" horiz-adv-x="609" d="M528 193L134 329L140 368L576 503L571 468L174 348L533 228L528 193Z" />
<glyph unicode="=" horiz-adv-x="609" d="M371 474L377 510H825L819 474H371ZM153 458L159 494H607L601 458H153Z" />
<glyph unicode="&gt;" horiz-adv-x="609" d="M143 193L148 228L545 349L186 468L191 503L585 368L579 329L143 193Z" />
<glyph unicode="?" horiz-adv-x="532" d="M213 196L234 332H274Q339 332 380 344T444 385T475 465L487 540Q490 555 490 568T491 593Q491 652 460 677T363 702Q309 702 260 693T151 661L155 688Q218 717 273 728T381 739Q465 739 499 703T534 604Q534 576 528
543L516 465Q503 379 444 338T263 296L247 196H213ZM192 0Q181 0 181 11Q181 12 181 12T181 13L191 80Q194 94 207 94H228Q239 94 239 84Q239 83 239 82T239 80L228 13Q227 6 223 3T213 0H192Z" />
<glyph unicode="@" horiz-adv-x="905" d="M217 -181Q167 -181 132 -161T78 -105T59 -24Q59 -15 60 -6T63 14L144 521Q150 559 164 592T204 650T267 689T357 703H748Q798 703 831 686T881 638T897 562Q897 540 894 515L842 170Q839 153 829 125T798 68T740 20T652
0H614L613 62Q600 48 576 36T521 14T460 -1T405 -6Q362 -6 326 10T268 67T246 177Q246 294 282 376T378 501T509 544Q568 544 621 529T709 481L643 32Q661 32 685 36T735 54T779 96T806 172L858 517Q860 529 861 539T862 560Q862 623 829 645T743 668H354Q295 668
259 647T204 592T179 517L99 12Q96 -6 96 -22Q96 -82 131 -114T223 -146H608L604 -169Q579 -172 535 -175T434 -179T314 -181H217ZM409 30Q455 30 509 40T615 89L672 470Q626 494 589 502T510 510Q448 510 396 471T313 359T282 182Q282 120 300 88T348 43T409 30Z"
/>
<glyph unicode="A" horiz-adv-x="665" d="M42 0L427 733H482L623 0H581L534 240H212L84 0H42ZM230 278H528L448 693L230 278Z" />
<glyph unicode="B" horiz-adv-x="602" d="M78 0L194 733H434Q493 733 531 717T586 670T603 596Q603 584 602 572T599 546Q589 476 551 436T463 384Q484 379 509 362T552 313T570 234Q570 224 569 210T564 179Q547 94 492 47T336 0H78ZM124 37H342Q401 37 437 56T494
110T525 190Q528 204 529 215T530 236Q530 297 493 331T396 365H176L124 37ZM181 400H399Q465 400 504 436T558 540Q561 554 562 566T564 590Q564 647 528 671T426 696H228L181 400Z" />
<glyph unicode="C" horiz-adv-x="589" d="M307 -6Q203 -6 157 50T111 215Q111 254 116 298T127 378Q145 493 180 574T273 697T418 739Q490 739 542 731T636 714L629 685Q580 693 530 697T420 702Q365 702 325 682T254 621T203 517T168 366Q162 331 158 290T153
215Q153 118 190 75T316 31Q394 31 440 34T527 45L522 15Q474 4 417 -1T307 -6Z" />
<glyph unicode="D" horiz-adv-x="666" d="M78 0L194 733H450Q532 733 579 704T647 619T667 478Q667 447 664 416T656 354Q644 279 621 215T559 103T467 27T339 0H78ZM124 37H340Q405 37 452 63T532 134T585 239T616 365Q621 397 624 426T627 480Q627 551 611 599T554
671T440 696H228L124 37Z" />
<glyph unicode="E" horiz-adv-x="569" d="M219 -6Q194 -6 170 -1T127 19T100 61T98 132L173 602Q181 653 204 682T260 722T326 733Q400 732 474 731T623 726L618 695H326Q282 695 252 673T212 593L179 383L527 377L521 347L172 345L140 133Q134 90 144 69T177
40T231 32H515L510 1Q438 0 366 -2T219 -6Z" />
<glyph unicode="F" horiz-adv-x="547" d="M78 0L172 595Q181 653 204 683T259 723T325 733Q400 732 475 731T623 726L618 695H323Q276 695 249 672T212 593L178 380L526 374L521 344L173 342L118 0H78Z" />
<glyph unicode="G" horiz-adv-x="639" d="M301 -6Q199 -6 156 48T112 218Q112 254 116 295T127 380Q144 488 178 569T273 695T427 741Q504 741 558 732T656 710L651 681Q607 690 550 697T426 704Q346 704 295 664T214 549T168 368Q153 277 153 213Q153 119 190
76T312 32Q338 32 370 37T435 49T494 65T535 80L576 340H373L378 370Q404 375 446 375T548 376Q560 376 572 376T597 375T622 373L562 0H534V53Q521 46 495 37T436 18T368 1T301 -6Z" />
<glyph unicode="H" horiz-adv-x="652" d="M78 0L194 733H235L178 374H594L651 733H692L576 0H535L588 337H172L118 0H78Z" />
<glyph unicode="I" horiz-adv-x="196" d="M78 0L194 733H235L118 0H78Z" />
<glyph unicode="J" horiz-adv-x="329" d="M133 -6Q100 -6 74 1T31 19L36 48Q59 39 84 36T130 32Q183 32 217 65T264 172L354 733H394L305 167Q290 77 248 36T133 -6Z" />
<glyph unicode="K" horiz-adv-x="572" d="M78 0L194 733H235L180 386H327L600 733H645L359 367L540 0H497L324 349H173L118 0H78Z" />
<glyph unicode="L" horiz-adv-x="519" d="M214 0Q160 0 128 20T96 97Q96 107 97 115T99 133L194 733H235L140 136Q139 127 138 120T137 103Q137 62 162 50T221 37H500L494 0H214Z" />
<glyph unicode="M" horiz-adv-x="784" d="M67 0L265 733H303L416 67L741 733H778L747 0H707L737 654L425 0H388L282 653L109 0H67Z" />
<glyph unicode="N" horiz-adv-x="655" d="M78 0L194 733H229L548 70L654 733H695L578 0H543L224 664L118 0H78Z" />
<glyph unicode="O" horiz-adv-x="681" d="M337 -6Q283 -6 241 2T170 33T125 97T109 203Q109 238 113 279T125 371Q143 484 170 556T238 668T332 723T458 739Q511 739 553 730T625 696T670 629T686 521Q686 487 682 445T670 352Q652 239 624 169T555 60T461 8T337
-6ZM346 31Q407 31 453 44T532 91T588 191T629 361Q637 410 640 450T644 522Q644 598 621 636T555 688T451 702Q391 702 345 689T265 639T207 536T166 362Q159 314 155 275T150 204Q150 132 171 95T236 44T346 31Z" />
<glyph unicode="P" horiz-adv-x="594" d="M78 0L194 733H464Q507 733 542 719T598 672T619 581Q619 568 617 549T612 514Q602 446 579 403T525 336T459 303T389 293Q338 293 278 295T166 301L118 0H78ZM170 330H388Q429 330 466 345T532 402T572 516Q574 531 575
549T577 578Q577 643 546 669T456 696H228L170 330Z" />
<glyph unicode="Q" horiz-adv-x="681" d="M484 -157Q446 -157 416 -145T368 -105T347 -34H375Q385 -84 412 -104T485 -124Q502 -124 519 -121T552 -113L547 -147Q516 -157 484 -157ZM337 -6Q283 -6 241 2T170 33T125 97T109 203Q109 238 113 279T125 371Q143 484
170 556T238 668T332 723T458 739Q511 739 553 730T625 696T670 629T686 521Q686 487 682 445T670 352Q652 239 624 169T555 60T461 8T337 -6ZM346 31Q407 31 453 44T532 91T588 191T629 361Q637 410 640 450T644 522Q644 598 621 636T555 688T451 702Q391 702
345 689T265 639T207 536T166 362Q159 314 155 275T150 204Q150 132 171 95T236 44T346 31Z" />
<glyph unicode="R" horiz-adv-x="608" d="M78 0L194 733H453Q481 733 510 727T563 703T603 655T618 572Q618 559 617 545T613 515Q603 454 583 417T538 360T486 333T437 322L543 0H502L397 318Q378 318 349 319T286 320T222 322T169 324L118 0H78ZM174 353H400Q438
353 472 365T533 412T571 519Q573 533 574 545T575 568Q575 622 555 649T506 686T446 696H228L174 353Z" />
<glyph unicode="S" horiz-adv-x="566" d="M298 -6Q263 -6 222 -4T143 0T77 8L81 37Q122 34 183 33T302 31Q354 31 395 41T463 80T498 164L508 224Q509 234 509 242T510 259Q510 306 483 327T394 349H290Q221 349 186 376T150 463Q150 480 153 501L163 566Q174
637 203 674T278 725T383 739Q400 739 428 738T487 734T547 728T594 722L590 692Q558 694 519 696T442 699T382 700Q330 700 293 690T234 650T202 564L193 503Q192 494 191 486T190 469Q190 423 216 406T296 389H403Q479 389 515 359T551 267Q551 249 548 226L538
160Q528 93 494 57T410 8T298 -6Z" />
<glyph unicode="T" horiz-adv-x="603" d="M276 0L386 696H139L145 733H680L674 696H427L317 0H276Z" />
<glyph unicode="U" horiz-adv-x="670" d="M335 -6Q229 -6 173 38T117 190Q117 216 120 251T129 323L194 733H235L169 320Q164 285 161 251T157 191Q157 100 203 66T336 31Q389 31 431 41T506 80T563 167T602 320L668 733H709L643 317Q626 212 598 148T531 51T443
6T335 -6Z" />
<glyph unicode="V" horiz-adv-x="665" d="M300 0L158 733H201L334 44L697 733H739L354 0H300Z" />
<glyph unicode="W" horiz-adv-x="987" d="M268 0L158 733H201L303 52L583 733H631L685 52L1014 733H1057L704 0H655L599 677L318 0H268Z" />
<glyph unicode="X" horiz-adv-x="595" d="M504 0L339 349L157 733H203L369 379L550 0H504ZM44 0L336 379L354 337L93 0H44ZM371 350L352 389L622 733H672L371 350Z" />
<glyph unicode="Y" horiz-adv-x="597" d="M268 0L309 254L144 733H190L335 304L637 733H685L349 254L309 0H268Z" />
<glyph unicode="Z" horiz-adv-x="555" d="M44 0L49 36L564 696H153L160 733H618L611 697L96 37H517L511 0H44Z" />
<glyph unicode="[" horiz-adv-x="329" d="M217 -210Q169 -210 144 -191T109 -142T99 -83Q99 -69 100 -57T103 -33L214 667Q218 693 228 722T257 779T307 824T383 842H437L432 807H384Q337 807 302 774T254 664L144 -32Q143 -43 142 -53T140 -74Q140 -119 160 -147T228
-175H276L271 -210H217Z" />
<glyph unicode="\" horiz-adv-x="369" d="M295 -72L147 770H184L332 -72H295Z" />
<glyph unicode="]" horiz-adv-x="329" d="M-8 -210L-3 -175H46Q85 -175 111 -156T154 -104T175 -32L286 664Q287 677 288 687T289 708Q289 760 266 783T201 807H153L158 842H212Q261 842 286 823T321 776T331 716Q331 703 330 691T327 667L216 -33Q212 -57 203
-87T175 -145T125 -192T46 -210H-8Z" />
<glyph unicode="^" horiz-adv-x="404" d="M148 531L298 662H329L425 531H398L309 640L175 531H148Z" />
<glyph unicode="_" horiz-adv-x="609" d="M-23 -148L-18 -111H591L586 -148H-23Z" />
<glyph unicode="`" horiz-adv-x="205" d="M256 631L147 765H185L280 631H256Z" />
<glyph unicode="a" horiz-adv-x="561" d="M253 -6Q207 -6 170 12T111 70T89 172Q89 196 92 222T100 271Q113 363 144 422T230 509T369 538Q400 538 435 533T504 515T560 481L484 0H453V58Q439 49 406 34T332 6T253 -6ZM262 29Q319 29 365 46T457 85L517 467Q499
478 460 490T366 503Q291 503 246 478T177 399T139 261Q135 234 133 214T130 177Q130 100 167 65T262 29Z" />
<glyph unicode="b" horiz-adv-x="564" d="M312 -6Q278 -6 243 3T178 26T126 56L108 0H76L197 763H238L193 476Q244 506 301 522T397 538Q467 538 512 495T557 364Q557 340 554 312T546 251Q534 175 504 117T425 27T312 -6ZM306 29Q394 29 441 89T506 262Q511 290
513 314T516 359Q516 437 480 470T388 503Q339 503 289 488T188 448L131 83Q165 64 207 47T306 29Z" />
<glyph unicode="c" horiz-adv-x="484" d="M275 -6Q221 -6 180 9T115 65T91 182Q91 201 94 225T101 276Q115 370 148 427T232 511T347 538Q383 538 430 535T516 529L511 503H350Q298 503 257 483T185 410T140 263Q136 239 134 220T131 184Q131 121 148 88T200 41T284
28H449L445 3Q414 0 371 -3T275 -6Z" />
<glyph unicode="d" horiz-adv-x="562" d="M249 -6Q181 -6 136 37T91 167Q91 222 101 274Q116 354 142 413T220 505T366 538Q412 538 450 530T524 502L566 763H606L485 0H454V58Q431 44 398 29T328 4T249 -6ZM257 29Q313 29 362 46T458 85L518 467Q485 485 450
494T366 503Q289 503 245 477T178 398T141 264Q137 239 134 217T131 176Q131 122 148 90T194 44T257 29Z" />
<glyph unicode="e" horiz-adv-x="548" d="M311 -6Q235 -6 187 14T115 74T92 174Q92 206 95 235T103 292Q115 369 145 425T231 511T369 541Q413 541 447 534T504 510T540 468T553 403Q553 351 531 318T472 265T389 239T294 231Q241 231 199 237T138 248Q135 230
134 211T133 173Q133 97 176 63T321 28H477L473 2Q446 0 402 -3T311 -6ZM273 262Q343 262 397 273T482 314T513 399Q513 459 477 483T366 507Q291 507 246 480T176 400T141 273Q166 268 201 265T273 262Z" />
<glyph unicode="f" horiz-adv-x="364" d="M116 0L194 495H109L113 522L200 532L214 616Q218 638 224 664T244 715T287 754T361 769Q389 769 421 768T477 763L473 735H362Q323 735 302 720T270 676T254 610L241 532H421L415 495H235L157 0H116Z" />
<glyph unicode="g" horiz-adv-x="561" d="M211 -237L59 -231L64 -203H222Q272 -203 317 -189T394 -144T434 -62L454 58Q419 36 382 22T308 1T240 -6Q201 -6 167 13T112 71T91 166Q91 192 94 221T102 279Q112 343 131 391T181 472T260 521T376 538Q441 538 491
533T568 522L475 -67Q466 -120 438 -154T372 -207T291 -231T211 -237ZM253 29Q305 29 352 42T458 85L522 496Q485 498 448 500T373 503Q301 506 255 482T182 406T142 273Q138 243 135 218T132 171Q132 98 167 64T253 29Z" />
<glyph unicode="h" horiz-adv-x="568" d="M76 0L197 763H238L192 471Q238 501 295 520T417 540Q484 540 518 507T553 412Q553 392 550 367L491 0H450L507 359Q509 371 509 381T510 401Q510 457 481 480T399 503Q337 503 290 488T187 441L117 0H76Z" />
<glyph unicode="i" horiz-adv-x="194" d="M185 637Q180 637 177 640T174 650L185 717Q187 730 201 730H226Q232 730 234 726T235 717L225 650Q223 637 210 637H185ZM76 0L161 532H201L117 0H76Z" />
<glyph unicode="j" horiz-adv-x="194" d="M185 637Q180 637 177 640T174 650L185 717Q187 730 201 730H226Q232 730 234 726T235 717L225 650Q223 637 210 637H185ZM38 -237L161 532H201L116 -4Q107 -62 95 -121T67 -237H38Z" />
<glyph unicode="k" horiz-adv-x="506" d="M76 0L197 763H238L165 304Q233 305 289 326T389 398T457 532H498Q478 461 448 415T381 340T307 296L472 0H427L270 284Q244 277 213 274T160 270L117 0H76Z" />
<glyph unicode="l" horiz-adv-x="276" d="M201 0Q150 0 123 25T96 99Q96 122 99 142T105 180L197 763H238L147 187Q146 177 144 164T140 136T138 106Q138 69 155 53T203 34L262 28L257 0H201Z" />
<glyph unicode="m" horiz-adv-x="941" d="M76 0L161 532H191L192 471Q239 499 296 519T414 540Q476 540 505 518T548 459Q598 495 660 517T786 540Q852 540 889 510T927 410Q927 401 926 388T923 365L864 0H824L882 365Q884 372 884 382T885 401Q885 503 772 503Q707
503 656 484T551 431Q552 416 552 398T548 355L491 0H450L507 355Q509 370 510 379T511 402Q511 446 487 474T399 503Q337 503 290 487T187 441L117 0H76Z" />
<glyph unicode="n" horiz-adv-x="568" d="M76 0L161 532H191L192 471Q239 501 296 520T414 540Q466 540 496 523T540 477T553 413Q553 402 552 386T544 329L491 0H450L502 328Q508 364 509 378T511 402Q511 445 487 474T399 503Q337 503 290 488T187 441L117 0H76Z" />
<glyph unicode="o" horiz-adv-x="562" d="M280 -6Q225 -6 182 10T115 66T91 171Q91 194 93 218T99 267Q112 347 133 399T185 482T261 525T366 538Q435 538 476 518T535 456T554 355Q554 332 552 305T545 249Q530 152 499 96T415 17T280 -6ZM286 29Q333 29 368
38T430 71T474 141T504 258Q509 287 511 311T513 356Q513 436 478 469T359 503Q310 503 274 493T213 456T170 382T140 258Q136 234 134 213T132 172Q132 113 152 83T206 41T286 29Z" />
<glyph unicode="p" horiz-adv-x="562" d="M38 -237L160 527Q199 532 255 535T388 538Q468 538 511 495T555 360Q555 334 552 308T545 259Q533 179 505 120T426 27T297 -6Q247 -6 206 2T122 31L79 -237H38ZM295 30Q363 30 404 57T469 138T505 269Q508 287 511 310T515
355Q515 428 483 465T381 503L195 501L126 61Q162 50 187 43T236 33T295 30Z" />
<glyph unicode="q" horiz-adv-x="561" d="M406 -237L453 58Q398 24 339 9T239 -6Q172 -6 132 42T91 167Q91 193 94 220T101 276Q111 341 130 390T182 471T263 521T384 538Q431 538 483 533T568 522L447 -237H406ZM253 29Q306 29 355 44T458 85L522 496Q489 498
456 500T388 503Q308 506 258 482T182 405T142 270Q138 243 135 218T132 171Q132 102 166 66T253 29Z" />
<glyph unicode="r" horiz-adv-x="382" d="M77 0L161 532H192L191 469Q226 495 269 516T364 538Q386 538 404 537T436 530L430 489Q414 493 396 494T357 496Q307 496 265 479T187 439L117 0H77Z" />
<glyph unicode="s" horiz-adv-x="503" d="M276 -6Q258 -6 228 -6T166 -4T106 -1T65 2L69 28H284Q343 28 380 47T425 117L433 163Q434 168 434 171T434 179Q434 246 350 246H241Q197 246 169 254T126 281T112 327Q112 337 113 347T116 368L124 413Q131 452 149
479T204 522T298 538Q323 538 360 537T435 533T496 529L491 504H291Q228 504 200 481T162 412L155 370Q153 356 152 348T151 332Q151 305 173 294T247 283H356Q408 283 441 258T474 184Q474 178 474 172T472 159L464 110Q454 46 405 20T276 -6Z" />
<glyph unicode="t" horiz-adv-x="372" d="M261 0Q201 0 171 28T141 109Q141 131 144 151T151 192L201 497H116L119 523L205 532L239 681H269L245 532H413L408 497H240L191 192Q188 174 186 154T183 115Q183 78 201 59T260 35L326 29L321 0H261Z" />
<glyph unicode="u" horiz-adv-x="568" d="M238 -6Q168 -6 134 27T99 117Q99 132 100 145T103 169L160 532H201L144 168Q143 159 142 150T140 129Q140 83 166 57T253 31Q314 31 361 46T464 91L534 532H575L491 0H459L460 61Q429 42 396 27T324 3T238 -6Z" />
<glyph unicode="v" horiz-adv-x="532" d="M231 0L101 532H143L259 44L474 422Q491 451 500 479T515 540H547Q547 508 537 474T505 402L275 0H231Z" />
<glyph unicode="w" horiz-adv-x="805" d="M210 0L101 532H143L240 47L446 532H482L568 45L756 438Q762 450 768 467T780 504T788 540H821Q821 522 817 501T805 458T788 417L584 0H540L457 471L253 0H210Z" />
<glyph unicode="x" horiz-adv-x="513" d="M431 0L286 249L123 532H165L315 274L473 0H431ZM40 0L284 279L296 240L85 0H40ZM314 253L300 290L510 532H556L314 253Z" />
<glyph unicode="y" horiz-adv-x="547" d="M97 -237V-204Q139 -193 191 -148T291 0Q268 3 246 11T207 42T180 115L102 532H144L218 124Q225 88 238 70T270 46T308 38L501 448Q509 467 518 491T529 540H562Q562 513 557 486T536 427L332 2Q293 -81 255 -130T179
-204T97 -237Z" />
<glyph unicode="z" horiz-adv-x="497" d="M62 1L67 34L463 497H126L131 532H515L510 498L113 36H455Q455 36 455 32T453 23T451 13T450 5T449 1H62Z" />
<glyph unicode="{" horiz-adv-x="306" d="M269 -210Q210 -210 179 -194T135 -151T123 -93Q123 -78 128 -42T141 39T157 128T170 206T175 249Q175 283 157 298T97 313L104 354Q121 356 142 362T180 382T202 425L238 656Q248 716 268 757T328 820T436 842L430 807Q389
807 359 797T310 753T279 652L243 422Q236 384 209 362T146 334Q182 330 200 308T218 258Q218 251 214 226T204 166T192 92T179 17T169 -45T165 -81Q165 -135 192 -155T274 -176L269 -210Z" />
<glyph unicode="|" horiz-adv-x="254" d="M97 -72L230 770H267L134 -72H97Z" />
<glyph unicode="}" horiz-adv-x="306" d="M-5 -210L0 -176Q44 -176 74 -163T123 -119T151 -35L193 229Q198 262 222 285T288 314Q258 318 238 337T218 387Q218 400 222 432T234 506T247 589T258 662T263 705Q263 762 235 784T156 807L162 842Q217 842 248 825T292
779T305 712Q305 706 302 683T293 626T282 555T272 483T264 424T260 394Q260 371 272 359T303 341T336 334L330 293Q296 293 268 277T232 222L191 -38Q187 -69 177 -100T145 -156T88 -195T-5 -210Z" />
<glyph unicode="~" horiz-adv-x="466" d="M382 540Q366 540 351 550T322 574T294 598T268 609Q240 609 214 595T159 561L155 575Q184 598 213 616T272 634Q287 634 302 624T331 600T360 576T386 565Q406 565 425 574T462 595T493 617L499 603Q471 578 443 559T382 540Z" />
<glyph unicode="&#xa0;" horiz-adv-x="236" />
<glyph unicode="&#xa1;" horiz-adv-x="262" d="M200 335L121 -200H80L172 335H200ZM229 532Q240 532 240 521Q240 520 240 520T240 519L229 452Q228 439 214 439H192Q181 439 181 448Q181 450 181 450T181 452L192 519Q193 526 197 529T208 532H229Z" />
<glyph unicode="&#xa2;" horiz-adv-x="488" d="M235 -83L247 -5Q202 -4 165 9T106 60T84 167Q84 240 102 306T153 424T233 506T333 536L347 620H374L360 535Q395 533 436 526T511 509L507 485Q470 492 429 497T338 502Q290 502 251 475T183 401T140 294T125 168Q125
111 141 81T187 40T258 29Q297 29 327 32T385 39T444 51L441 25Q391 10 355 5T274 -4L262 -83H235Z" />
<glyph unicode="&#xa3;" horiz-adv-x="609" d="M67 0L72 29L190 37L239 344L122 348L125 371L245 377L269 530Q282 614 314 658T392 718T496 734Q533 734 571 732T635 727L629 697H492Q442 697 405 685T345 637T310 532L286 377L517 372L513 348L280 344L231 37H541L536
0H67Z" />
<glyph unicode="&#xa4;" horiz-adv-x="609" d="M339 198Q300 198 269 216T220 266T202 335Q202 387 226 427T291 491T383 514Q423 514 454 496T503 446T521 377Q521 326 497 285T431 221T339 198ZM129 136L110 159L235 267L255 244L129 136ZM524 136L434 242L460
265L549 159L524 136ZM341 229Q382 229 415 246T469 296T490 375Q490 421 460 452T381 483Q341 483 308 465T254 414T234 337Q234 292 264 261T341 229ZM260 449L173 553L198 576L286 472L260 449ZM489 447L470 470L593 576L612 553L489 447Z" />
<glyph unicode="&#xa5;" horiz-adv-x="609" d="M92 260L98 291H547L542 260H92ZM74 141L79 172H529L523 141H74ZM256 0L296 254L132 733H177L323 304L625 733H673L337 254L297 0H256Z" />
<glyph unicode="&#xa6;" horiz-adv-x="254" d="M176 429L230 770H267L213 429H176ZM97 -72L149 256H186L134 -72H97Z" />
<glyph unicode="&#xa7;" horiz-adv-x="556" d="M316 -6Q298 -6 269 -6T208 -4T148 -2T107 1L112 29H318Q374 29 404 40T447 71T464 116Q471 160 474 180T478 210Q478 234 459 242T385 250H243Q176 250 145 268T114 325Q114 331 115 339T118 363L126 409Q134 458
154 476T206 501Q181 510 172 526T163 566Q163 573 164 580T166 598L175 658Q183 706 204 733T262 772T349 784Q367 784 398 784T464 783T529 781T572 777L569 749H347Q311 749 284 743T239 716T215 655Q208 615 206 598T203 573Q203 542 226 533T292 524H452Q516
524 540 508T565 453Q565 437 562 419L553 360Q546 316 529 297T476 272Q502 265 510 251T519 217Q519 209 518 199T513 167L504 115Q498 70 474 44T410 6T316 -6ZM254 284H391Q441 284 464 288T497 307T512 356L522 415Q523 422 523 428T524 440Q524 470 506 479T442
489H287Q224 489 199 474T167 413L157 355Q156 350 156 346T155 337Q155 312 176 298T254 284Z" />
<glyph unicode="&#xa8;" horiz-adv-x="421" d="M394 662Q383 662 383 673Q383 674 383 677T386 694T394 742Q396 755 410 755H429Q440 755 440 745Q440 745 440 742T436 724T428 675Q427 662 413 662H394ZM187 662Q176 662 176 673Q176 674 176 677T179 694T187
742Q189 755 203 755H222Q233 755 233 745Q233 745 233 742T229 724T221 675Q220 662 206 662H187Z" />
<glyph unicode="&#xa9;" horiz-adv-x="857" d="M317 0Q262 0 224 24T163 89T129 178T119 277Q119 346 135 412T182 536T251 638T337 707T430 732H678Q744 732 783 699T840 613T858 496Q858 399 834 310T769 151T675 41T565 0H317ZM415 147Q382 147 355 158T313
200T297 286Q297 350 312 404T353 498T413 560T484 583Q505 583 535 581T598 575T659 565L655 548Q626 553 592 555T530 559T484 560Q451 560 421 538T369 477T335 390T323 290Q323 232 346 201T422 170Q475 170 521 174T604 186L602 169Q553 155 509 151T415 147ZM318
23H567Q620 23 667 61T752 166T811 316T833 492Q833 555 818 604T768 681T677 709H427Q377 709 327 675T236 582T169 445T144 279Q144 230 152 184T181 102T234 44T318 23Z" />
<glyph unicode="&#xaa;" horiz-adv-x="407" d="M96 269L100 295H418L414 269H96ZM233 356Q181 356 146 386T110 487Q110 504 112 524T118 560Q134 662 179 709T319 756Q355 756 397 747T466 714L410 360H381V402Q370 395 346 384T291 365T233 356ZM242 386Q283
386 317 398T384 427L428 701Q414 708 386 717T318 726Q263 726 230 708T180 652T153 553Q145 515 145 491Q145 437 172 412T242 386Z" />
<glyph unicode="&#xab;" horiz-adv-x="606" d="M276 69L97 279L338 484L358 460L144 277L302 92L276 69ZM526 69L347 279L588 484L608 460L394 277L552 92L526 69Z" />
<glyph unicode="&#xac;" horiz-adv-x="609" d="M526 218L569 486H606L563 218H526ZM153 458L159 494H607L601 458H153Z" />
<glyph unicode="&#xad;" horiz-adv-x="333" d="M67 272L73 308H360L354 272H67Z" />
<glyph unicode="&#xae;" horiz-adv-x="857" d="M317 0Q262 0 224 24T163 89T129 178T119 277Q119 346 135 412T182 536T251 638T337 707T430 732H678Q744 732 783 699T840 613T858 496Q858 399 834 310T769 151T675 41T565 0H317ZM304 153L372 580H550Q579 580
604 573T643 547T658 489Q658 451 642 419T597 366T531 343L609 153H586L509 342L359 347L328 153H304ZM318 23H567Q620 23 667 61T752 166T811 316T833 492Q833 555 818 604T768 681T677 709H427Q377 709 327 675T236 582T169 445T144 279Q144 230 152 184T181
102T234 44T318 23ZM362 363H520Q553 363 578 380T619 424T634 483Q634 525 612 541T552 557H393L362 363Z" />
<glyph unicode="&#xaf;" horiz-adv-x="383" d="M172 685L177 710H433L428 685H172Z" />
<glyph unicode="&#xb0;" horiz-adv-x="335" d="M249 506Q201 506 171 535T141 609Q141 653 160 686T212 738T289 757Q337 757 365 728T394 653Q394 609 376 576T325 524T249 506ZM252 527Q305 527 338 562T372 650Q372 688 349 712T285 736Q232 736 198 700T163
613Q163 575 187 551T252 527Z" />
<glyph unicode="&#xb1;" horiz-adv-x="609" d="M102 138L108 174H556L550 138H102ZM331 282L401 730H438L368 282H331ZM158 488L164 524H612L606 488H158Z" />
<glyph unicode="&#xb2;" horiz-adv-x="420" d="M107 355L110 384L329 561Q392 612 415 657T439 744Q439 774 417 794T331 814H199L203 839Q233 842 270 844T345 846Q417 846 446 820T476 752Q476 703 450 651T354 542L163 387H439L434 355H107Z" />
<glyph unicode="&#xb3;" horiz-adv-x="420" d="M274 351Q221 351 176 353T99 358L103 383H270Q300 383 326 390T370 415T392 468L399 505Q399 509 399 512T400 520Q400 544 387 557T355 577T317 584L187 589L192 613L321 617Q360 619 387 635T421 689L427 729Q428
734 428 738T428 746Q428 778 405 796T333 814H190L194 839Q223 842 262 844T350 846Q409 846 436 821T464 756Q464 751 464 746T462 733L456 690Q451 657 434 639T398 612T366 601Q378 598 394 590T423 565T436 521Q436 517 436 512T434 502L428 464Q419 408 380
380T274 351Z" />
<glyph unicode="&#xb4;" horiz-adv-x="205" d="M125 631L261 765H301L150 631H125Z" />
<glyph unicode="&#xb5;" horiz-adv-x="584" d="M255 -6Q219 -6 192 4T147 32T120 76T111 133Q111 145 112 156T114 180L170 533H211L153 165Q152 155 151 146T150 128Q150 72 183 52T269 31Q327 31 373 45T474 88L544 533H585L501 0H472L471 61Q426 33 370 14T255
-6ZM44 -268L122 223H163L85 -268H44Z" />
<glyph unicode="&#xb6;" horiz-adv-x="572" d="M245 -270L339 324Q331 319 308 317T255 314Q183 314 148 350T113 438Q113 446 114 453T116 469L136 593Q144 641 172 672T241 718T323 733H665L659 697H574L464 0H430L540 699H432L279 -270H245ZM263 348H343L398
699H318Q254 699 215 668T168 588L151 472Q150 464 149 458T148 445Q148 402 166 382T210 355T263 348Z" />
<glyph unicode="&#xb7;" horiz-adv-x="279" d="M146 358Q141 358 138 362T135 371L139 394Q141 407 154 407H176Q189 407 186 394L183 371Q182 365 178 362T168 358H146Z" />
<glyph unicode="&#xb8;" horiz-adv-x="264" d="M35 -185L38 -168L63 -166Q88 -164 103 -153T127 -129T135 -106Q135 -90 121 -79T64 -67L86 -57Q126 -57 143 -69T160 -106Q160 -121 149 -139T116 -171T59 -185H35ZM64 -67L129 11H150L85 -67H64Z" />
<glyph unicode="&#xb9;" horiz-adv-x="420" d="M255 355L328 813L200 778L205 801L336 847H368L290 355H255ZM126 355L131 386H424L419 355H126Z" />
<glyph unicode="&#xba;" horiz-adv-x="434" d="M96 269L100 295H418L414 269H96ZM254 356Q213 356 181 368T130 409T112 487Q112 504 113 521T118 558Q131 636 154 679T217 739T318 756Q370 756 401 741T446 696T461 621Q461 604 459 584T454 543Q443 471 420
431T356 373T254 356ZM260 386Q306 386 337 398T387 446T418 550Q421 571 422 588T424 621Q424 678 399 702T312 726Q264 726 233 712T184 661T152 551Q150 532 149 517T148 488Q148 446 162 424T201 394T260 386Z" />
<glyph unicode="&#xbb;" horiz-adv-x="606" d="M85 69L66 93L280 275L121 462L148 484L326 274L85 69ZM335 69L316 93L530 275L371 462L398 484L576 274L335 69Z" />
<glyph unicode="&#xbc;" horiz-adv-x="1146" d="M341 0L847 770H878L372 0H341ZM998 -6L1020 125H779L773 148L1023 480H1061L816 156H1024L1047 300L1062 341H1089L1059 156H1134L1130 132L1055 125L1033 -6H998ZM264 355L337 813L209 778L214 801L345 847H377L299
355H264ZM135 355L140 386H433L428 355H135Z" />
<glyph unicode="&#xbd;" horiz-adv-x="1146" d="M341 0L847 770H878L372 0H341ZM754 -7L757 22L976 199Q1039 250 1062 295T1086 382Q1086 412 1064 432T978 452H846L850 477Q880 480 917 482T992 484Q1064 484 1093 458T1123 390Q1123 341 1097 289T1001 180L810
25H1086L1081 -7H754ZM264 355L337 813L209 778L214 801L345 847H377L299 355H264ZM135 355L140 386H433L428 355H135Z" />
<glyph unicode="&#xbe;" horiz-adv-x="1146" d="M341 0L847 770H878L372 0H341ZM998 -5L1020 126H779L773 149L1023 481H1061L816 157H1024L1047 301L1062 342H1089L1059 157H1134L1130 133L1055 126L1033 -5H998ZM284 351Q231 351 186 353T109 358L113 383H280Q310
383 336 390T380 415T402 468L409 505Q409 509 409 512T410 520Q410 544 397 557T365 577T327 584L197 589L202 613L331 617Q370 619 397 635T431 689L437 729Q438 734 438 738T438 746Q438 778 415 796T343 814H200L204 839Q233 842 272 844T360 846Q419 846 446
821T474 756Q474 751 474 746T472 733L466 690Q461 657 444 639T408 612T376 601Q388 598 404 590T433 565T446 521Q446 517 446 512T444 502L438 464Q429 408 390 380T284 351Z" />
<glyph unicode="&#xbf;" horiz-adv-x="532" d="M387 336L365 200H325Q260 200 219 188T156 147T125 67L113 -8Q110 -22 109 -35T108 -61Q108 -120 139 -145T237 -170Q291 -170 340 -160T448 -129L444 -156Q383 -185 327 -196T219 -207Q135 -207 101 -171T66 -72Q66
-43 71 -11L84 67Q98 153 156 194T337 236L353 336H387ZM408 532Q419 532 419 521Q419 520 419 520T419 519L408 452Q407 439 393 439H372Q361 439 361 448Q361 450 361 450T361 452L371 519Q373 526 377 529T387 532H408Z" />
<glyph unicode="&#xc0;" horiz-adv-x="665" d="M42 0L427 733H482L623 0H581L534 240H212L84 0H42ZM230 278H528L448 693L230 278ZM465 791L356 925H394L489 791H465Z" />
<glyph unicode="&#xc1;" horiz-adv-x="665" d="M42 0L427 733H482L623 0H581L534 240H212L84 0H42ZM230 278H528L448 693L230 278ZM432 791L568 925H608L457 791H432Z" />
<glyph unicode="&#xc2;" horiz-adv-x="665" d="M42 0L427 733H482L623 0H581L534 240H212L84 0H42ZM230 278H528L448 693L230 278ZM309 791L459 923H490L586 791H559L470 901L336 791H309Z" />
<glyph unicode="&#xc3;" horiz-adv-x="665" d="M42 0L427 733H482L623 0H581L534 240H212L84 0H42ZM230 278H528L448 693L230 278ZM312 817Q321 870 352 890T417 911Q440 911 459 901T496 877T531 853T570 843Q599 843 620 860T648 912H670Q663 869 637 844T566
818Q544 818 526 828T490 852T453 876T412 886Q385 886 362 870T334 817H312Z" />
<glyph unicode="&#xc4;" horiz-adv-x="665" d="M42 0L427 733H482L623 0H581L534 240H212L84 0H42ZM230 278H528L448 693L230 278ZM536 822Q525 822 525 833Q525 834 525 837T528 854T536 902Q538 915 552 915H571Q582 915 582 905Q582 905 582 902T578 884T570
835Q569 822 555 822H536ZM329 822Q318 822 318 833Q318 834 318 837T321 854T329 902Q331 915 345 915H364Q375 915 375 905Q375 905 375 902T371 884T363 835Q362 822 348 822H329Z" />
<glyph unicode="&#xc5;" horiz-adv-x="665" d="M42 0L427 733H482L623 0H581L534 240H212L84 0H42ZM230 278H528L448 693L230 278ZM458 778Q421 778 393 796T365 863Q365 895 379 923T421 968T489 986Q524 986 551 967T578 902Q578 852 548 815T458 778ZM459 799Q509
799 532 829T555 900Q555 938 534 951T487 965Q436 965 412 935T388 863Q388 826 410 813T459 799Z" />
<glyph unicode="&#xc6;" horiz-adv-x="907" d="M625 -3Q599 -4 574 -1T529 15T499 53T496 119L515 239H261L73 0H28L487 586Q528 639 561 671T631 719T725 733Q791 732 858 731T995 726L989 695H723Q682 695 660 688T629 666T616 631T608 582L576 382L899 379L894
349L570 345L536 133Q530 89 542 69T579 42T629 35H885L880 4Q854 3 828 2T775 1T723 0T673 -1T625 -3ZM288 275H520L579 648L288 275Z" />
<glyph unicode="&#xc7;" horiz-adv-x="589" d="M307 -6Q203 -6 157 50T111 215Q111 254 116 298T127 378Q145 493 180 574T273 697T418 739Q490 739 542 731T636 714L629 685Q580 693 530 697T420 702Q365 702 325 682T254 621T203 517T168 366Q162 331 158 290T153
215Q153 118 190 75T316 31Q394 31 440 34T527 45L522 15Q474 4 417 -1T307 -6ZM219 -194L222 -177L247 -175Q272 -173 287 -162T311 -138T319 -115Q319 -99 305 -88T248 -76L270 -66Q310 -66 327 -78T344 -115Q344 -130 333 -148T300 -180T243 -194H219ZM248 -76L313
2H334L269 -76H248Z" />
<glyph unicode="&#xc8;" horiz-adv-x="569" d="M219 -6Q194 -6 170 -1T127 19T100 61T98 132L173 602Q181 653 204 682T260 722T326 733Q400 732 474 731T623 726L618 695H326Q282 695 252 673T212 593L179 383L527 377L521 347L172 345L140 133Q134 90 144 69T177
40T231 32H515L510 1Q438 0 366 -2T219 -6ZM433 791L324 925H362L457 791H433Z" />
<glyph unicode="&#xc9;" horiz-adv-x="569" d="M219 -6Q194 -6 170 -1T127 19T100 61T98 132L173 602Q181 653 204 682T260 722T326 733Q400 732 474 731T623 726L618 695H326Q282 695 252 673T212 593L179 383L527 377L521 347L172 345L140 133Q134 90 144 69T177
40T231 32H515L510 1Q438 0 366 -2T219 -6ZM400 791L536 925H576L425 791H400Z" />
<glyph unicode="&#xca;" horiz-adv-x="569" d="M219 -6Q194 -6 170 -1T127 19T100 61T98 132L173 602Q181 653 204 682T260 722T326 733Q400 732 474 731T623 726L618 695H326Q282 695 252 673T212 593L179 383L527 377L521 347L172 345L140 133Q134 90 144 69T177
40T231 32H515L510 1Q438 0 366 -2T219 -6ZM277 791L427 923H458L554 791H527L438 901L304 791H277Z" />
<glyph unicode="&#xcb;" horiz-adv-x="569" d="M219 -6Q194 -6 170 -1T127 19T100 61T98 132L173 602Q181 653 204 682T260 722T326 733Q400 732 474 731T623 726L618 695H326Q282 695 252 673T212 593L179 383L527 377L521 347L172 345L140 133Q134 90 144 69T177
40T231 32H515L510 1Q438 0 366 -2T219 -6ZM504 822Q493 822 493 833Q493 834 493 837T496 854T504 902Q506 915 520 915H539Q550 915 550 905Q550 905 550 902T546 884T538 835Q537 822 523 822H504ZM297 822Q286 822 286 833Q286 834 286 837T289 854T297 902Q299
915 313 915H332Q343 915 343 905Q343 905 343 902T339 884T331 835Q330 822 316 822H297Z" />
<glyph unicode="&#xcc;" horiz-adv-x="196" d="M78 0L194 733H235L118 0H78ZM230 791L121 925H159L254 791H230Z" />
<glyph unicode="&#xcd;" horiz-adv-x="196" d="M78 0L194 733H235L118 0H78ZM197 791L333 925H373L222 791H197Z" />
<glyph unicode="&#xce;" horiz-adv-x="196" d="M78 0L194 733H235L118 0H78ZM73 791L223 923H254L350 791H323L234 901L100 791H73Z" />
<glyph unicode="&#xcf;" horiz-adv-x="196" d="M78 0L194 733H235L118 0H78ZM301 822Q290 822 290 833Q290 834 290 837T293 854T301 902Q303 915 317 915H336Q347 915 347 905Q347 905 347 902T343 884T335 835Q334 822 320 822H301ZM94 822Q83 822 83 833Q83
834 83 837T86 854T94 902Q96 915 110 915H129Q140 915 140 905Q140 905 140 902T136 884T128 835Q127 822 113 822H94Z" />
<glyph unicode="&#xd0;" horiz-adv-x="666" d="M61 357L67 389H391L385 357H61ZM78 0L194 733H450Q532 733 579 704T647 619T667 478Q667 447 664 416T656 354Q644 279 621 215T559 103T467 27T339 0H78ZM124 37H340Q405 37 452 63T532 134T585 239T616 365Q621
397 624 426T627 480Q627 551 611 599T554 671T440 696H228L124 37Z" />
<glyph unicode="&#xd1;" horiz-adv-x="655" d="M78 0L194 733H229L548 70L654 733H695L578 0H543L224 664L118 0H78ZM301 817Q310 870 341 890T406 911Q429 911 448 901T485 877T520 853T559 843Q588 843 609 860T637 912H659Q652 869 626 844T555 818Q533 818
515 828T479 852T442 876T401 886Q374 886 351 870T323 817H301Z" />
<glyph unicode="&#xd2;" horiz-adv-x="681" d="M337 -6Q283 -6 241 2T170 33T125 97T109 203Q109 238 113 279T125 371Q143 484 170 556T238 668T332 723T458 739Q511 739 553 730T625 696T670 629T686 521Q686 487 682 445T670 352Q652 239 624 169T555 60T461
8T337 -6ZM346 31Q407 31 453 44T532 91T588 191T629 361Q637 410 640 450T644 522Q644 598 621 636T555 688T451 702Q391 702 345 689T265 639T207 536T166 362Q159 314 155 275T150 204Q150 132 171 95T236 44T346 31ZM476 791L367 925H405L500 791H476Z" />
<glyph unicode="&#xd3;" horiz-adv-x="681" d="M337 -6Q283 -6 241 2T170 33T125 97T109 203Q109 238 113 279T125 371Q143 484 170 556T238 668T332 723T458 739Q511 739 553 730T625 696T670 629T686 521Q686 487 682 445T670 352Q652 239 624 169T555 60T461
8T337 -6ZM346 31Q407 31 453 44T532 91T588 191T629 361Q637 410 640 450T644 522Q644 598 621 636T555 688T451 702Q391 702 345 689T265 639T207 536T166 362Q159 314 155 275T150 204Q150 132 171 95T236 44T346 31ZM443 791L579 925H619L468 791H443Z" />
<glyph unicode="&#xd4;" horiz-adv-x="681" d="M337 -6Q283 -6 241 2T170 33T125 97T109 203Q109 238 113 279T125 371Q143 484 170 556T238 668T332 723T458 739Q511 739 553 730T625 696T670 629T686 521Q686 487 682 445T670 352Q652 239 624 169T555 60T461
8T337 -6ZM346 31Q407 31 453 44T532 91T588 191T629 361Q637 410 640 450T644 522Q644 598 621 636T555 688T451 702Q391 702 345 689T265 639T207 536T166 362Q159 314 155 275T150 204Q150 132 171 95T236 44T346 31ZM319 791L469 923H500L596 791H569L480 901L346
791H319Z" />
<glyph unicode="&#xd5;" horiz-adv-x="681" d="M337 -6Q283 -6 241 2T170 33T125 97T109 203Q109 238 113 279T125 371Q143 484 170 556T238 668T332 723T458 739Q511 739 553 730T625 696T670 629T686 521Q686 487 682 445T670 352Q652 239 624 169T555 60T461
8T337 -6ZM346 31Q407 31 453 44T532 91T588 191T629 361Q637 410 640 450T644 522Q644 598 621 636T555 688T451 702Q391 702 345 689T265 639T207 536T166 362Q159 314 155 275T150 204Q150 132 171 95T236 44T346 31ZM323 817Q332 870 363 890T428 911Q451 911
470 901T507 877T542 853T581 843Q610 843 631 860T659 912H681Q674 869 648 844T577 818Q555 818 537 828T501 852T464 876T423 886Q396 886 373 870T345 817H323Z" />
<glyph unicode="&#xd6;" horiz-adv-x="681" d="M337 -6Q283 -6 241 2T170 33T125 97T109 203Q109 238 113 279T125 371Q143 484 170 556T238 668T332 723T458 739Q511 739 553 730T625 696T670 629T686 521Q686 487 682 445T670 352Q652 239 624 169T555 60T461
8T337 -6ZM346 31Q407 31 453 44T532 91T588 191T629 361Q637 410 640 450T644 522Q644 598 621 636T555 688T451 702Q391 702 345 689T265 639T207 536T166 362Q159 314 155 275T150 204Q150 132 171 95T236 44T346 31ZM547 822Q536 822 536 833Q536 834 536 837T539
854T547 902Q549 915 563 915H582Q593 915 593 905Q593 905 593 902T589 884T581 835Q580 822 566 822H547ZM340 822Q329 822 329 833Q329 834 329 837T332 854T340 902Q342 915 356 915H375Q386 915 386 905Q386 905 386 902T382 884T374 835Q373 822 359 822H340Z"
/>
<glyph unicode="&#xd7;" horiz-adv-x="609" d="M189 184L167 211L534 528L556 501L189 184ZM480 184L213 501L243 528L510 211L480 184Z" />
<glyph unicode="&#xd8;" horiz-adv-x="681" d="M62 0L702 733H735L95 0H62ZM337 -6Q283 -6 241 2T170 33T125 97T109 203Q109 238 113 279T125 371Q143 484 170 556T238 668T332 723T458 739Q511 739 553 730T625 696T670 629T686 521Q686 487 682 445T670 352Q652
239 624 169T555 60T461 8T337 -6ZM346 31Q407 31 453 44T532 91T588 191T629 361Q637 410 640 450T644 522Q644 598 621 636T555 688T451 702Q391 702 345 689T265 639T207 536T166 362Q159 314 155 275T150 204Q150 132 171 95T236 44T346 31Z" />
<glyph unicode="&#xd9;" horiz-adv-x="670" d="M335 -6Q229 -6 173 38T117 190Q117 216 120 251T129 323L194 733H235L169 320Q164 285 161 251T157 191Q157 100 203 66T336 31Q389 31 431 41T506 80T563 167T602 320L668 733H709L643 317Q626 212 598 148T531
51T443 6T335 -6ZM455 791L346 925H384L479 791H455Z" />
<glyph unicode="&#xda;" horiz-adv-x="670" d="M335 -6Q229 -6 173 38T117 190Q117 216 120 251T129 323L194 733H235L169 320Q164 285 161 251T157 191Q157 100 203 66T336 31Q389 31 431 41T506 80T563 167T602 320L668 733H709L643 317Q626 212 598 148T531
51T443 6T335 -6ZM422 791L558 925H598L447 791H422Z" />
<glyph unicode="&#xdb;" horiz-adv-x="670" d="M335 -6Q229 -6 173 38T117 190Q117 216 120 251T129 323L194 733H235L169 320Q164 285 161 251T157 191Q157 100 203 66T336 31Q389 31 431 41T506 80T563 167T602 320L668 733H709L643 317Q626 212 598 148T531
51T443 6T335 -6ZM299 791L449 923H480L576 791H549L460 901L326 791H299Z" />
<glyph unicode="&#xdc;" horiz-adv-x="670" d="M335 -6Q229 -6 173 38T117 190Q117 216 120 251T129 323L194 733H235L169 320Q164 285 161 251T157 191Q157 100 203 66T336 31Q389 31 431 41T506 80T563 167T602 320L668 733H709L643 317Q626 212 598 148T531
51T443 6T335 -6ZM526 822Q515 822 515 833Q515 834 515 837T518 854T526 902Q528 915 542 915H561Q572 915 572 905Q572 905 572 902T568 884T560 835Q559 822 545 822H526ZM319 822Q308 822 308 833Q308 834 308 837T311 854T319 902Q321 915 335 915H354Q365
915 365 905Q365 905 365 902T361 884T353 835Q352 822 338 822H319Z" />
<glyph unicode="&#xdd;" horiz-adv-x="597" d="M268 0L309 254L144 733H190L335 304L637 733H685L349 254L309 0H268ZM383 791L519 925H559L408 791H383Z" />
<glyph unicode="&#xde;" horiz-adv-x="540" d="M78 0L194 733H233L118 0H78ZM312 177Q269 177 226 179T136 184L141 214H311Q352 214 390 227T456 274T495 371Q497 386 498 404T500 433Q500 497 466 523T369 549H191L195 586H377Q423 586 460 573T520 526T542
436Q542 423 540 404T535 369Q526 310 503 272T449 214T382 185T312 177Z" />
<glyph unicode="&#xdf;" horiz-adv-x="571" d="M385 -6Q335 -6 289 -2T217 7L221 33Q250 32 293 30T386 28Q434 28 461 45T500 84T515 125Q518 142 519 153T521 173Q521 201 503 216T459 242T406 265T361 297T343 350Q343 381 361 407T405 459T458 508T503 561T521
623Q521 675 487 703T396 732Q315 732 268 692T206 556L117 0H76L166 565Q177 633 205 678T282 746T399 769Q456 769 491 750T543 698T560 627Q560 590 543 559T499 502T446 453T402 406T384 356Q384 329 402 314T446 289T499 266T543 234T561 178Q561 173 561
162T555 124Q549 91 534 67T497 26T446 2T385 -6Z" />
<glyph unicode="&#xe0;" horiz-adv-x="561" d="M253 -6Q207 -6 170 12T111 70T89 172Q89 196 92 222T100 271Q113 363 144 422T230 509T369 538Q400 538 435 533T504 515T560 481L484 0H453V58Q439 49 406 34T332 6T253 -6ZM262 29Q319 29 365 46T457 85L517 467Q499
478 460 490T366 503Q291 503 246 478T177 399T139 261Q135 234 133 214T130 177Q130 100 167 65T262 29ZM396 631L287 765H325L420 631H396Z" />
<glyph unicode="&#xe1;" horiz-adv-x="561" d="M253 -6Q207 -6 170 12T111 70T89 172Q89 196 92 222T100 271Q113 363 144 422T230 509T369 538Q400 538 435 533T504 515T560 481L484 0H453V58Q439 49 406 34T332 6T253 -6ZM262 29Q319 29 365 46T457 85L517 467Q499
478 460 490T366 503Q291 503 246 478T177 399T139 261Q135 234 133 214T130 177Q130 100 167 65T262 29ZM364 631L500 765H540L389 631H364Z" />
<glyph unicode="&#xe2;" horiz-adv-x="561" d="M253 -6Q207 -6 170 12T111 70T89 172Q89 196 92 222T100 271Q113 363 144 422T230 509T369 538Q400 538 435 533T504 515T560 481L484 0H453V58Q439 49 406 34T332 6T253 -6ZM262 29Q319 29 365 46T457 85L517 467Q499
478 460 490T366 503Q291 503 246 478T177 399T139 261Q135 234 133 214T130 177Q130 100 167 65T262 29ZM249 631L399 763H430L526 631H499L410 741L276 631H249Z" />
<glyph unicode="&#xe3;" horiz-adv-x="561" d="M253 -6Q207 -6 170 12T111 70T89 172Q89 196 92 222T100 271Q113 363 144 422T230 509T369 538Q400 538 435 533T504 515T560 481L484 0H453V58Q439 49 406 34T332 6T253 -6ZM262 29Q319 29 365 46T457 85L517 467Q499
478 460 490T366 503Q291 503 246 478T177 399T139 261Q135 234 133 214T130 177Q130 100 167 65T262 29ZM234 657Q243 710 274 730T339 751Q362 751 381 741T418 717T453 693T492 683Q521 683 542 700T570 752H592Q585 709 559 684T488 658Q466 658 448 668T412
692T375 716T334 726Q307 726 284 710T256 657H234Z" />
<glyph unicode="&#xe4;" horiz-adv-x="561" d="M253 -6Q207 -6 170 12T111 70T89 172Q89 196 92 222T100 271Q113 363 144 422T230 509T369 538Q400 538 435 533T504 515T560 481L484 0H453V58Q439 49 406 34T332 6T253 -6ZM262 29Q319 29 365 46T457 85L517 467Q499
478 460 490T366 503Q291 503 246 478T177 399T139 261Q135 234 133 214T130 177Q130 100 167 65T262 29ZM468 662Q457 662 457 673Q457 674 457 677T460 694T468 742Q470 755 484 755H503Q514 755 514 745Q514 745 514 742T510 724T502 675Q501 662 487 662H468ZM261
662Q250 662 250 673Q250 674 250 677T253 694T261 742Q263 755 277 755H296Q307 755 307 745Q307 745 307 742T303 724T295 675Q294 662 280 662H261Z" />
<glyph unicode="&#xe5;" horiz-adv-x="561" d="M253 -6Q207 -6 170 12T111 70T89 172Q89 196 92 222T100 271Q113 363 144 422T230 509T369 538Q400 538 435 533T504 515T560 481L484 0H453V58Q439 49 406 34T332 6T253 -6ZM262 29Q319 29 365 46T457 85L517 467Q499
478 460 490T366 503Q291 503 246 478T177 399T139 261Q135 234 133 214T130 177Q130 100 167 65T262 29ZM390 598Q353 598 325 616T297 683Q297 715 311 743T353 788T421 806Q456 806 483 787T510 722Q510 672 480 635T390 598ZM391 619Q441 619 464 649T487 720Q487
758 466 771T419 785Q368 785 344 755T320 683Q320 646 342 633T391 619Z" />
<glyph unicode="&#xe6;" horiz-adv-x="910" d="M248 -6Q202 -6 167 12T112 69T92 172Q92 241 106 306T151 424T236 507T369 538Q398 538 432 532T499 514T552 484Q569 499 588 509T631 527T679 538T731 541Q821 541 867 504T914 393Q914 346 885 310T802 252T674
231Q634 231 597 234T534 242T498 249Q495 223 495 210T494 177Q494 129 505 96T547 46T632 28H840L836 2Q805 0 770 -2T699 -5T626 -6Q582 -6 550 6T497 40T466 89Q445 70 410 48T333 10T248 -6ZM250 29Q290 29 329 43T402 78T459 120Q456 131 455 144T454 172Q454
216 461 268T485 370T531 460Q508 473 465 488T370 503Q298 503 252 474T179 396T143 291T133 178Q133 107 161 68T250 29ZM654 262Q754 262 814 292T874 388Q874 444 839 475T738 507Q673 507 631 492T564 446T525 372T501 272Q501 272 523 270T580 265T654 262Z"
/>
<glyph unicode="&#xe7;" horiz-adv-x="484" d="M275 -6Q221 -6 180 9T115 65T91 182Q91 201 94 225T101 276Q115 370 148 427T232 511T347 538Q383 538 430 535T516 529L511 503H350Q298 503 257 483T185 410T140 263Q136 239 134 220T131 184Q131 121 148 88T200
41T284 28H449L445 3Q414 0 371 -3T275 -6ZM150 62L153 79L178 81Q203 83 218 94T242 118T250 141Q250 157 236 168T179 180L201 190Q241 190 258 178T275 141Q275 126 264 108T231 76T174 62H150ZM179 180L244 258H265L200 180H179Z" />
<glyph unicode="&#xe8;" horiz-adv-x="548" d="M311 -6Q235 -6 187 14T115 74T92 174Q92 206 95 235T103 292Q115 369 145 425T231 511T369 541Q413 541 447 534T504 510T540 468T553 403Q553 351 531 318T472 265T389 239T294 231Q241 231 199 237T138 248Q135
230 134 211T133 173Q133 97 176 63T321 28H477L473 2Q446 0 402 -3T311 -6ZM273 262Q343 262 397 273T482 314T513 399Q513 459 477 483T366 507Q291 507 246 480T176 400T141 273Q166 268 201 265T273 262ZM394 631L285 765H323L418 631H394Z" />
<glyph unicode="&#xe9;" horiz-adv-x="548" d="M311 -6Q235 -6 187 14T115 74T92 174Q92 206 95 235T103 292Q115 369 145 425T231 511T369 541Q413 541 447 534T504 510T540 468T553 403Q553 351 531 318T472 265T389 239T294 231Q241 231 199 237T138 248Q135
230 134 211T133 173Q133 97 176 63T321 28H477L473 2Q446 0 402 -3T311 -6ZM273 262Q343 262 397 273T482 314T513 399Q513 459 477 483T366 507Q291 507 246 480T176 400T141 273Q166 268 201 265T273 262ZM362 631L498 765H538L387 631H362Z" />
<glyph unicode="&#xea;" horiz-adv-x="548" d="M311 -6Q235 -6 187 14T115 74T92 174Q92 206 95 235T103 292Q115 369 145 425T231 511T369 541Q413 541 447 534T504 510T540 468T553 403Q553 351 531 318T472 265T389 239T294 231Q241 231 199 237T138 248Q135
230 134 211T133 173Q133 97 176 63T321 28H477L473 2Q446 0 402 -3T311 -6ZM273 262Q343 262 397 273T482 314T513 399Q513 459 477 483T366 507Q291 507 246 480T176 400T141 273Q166 268 201 265T273 262ZM247 631L397 763H428L524 631H497L408 741L274 631H247Z"
/>
<glyph unicode="&#xeb;" horiz-adv-x="548" d="M311 -6Q235 -6 187 14T115 74T92 174Q92 206 95 235T103 292Q115 369 145 425T231 511T369 541Q413 541 447 534T504 510T540 468T553 403Q553 351 531 318T472 265T389 239T294 231Q241 231 199 237T138 248Q135
230 134 211T133 173Q133 97 176 63T321 28H477L473 2Q446 0 402 -3T311 -6ZM273 262Q343 262 397 273T482 314T513 399Q513 459 477 483T366 507Q291 507 246 480T176 400T141 273Q166 268 201 265T273 262ZM466 662Q455 662 455 673Q455 674 455 677T458 694T466
742Q468 755 482 755H501Q512 755 512 745Q512 745 512 742T508 724T500 675Q499 662 485 662H466ZM259 662Q248 662 248 673Q248 674 248 677T251 694T259 742Q261 755 275 755H294Q305 755 305 745Q305 745 305 742T301 724T293 675Q292 662 278 662H259Z" />
<glyph unicode="&#xec;" horiz-adv-x="194" d="M77 0L161 532H202L117 0H77ZM469 631L360 765H398L493 631H469Z" />
<glyph unicode="&#xed;" horiz-adv-x="194" d="M77 0L161 532H202L117 0H77ZM181 631L317 765H357L206 631H181Z" />
<glyph unicode="&#xee;" horiz-adv-x="194" d="M77 0L161 532H202L117 0H77ZM322 631L472 763H503L599 631H572L483 741L349 631H322Z" />
<glyph unicode="&#xef;" horiz-adv-x="194" d="M77 0L161 532H202L117 0H77ZM285 662Q274 662 274 673Q274 674 274 677T277 694T285 742Q287 755 301 755H320Q331 755 331 745Q331 745 331 742T327 724T319 675Q318 662 304 662H285ZM78 662Q67 662 67 673Q67
674 67 677T70 694T78 742Q80 755 94 755H113Q124 755 124 745Q124 745 124 742T120 724T112 675Q111 662 97 662H78Z" />
<glyph unicode="&#xf0;" horiz-adv-x="562" d="M99 265Q112 345 132 397T184 480T258 523T361 536Q421 536 460 516T518 456T538 358Q539 334 543 309T546 263Q531 159 499 101T415 18T280 -6Q225 -6 182 10T115 66T91 171Q91 194 93 217T99 265ZM140 256Q136
233 134 212T132 172Q132 113 152 83T206 41T286 29Q333 29 368 38T430 72T474 143T505 264Q509 288 511 311T513 355Q513 434 476 467T359 501Q310 501 274 491T212 454T169 380T140 256ZM255 763Q346 762 415 729T522 625T561 441Q561 402 558 358T546 263L514
272Q521 319 524 360T527 438Q527 546 492 609T396 701T250 731L255 763ZM616 756L621 737L288 612L283 631L616 756Z" />
<glyph unicode="&#xf1;" horiz-adv-x="568" d="M76 0L161 532H191L192 471Q239 501 296 520T414 540Q466 540 496 523T540 477T553 413Q553 402 552 386T544 329L491 0H450L502 328Q508 364 509 378T511 402Q511 445 487 474T399 503Q337 503 290 488T187 441L117
0H76ZM237 657Q246 710 277 730T342 751Q365 751 384 741T421 717T456 693T495 683Q524 683 545 700T573 752H595Q588 709 562 684T491 658Q469 658 451 668T415 692T378 716T337 726Q310 726 287 710T259 657H237Z" />
<glyph unicode="&#xf2;" horiz-adv-x="562" d="M280 -6Q225 -6 182 10T115 66T91 171Q91 194 93 218T99 267Q112 347 133 399T185 482T261 525T366 538Q435 538 476 518T535 456T554 355Q554 332 552 305T545 249Q530 152 499 96T415 17T280 -6ZM286 29Q333 29
368 38T430 71T474 141T504 258Q509 287 511 311T513 356Q513 436 478 469T359 503Q310 503 274 493T213 456T170 382T140 258Q136 234 134 213T132 172Q132 113 152 83T206 41T286 29ZM390 631L281 765H319L414 631H390Z" />
<glyph unicode="&#xf3;" horiz-adv-x="562" d="M280 -6Q225 -6 182 10T115 66T91 171Q91 194 93 218T99 267Q112 347 133 399T185 482T261 525T366 538Q435 538 476 518T535 456T554 355Q554 332 552 305T545 249Q530 152 499 96T415 17T280 -6ZM286 29Q333 29
368 38T430 71T474 141T504 258Q509 287 511 311T513 356Q513 436 478 469T359 503Q310 503 274 493T213 456T170 382T140 258Q136 234 134 213T132 172Q132 113 152 83T206 41T286 29ZM358 631L494 765H534L383 631H358Z" />
<glyph unicode="&#xf4;" horiz-adv-x="562" d="M280 -6Q225 -6 182 10T115 66T91 171Q91 194 93 218T99 267Q112 347 133 399T185 482T261 525T366 538Q435 538 476 518T535 456T554 355Q554 332 552 305T545 249Q530 152 499 96T415 17T280 -6ZM286 29Q333 29
368 38T430 71T474 141T504 258Q509 287 511 311T513 356Q513 436 478 469T359 503Q310 503 274 493T213 456T170 382T140 258Q136 234 134 213T132 172Q132 113 152 83T206 41T286 29ZM244 631L394 763H425L521 631H494L405 741L271 631H244Z" />
<glyph unicode="&#xf5;" horiz-adv-x="562" d="M280 -6Q225 -6 182 10T115 66T91 171Q91 194 93 218T99 267Q112 347 133 399T185 482T261 525T366 538Q435 538 476 518T535 456T554 355Q554 332 552 305T545 249Q530 152 499 96T415 17T280 -6ZM286 29Q333 29
368 38T430 71T474 141T504 258Q509 287 511 311T513 356Q513 436 478 469T359 503Q310 503 274 493T213 456T170 382T140 258Q136 234 134 213T132 172Q132 113 152 83T206 41T286 29ZM228 657Q237 710 268 730T333 751Q356 751 375 741T412 717T447 693T486 683Q515
683 536 700T564 752H586Q579 709 553 684T482 658Q460 658 442 668T406 692T369 716T328 726Q301 726 278 710T250 657H228Z" />
<glyph unicode="&#xf6;" horiz-adv-x="562" d="M280 -6Q225 -6 182 10T115 66T91 171Q91 194 93 218T99 267Q112 347 133 399T185 482T261 525T366 538Q435 538 476 518T535 456T554 355Q554 332 552 305T545 249Q530 152 499 96T415 17T280 -6ZM286 29Q333 29
368 38T430 71T474 141T504 258Q509 287 511 311T513 356Q513 436 478 469T359 503Q310 503 274 493T213 456T170 382T140 258Q136 234 134 213T132 172Q132 113 152 83T206 41T286 29ZM462 662Q451 662 451 673Q451 674 451 677T454 694T462 742Q464 755 478 755H497Q508
755 508 745Q508 745 508 742T504 724T496 675Q495 662 481 662H462ZM255 662Q244 662 244 673Q244 674 244 677T247 694T255 742Q257 755 271 755H290Q301 755 301 745Q301 745 301 742T297 724T289 675Q288 662 274 662H255Z" />
<glyph unicode="&#xf7;" horiz-adv-x="609" d="M312 119Q289 119 292 142L297 176Q302 201 325 201H347Q373 201 368 176L363 142Q361 129 353 124T334 119H312ZM374 511Q364 511 358 517T354 534L359 568Q362 593 387 593H409Q433 593 430 568L425 534Q423 521
415 516T396 511H374ZM134 338L140 374H588L582 338H134Z" />
<glyph unicode="&#xf8;" horiz-adv-x="561" d="M65 0L553 532H581L93 0H65ZM280 -6Q225 -6 182 10T115 66T91 171Q91 194 93 218T99 267Q112 347 133 399T185 482T261 525T366 538Q435 538 476 518T535 456T554 355Q554 332 552 305T545 249Q530 152 499 96T415
17T280 -6ZM286 29Q333 29 368 38T430 71T474 141T504 258Q509 287 511 311T513 356Q513 436 478 469T359 503Q310 503 274 493T213 456T170 382T140 258Q136 234 134 213T132 172Q132 113 152 83T206 41T286 29Z" />
<glyph unicode="&#xf9;" horiz-adv-x="568" d="M238 -6Q168 -6 134 27T99 117Q99 132 100 145T103 169L160 532H201L144 168Q143 159 142 150T140 129Q140 83 166 57T253 31Q314 31 361 46T464 91L534 532H575L491 0H459L460 61Q429 42 396 27T324 3T238 -6ZM398
631L289 765H327L422 631H398Z" />
<glyph unicode="&#xfa;" horiz-adv-x="568" d="M238 -6Q168 -6 134 27T99 117Q99 132 100 145T103 169L160 532H201L144 168Q143 159 142 150T140 129Q140 83 166 57T253 31Q314 31 361 46T464 91L534 532H575L491 0H459L460 61Q429 42 396 27T324 3T238 -6ZM366
631L502 765H542L391 631H366Z" />
<glyph unicode="&#xfb;" horiz-adv-x="568" d="M238 -6Q168 -6 134 27T99 117Q99 132 100 145T103 169L160 532H201L144 168Q143 159 142 150T140 129Q140 83 166 57T253 31Q314 31 361 46T464 91L534 532H575L491 0H459L460 61Q429 42 396 27T324 3T238 -6ZM251
631L401 763H432L528 631H501L412 741L278 631H251Z" />
<glyph unicode="&#xfc;" horiz-adv-x="568" d="M238 -6Q168 -6 134 27T99 117Q99 132 100 145T103 169L160 532H201L144 168Q143 159 142 150T140 129Q140 83 166 57T253 31Q314 31 361 46T464 91L534 532H575L491 0H459L460 61Q429 42 396 27T324 3T238 -6ZM470
662Q459 662 459 673Q459 674 459 677T462 694T470 742Q472 755 486 755H505Q516 755 516 745Q516 745 516 742T512 724T504 675Q503 662 489 662H470ZM263 662Q252 662 252 673Q252 674 252 677T255 694T263 742Q265 755 279 755H298Q309 755 309 745Q309 745
309 742T305 724T297 675Q296 662 282 662H263Z" />
<glyph unicode="&#xfd;" horiz-adv-x="547" d="M97 -237V-204Q139 -193 191 -148T291 0Q268 3 246 11T207 42T180 115L102 532H144L218 124Q225 88 238 70T270 46T308 38L501 448Q509 467 518 491T529 540H562Q562 513 557 486T536 427L332 2Q293 -81 255 -130T179
-204T97 -237ZM328 631L464 765H504L353 631H328Z" />
<glyph unicode="&#xfe;" horiz-adv-x="562" d="M38 -237L197 763H238L202 532Q235 535 281 536T388 538Q468 538 511 495T555 360Q555 334 552 308T545 259Q533 179 505 120T426 27T297 -6Q247 -6 206 2T122 31L79 -237H38ZM295 30Q363 30 404 57T469 138T505
269Q508 287 511 310T515 355Q515 428 483 465T381 503L196 501L127 61Q162 50 187 43T236 33T295 30Z" />
<glyph unicode="&#xff;" horiz-adv-x="547" d="M97 -237V-204Q139 -193 191 -148T291 0Q268 3 246 11T207 42T180 115L102 532H144L218 124Q225 88 238 70T270 46T308 38L501 448Q509 467 518 491T529 540H562Q562 513 557 486T536 427L332 2Q293 -81 255 -130T179
-204T97 -237ZM432 662Q421 662 421 673Q421 674 421 677T424 694T432 742Q434 755 448 755H467Q478 755 478 745Q478 745 478 742T474 724T466 675Q465 662 451 662H432ZM225 662Q214 662 214 673Q214 674 214 677T217 694T225 742Q227 755 241 755H260Q271 755
271 745Q271 745 271 742T267 724T259 675Q258 662 244 662H225Z" />
<glyph unicode="&#x2013;" horiz-adv-x="526" d="M69 271L75 308H548L542 271H69Z" />
<glyph unicode="&#x2014;" horiz-adv-x="749" d="M69 271L75 308H771L765 271H69Z" />
<glyph unicode="&#x2018;" horiz-adv-x="164" d="M154 543Q146 543 146 554Q146 556 146 557T147 560L168 697Q171 716 178 726T194 739T210 742Q213 742 215 742T221 741L219 727Q208 727 203 723T196 707L185 645H193Q206 645 206 632Q206 631 206 630T206 628L195
560Q192 543 177 543H154Z" />
<glyph unicode="&#x2019;" horiz-adv-x="164" d="M157 543Q154 543 152 543T146 544L149 558Q160 558 165 563T172 578L181 640H174Q161 640 161 653Q161 655 161 655T162 657L173 725Q174 742 190 742H213Q221 742 221 731Q221 730 221 729T221 725L199 588Q196
569 189 559T173 546T157 543Z" />
<glyph unicode="&#x201a;" horiz-adv-x="164" d="M55 -103Q52 -103 49 -103T43 -101L46 -88Q57 -88 62 -83T69 -68L79 -6H72Q59 -6 59 7Q59 9 59 9T60 11L70 79Q72 96 88 96H111Q119 96 119 85Q119 84 119 83T119 79L97 -58Q94 -77 87 -87T71 -100T55 -103Z" />
<glyph unicode="&#x201c;" horiz-adv-x="256" d="M154 543Q146 543 146 554Q146 556 146 557T147 560L168 697Q171 716 178 726T194 739T210 742Q213 742 215 742T221 741L219 727Q208 727 203 723T196 707L185 645H193Q206 645 206 632Q206 631 206 630T206 628L195
560Q192 543 177 543H154ZM246 543Q238 543 238 554Q238 556 238 557T239 560L260 697Q263 716 270 726T286 739T302 742Q305 742 307 742T313 741L311 727Q300 727 295 723T288 707L277 645H285Q298 645 298 632Q298 631 298 630T298 628L287 560Q284 543 269
543H246Z" />
<glyph unicode="&#x201d;" horiz-adv-x="256" d="M157 543Q154 543 152 543T146 544L149 558Q160 558 165 563T172 578L181 640H174Q161 640 161 653Q161 655 161 655T162 657L173 725Q174 742 190 742H213Q221 742 221 731Q221 730 221 729T221 725L199 588Q196
569 189 559T173 546T157 543ZM249 543Q246 543 244 543T238 544L241 558Q252 558 257 563T264 578L273 640H266Q253 640 253 653Q253 655 253 655T254 657L265 725Q266 742 282 742H305Q313 742 313 731Q313 730 313 729T313 725L291 588Q288 569 281 559T265
546T249 543Z" />
<glyph unicode="&#x201e;" horiz-adv-x="256" d="M55 -103Q52 -103 49 -103T43 -101L46 -88Q57 -88 62 -83T69 -68L79 -6H72Q59 -6 59 7Q59 9 59 9T60 11L70 79Q72 96 88 96H111Q119 96 119 85Q119 84 119 83T119 79L97 -58Q94 -77 87 -87T71 -100T55 -103ZM147
-103Q144 -103 141 -103T135 -101L138 -88Q149 -88 154 -83T161 -68L171 -6H164Q151 -6 151 7Q151 9 151 9T152 11L162 79Q164 96 180 96H203Q211 96 211 85Q211 84 211 83T211 79L189 -58Q186 -77 179 -87T163 -100T147 -103Z" />
<glyph unicode="&#x2022;" horiz-adv-x="334" d="M162 328Q130 328 135 360L142 402Q144 418 154 427T181 437H217Q252 437 246 402L239 360Q236 342 225 335T198 328H162Z" />
<glyph unicode="&#x2039;" horiz-adv-x="356" d="M276 69L97 279L338 484L358 460L144 277L302 92L276 69Z" />
<glyph unicode="&#x203a;" horiz-adv-x="356" d="M85 69L66 93L280 275L121 462L148 484L326 274L85 69Z" />
</font>
</defs>
</svg>
