<?xml version="1.0" standalone="no"?>
<!DOCTYPE svg PUBLIC "-//W3C//DTD SVG 1.1//EN" "http://www.w3.org/Graphics/SVG/1.1/DTD/svg11.dtd">
<svg xmlns="http://www.w3.org/2000/svg">
<defs >
<font id="Exo" horiz-adv-x="533" ><font-face
    font-family="Exo ExtraBold"
    units-per-em="1000"
    panose-1="0 0 0 0 0 0 0 0 0 0"
    ascent="1002"
    descent="-327"
    alphabetic="0" />
<glyph unicode=" " horiz-adv-x="254" />
<glyph unicode="!" horiz-adv-x="275" d="M71 205L50 741H223L199 205H71ZM84 -2Q61 -2 61 20V130Q61 153 84 153H184Q207 153 207 130V20Q207 8 201 3T184 -2H84Z" />
<glyph unicode="&quot;" horiz-adv-x="441" d="M43 494L33 690V757H198V690L188 494H43ZM246 494L236 690V757H401V690L391 494H246Z" />
<glyph unicode="#" horiz-adv-x="737" d="M122 0L160 198H13L31 315H182L200 416H47L66 533H223L260 732H377L340 533H440L477 732H594L557 533H725L709 416H539L521 315H690L674 198H495L457 0H340L378 198H277L239 0H122ZM299 315H404L422 416H317L299 315Z" />
<glyph unicode="$" horiz-adv-x="609" d="M242 720L239 813L334 824L336 731L242 720ZM239 -90V11H336V-90H239ZM288 -6Q257 -6 226 -4T164 1T105 10T52 21V158Q84 155 123 153T202 150T279 149Q314 149 338 154T376 173T389 211V230Q389 257 372 271T327 285H269Q157
285 99 334T41 499V534Q41 643 105 695T289 748Q333 748 374 744T452 733T517 720V584Q471 587 414 590T310 593Q279 593 255 588T218 568T205 525V511Q205 479 223 464T280 449H349Q418 449 463 424T530 354T553 253V216Q553 124 521 76T429 11T288 -6Z" />
<glyph unicode="%" horiz-adv-x="966" d="M198 0L650 732H761L316 0H198ZM164 349Q91 349 60 384T28 483V598Q28 662 59 697T166 732H267Q341 732 372 697T403 598V483Q403 419 372 384T265 349H164ZM186 460H243Q273 460 282 473T291 509V572Q291 601 281 611T245
621H188Q166 621 153 612T140 572V509Q140 487 148 474T186 460ZM700 3Q627 3 596 38T565 137V252Q565 316 595 351T702 386H803Q877 386 908 351T939 252V137Q939 73 908 38T801 3H700ZM722 114H779Q809 114 818 127T828 163V226Q828 255 817 265T781 275H724Q703
275 690 266T676 226V163Q676 141 684 128T722 114Z" />
<glyph unicode="&amp;" horiz-adv-x="707" d="M228 -5Q172 -5 128 20T58 90T33 194Q33 249 56 296T122 381L180 430L168 448Q137 497 131 528T125 586Q125 641 151 674T220 723T318 738Q356 738 394 735T466 725T520 712V586H351Q324 586 311 576T297 545Q297
529 308 509T343 457L461 296L602 420L664 342L597 237L544 186L684 0H507L436 88L397 55Q359 23 320 9T228 -5ZM258 152Q276 152 291 158T323 180L346 203L262 312L230 282Q211 264 204 249T197 214Q197 188 213 170T258 152Z" />
<glyph unicode="&apos;" horiz-adv-x="238" d="M43 494L33 690V757H198V690L188 494H43Z" />
<glyph unicode="(" horiz-adv-x="401" d="M235 -210Q186 -153 144 -80T76 93T49 326Q49 453 76 552T145 728T235 860H388Q346 792 308 711T246 535T222 326Q222 215 242 125T300 -46T388 -210H235Z" />
<glyph unicode=")" horiz-adv-x="401" d="M13 -210Q56 -141 93 -60T155 116T179 324Q179 436 159 525T102 696T13 860H166Q216 804 258 730T325 557T351 324Q351 198 325 99T256 -77T166 -210H13Z" />
<glyph unicode="*" horiz-adv-x="424" d="M291 502L237 569L355 650L392 599L291 502ZM145 398L85 417L111 554L194 533L145 398ZM177 564L33 569V632L172 649L177 564ZM307 397L184 464L230 536L345 447L307 397ZM205 585L163 722L223 742L285 616L205 585Z" />
<glyph unicode="+" horiz-adv-x="609" d="M235 132V580H373V132H235ZM80 287V425H528V287H80Z" />
<glyph unicode="," horiz-adv-x="246" d="M110 -93Q88 -93 72 -89T55 -85V-30Q70 -30 77 -27T84 -10V12H74Q65 12 58 18T51 36V128Q51 153 74 153H172Q186 153 190 146T195 128V-14Q195 -47 182 -64T150 -87T110 -93Z" />
<glyph unicode="-" horiz-adv-x="352" d="M21 221V359H331V221H21Z" />
<glyph unicode="." horiz-adv-x="246" d="M73 -2Q51 -2 51 20V130Q51 153 73 153H173Q197 153 197 130V20Q197 8 191 3T173 -2H73Z" />
<glyph unicode="/" horiz-adv-x="484" d="M13 -72L294 770H471L190 -72H13Z" />
<glyph unicode="0" horiz-adv-x="644" d="M246 -5Q181 -5 136 18T69 85T47 192V542Q47 609 70 654T139 724T247 748H405Q468 748 510 724T575 654T597 542V192Q597 98 547 47T404 -5H246ZM288 150H357Q391 150 407 166T424 218V524Q424 564 408 578T364 593H282Q251
593 236 576T220 524V219Q220 182 237 166T288 150Z" />
<glyph unicode="1" horiz-adv-x="376" d="M150 0V584L26 576V686L170 748H323V0H150Z" />
<glyph unicode="2" horiz-adv-x="584" d="M43 0V138L281 378Q307 403 324 425T349 468T358 512Q358 536 349 552T321 576T268 584H57V721Q106 731 165 739T301 748Q388 748 438 724T510 654T531 542Q531 492 518 452T480 375T417 302L271 155H552V0H43Z" />
<glyph unicode="3" horiz-adv-x="577" d="M325 -6Q245 -6 171 0T36 18V157H258Q298 157 321 162T355 178T366 212V236Q366 258 355 271T325 291T279 298L99 306V439L271 450Q314 452 335 463T357 503V520Q357 553 334 568T254 584H49V722Q110 732 179 740T323
748Q388 747 434 726T504 664T528 562V509Q528 483 523 461T506 422T478 392T440 373Q463 366 481 352T511 317T531 270T539 212V179Q539 89 482 42T325 -6Z" />
<glyph unicode="4" horiz-adv-x="628" d="M369 0V146H53L22 225L249 742H425L227 293H369V419L402 510H542V293H609V173L542 146V0H369Z" />
<glyph unicode="5" horiz-adv-x="599" d="M305 -6Q247 -6 180 0T51 13V149H313Q347 149 362 160T383 189T389 221V261Q389 291 376 307T328 324H278Q250 324 237 313T220 280H56L77 742H532V587H225L219 445Q235 459 260 465T313 471H391Q449 471 486 448T542
384T561 293V184Q561 117 533 75T448 14T305 -6Z" />
<glyph unicode="6" horiz-adv-x="602" d="M272 -5Q215 -5 172 11T101 68T58 179T43 357Q43 470 62 545T119 665T209 729T330 748Q381 748 430 744T520 729V593H349Q277 593 247 553T216 438Q237 446 259 450T308 455T370 457Q446 457 488 435T547 373T564 281V174Q564
110 541 71T475 13T377 -5H272ZM307 150H336Q356 150 367 156T385 176T391 210V247Q391 273 385 286T363 305T321 310H216Q216 262 221 231T237 182T265 157T307 150Z" />
<glyph unicode="7" horiz-adv-x="558" d="M109 0L314 569H20V742H494L537 671L301 0H109Z" />
<glyph unicode="8" horiz-adv-x="623" d="M250 -5Q212 -5 176 1T112 26T66 76T49 161V261Q49 288 57 312T83 354T127 379Q97 394 84 414T67 458T64 509V593Q64 650 89 683T154 732T242 748H383Q431 748 470 733T534 684T559 593V509Q559 497 557 479T547 442T528
409T496 392Q530 384 546 361T568 310T573 263V161Q573 92 548 57T479 8T385 -5H250ZM281 141H343Q380 141 390 155T401 195V250Q401 276 387 291T344 306H281Q268 306 258 303T239 292T227 274T222 250V195Q222 165 236 153T281 141ZM281 452H343Q364 452 374
459T387 480T390 512V551Q390 585 377 593T344 601H281Q257 601 245 593T233 551V512Q233 476 244 464T281 452Z" />
<glyph unicode="9" horiz-adv-x="602" d="M274 -6Q223 -6 174 -1T84 13V149H255Q327 149 357 189T388 304Q368 297 346 293T296 287T234 285Q158 285 116 307T57 369T40 461V568Q40 632 63 671T129 729T227 747H332Q389 747 432 731T503 674T546 563T560 385Q560
273 541 198T485 77T395 13T274 -6ZM283 432H388Q388 480 383 511T367 560T339 585T297 592H267Q249 592 237 586T219 566T213 532V495Q213 470 219 457T242 438T283 432Z" />
<glyph unicode=":" horiz-adv-x="246" d="M73 -2Q51 -2 51 20V130Q51 153 73 153H173Q197 153 197 130V20Q197 8 191 3T173 -2H73ZM73 384Q51 384 51 406V516Q51 539 73 539H173Q197 539 197 516V406Q197 394 191 389T173 384H73Z" />
<glyph unicode=";" horiz-adv-x="246" d="M73 384Q51 384 51 406V516Q51 539 73 539H173Q197 539 197 516V406Q197 394 191 389T173 384H73ZM110 -93Q88 -93 72 -89T55 -85V-30Q70 -30 77 -27T84 -10V12H74Q65 12 58 18T51 36V128Q51 153 74 153H172Q186 153 190
146T195 128V-14Q195 -47 182 -64T150 -87T110 -93Z" />
<glyph unicode="&lt;" horiz-adv-x="609" d="M511 139L96 275V427L511 557V406L265 353L511 290V139Z" />
<glyph unicode="=" horiz-adv-x="609" d="M80 423V561H528V423H80ZM80 407V545H528V407H80Z" />
<glyph unicode="&gt;" horiz-adv-x="609" d="M98 139V290L344 352L98 406V557L513 427V275L98 139Z" />
<glyph unicode="?" horiz-adv-x="529" d="M141 205V416H217Q258 416 281 430T305 484V507Q305 549 278 566T201 584Q160 584 121 576T42 553V680Q79 704 132 721T254 739Q327 739 376 713T451 641T477 535V481Q477 386 426 337T269 287V205H141ZM154 -2Q132 -2
132 20V130Q132 153 154 153H255Q278 153 278 130V20Q278 8 272 3T255 -2H154Z" />
<glyph unicode="@" horiz-adv-x="885" d="M273 -192Q228 -192 187 -180T114 -142T62 -71T43 39V317Q43 351 50 383T74 442T116 490T181 522T273 533H449Q484 533 517 529T578 508T621 458T637 367V21H532L510 77Q509 77 499 67T470 45T424 22T363 12Q317 12 289
33T248 88T235 156V191Q235 262 276 296T390 330H508V356Q508 386 495 395T453 404H273Q246 404 224 397T187 370T172 308V56Q172 10 188 -16T227 -52T273 -62H592Q656 -62 678 -30T701 56V481Q701 540 672 572T592 605H190V710Q214 715 264 720T378 730T504 734H592Q634
734 676 722T753 681T809 603T830 481V56Q830 -32 803 -86T725 -166T600 -192H273ZM417 141Q434 141 451 145T484 157T508 179V239L419 233Q404 232 394 230T378 220T373 196V180Q373 160 383 151T417 141Z" />
<glyph unicode="A" horiz-adv-x="689" d="M10 0L236 742H452L678 0H499L461 135H225L188 0H10ZM265 290H421L343 594L265 290Z" />
<glyph unicode="B" horiz-adv-x="636" d="M59 0V742H359Q475 742 526 690T578 545Q578 502 566 469T532 415T476 385Q500 379 523 366T563 329T591 275T601 204Q601 130 576 85T499 20T373 0H59ZM232 155H368Q390 155 405 164T429 190T437 235Q437 259 429 276T405
302T368 312H232V155ZM232 443H359Q385 443 399 463T414 515Q414 556 397 571T358 587H232V443Z" />
<glyph unicode="C" horiz-adv-x="588" d="M311 -6Q247 -6 198 9T113 64T59 179T40 373Q40 489 59 562T114 676T200 733T312 749Q368 749 414 743T494 729T550 711V577Q531 581 501 585T432 591T349 594Q312 594 286 586T244 555T221 487T213 372Q213 305 219 261T240
193T281 159T350 149Q426 149 473 152T550 159V25Q524 15 490 9T412 -2T311 -6Z" />
<glyph unicode="D" horiz-adv-x="685" d="M59 0V742H380Q459 742 509 714T590 636T632 518T644 370Q644 242 615 161T528 40T380 0H59ZM232 155H363Q404 155 427 178T461 249T472 370Q472 439 465 482T443 547T409 578T363 587H232V155Z" />
<glyph unicode="E" horiz-adv-x="601" d="M248 -6Q224 -6 192 -1T129 20T79 71T59 165V564Q59 616 75 651T117 705T175 733T237 742Q317 742 376 740T480 734T561 728V582H289Q262 582 247 570T232 530V448L512 438V302L232 293V215Q232 193 239 181T258 162T284
156H561V11Q517 6 463 2T354 -3T248 -6Z" />
<glyph unicode="F" horiz-adv-x="588" d="M59 0V564Q59 616 75 651T117 705T175 733T237 742Q270 742 324 741T441 737T561 727V582H286Q258 582 245 567T232 532V428L512 419V282L232 273V0H59Z" />
<glyph unicode="G" horiz-adv-x="671" d="M266 -5Q197 -5 153 23T85 101T50 220T40 370Q40 457 51 527T93 646T178 722T322 749Q377 749 419 745T499 732T576 714V580Q554 583 520 586T444 591T354 594Q294 594 264 574T223 505T213 370Q213 303 218 261T237 196T271
163T323 154Q362 154 394 159T446 169V287H329V424Q351 427 380 429T442 432T502 434Q537 434 563 434T612 431V0H482L459 50Q432 33 381 14T266 -5Z" />
<glyph unicode="H" horiz-adv-x="711" d="M59 0V742H232V446H479V742H652V0H479V291H232V0H59Z" />
<glyph unicode="I" horiz-adv-x="291" d="M59 0V742H232V0H59Z" />
<glyph unicode="J" horiz-adv-x="411" d="M151 -6Q116 -6 83 0T26 13V151Q46 151 68 150T110 149Q134 149 149 156T172 178T179 215V742H352V189Q352 125 332 82T268 16T151 -6Z" />
<glyph unicode="K" horiz-adv-x="660" d="M59 0V742H232V445H318L453 742H636L456 369L644 0H461L319 290H232V0H59Z" />
<glyph unicode="L" horiz-adv-x="536" d="M244 0Q181 0 140 19T79 79T59 185V742H232V214Q232 193 238 180T258 161T290 155H515V0H244Z" />
<glyph unicode="M" horiz-adv-x="900" d="M39 0L126 742H290L451 199L611 742H773L861 0H695L634 509L660 508L530 0H368L237 508L265 509L206 0H39Z" />
<glyph unicode="N" horiz-adv-x="712" d="M62 0V742H199L483 293V742H656V0H518L234 448V0H62Z" />
<glyph unicode="O" horiz-adv-x="704" d="M352 -6Q275 -6 217 9T119 64T60 178T40 371Q40 489 60 563T119 678T216 733T352 749Q430 749 488 734T586 678T644 564T664 371Q664 252 645 178T586 64T488 9T352 -6ZM352 149Q393 149 420 158T462 191T484 258T491
371Q491 442 485 486T463 553T420 585T352 594Q312 594 285 586T243 554T220 486T213 371Q213 302 219 259T241 192T284 159T352 149Z" />
<glyph unicode="P" horiz-adv-x="628" d="M59 0V742H379Q416 742 455 734T526 699T579 621T599 481Q599 394 579 341T528 260T459 224T387 214Q369 214 347 216T303 221T263 227T232 232V0H59ZM232 369H360Q383 369 397 381T419 417T426 480Q426 517 419 540T397
575T361 587H232V369Z" />
<glyph unicode="Q" horiz-adv-x="704" d="M517 -207Q465 -207 418 -189T341 -134T308 -37H427Q432 -63 455 -73T507 -84Q525 -84 541 -81T573 -74V-199Q558 -201 545 -204T517 -207ZM352 -6Q275 -6 217 9T119 64T60 178T40 371Q40 489 60 563T119 678T216 733T352
749Q430 749 488 734T586 678T644 564T664 371Q664 252 645 178T586 64T488 9T352 -6ZM352 149Q393 149 420 158T462 191T484 258T491 371Q491 442 485 486T463 553T420 585T352 594Q312 594 285 586T243 554T220 486T213 371Q213 302 219 259T241 192T284 159T352
149Z" />
<glyph unicode="R" horiz-adv-x="634" d="M59 0V742H371Q418 742 457 731T526 692T572 617T589 498Q589 449 580 415T556 357T522 318T481 292L614 0H438L327 264Q317 264 305 264T280 265T256 265T232 265V0H59ZM232 402H340Q358 402 372 406T396 422T411 452T416
497Q416 524 411 541T396 568T372 582T340 587H232V402Z" />
<glyph unicode="S" horiz-adv-x="594" d="M288 -6Q257 -6 226 -4T164 1T105 10T52 21V158Q84 155 123 153T202 150T279 149Q314 149 338 154T376 173T389 211V230Q389 257 372 271T327 285H269Q157 285 99 334T41 499V534Q41 643 105 695T289 748Q333 748 374
744T452 733T517 720V584Q471 587 414 590T310 593Q279 593 255 588T218 568T205 525V511Q205 479 223 464T280 449H349Q418 449 463 424T530 354T553 253V216Q553 124 521 76T429 11T288 -6Z" />
<glyph unicode="T" horiz-adv-x="594" d="M211 0V587H16V742H578V587H383V0H211Z" />
<glyph unicode="U" horiz-adv-x="689" d="M345 -5Q283 -5 230 5T135 42T72 117T49 242V742H222V243Q222 210 236 190T278 160T345 150Q383 150 410 159T452 189T467 243V742H640V242Q640 166 618 118T554 42T460 5T345 -5Z" />
<glyph unicode="V" horiz-adv-x="689" d="M236 0L10 742H189L345 187L501 742H678L452 0H236Z" />
<glyph unicode="W" horiz-adv-x="991" d="M184 0L10 742H189L294 257L418 742H574L697 257L802 742H981L807 0H633L496 486L358 0H184Z" />
<glyph unicode="X" horiz-adv-x="678" d="M472 0L11 742H201L663 0H472ZM14 0L264 411L353 266L204 0H14ZM411 322L323 466L477 742H667L411 322Z" />
<glyph unicode="Y" horiz-adv-x="631" d="M229 0V217L11 742H190L319 393L448 742H620L402 217V0H229Z" />
<glyph unicode="Z" horiz-adv-x="579" d="M37 0V138L333 587H37V742H543V604L247 155H543V0H37Z" />
<glyph unicode="[" horiz-adv-x="342" d="M245 -210Q184 -210 147 -190T90 -138T63 -67T56 6V644Q56 690 66 726T99 789T157 828T245 842H330V705H297Q267 705 248 686T229 618V15Q229 -17 237 -36T260 -63T297 -72H330V-210H245Z" />
<glyph unicode="\" horiz-adv-x="484" d="M294 -72L13 770H190L471 -72H294Z" />
<glyph unicode="]" horiz-adv-x="342" d="M13 -210V-72H46Q67 -72 82 -64T106 -36T114 15V618Q114 667 96 686T46 705H13V842H98Q149 842 185 829T244 789T276 727T287 644V6Q287 -29 280 -67T254 -137T197 -190T98 -210H13Z" />
<glyph unicode="^" horiz-adv-x="382" d="M33 531L137 670H254L349 531H249L193 590L133 531H33Z" />
<glyph unicode="_" horiz-adv-x="609" d="M0 -202V-64H609V-202H0Z" />
<glyph unicode="`" horiz-adv-x="239" d="M124 631L13 773H151L226 631H124Z" />
<glyph unicode="a" horiz-adv-x="552" d="M168 -6Q106 -6 68 30T30 130V182Q30 243 73 283T210 323H332V349Q332 371 324 385T293 405T222 411H64V510Q104 525 157 534T287 545Q354 545 403 529T478 474T505 361V0H368L341 55Q332 47 317 37T279 16T228 0T168
-6ZM257 113Q264 112 273 114T292 118T309 123T323 128T332 132V242L268 236Q235 232 219 219T202 180V159Q202 142 209 132T228 117T257 113Z" />
<glyph unicode="b" horiz-adv-x="588" d="M371 -6Q337 -6 311 1T264 21T223 50L195 0H50V763H223V505Q252 520 289 533T363 547Q433 547 474 518T534 426T553 263Q553 170 533 111T473 23T371 -6ZM305 134Q325 134 342 145T369 185T380 272Q380 335 369 363T341
400T305 408Q281 408 259 400T223 384V154Q237 147 257 141T305 134Z" />
<glyph unicode="c" horiz-adv-x="490" d="M264 -6Q214 -6 172 7T100 51T52 134T35 266Q35 348 50 402T95 488T169 533T270 547Q321 547 365 541T460 519V420H325Q280 420 255 408T219 362T208 268Q208 207 218 176T254 134T327 124H468V26Q443 17 409 10T337 -2T264 -6Z" />
<glyph unicode="d" horiz-adv-x="586" d="M227 -6Q165 -6 122 20T57 105T35 263Q35 363 53 425T115 517T237 547Q271 547 305 540T365 524V763H538V0H392L365 50Q347 34 325 21T278 1T227 -6ZM289 132Q314 132 333 140T365 157V399Q351 405 333 411T295 418Q263
418 244 407T217 365T208 272Q208 213 215 183T241 143T289 132Z" />
<glyph unicode="e" horiz-adv-x="536" d="M284 -5Q194 -5 139 18T60 101T35 268Q35 378 57 438T133 523T277 547Q360 547 409 531T479 474T501 358Q501 302 479 269T417 223T321 209H206Q209 177 218 158T254 131T331 123H482V22Q445 13 398 4T284 -5ZM204 311H302Q327
311 338 321T349 357Q349 381 342 395T319 416T277 423Q251 423 235 414T212 380T204 311Z" />
<glyph unicode="f" horiz-adv-x="401" d="M90 0V401H17V511L90 538V565Q90 637 110 682T171 748T278 769Q313 769 343 764T392 753V629H313Q295 629 284 624T268 607T263 575V538H390V401H263V0H90Z" />
<glyph unicode="g" horiz-adv-x="584" d="M192 -249Q142 -249 102 -234T39 -191T16 -121V-108Q16 -66 40 -36T104 11T187 27L241 -24Q221 -24 208 -30T187 -47T179 -73V-81Q179 -103 194 -116T241 -129H336Q365 -129 383 -118T401 -83V-69Q401 -55 394 -45T373
-30T338 -24H233Q134 -24 87 12T40 100Q40 141 63 169T128 208Q98 226 80 250T54 302T46 361Q46 420 70 459T144 518T275 538H568V444L499 427Q507 417 513 404T524 371T529 324Q529 276 509 239T447 181T333 160H234Q214 160 200 153T185 130Q185 115 198 110T228
104H367Q428 104 472 88T540 36T564 -62V-73Q564 -155 514 -202T357 -249H192ZM258 289H314Q337 289 350 295T368 316T374 349Q374 371 368 384T349 404T315 410H260Q229 410 215 397T201 350Q201 318 214 304T258 289Z" />
<glyph unicode="h" horiz-adv-x="598" d="M50 0V762H223V485Q248 508 293 527T384 547Q447 547 483 523T534 455T550 353V0H377V330Q377 352 369 366T346 386T314 392Q297 392 281 387T249 375T223 357V0H50Z" />
<glyph unicode="i" horiz-adv-x="273" d="M70 611Q48 611 48 633V738Q48 761 70 761H204Q215 761 220 755T225 738V633Q225 611 204 611H70ZM50 0V538H223V0H50Z" />
<glyph unicode="j" horiz-adv-x="273" d="M69 611Q47 611 47 633V738Q47 761 69 761H204Q214 761 219 755T224 738V633Q224 611 204 611H69ZM50 -237V538H223V0Q223 -60 212 -125T181 -237H50Z" />
<glyph unicode="k" horiz-adv-x="571" d="M50 0V763H223V361H281L383 538H557L409 283L574 0H400L279 206H223V0H50Z" />
<glyph unicode="l" horiz-adv-x="320" d="M228 -3Q168 -3 128 16T69 75T50 174V763H223V201Q223 176 228 161T244 139T272 128L308 123V-3H228Z" />
<glyph unicode="m" horiz-adv-x="925" d="M50 0V538H193L223 485Q256 510 295 528T395 547Q445 547 478 526T528 473Q550 489 578 506T640 535T707 547Q774 547 811 523T863 453T878 344V0H705V328Q705 351 697 365T675 385T641 392Q616 392 591 382T548 356Q549
348 549 340T550 325V0H377V328Q377 351 369 365T347 385T314 392Q297 392 280 388T249 375T223 357V0H50Z" />
<glyph unicode="n" horiz-adv-x="598" d="M50 0V538H193L223 485Q250 509 293 528T383 547Q451 547 487 521T536 450T550 351V0H377V328Q377 351 369 365T347 385T314 392Q297 392 280 388T249 375T223 357V0H50Z" />
<glyph unicode="o" horiz-adv-x="575" d="M287 -5Q218 -5 170 9T91 56T48 141T35 270Q35 352 48 405T92 490T170 534T287 547Q357 547 405 534T482 489T526 404T540 270Q540 191 527 138T485 54T407 9T287 -5ZM287 132Q310 132 325 136T349 154T362 196T367 271Q367
318 363 346T349 387T325 405T287 409Q265 409 250 405T226 388T212 346T208 271Q208 224 212 196T225 155T250 137T287 132Z" />
<glyph unicode="p" horiz-adv-x="588" d="M50 -237V538H195L223 488Q242 504 263 517T308 539T363 547Q411 547 447 529T507 476T541 388T553 268Q553 183 537 121T479 26T363 -8Q327 -8 290 -1T223 22V-237H50ZM305 134Q323 134 340 144T369 184T380 268Q380
323 371 353T346 396T306 408Q280 408 258 400T223 384V154Q237 145 259 140T305 134Z" />
<glyph unicode="q" horiz-adv-x="586" d="M365 -237V50Q340 28 304 11T234 -6Q159 -6 116 23T54 112T35 268Q35 375 57 436T126 522T242 547Q290 547 344 543T449 534T538 523V-237H365ZM286 132Q303 132 327 140T365 157V418H297Q264 418 244 404T216 359T208
274Q208 215 215 184T240 143T286 132Z" />
<glyph unicode="r" horiz-adv-x="427" d="M50 0V538H184L223 460Q249 495 283 520T364 546Q373 546 384 545T406 541V364Q390 366 373 367T341 368Q315 368 294 363T255 347T223 319V0H50Z" />
<glyph unicode="s" horiz-adv-x="507" d="M249 -6Q222 -6 193 -4T136 1T84 9T41 22V123H285Q302 123 312 126T326 135T330 154V169Q330 183 321 191T282 200H194Q149 200 112 214T52 261T30 350V382Q30 434 50 469T119 524T256 543Q291 543 329 539T400 529T451
515V414H220Q198 414 188 407T177 382V368Q177 356 182 349T199 340T229 337H318Q404 337 440 299T476 192V141Q476 87 451 55T375 8T249 -6Z" />
<glyph unicode="t" horiz-adv-x="396" d="M264 0Q199 0 159 18T101 80T86 197L91 401H8V511L98 538L120 689H257V538H374V401H257V198Q257 181 260 170T269 151T283 140T301 135L369 128V0H264Z" />
<glyph unicode="u" horiz-adv-x="598" d="M200 -6Q129 -6 89 37T48 156V538H221V210Q221 172 239 159T286 146Q306 146 332 156T376 181V538H548V0H405L376 53Q341 31 296 13T200 -6Z" />
<glyph unicode="v" horiz-adv-x="574" d="M183 0L10 538H188L286 160L387 538H564L382 0H183Z" />
<glyph unicode="w" horiz-adv-x="836" d="M145 0L10 538H188L257 160L352 538H494L589 160L648 538H826L694 0H503L419 292L332 0H145Z" />
<glyph unicode="x" horiz-adv-x="554" d="M376 0L4 538H178L550 0H376ZM4 0L214 324L276 161L179 0H4ZM339 212L267 357L375 538H550L339 212Z" />
<glyph unicode="y" horiz-adv-x="579" d="M226 -237L281 0Q229 0 193 19T135 71T101 150L10 538H189L261 185Q265 170 271 161T284 148T299 142T311 140L393 538H569L421 -138L371 -237H226Z" />
<glyph unicode="z" horiz-adv-x="509" d="M43 0V124L277 401H33V538H476V415L242 138H476V0H43Z" />
<glyph unicode="{" horiz-adv-x="320" d="M307 -210Q242 -210 198 -200T127 -168T88 -115T76 -38V199Q76 217 69 230T47 249T13 254V413Q30 415 44 420T68 436T77 468V656Q77 715 101 756T176 820T307 842V705Q283 705 271 695T254 660T250 586V438Q250 385 223
362T148 334Q195 325 222 300T249 234V23Q249 -30 259 -55T307 -81V-210Z" />
<glyph unicode="|" horiz-adv-x="251" d="M56 -72V770H194V-72H56Z" />
<glyph unicode="}" horiz-adv-x="320" d="M13 -210V-81Q52 -81 61 -56T71 23V234Q71 275 98 300T172 334Q125 338 98 361T70 438V586Q70 634 66 659T50 695T13 705V842Q93 842 143 820T218 757T243 656V468Q243 448 252 437T276 420T307 413V254Q287 256 273 250T252
230T244 199V-38Q244 -82 232 -114T193 -168T122 -199T13 -210Z" />
<glyph unicode="~" horiz-adv-x="413" d="M269 532Q252 532 235 538T201 552T169 566T143 572Q120 572 101 563T57 535L33 595Q53 621 83 644T154 667Q171 667 186 661T217 647T246 633T271 627Q295 627 317 639T356 669L380 603Q363 578 335 555T269 532Z" />
<glyph unicode="&#xa0;" horiz-adv-x="254" />
<glyph unicode="&#xa1;" horiz-adv-x="275" d="M204 333L225 -203H52L76 333H204ZM191 540Q214 540 214 518V408Q214 385 191 385H91Q68 385 68 408V518Q68 531 75 535T91 540H191Z" />
<glyph unicode="&#xa2;" horiz-adv-x="485" d="M217 -93V-5Q177 -4 143 9T82 52T41 135T26 266Q26 345 40 397T81 480T142 523T221 536V632H317V534Q348 531 382 523T452 501V400Q447 401 406 404T298 407Q271 407 252 402T221 382T204 339T199 264Q199 221 204
194T220 151T251 130T299 124Q344 124 378 126T433 130T459 134V32Q424 13 389 4T314 -6V-93H217Z" />
<glyph unicode="&#xa3;" horiz-adv-x="609" d="M56 0V132L143 155V310L56 321V406L143 430V489Q143 581 169 637T251 720T395 747Q448 747 491 742T563 732V593H402Q372 593 353 586T325 560T316 508V430L486 415V321L316 310V155H564V0H56Z" />
<glyph unicode="&#xa4;" horiz-adv-x="609" d="M304 175Q254 175 214 199T149 265T124 356Q124 406 148 447T213 512T304 537Q354 537 395 513T460 447T485 356Q485 307 461 266T395 200T304 175ZM130 113L61 182L169 290L238 221L130 113ZM165 426L61 530L130
599L234 495L165 426ZM478 113L372 219L441 288L547 182L478 113ZM304 260Q330 260 352 273T387 308T400 356Q400 382 387 404T352 439T304 452Q279 452 257 439T223 404T210 356Q210 330 223 308T257 273T304 260ZM441 424L372 493L478 599L547 530L441 424Z"
/>
<glyph unicode="&#xa5;" horiz-adv-x="609" d="M77 261V346H531V261H77ZM77 118V203H531V118H77ZM208 0V217L-11 742H168L298 393L427 742H599L380 217V0H208Z" />
<glyph unicode="&#xa6;" horiz-adv-x="251" d="M56 429V770H194V429H56ZM56 -72V256H194V-72H56Z" />
<glyph unicode="&#xa7;" horiz-adv-x="535" d="M314 -6Q286 -6 255 -6T191 -3T129 2T73 10V132H278Q298 132 309 134T324 143T328 160V180Q328 189 325 195T314 204T290 207H201Q151 207 114 217T57 254T36 327V363Q36 406 53 428T109 465Q72 482 59 515T45 590V641Q45
682 64 714T123 765T230 784Q255 784 286 783T350 780T412 775T463 766V647H256Q239 647 229 644T214 632T209 613V599Q209 587 216 578T247 568H333Q390 568 427 556T483 518T502 446V410Q502 379 486 352T431 309Q454 302 468 287T489 250T496 201V154Q496 92
474 57T410 8T314 -6ZM245 336H290Q308 336 318 338T333 348T338 372V405Q338 417 334 424T319 434T290 438H245Q220 438 210 430T200 403V371Q200 360 205 352T220 340T245 336Z" />
<glyph unicode="&#xa8;" horiz-adv-x="394" d="M256 632Q233 632 233 654V758Q233 782 256 782H336Q346 782 352 776T358 758V654Q358 632 336 632H256ZM59 632Q37 632 37 654V758Q37 782 59 782H139Q150 782 155 776T161 758V654Q161 632 139 632H59Z" />
<glyph unicode="&#xa9;" horiz-adv-x="801" d="M309 0Q251 0 207 18T130 69T78 147T47 249T36 368Q36 440 47 505T88 621T171 702T309 732H516Q577 732 620 714T691 663T735 585T759 485T766 368Q766 274 748 205T698 90T619 22T516 0H309ZM377 147Q335 147 299
164T239 229T216 365Q216 446 236 493T292 562T377 583Q397 583 426 581T487 574T547 560V478Q519 482 494 484T448 488T412 490Q378 490 357 480T327 441T317 362Q317 295 339 268T410 240Q452 240 488 245T553 256V174Q514 155 469 151T377 147ZM309 93H507Q554
93 589 118T644 204T664 368Q664 416 660 464T641 552T596 615T516 639H309Q275 639 244 628T190 588T152 505T138 368Q138 308 148 258T179 171T232 114T309 93Z" />
<glyph unicode="&#xaa;" horiz-adv-x="411" d="M23 251V330H387V251H23ZM155 478Q155 468 159 463T171 454T189 451Q196 451 202 452T215 455T226 458T231 460V529L191 524Q173 522 164 514T155 492V478ZM18 496Q18 540 49 562T145 584H231V608Q231 628 219 635T157
643H41V727Q72 739 113 747T214 756Q265 757 302 746T361 705T382 619V360H261L239 399Q231 392 220 385T193 371T160 360T121 356Q75 356 47 381T18 449V496Z" />
<glyph unicode="&#xab;" horiz-adv-x="623" d="M261 58L33 283L257 504L343 419L206 283L345 146L261 58ZM511 58L283 283L507 504L593 419L456 283L595 146L511 58Z" />
<glyph unicode="&#xac;" horiz-adv-x="609" d="M390 167V467H528V167H390ZM80 407V545H528V407H80Z" />
<glyph unicode="&#xad;" horiz-adv-x="352" d="M21 221V359H331V221H21Z" />
<glyph unicode="&#xae;" horiz-adv-x="801" d="M309 0Q251 0 207 18T130 69T78 147T47 249T36 368Q36 440 47 505T88 621T171 702T309 732H516Q577 732 620 714T691 663T735 585T759 485T766 368Q766 274 748 205T698 90T619 22T516 0H309ZM309 93H507Q554 93
589 118T644 204T664 368Q664 416 660 464T641 552T596 615T516 639H309Q275 639 244 628T190 588T152 505T138 368Q138 308 148 258T179 171T232 114T309 93ZM243 153V580H429Q462 580 492 569T542 529T562 444Q562 413 557 391T543 355T521 331T492 315L579 153H477L396
319H345V153H243ZM345 394H426Q442 394 451 402T460 443Q460 469 451 478T426 487H345V394Z" />
<glyph unicode="&#xaf;" horiz-adv-x="353" d="M33 639V740H320V639H33Z" />
<glyph unicode="&#xb0;" horiz-adv-x="314" d="M158 475Q94 475 52 516T10 623Q10 668 29 701T82 753T158 773Q224 773 264 731T305 623Q305 557 265 516T158 475ZM158 553Q189 553 208 572T227 623Q227 655 208 675T158 695Q127 695 107 675T87 623Q87 591 107
572T158 553Z" />
<glyph unicode="&#xb1;" horiz-adv-x="609" d="M80 87V225H528V87H80ZM235 282V730H373V282H235ZM80 437V575H528V437H80Z" />
<glyph unicode="&#xb2;" horiz-adv-x="451" d="M41 280V389L198 560Q219 584 233 607T248 648Q248 661 243 669T227 682T199 686H49V802Q84 809 127 816T228 824Q294 824 331 807T385 755T401 671Q401 636 392 609T364 554T314 492L241 411H415V280H41Z" />
<glyph unicode="&#xb3;" horiz-adv-x="451" d="M240 276Q184 276 134 281T38 296V413H189Q217 413 232 416T254 427T260 444V453Q260 465 254 472T235 484T205 489L83 494V607L198 616Q227 618 240 623T254 643V653Q254 671 240 678T187 686H44V803Q92 813 141
819T245 824Q317 823 360 791T403 686V650Q403 626 398 607T379 574T342 551Q367 544 381 528T403 490T410 441V421Q410 351 365 314T240 276Z" />
<glyph unicode="&#xb4;" horiz-adv-x="239" d="M13 631L88 773H226L115 631H13Z" />
<glyph unicode="&#xb5;" horiz-adv-x="598" d="M265 -6Q230 -6 193 6T122 43T69 105T48 190V538H221V210Q221 184 229 171T252 152T286 146Q313 146 336 156T376 181V538H548V0H405L384 53Q363 25 335 10T265 -6ZM48 -270V251H221V-270H48Z" />
<glyph unicode="&#xb6;" horiz-adv-x="574" d="M240 -270V320Q233 315 215 310T170 304Q119 304 87 324T40 377T25 449V602Q25 650 45 681T100 727T182 742H579V628H524V0H413V630H351V-270H240ZM191 415H240V630H191Q156 630 146 618T136 572V467Q136 448 140
438T153 423T171 417T191 415Z" />
<glyph unicode="&#xb7;" horiz-adv-x="258" d="M79 277Q56 277 56 299V403Q56 426 79 426H179Q203 426 203 403V299Q203 287 196 282T179 277H79Z" />
<glyph unicode="&#xb8;" horiz-adv-x="242" d="M33 -200V-130L49 -127Q68 -124 77 -117T86 -97Q86 -86 78 -77T47 -63L115 -48Q147 -48 172 -64T197 -117Q197 -156 170 -178T87 -200H33ZM47 -63L98 19H175L124 -63H47Z" />
<glyph unicode="&#xb9;" horiz-adv-x="451" d="M159 280V684L60 678V786L176 824H311V280H159ZM52 280V411H418V280H52Z" />
<glyph unicode="&#xba;" horiz-adv-x="425" d="M29 251V330H397V251H29ZM172 558Q172 516 175 496T188 471T213 465Q228 465 237 470T249 496T253 558Q253 600 250 619T237 644T213 650Q197 650 188 645T176 620T172 558ZM21 557Q21 636 39 679T99 741T213 759Q285
759 326 741T386 678T405 557Q405 483 388 439T329 376T213 357Q141 357 99 377T39 441T21 557Z" />
<glyph unicode="&#xbb;" horiz-adv-x="623" d="M116 58L33 146L171 283L33 419L120 504L344 283L116 58ZM366 58L283 146L421 283L283 419L370 504L594 283L366 58Z" />
<glyph unicode="&#xbc;" horiz-adv-x="1275" d="M395 0L763 770H881L513 0H395ZM1049 0V97H828L811 190L952 540H1102L978 220H1049V268L1084 368H1192V220H1234V120L1192 97V0H1049ZM160 280V684L61 678V786L177 824H312V280H160ZM53 280V411H419V280H53Z" />
<glyph unicode="&#xbd;" horiz-adv-x="1275" d="M395 0L763 770H881L513 0H395ZM836 0V109L993 280Q1014 304 1028 327T1043 368Q1043 381 1038 389T1022 402T994 406H844V522Q879 529 922 536T1023 544Q1089 544 1126 527T1180 475T1196 391Q1196 356 1187 329T1159
274T1109 212L1036 131H1210V0H836ZM160 280V684L61 678V786L177 824H312V280H160ZM53 280V411H419V280H53Z" />
<glyph unicode="&#xbe;" horiz-adv-x="1275" d="M395 0L763 770H881L513 0H395ZM1049 0V97H828L811 190L952 540H1102L978 220H1049V268L1084 368H1192V220H1234V120L1192 97V0H1049ZM250 276Q194 276 144 281T48 296V413H199Q227 413 242 416T264 427T270 444V453Q270
465 264 472T245 484T215 489L93 494V607L208 616Q237 618 250 623T264 643V653Q264 671 250 678T197 686H54V803Q102 813 151 819T255 824Q327 823 370 791T413 686V650Q413 626 408 607T389 574T352 551Q377 544 391 528T413 490T420 441V421Q420 351 375 314T250
276Z" />
<glyph unicode="&#xbf;" horiz-adv-x="529" d="M388 333V122H312Q272 122 248 108T224 54V31Q224 -11 251 -28T327 -46Q369 -46 407 -38T487 -14V-142Q450 -166 397 -183T275 -201Q202 -201 152 -175T77 -103T51 3V58Q51 152 102 201T259 251V333H388ZM374 540Q397
540 397 518V408Q397 385 374 385H274Q251 385 251 408V518Q251 531 258 535T274 540H374Z" />
<glyph unicode="&#xc0;" horiz-adv-x="689" d="M10 0L236 742H452L678 0H499L461 135H225L188 0H10ZM265 290H421L343 594L265 290ZM313 791L202 933H340L415 791H313Z" />
<glyph unicode="&#xc1;" horiz-adv-x="689" d="M10 0L236 742H452L678 0H499L461 135H225L188 0H10ZM265 290H421L343 594L265 290ZM298 791L373 933H511L400 791H298Z" />
<glyph unicode="&#xc2;" horiz-adv-x="689" d="M10 0L236 742H452L678 0H499L461 135H225L188 0H10ZM265 290H421L343 594L265 290ZM183 791L287 935H404L499 791H399L343 859L283 791H183Z" />
<glyph unicode="&#xc3;" horiz-adv-x="689" d="M10 0L236 742H452L678 0H499L461 135H225L188 0H10ZM265 290H421L343 594L265 290ZM149 783Q153 834 167 864T205 907T257 921Q283 921 302 915T337 900T368 885T400 879Q417 879 426 891T437 927H522Q519 854 492
819T417 784Q392 784 372 790T335 805T303 819T273 826Q255 826 246 814T235 783H149Z" />
<glyph unicode="&#xc4;" horiz-adv-x="689" d="M10 0L236 742H452L678 0H499L461 135H225L188 0H10ZM265 290H421L343 594L265 290ZM399 792Q377 792 377 814V918Q377 942 399 942H479Q490 942 495 936T501 918V814Q501 792 479 792H399ZM195 792Q173 792 173
814V918Q173 942 195 942H275Q286 942 291 936T297 918V814Q297 792 275 792H195Z" />
<glyph unicode="&#xc5;" horiz-adv-x="689" d="M10 0L236 742H452L678 0H499L461 135H225L188 0H10ZM265 290H421L343 594L265 290ZM343 769Q281 769 248 794T215 884Q215 949 248 974T343 1000Q406 1000 438 975T470 884Q470 819 439 794T343 769ZM344 831Q369
831 380 842T391 884Q391 914 380 925T343 937Q319 937 307 926T294 884Q294 854 306 843T344 831Z" />
<glyph unicode="&#xc6;" horiz-adv-x="987" d="M655 -6Q568 -6 522 18T467 112L466 135H258L179 0H10L292 530Q334 611 382 657T494 723T643 742Q734 742 814 737T947 727V582H677Q646 582 634 569T621 531V448L898 438V302L621 293V215Q621 188 631 176T657 160T690
156H947V13Q884 6 813 1T655 -6ZM334 281H466V543L334 281Z" />
<glyph unicode="&#xc7;" horiz-adv-x="588" d="M311 -6Q247 -6 198 9T113 64T59 179T40 373Q40 489 59 562T114 676T200 733T312 749Q368 749 414 743T494 729T550 711V577Q531 581 501 585T432 591T349 594Q312 594 286 586T244 555T221 487T213 372Q213 305
219 261T240 193T281 159T350 149Q426 149 473 152T550 159V25Q524 15 490 9T412 -2T311 -6ZM262 -200V-130L278 -127Q297 -124 306 -117T315 -97Q315 -86 307 -77T276 -63L344 -48Q376 -48 401 -64T426 -117Q426 -156 399 -178T316 -200H262ZM276 -63L327 19H404L353
-63H276Z" />
<glyph unicode="&#xc8;" horiz-adv-x="601" d="M248 -6Q224 -6 192 -1T129 20T79 71T59 165V564Q59 616 75 651T117 705T175 733T237 742Q317 742 376 740T480 734T561 728V582H289Q262 582 247 570T232 530V448L512 438V302L232 293V215Q232 193 239 181T258
162T284 156H561V11Q517 6 463 2T354 -3T248 -6ZM284 791L173 933H311L386 791H284Z" />
<glyph unicode="&#xc9;" horiz-adv-x="601" d="M248 -6Q224 -6 192 -1T129 20T79 71T59 165V564Q59 616 75 651T117 705T175 733T237 742Q317 742 376 740T480 734T561 728V582H289Q262 582 247 570T232 530V448L512 438V302L232 293V215Q232 193 239 181T258
162T284 156H561V11Q517 6 463 2T354 -3T248 -6ZM269 791L344 933H482L371 791H269Z" />
<glyph unicode="&#xca;" horiz-adv-x="601" d="M248 -6Q224 -6 192 -1T129 20T79 71T59 165V564Q59 616 75 651T117 705T175 733T237 742Q317 742 376 740T480 734T561 728V582H289Q262 582 247 570T232 530V448L512 438V302L232 293V215Q232 193 239 181T258
162T284 156H561V11Q517 6 463 2T354 -3T248 -6ZM154 791L258 935H375L470 791H370L314 859L254 791H154Z" />
<glyph unicode="&#xcb;" horiz-adv-x="601" d="M248 -6Q224 -6 192 -1T129 20T79 71T59 165V564Q59 616 75 651T117 705T175 733T237 742Q317 742 376 740T480 734T561 728V582H289Q262 582 247 570T232 530V448L512 438V302L232 293V215Q232 193 239 181T258
162T284 156H561V11Q517 6 463 2T354 -3T248 -6ZM370 792Q348 792 348 814V918Q348 942 370 942H450Q461 942 466 936T472 918V814Q472 792 450 792H370ZM166 792Q144 792 144 814V918Q144 942 166 942H246Q257 942 262 936T268 918V814Q268 792 246 792H166Z"
/>
<glyph unicode="&#xcc;" horiz-adv-x="291" d="M59 0V742H232V0H59ZM116 791L5 933H143L218 791H116Z" />
<glyph unicode="&#xcd;" horiz-adv-x="291" d="M59 0V742H232V0H59ZM101 791L176 933H314L203 791H101Z" />
<glyph unicode="&#xce;" horiz-adv-x="291" d="M59 0V742H232V0H59ZM-14 791L90 935H207L302 791H202L146 859L86 791H-14Z" />
<glyph unicode="&#xcf;" horiz-adv-x="291" d="M59 0V742H232V0H59ZM202 792Q180 792 180 814V918Q180 942 202 942H282Q293 942 298 936T304 918V814Q304 792 282 792H202ZM-2 792Q-24 792 -24 814V918Q-24 942 -2 942H78Q89 942 94 936T100 918V814Q100 792 78 792H-2Z" />
<glyph unicode="&#xd0;" horiz-adv-x="685" d="M11 317V429H332V317H11ZM59 0V742H380Q459 742 509 714T590 636T632 518T644 370Q644 242 615 161T528 40T380 0H59ZM232 155H363Q404 155 427 178T461 249T472 370Q472 439 465 482T443 547T409 578T363 587H232V155Z" />
<glyph unicode="&#xd1;" horiz-adv-x="712" d="M62 0V742H199L483 293V742H656V0H518L234 448V0H62ZM150 783Q154 834 168 864T206 907T258 921Q284 921 303 915T338 900T369 885T401 879Q418 879 427 891T438 927H523Q520 854 493 819T418 784Q393 784 373 790T336
805T304 819T274 826Q256 826 247 814T236 783H150Z" />
<glyph unicode="&#xd2;" horiz-adv-x="704" d="M352 -6Q275 -6 217 9T119 64T60 178T40 371Q40 489 60 563T119 678T216 733T352 749Q430 749 488 734T586 678T644 564T664 371Q664 252 645 178T586 64T488 9T352 -6ZM352 149Q393 149 420 158T462 191T484 258T491
371Q491 442 485 486T463 553T420 585T352 594Q312 594 285 586T243 554T220 486T213 371Q213 302 219 259T241 192T284 159T352 149ZM323 791L212 933H350L425 791H323Z" />
<glyph unicode="&#xd3;" horiz-adv-x="704" d="M352 -6Q275 -6 217 9T119 64T60 178T40 371Q40 489 60 563T119 678T216 733T352 749Q430 749 488 734T586 678T644 564T664 371Q664 252 645 178T586 64T488 9T352 -6ZM352 149Q393 149 420 158T462 191T484 258T491
371Q491 442 485 486T463 553T420 585T352 594Q312 594 285 586T243 554T220 486T213 371Q213 302 219 259T241 192T284 159T352 149ZM308 791L383 933H521L410 791H308Z" />
<glyph unicode="&#xd4;" horiz-adv-x="704" d="M352 -6Q275 -6 217 9T119 64T60 178T40 371Q40 489 60 563T119 678T216 733T352 749Q430 749 488 734T586 678T644 564T664 371Q664 252 645 178T586 64T488 9T352 -6ZM352 149Q393 149 420 158T462 191T484 258T491
371Q491 442 485 486T463 553T420 585T352 594Q312 594 285 586T243 554T220 486T213 371Q213 302 219 259T241 192T284 159T352 149ZM193 791L297 935H414L509 791H409L353 859L293 791H193Z" />
<glyph unicode="&#xd5;" horiz-adv-x="704" d="M352 -6Q275 -6 217 9T119 64T60 178T40 371Q40 489 60 563T119 678T216 733T352 749Q430 749 488 734T586 678T644 564T664 371Q664 252 645 178T586 64T488 9T352 -6ZM352 149Q393 149 420 158T462 191T484 258T491
371Q491 442 485 486T463 553T420 585T352 594Q312 594 285 586T243 554T220 486T213 371Q213 302 219 259T241 192T284 159T352 149ZM159 783Q163 834 177 864T215 907T267 921Q293 921 312 915T347 900T378 885T410 879Q427 879 436 891T447 927H532Q529 854
502 819T427 784Q402 784 382 790T345 805T313 819T283 826Q265 826 256 814T245 783H159Z" />
<glyph unicode="&#xd6;" horiz-adv-x="704" d="M352 -6Q275 -6 217 9T119 64T60 178T40 371Q40 489 60 563T119 678T216 733T352 749Q430 749 488 734T586 678T644 564T664 371Q664 252 645 178T586 64T488 9T352 -6ZM352 149Q393 149 420 158T462 191T484 258T491
371Q491 442 485 486T463 553T420 585T352 594Q312 594 285 586T243 554T220 486T213 371Q213 302 219 259T241 192T284 159T352 149ZM408 792Q386 792 386 814V918Q386 942 408 942H488Q499 942 504 936T510 918V814Q510 792 488 792H408ZM204 792Q182 792 182
814V918Q182 942 204 942H284Q295 942 300 936T306 918V814Q306 792 284 792H204Z" />
<glyph unicode="&#xd7;" horiz-adv-x="609" d="M414 149L97 466L194 563L511 246L414 149ZM194 149L97 246L414 563L511 466L194 149Z" />
<glyph unicode="&#xd8;" horiz-adv-x="704" d="M50 0L542 742H655L163 0H50ZM352 -6Q275 -6 217 9T119 64T60 178T40 371Q40 489 60 563T119 678T216 733T352 749Q430 749 488 734T586 678T644 564T664 371Q664 252 645 178T586 64T488 9T352 -6ZM352 149Q393
149 420 158T462 191T484 258T491 371Q491 442 485 486T463 553T420 585T352 594Q312 594 285 586T243 554T220 486T213 371Q213 302 219 259T241 192T284 159T352 149Z" />
<glyph unicode="&#xd9;" horiz-adv-x="689" d="M345 -5Q283 -5 230 5T135 42T72 117T49 242V742H222V243Q222 210 236 190T278 160T345 150Q383 150 410 159T452 189T467 243V742H640V242Q640 166 618 118T554 42T460 5T345 -5ZM305 791L194 933H332L407 791H305Z" />
<glyph unicode="&#xda;" horiz-adv-x="689" d="M345 -5Q283 -5 230 5T135 42T72 117T49 242V742H222V243Q222 210 236 190T278 160T345 150Q383 150 410 159T452 189T467 243V742H640V242Q640 166 618 118T554 42T460 5T345 -5ZM290 791L365 933H503L392 791H290Z" />
<glyph unicode="&#xdb;" horiz-adv-x="689" d="M345 -5Q283 -5 230 5T135 42T72 117T49 242V742H222V243Q222 210 236 190T278 160T345 150Q383 150 410 159T452 189T467 243V742H640V242Q640 166 618 118T554 42T460 5T345 -5ZM175 791L279 935H396L491 791H391L335
859L275 791H175Z" />
<glyph unicode="&#xdc;" horiz-adv-x="689" d="M345 -5Q283 -5 230 5T135 42T72 117T49 242V742H222V243Q222 210 236 190T278 160T345 150Q383 150 410 159T452 189T467 243V742H640V242Q640 166 618 118T554 42T460 5T345 -5ZM390 792Q368 792 368 814V918Q368
942 390 942H470Q481 942 486 936T492 918V814Q492 792 470 792H390ZM186 792Q164 792 164 814V918Q164 942 186 942H266Q277 942 282 936T288 918V814Q288 792 266 792H186Z" />
<glyph unicode="&#xdd;" horiz-adv-x="631" d="M229 0V217L11 742H190L319 393L448 742H620L402 217V0H229ZM275 791L350 933H488L377 791H275Z" />
<glyph unicode="&#xde;" horiz-adv-x="595" d="M59 0V742H232V627H346Q383 627 422 619T493 585T546 511T566 378Q566 294 547 243T496 166T427 131T355 122Q340 122 323 124T289 130T256 135T232 140V0H59ZM232 277H328Q350 277 365 287T386 320T393 376Q393
410 386 431T364 462T329 472H232V277Z" />
<glyph unicode="&#xdf;" horiz-adv-x="613" d="M408 -6Q364 -6 325 -2T263 10V126Q285 125 310 124T362 123Q388 123 403 127T425 139T432 153V162Q432 173 423 182T398 201T366 223T333 250T308 286T298 335Q298 364 307 388T329 433T356 473T378 512T387 552Q387
595 366 611T304 627Q254 627 234 600T213 513V0H40V531Q40 598 67 650T153 734T305 765Q393 765 447 739T526 668T551 563Q551 532 542 507T520 461T494 423T471 393T462 367Q462 356 471 346T496 324T529 300T562 270T586 231T596 177V150Q596 103 577 73T529
26T468 1T408 -6Z" />
<glyph unicode="&#xe0;" horiz-adv-x="552" d="M168 -6Q106 -6 68 30T30 130V182Q30 243 73 283T210 323H332V349Q332 371 324 385T293 405T222 411H64V510Q104 525 157 534T287 545Q354 545 403 529T478 474T505 361V0H368L341 55Q332 47 317 37T279 16T228 0T168
-6ZM257 113Q264 112 273 114T292 118T309 123T323 128T332 132V242L268 236Q235 232 219 219T202 180V159Q202 142 209 132T228 117T257 113ZM243 631L132 773H270L345 631H243Z" />
<glyph unicode="&#xe1;" horiz-adv-x="552" d="M168 -6Q106 -6 68 30T30 130V182Q30 243 73 283T210 323H332V349Q332 371 324 385T293 405T222 411H64V510Q104 525 157 534T287 545Q354 545 403 529T478 474T505 361V0H368L341 55Q332 47 317 37T279 16T228 0T168
-6ZM257 113Q264 112 273 114T292 118T309 123T323 128T332 132V242L268 236Q235 232 219 219T202 180V159Q202 142 209 132T228 117T257 113ZM223 631L298 773H436L325 631H223Z" />
<glyph unicode="&#xe2;" horiz-adv-x="552" d="M168 -6Q106 -6 68 30T30 130V182Q30 243 73 283T210 323H332V349Q332 371 324 385T293 405T222 411H64V510Q104 525 157 534T287 545Q354 545 403 529T478 474T505 361V0H368L341 55Q332 47 317 37T279 16T228 0T168
-6ZM257 113Q264 112 273 114T292 118T309 123T323 128T332 132V242L268 236Q235 232 219 219T202 180V159Q202 142 209 132T228 117T257 113ZM111 631L215 775H332L427 631H327L271 699L211 631H111Z" />
<glyph unicode="&#xe3;" horiz-adv-x="552" d="M168 -6Q106 -6 68 30T30 130V182Q30 243 73 283T210 323H332V349Q332 371 324 385T293 405T222 411H64V510Q104 525 157 534T287 545Q354 545 403 529T478 474T505 361V0H368L341 55Q332 47 317 37T279 16T228 0T168
-6ZM257 113Q264 112 273 114T292 118T309 123T323 128T332 132V242L268 236Q235 232 219 219T202 180V159Q202 142 209 132T228 117T257 113ZM86 623Q90 674 104 704T142 747T194 761Q220 761 239 755T274 740T305 725T337 719Q354 719 363 731T374 767H459Q456
694 429 659T354 624Q329 624 309 630T272 645T240 659T210 666Q192 666 183 654T172 623H86Z" />
<glyph unicode="&#xe4;" horiz-adv-x="552" d="M168 -6Q106 -6 68 30T30 130V182Q30 243 73 283T210 323H332V349Q332 371 324 385T293 405T222 411H64V510Q104 525 157 534T287 545Q354 545 403 529T478 474T505 361V0H368L341 55Q332 47 317 37T279 16T228 0T168
-6ZM257 113Q264 112 273 114T292 118T309 123T323 128T332 132V242L268 236Q235 232 219 219T202 180V159Q202 142 209 132T228 117T257 113ZM324 632Q301 632 301 654V758Q301 782 324 782H404Q414 782 419 776T425 758V654Q425 632 404 632H324ZM127 632Q104
632 104 654V758Q104 782 127 782H207Q217 782 223 776T229 758V654Q229 632 207 632H127Z" />
<glyph unicode="&#xe5;" horiz-adv-x="552" d="M168 -6Q106 -6 68 30T30 130V182Q30 243 73 283T210 323H332V349Q332 371 324 385T293 405T222 411H64V510Q104 525 157 534T287 545Q354 545 403 529T478 474T505 361V0H368L341 55Q332 47 317 37T279 16T228 0T168
-6ZM257 113Q264 112 273 114T292 118T309 123T323 128T332 132V242L268 236Q235 232 219 219T202 180V159Q202 142 209 132T228 117T257 113ZM271 583Q209 583 176 608T143 698Q143 763 176 788T271 814Q334 814 366 789T398 698Q398 633 367 608T271 583ZM272
645Q297 645 308 656T319 698Q319 728 308 739T271 751Q247 751 235 740T222 698Q222 668 234 657T272 645Z" />
<glyph unicode="&#xe6;" horiz-adv-x="841" d="M177 -6Q123 -6 92 14T47 66T33 133V180Q33 219 50 251T108 302T215 322H335V352Q335 374 326 387T295 405T238 411H67V510Q113 527 157 535T256 545Q313 545 357 530T425 492Q452 515 491 531T587 547Q661 547 707
530T775 471T797 352Q797 272 748 242T607 211H504Q505 182 514 165T540 138T584 126T643 123H779V22Q728 5 671 0T555 -6Q517 -6 482 4T420 33T377 76Q358 56 328 38T260 7T177 -6ZM261 113Q284 113 305 123T343 146Q339 160 336 185T333 240L250 230Q226 227
216 213T206 181V162Q206 142 213 131T234 117T261 113ZM504 318H602Q618 318 627 323T639 336T643 356Q643 381 635 394T611 413T574 418Q545 418 530 409T510 377T504 318Z" />
<glyph unicode="&#xe7;" horiz-adv-x="490" d="M264 -6Q214 -6 172 7T100 51T52 134T35 266Q35 348 50 402T95 488T169 533T270 547Q321 547 365 541T460 519V420H325Q280 420 255 408T219 362T208 268Q208 207 218 176T254 134T327 124H468V26Q443 17 409 10T337
-2T264 -6ZM193 -200V-130L209 -127Q228 -124 237 -117T246 -97Q246 -86 238 -77T207 -63L275 -48Q307 -48 332 -64T357 -117Q357 -156 330 -178T247 -200H193ZM207 -63L258 19H335L284 -63H207Z" />
<glyph unicode="&#xe8;" horiz-adv-x="536" d="M284 -5Q194 -5 139 18T60 101T35 268Q35 378 57 438T133 523T277 547Q360 547 409 531T479 474T501 358Q501 302 479 269T417 223T321 209H206Q209 177 218 158T254 131T331 123H482V22Q445 13 398 4T284 -5ZM204
311H302Q327 311 338 321T349 357Q349 381 342 395T319 416T277 423Q251 423 235 414T212 380T204 311ZM243 631L132 773H270L345 631H243Z" />
<glyph unicode="&#xe9;" horiz-adv-x="536" d="M284 -5Q194 -5 139 18T60 101T35 268Q35 378 57 438T133 523T277 547Q360 547 409 531T479 474T501 358Q501 302 479 269T417 223T321 209H206Q209 177 218 158T254 131T331 123H482V22Q445 13 398 4T284 -5ZM204
311H302Q327 311 338 321T349 357Q349 381 342 395T319 416T277 423Q251 423 235 414T212 380T204 311ZM223 631L298 773H436L325 631H223Z" />
<glyph unicode="&#xea;" horiz-adv-x="536" d="M284 -5Q194 -5 139 18T60 101T35 268Q35 378 57 438T133 523T277 547Q360 547 409 531T479 474T501 358Q501 302 479 269T417 223T321 209H206Q209 177 218 158T254 131T331 123H482V22Q445 13 398 4T284 -5ZM204
311H302Q327 311 338 321T349 357Q349 381 342 395T319 416T277 423Q251 423 235 414T212 380T204 311ZM111 631L215 775H332L427 631H327L271 699L211 631H111Z" />
<glyph unicode="&#xeb;" horiz-adv-x="536" d="M284 -5Q194 -5 139 18T60 101T35 268Q35 378 57 438T133 523T277 547Q360 547 409 531T479 474T501 358Q501 302 479 269T417 223T321 209H206Q209 177 218 158T254 131T331 123H482V22Q445 13 398 4T284 -5ZM204
311H302Q327 311 338 321T349 357Q349 381 342 395T319 416T277 423Q251 423 235 414T212 380T204 311ZM324 632Q301 632 301 654V758Q301 782 324 782H404Q414 782 419 776T425 758V654Q425 632 404 632H324ZM127 632Q104 632 104 654V758Q104 782 127 782H207Q217
782 223 776T229 758V654Q229 632 207 632H127Z" />
<glyph unicode="&#xec;" horiz-adv-x="272" d="M50 0V538H223V0H50ZM365 631L254 773H392L467 631H365Z" />
<glyph unicode="&#xed;" horiz-adv-x="272" d="M50 0V538H223V0H50ZM90 631L165 773H303L192 631H90Z" />
<glyph unicode="&#xee;" horiz-adv-x="272" d="M50 0V538H223V0H50ZM233 631L337 775H454L549 631H449L393 699L333 631H233Z" />
<glyph unicode="&#xef;" horiz-adv-x="272" d="M50 0V538H223V0H50ZM190 632Q167 632 167 654V758Q167 782 190 782H270Q280 782 285 776T291 758V654Q291 632 270 632H190ZM-7 632Q-30 632 -30 654V758Q-30 782 -7 782H73Q83 782 89 776T95 758V654Q95 632 73 632H-7Z" />
<glyph unicode="&#xf0;" horiz-adv-x="575" d="M287 -5Q218 -5 170 9T91 54T48 136T35 262Q35 341 50 392T95 473T167 515T263 527Q304 527 336 518T391 493T426 454Q449 426 476 402T521 348T540 270Q540 191 527 138T485 54T407 9T287 -5ZM287 132Q310 132 325
136T349 153T362 192T367 263Q367 307 363 333T349 371T325 387T287 392Q265 392 250 388T226 371T212 333T208 263Q208 218 212 192T225 154T250 137T287 132ZM540 271L385 335Q385 428 371 490T325 590T244 643T120 662V764Q239 763 319 737T448 654T518 503T540
271ZM146 545L126 599L509 746L530 691L146 545Z" />
<glyph unicode="&#xf1;" horiz-adv-x="598" d="M50 0V538H193L223 485Q250 509 293 528T383 547Q451 547 487 521T536 450T550 351V0H377V328Q377 351 369 365T347 385T314 392Q297 392 280 388T249 375T223 357V0H50ZM115 623Q119 674 133 704T171 747T223 761Q249
761 268 755T303 740T334 725T366 719Q383 719 392 731T403 767H488Q485 694 458 659T383 624Q358 624 338 630T301 645T269 659T239 666Q221 666 212 654T201 623H115Z" />
<glyph unicode="&#xf2;" horiz-adv-x="575" d="M287 -5Q218 -5 170 9T91 56T48 141T35 270Q35 352 48 405T92 490T170 534T287 547Q357 547 405 534T482 489T526 404T540 270Q540 191 527 138T485 54T407 9T287 -5ZM287 132Q310 132 325 136T349 154T362 196T367
271Q367 318 363 346T349 387T325 405T287 409Q265 409 250 405T226 388T212 346T208 271Q208 224 212 196T225 155T250 137T287 132ZM260 631L149 773H287L362 631H260Z" />
<glyph unicode="&#xf3;" horiz-adv-x="575" d="M287 -5Q218 -5 170 9T91 56T48 141T35 270Q35 352 48 405T92 490T170 534T287 547Q357 547 405 534T482 489T526 404T540 270Q540 191 527 138T485 54T407 9T287 -5ZM287 132Q310 132 325 136T349 154T362 196T367
271Q367 318 363 346T349 387T325 405T287 409Q265 409 250 405T226 388T212 346T208 271Q208 224 212 196T225 155T250 137T287 132ZM240 631L315 773H453L342 631H240Z" />
<glyph unicode="&#xf4;" horiz-adv-x="575" d="M287 -5Q218 -5 170 9T91 56T48 141T35 270Q35 352 48 405T92 490T170 534T287 547Q357 547 405 534T482 489T526 404T540 270Q540 191 527 138T485 54T407 9T287 -5ZM287 132Q310 132 325 136T349 154T362 196T367
271Q367 318 363 346T349 387T325 405T287 409Q265 409 250 405T226 388T212 346T208 271Q208 224 212 196T225 155T250 137T287 132ZM128 631L232 775H349L444 631H344L288 699L228 631H128Z" />
<glyph unicode="&#xf5;" horiz-adv-x="575" d="M287 -5Q218 -5 170 9T91 56T48 141T35 270Q35 352 48 405T92 490T170 534T287 547Q357 547 405 534T482 489T526 404T540 270Q540 191 527 138T485 54T407 9T287 -5ZM287 132Q310 132 325 136T349 154T362 196T367
271Q367 318 363 346T349 387T325 405T287 409Q265 409 250 405T226 388T212 346T208 271Q208 224 212 196T225 155T250 137T287 132ZM103 623Q107 674 121 704T159 747T211 761Q237 761 256 755T291 740T322 725T354 719Q371 719 380 731T391 767H476Q473 694
446 659T371 624Q346 624 326 630T289 645T257 659T227 666Q209 666 200 654T189 623H103Z" />
<glyph unicode="&#xf6;" horiz-adv-x="575" d="M287 -5Q218 -5 170 9T91 56T48 141T35 270Q35 352 48 405T92 490T170 534T287 547Q357 547 405 534T482 489T526 404T540 270Q540 191 527 138T485 54T407 9T287 -5ZM287 132Q310 132 325 136T349 154T362 196T367
271Q367 318 363 346T349 387T325 405T287 409Q265 409 250 405T226 388T212 346T208 271Q208 224 212 196T225 155T250 137T287 132ZM341 632Q318 632 318 654V758Q318 782 341 782H421Q431 782 436 776T442 758V654Q442 632 421 632H341ZM144 632Q121 632 121
654V758Q121 782 144 782H224Q234 782 240 776T246 758V654Q246 632 224 632H144Z" />
<glyph unicode="&#xf7;" horiz-adv-x="609" d="M254 496Q230 496 230 519V607Q230 632 254 632H354Q379 632 379 607V519Q379 506 372 501T354 496H254ZM254 80Q230 80 230 103V192Q230 217 254 217H354Q379 217 379 192V103Q379 90 372 85T354 80H254ZM80 287V425H528V287H80Z"
/>
<glyph unicode="&#xf8;" horiz-adv-x="575" d="M20 0L476 538H554L98 0H20ZM287 -5Q218 -5 170 9T91 56T48 141T35 270Q35 352 48 405T92 490T170 534T287 547Q357 547 405 534T482 489T526 404T540 270Q540 191 527 138T485 54T407 9T287 -5ZM287 132Q310 132
325 136T349 154T362 196T367 271Q367 318 363 346T349 387T325 405T287 409Q265 409 250 405T226 388T212 346T208 271Q208 224 212 196T225 155T250 137T287 132Z" />
<glyph unicode="&#xf9;" horiz-adv-x="598" d="M200 -6Q129 -6 89 37T48 156V538H221V210Q221 172 239 159T286 146Q306 146 332 156T376 181V538H548V0H405L376 53Q341 31 296 13T200 -6ZM269 631L158 773H296L371 631H269Z" />
<glyph unicode="&#xfa;" horiz-adv-x="598" d="M200 -6Q129 -6 89 37T48 156V538H221V210Q221 172 239 159T286 146Q306 146 332 156T376 181V538H548V0H405L376 53Q341 31 296 13T200 -6ZM249 631L324 773H462L351 631H249Z" />
<glyph unicode="&#xfb;" horiz-adv-x="598" d="M200 -6Q129 -6 89 37T48 156V538H221V210Q221 172 239 159T286 146Q306 146 332 156T376 181V538H548V0H405L376 53Q341 31 296 13T200 -6ZM137 631L241 775H358L453 631H353L297 699L237 631H137Z" />
<glyph unicode="&#xfc;" horiz-adv-x="598" d="M200 -6Q129 -6 89 37T48 156V538H221V210Q221 172 239 159T286 146Q306 146 332 156T376 181V538H548V0H405L376 53Q341 31 296 13T200 -6ZM350 632Q327 632 327 654V758Q327 782 350 782H430Q440 782 445 776T451
758V654Q451 632 430 632H350ZM153 632Q130 632 130 654V758Q130 782 153 782H233Q243 782 249 776T255 758V654Q255 632 233 632H153Z" />
<glyph unicode="&#xfd;" horiz-adv-x="579" d="M226 -237L281 0Q229 0 193 19T135 71T101 150L10 538H189L261 185Q265 170 271 161T284 148T299 142T311 140L393 538H569L421 -138L371 -237H226ZM231 631L306 773H444L333 631H231Z" />
<glyph unicode="&#xfe;" horiz-adv-x="588" d="M50 -237V763H223V488Q242 504 263 517T308 539T363 547Q409 547 444 529T503 476T540 388T553 268Q553 183 535 121T475 26T363 -8Q327 -8 290 -1T223 22V-237H50ZM305 134Q323 134 340 143T369 180T380 259Q380
318 371 350T346 395T306 408Q280 408 258 400T223 384V154Q237 145 259 140T305 134Z" />
<glyph unicode="&#xff;" horiz-adv-x="579" d="M226 -237L281 0Q229 0 193 19T135 71T101 150L10 538H189L261 185Q265 170 271 161T284 148T299 142T311 140L393 538H569L421 -138L371 -237H226ZM332 632Q309 632 309 654V758Q309 782 332 782H412Q422 782 427
776T433 758V654Q433 632 412 632H332ZM135 632Q112 632 112 654V758Q112 782 135 782H215Q225 782 231 776T237 758V654Q237 632 215 632H135Z" />
<glyph unicode="&#x2013;" horiz-adv-x="515" d="M21 220V359H494V220H21Z" />
<glyph unicode="&#x2014;" horiz-adv-x="738" d="M21 220V359H717V220H21Z" />
<glyph unicode="&#x2018;" horiz-adv-x="238" d="M69 489Q57 489 52 496T47 515V671Q47 711 65 731T108 758T157 765Q173 765 182 764T195 761V697Q175 697 171 687T166 668V646H176Q187 646 193 641T200 622V515Q200 489 176 489H69Z" />
<glyph unicode="&#x2019;" horiz-adv-x="238" d="M81 482Q66 482 58 483T43 486V549Q64 549 68 560T72 579V600H62Q52 600 45 606T38 624V732Q38 758 62 758H169Q182 758 186 750T191 732V575Q191 535 173 516T130 489T81 482Z" />
<glyph unicode="&#x201a;" horiz-adv-x="238" d="M81 -124Q66 -124 55 -123T43 -121V-57Q64 -57 68 -46T72 -27V-6H62Q52 -6 45 0T38 18V126Q38 151 62 151H169Q182 151 186 144T191 126V-31Q191 -71 173 -91T130 -117T81 -124Z" />
<glyph unicode="&#x201c;" horiz-adv-x="423" d="M69 489Q57 489 52 496T47 515V671Q47 711 65 731T108 758T157 765Q173 765 182 764T195 761V697Q175 697 171 687T166 668V646H176Q187 646 193 641T200 622V515Q200 489 176 489H69ZM254 489Q242 489 237 496T232
515V671Q232 711 250 731T293 758T342 765Q358 765 367 764T380 761V697Q360 697 356 687T351 668V646H361Q372 646 378 641T385 622V515Q385 489 361 489H254Z" />
<glyph unicode="&#x201d;" horiz-adv-x="423" d="M81 482Q66 482 58 483T43 486V549Q64 549 68 560T72 579V600H62Q52 600 45 606T38 624V732Q38 758 62 758H169Q182 758 186 750T191 732V575Q191 535 173 516T130 489T81 482ZM266 482Q251 482 243 483T228 486V549Q249
549 253 560T257 579V600H247Q237 600 230 606T223 624V732Q223 758 247 758H354Q367 758 371 750T376 732V575Q376 535 358 516T315 489T266 482Z" />
<glyph unicode="&#x201e;" horiz-adv-x="423" d="M81 -124Q66 -124 55 -123T43 -121V-57Q64 -57 68 -46T72 -27V-6H62Q52 -6 45 0T38 18V126Q38 151 62 151H169Q182 151 186 144T191 126V-31Q191 -71 173 -91T130 -117T81 -124ZM266 -124Q251 -124 240 -123T228
-121V-57Q249 -57 253 -46T257 -27V-6H247Q237 -6 230 0T223 18V126Q223 151 247 151H354Q367 151 371 144T376 126V-31Q376 -71 358 -91T315 -117T266 -124Z" />
<glyph unicode="&#x2022;" horiz-adv-x="309" d="M89 282Q56 282 56 314V449Q56 465 64 474T89 484H218Q253 484 253 449V314Q253 296 243 289T218 282H89Z" />
<glyph unicode="&#x2039;" horiz-adv-x="373" d="M261 58L33 283L257 504L343 419L206 283L345 146L261 58Z" />
<glyph unicode="&#x203a;" horiz-adv-x="373" d="M116 58L33 146L171 283L33 419L120 504L344 283L116 58Z" />
</font>
</defs>
</svg>
