<?xml version="1.0" standalone="no"?>
<!DOCTYPE svg PUBLIC "-//W3C//DTD SVG 1.1//EN" "http://www.w3.org/Graphics/SVG/1.1/DTD/svg11.dtd">
<svg xmlns="http://www.w3.org/2000/svg">
<defs >
<font id="ExpletusSans" horiz-adv-x="1091" ><font-face
    font-family="Expletus Sans SemiBold"
    units-per-em="2000"
    panose-1="0 0 0 0 0 0 0 0 0 0"
    ascent="2066"
    descent="-612"
    alphabetic="0" />
<glyph unicode=" " horiz-adv-x="514" />
<glyph unicode="!" horiz-adv-x="702" d="M144 425L112 1454H356L320 425H144ZM230 -29Q167 -29 125 13T83 117Q83 180 125 224T230 268Q293 268 335 224T378 117Q378 55 336 13T230 -29Z" />
<glyph unicode="&quot;" horiz-adv-x="797" d="M82 1025V1454H295V1025H82ZM467 1025V1454H680V1025H467Z" />
<glyph unicode="#" horiz-adv-x="1788" d="M304 0L362 297L372 319L346 316H143V472H392L476 910L487 936L452 933H261V1092H512L570 1404H766L707 1092H1124L1184 1404H1380L1319 1092H1543V934H1290L1201 474H1424V316H1175L1114 0H918L975 292L985 319L957
316H627Q640 354 663 390T727 450T829 474H1005L1087 904L1100 936L1065 933H678L500 0H304Z" />
<glyph unicode="$" horiz-adv-x="1028" d="M433 -214V-22Q355 -15 262 8T67 77L133 243Q236 197 325 179T490 160Q566 160 625 187T717 261T750 362Q750 437 702 489T579 584T418 668T258 762T135 889T87 1070Q87 1170 132 1244T255 1363T433 1420V1620H619V1418Q677
1412 739 1399T881 1361L814 1199Q726 1224 657 1234T525 1244Q431 1244 376 1196T320 1079Q320 1010 368 960T493 867T654 781T815 681T939 547T987 358Q987 262 943 184T816 55T619 -14V-214H433Z" />
<glyph unicode="%" horiz-adv-x="1628" d="M291 0L1167 1404H1358L482 0H291ZM365 619Q213 619 122 725T30 1027Q30 1220 121 1327T365 1434Q517 1434 609 1327T702 1027Q702 834 610 727T365 619ZM365 763Q428 763 464 828T501 1027Q501 1158 465 1224T365 1291Q305
1291 268 1225T230 1027Q230 894 267 829T365 763ZM1284 -26Q1132 -26 1041 80T949 382Q949 574 1040 681T1284 788Q1436 788 1529 681T1622 382Q1622 189 1529 82T1284 -26ZM1284 117Q1347 117 1383 183T1420 382Q1420 512 1384 578T1284 645Q1224 645 1187 579T1150
382Q1150 249 1187 183T1284 117Z" />
<glyph unicode="&amp;" horiz-adv-x="1522" d="M670 -22Q535 -22 436 36T283 193T228 418Q228 554 298 656T465 831Q402 921 379 985T355 1109Q355 1222 409 1304T560 1430T783 1474Q849 1474 930 1457T1082 1406L1027 1244Q968 1267 901 1279T779 1291Q691 1291
635 1245T578 1127Q578 1045 627 976T758 808L1050 466L1067 438L1079 469Q1114 540 1135 609T1168 758H1365Q1338 626 1300 510T1199 293L1452 0H1166L592 669L577 695L559 667Q518 622 493 569T468 444Q468 321 527 241T700 161Q721 161 738 164T777 172Q847
184 899 158T994 87Q924 34 846 6T670 -22Z" />
<glyph unicode="&apos;" horiz-adv-x="382" d="M75 1025V1454H288V1025H75Z" />
<glyph unicode="(" horiz-adv-x="806" d="M697 -352Q582 -274 510 -187T400 10T348 262T334 592Q334 779 348 921T400 1172T510 1368T697 1534L808 1416Q717 1338 664 1261T586 1092T554 879T547 592Q547 426 554 304T586 90T665 -78T808 -232L697 -352Z" />
<glyph unicode=")" horiz-adv-x="802" d="M110 -352L-1 -232Q91 -155 143 -79T221 90T253 304T260 592Q260 758 253 879T221 1091T144 1260T-1 1416L110 1534Q226 1456 298 1369T407 1172T459 921T474 592Q474 405 460 263T408 11T298 -186T110 -352Z" />
<glyph unicode="*" horiz-adv-x="1060" d="M384 698L218 794L424 1048L102 996V1188L422 1138L215 1388L381 1485L500 1180L618 1485L785 1388Q702 1290 661 1240T604 1169T578 1136L900 1186V995Q797 1012 737 1021T646 1035T600 1042T575 1046L782 794L616 698L501
1004L384 698Z" />
<glyph unicode="+" horiz-adv-x="1136" d="M467 124V526H94V694H467V1092H654V694H1030V526H654V124H467Z" />
<glyph unicode="," horiz-adv-x="464" d="M112 -233V196H329V40Q329 -18 318 -72T282 -168T214 -227T112 -233Z" />
<glyph unicode="-" horiz-adv-x="750" d="M90 524V694H694V524H90Z" />
<glyph unicode="." horiz-adv-x="571" d="M271 -30Q208 -30 166 12T123 116Q123 179 165 222T271 266Q334 266 376 223T419 116Q419 54 377 12T271 -30Z" />
<glyph unicode="/" horiz-adv-x="664" d="M-8 -124L478 1454H687L201 -124H-8Z" />
<glyph unicode="0" horiz-adv-x="1382" d="M658 -36Q487 -36 358 52T157 305T85 698Q85 919 155 1085T353 1343T657 1436Q801 1436 908 1377T1087 1214T1194 978T1230 698Q1230 540 1191 406T1079 173T899 19T658 -36ZM658 145Q810 145 889 293T968 698Q968 955
889 1105T658 1255Q505 1255 427 1105T348 698Q348 442 427 294T658 145Z" />
<glyph unicode="1" horiz-adv-x="638" d="M270 0V1136L51 1021L-28 1168L406 1402H501V0H270Z" />
<glyph unicode="2" horiz-adv-x="1093" d="M98 0V102Q149 200 226 299T388 496T546 686T666 865T713 1029Q713 1131 643 1187T472 1243Q423 1243 359 1229T216 1177L153 1342Q249 1390 334 1407T493 1424Q635 1424 742 1380T909 1252T969 1050Q969 965 931 878T831
705T697 535T555 373T434 224L402 189L448 196H992V0H98Z" />
<glyph unicode="3" horiz-adv-x="1056" d="M411 -22Q300 -22 204 5T29 71L88 233Q160 198 235 179T383 160Q465 160 530 193T633 281T672 402Q672 496 622 548T483 622T283 643L265 789L345 822Q425 857 488 892T588 970T625 1077Q625 1155 567 1198T424 1242Q367
1242 300 1229T146 1175L85 1341Q191 1390 283 1407T457 1424Q578 1424 674 1384T825 1271T881 1098Q881 1007 829 927T676 788L626 769L671 759Q742 733 800 682T893 559T928 398Q928 277 859 182T673 33T411 -22Z" />
<glyph unicode="4" horiz-adv-x="1190" d="M717 0V1058L721 1119L691 1065L324 503L295 470L334 473H449Q505 473 544 444T609 372T646 294H64V460L674 1402H947V472H1109V294H947V0H717Z" />
<glyph unicode="5" horiz-adv-x="1072" d="M422 -23Q371 -23 311 -14T187 17T59 74L118 235Q212 193 288 176T420 158Q517 158 580 199T674 301T705 425Q705 550 618 613T394 676Q343 676 274 669T125 644L176 1402H901V1207H366L341 874L336 844L371 851Q395
854 415 854T452 855Q617 855 730 796T902 637T961 421Q961 294 893 194T704 35T422 -23Z" />
<glyph unicode="6" horiz-adv-x="1272" d="M679 -30Q528 -30 422 26T251 179T155 398T125 653Q125 800 173 937T313 1182T534 1353T827 1417Q877 1417 939 1406T1068 1370L1012 1205Q958 1223 912 1229T827 1236Q686 1236 586 1159T434 951T381 657Q381 575 394
486T439 321T529 197T674 149Q740 149 792 187T876 292T907 442Q907 568 853 630T728 692Q716 692 700 690T663 684Q615 675 577 691T510 734T464 788Q557 837 623 854T746 872Q862 872 956 823T1107 678T1164 442Q1164 355 1131 272T1034 120T881 11T679 -30Z"
/>
<glyph unicode="7" horiz-adv-x="1004" d="M229 0Q260 228 314 427T453 810T658 1174L682 1200L642 1198H76V1402H944V1224Q862 1119 788 1003T654 743T549 418T482 0H229Z" />
<glyph unicode="8" horiz-adv-x="1287" d="M656 -27Q514 -27 403 18T227 148T162 356Q162 425 197 504T331 687Q377 639 407 579T416 457Q405 430 400 409T394 365Q394 266 468 210T656 153Q775 153 844 212T914 356Q914 425 876 473T775 556T637 622T487 688T349
772T248 891T210 1062Q210 1177 272 1258T438 1383T662 1426Q787 1426 888 1383T1049 1259T1109 1062Q1109 984 1067 907T956 748L924 721L953 707Q1039 652 1097 570T1155 356Q1155 234 1088 149T908 18T656 -27ZM759 805Q814 865 844 922T874 1039Q874 1111 844
1156T765 1223T662 1245Q606 1245 558 1224T481 1162T451 1062Q451 996 495 952T609 874T759 805Z" />
<glyph unicode="9" horiz-adv-x="1271" d="M460 -20Q411 -20 348 -8T220 29L277 193Q332 176 377 169T460 162Q603 162 702 238T855 446T908 741Q908 823 895 911T849 1075T760 1199T615 1247Q548 1247 496 1208T413 1104T382 956Q382 830 435 768T561 706Q572
706 588 707T626 713Q673 723 711 707T778 663T824 609Q731 560 665 543T542 526Q426 526 331 575T180 720T124 956Q124 1043 157 1127T254 1279T407 1387T609 1427Q760 1427 866 1371T1037 1219T1133 1000T1164 745Q1164 597 1116 460T975 215T753 43T460 -20Z"
/>
<glyph unicode=":" horiz-adv-x="598" d="M304 -30Q241 -30 199 12T156 116Q156 179 198 222T304 266Q367 266 409 223T452 116Q452 54 410 12T304 -30ZM304 705Q241 705 199 747T156 851Q156 914 198 957T304 1001Q367 1001 409 958T452 851Q452 789 410 747T304 705Z" />
<glyph unicode=";" horiz-adv-x="598" d="M195 -233V196H412V40Q412 -18 401 -72T365 -168T297 -227T195 -233ZM304 705Q241 705 199 747T156 851Q156 914 198 957T304 1001Q367 1001 409 958T452 851Q452 789 410 747T304 705Z" />
<glyph unicode="&lt;" horiz-adv-x="1226" d="M1108 0L74 477V627L1108 1104V883L368 566L316 552L368 540L1108 223V0Z" />
<glyph unicode="=" horiz-adv-x="1212" d="M134 776V948H1078V776H134ZM134 334V506H1078V334H134Z" />
<glyph unicode="&gt;" horiz-adv-x="1226" d="M96 0V223L836 540L888 552L836 566L96 883V1104L1130 627V477L96 0Z" />
<glyph unicode="?" horiz-adv-x="1166" d="M382 425Q382 542 416 627T500 777T600 896T684 1005T718 1128Q718 1201 663 1246T519 1291Q462 1291 402 1279T251 1225L188 1392Q291 1442 374 1458T539 1474Q665 1474 762 1435T914 1325T969 1158Q969 1067 930 994T834
857T718 728T621 590T582 425H382ZM481 -29Q419 -29 376 13T333 117Q333 180 376 224T481 268Q544 268 586 224T629 117Q629 55 587 13T481 -29Z" />
<glyph unicode="@" horiz-adv-x="1838" d="M894 -256Q741 -256 608 -211T373 -73T215 167T158 514Q158 701 220 845T389 1088T635 1237T924 1288Q1072 1288 1202 1246T1433 1121T1589 919T1646 644Q1646 508 1581 397T1403 212T1144 111Q1122 123 1111 144T1090
190L1086 228L1066 188Q1008 130 954 112T845 94Q722 94 649 155T576 316Q576 436 674 499T1004 585Q1002 567 991 536T956 476T892 443Q808 431 779 398T750 324Q750 281 784 254T878 227Q929 227 981 252T1080 338V610Q1080 702 1033 747T891 793Q849 793 805
785T700 756L652 878Q731 910 793 921T919 932Q1077 932 1163 847T1250 600V317L1248 273L1277 297Q1379 364 1423 457T1468 644Q1468 798 1399 909T1208 1080T922 1140Q751 1140 619 1067T411 855T336 514Q336 314 410 176T610 -35T894 -108Q952 -108 1005 -104T1120
-87T1263 -48L1315 -185Q1220 -216 1150 -231T1020 -251T894 -256Z" />
<glyph unicode="A" horiz-adv-x="1417" d="M64 0L587 1454H830L1353 0H1093L715 1117L700 1185L683 1114L492 548L469 508L497 512H694Q748 512 785 484T845 414T883 330H422L310 0H64Z" />
<glyph unicode="B" horiz-adv-x="1328" d="M741 -23Q685 -23 632 -16T491 12Q508 47 534 82T598 140T687 160Q697 159 706 159T726 158Q796 159 851 190T940 277T973 408Q973 495 926 555T796 646T611 677H412V0H167V1434Q261 1450 334 1460T473 1475T611 1480Q787
1480 906 1429T1085 1287T1145 1079Q1145 1007 1103 929T986 804L928 776L984 762Q1057 732 1113 678T1200 555T1231 410Q1231 333 1198 257T1101 117T947 15T741 -23ZM412 846H611Q692 846 755 876T855 958T892 1078Q892 1133 863 1183T771 1266T611 1299Q557
1299 512 1296T412 1286V846Z" />
<glyph unicode="C" horiz-adv-x="1243" d="M869 -24Q638 -24 469 72T207 338T115 726Q115 887 168 1024T322 1264T560 1423T869 1480Q953 1480 1041 1464T1222 1412L1158 1249Q1070 1276 1004 1286T869 1297Q756 1297 666 1254T512 1135T414 954T380 726Q380 611
414 508T511 327T665 203T869 158Q938 158 1009 175T1156 230L1222 68Q1132 21 1043 -1T869 -24Z" />
<glyph unicode="D" horiz-adv-x="1468" d="M745 -24Q705 -24 670 -22T594 -12T495 10Q512 45 538 80T602 138T691 160Q705 158 713 158T731 158Q837 159 919 207T1057 336T1142 518T1171 730Q1171 901 1112 1028T928 1226T609 1297Q562 1297 513 1293T417 1282V0H171V1430Q290
1456 406 1468T609 1480Q871 1480 1055 1391T1337 1134T1435 730Q1435 570 1383 433T1236 193T1016 33T745 -24Z" />
<glyph unicode="E" horiz-adv-x="1168" d="M171 0V1454H1026V1272H420V182H1057V0H171ZM496 674Q509 715 532 756T593 825T685 852H958V674H496Z" />
<glyph unicode="F" horiz-adv-x="1160" d="M171 0V1454H1026V1272H420V0H171ZM496 674Q509 715 532 756T593 825T685 852H958V674H496Z" />
<glyph unicode="G" horiz-adv-x="1387" d="M854 -24Q681 -24 539 31T293 187T135 424T79 726Q79 888 135 1025T296 1265T543 1423T858 1480Q943 1480 1051 1461T1270 1392L1205 1224Q1095 1269 1011 1283T858 1297Q745 1297 651 1256T488 1138T382 957T344 726Q344
604 381 500T486 320T648 201T854 158Q898 158 946 162T1059 185V674H1287V74Q1214 39 1136 18T984 -14T854 -24Z" />
<glyph unicode="H" horiz-adv-x="1502" d="M1087 0V672H496Q509 714 532 756T593 825T684 853H1087V1454H1334V0H1087ZM171 0V1454H420V0H171Z" />
<glyph unicode="I" horiz-adv-x="584" d="M171 0V1454H412V0H171Z" />
<glyph unicode="J" horiz-adv-x="719" d="M93 -433L-16 -293Q59 -231 119 -178T221 -66T286 70T309 256V1454H558V256Q558 120 527 22T437 -150T291 -292T93 -433Z" />
<glyph unicode="K" horiz-adv-x="1381" d="M1056 0L705 663L691 707L669 666L530 486Q509 556 514 635T547 791T619 928L1001 1454H1277L828 870L1346 0H1056ZM171 0V1454H420V0H171Z" />
<glyph unicode="L" horiz-adv-x="1054" d="M169 0V1454H420V184H977L976 0H169Z" />
<glyph unicode="M" horiz-adv-x="1939" d="M144 0L293 1454H610L956 314L970 246L985 314L1329 1454H1648L1793 0H1562L1470 1122L1464 1214L1440 1122L1093 20H844L494 1124L469 1214L463 1124L374 0H144Z" />
<glyph unicode="N" horiz-adv-x="1534" d="M196 0V1454H439L1088 418L1114 343L1110 420V1454H1330V0H1110L435 1074L404 1144L408 1076V0H196Z" />
<glyph unicode="O" horiz-adv-x="1580" d="M792 -28Q578 -28 420 68T175 334T88 728Q88 898 141 1037T289 1276T512 1430T792 1484Q975 1484 1108 1420T1327 1248T1454 1004T1496 728Q1496 571 1446 434T1304 193T1082 31T792 -28ZM792 154Q914 154 1014 225T1173
425T1232 728Q1232 897 1177 1026T1022 1228T792 1301Q658 1301 559 1226T407 1021T353 728Q353 612 383 509T470 326T608 200T792 154Z" />
<glyph unicode="P" horiz-adv-x="1260" d="M171 0V1438Q266 1454 337 1464T472 1477T609 1481Q770 1481 895 1425T1092 1267T1164 1031Q1164 900 1097 805T924 656T698 590Q654 586 604 589T497 608Q512 644 536 679T593 739T671 766Q731 769 784 805T871 900T905
1031Q905 1106 867 1166T762 1262T609 1298Q554 1298 515 1295T421 1286V0H171Z" />
<glyph unicode="Q" horiz-adv-x="1567" d="M783 -28Q577 -28 422 67T181 333T94 728Q94 895 145 1034T292 1273T515 1429T798 1484Q1010 1484 1168 1389T1413 1124T1501 728Q1501 592 1454 468T1321 230L1455 92L1320 -42L826 461L961 597L1137 416L1163 375L1176
426Q1209 496 1223 574T1237 728Q1237 891 1184 1021T1032 1226T798 1301Q664 1301 565 1226T412 1021T358 728Q358 611 388 507T474 324T608 200T783 155Q805 155 830 158T878 163Q939 169 996 140T1086 75Q1010 22 933 -3T783 -28Z" />
<glyph unicode="R" horiz-adv-x="1340" d="M171 0V1436Q266 1453 337 1463T472 1477T609 1482Q767 1482 893 1427T1091 1273T1164 1042Q1164 923 1105 833T950 690L898 670L940 650Q1006 600 1042 529T1103 372T1153 193T1224 0H966Q929 80 906 170T860 347T799
503T697 611Q649 607 600 610T497 628Q512 664 536 700T593 760T671 788Q731 791 784 825T871 915T905 1043Q905 1116 866 1174T759 1265T609 1299Q554 1299 518 1297T421 1285V0H171Z" />
<glyph unicode="S" horiz-adv-x="1136" d="M545 -25Q460 -25 346 -3T108 77L175 241Q276 195 369 176T537 157Q657 157 730 219T803 368Q803 446 754 501T628 600T465 688T302 787T176 919T127 1107Q127 1226 184 1309T337 1436T553 1480Q643 1480 730 1467T933
1416L867 1254Q780 1280 707 1290T572 1301Q473 1301 417 1249T361 1122Q361 1050 410 998T536 901T701 811T865 706T992 567T1041 371Q1041 253 981 164T809 25T545 -25Z" />
<glyph unicode="T" horiz-adv-x="1076" d="M411 0V1272H14V1454H1057V1272H659V0H411Z" />
<glyph unicode="U" horiz-adv-x="1429" d="M727 -28Q552 -28 425 40T230 238T162 548V1454H408V518Q408 349 497 252T727 154Q867 154 956 251T1046 518V1454H1291V548Q1291 374 1222 245T1025 44T727 -28Z" />
<glyph unicode="V" horiz-adv-x="1305" d="M530 0L20 1454H286L647 315L661 243L676 313L1037 1454H1294L788 0H530Z" />
<glyph unicode="W" horiz-adv-x="2051" d="M458 0L54 1454H299L579 343L595 237L617 343L896 1434H1168L1442 343L1462 237L1478 339L1758 1454H1997L1595 0H1335L1046 1094L1029 1177L1013 1097L724 0H458Z" />
<glyph unicode="X" horiz-adv-x="1295" d="M955 0L85 1454H365L630 956L649 899L665 956L931 1454H1206L775 743L1229 0H955ZM62 0L459 654Q484 621 509 568T541 454T518 340L329 0H62Z" />
<glyph unicode="Y" horiz-adv-x="1368" d="M553 0V634L52 1454H327L794 676V0H553ZM852 753Q827 786 802 839T771 953T795 1072L1008 1454H1278L852 753Z" />
<glyph unicode="Z" horiz-adv-x="1213" d="M123 0V102L857 1246L889 1280L841 1274H195V1454H1179V1352L443 206L412 176L457 182H1198V0H123Z" />
<glyph unicode="[" horiz-adv-x="894" d="M262 -398V1542H832V1359H490V-215H833L832 -398H262Z" />
<glyph unicode="\" horiz-adv-x="700" d="M489 -124L3 1454H221L707 -124H489Z" />
<glyph unicode="]" horiz-adv-x="902" d="M91 -398L90 -215H433V1359H91V1542H661V-398H91Z" />
<glyph unicode="^" horiz-adv-x="1256" d="M131 420L549 1454H713L1131 420H915L645 1115L632 1173L619 1115L351 420H131Z" />
<glyph unicode="_" horiz-adv-x="994" d="M54 -165V0H940V-165H54Z" />
<glyph unicode="`" horiz-adv-x="392" d="M716 1204Q682 1195 636 1197T542 1218T461 1279L296 1480H542L716 1204Z" />
<glyph unicode="a" horiz-adv-x="1072" d="M405 -24Q306 -24 234 16T124 124T85 271Q85 361 135 432T306 551T635 618Q629 579 614 542T571 479T496 444Q431 434 394 411T342 358T326 292Q326 236 365 197T466 158Q528 158 590 195T707 300V630Q707 740 650 806T475
873Q424 873 369 863T241 826L182 982Q274 1024 361 1039T517 1055Q722 1055 833 944T945 624V287Q945 207 953 136T977 0H798Q771 16 754 43T725 101L721 139L697 104Q613 25 547 1T405 -24Z" />
<glyph unicode="b" horiz-adv-x="1198" d="M574 -26Q465 -26 364 -1T154 82V1516H396V181Q444 166 488 161T574 156Q701 156 774 264T847 542Q847 632 823 708T750 829T627 870Q569 867 533 905T467 999Q522 1024 581 1037T690 1050Q780 1050 856 1011T988 902T1075
740T1106 542Q1106 380 1041 252T855 49T574 -26Z" />
<glyph unicode="c" horiz-adv-x="858" d="M582 -24Q445 -24 328 34T139 213T67 518Q67 696 139 816T329 997T582 1058Q636 1058 700 1048T825 1014L765 850Q714 863 667 869T582 876Q508 876 450 835T359 714T325 518Q325 401 358 322T450 200T582 158Q625 158
675 170T791 210L852 46Q773 9 703 -7T582 -24Z" />
<glyph unicode="d" horiz-adv-x="1222" d="M530 -24Q387 -24 286 47T132 243T79 523Q79 635 116 730T216 897T360 1009T528 1050Q577 1050 626 1043T745 1014Q718 953 679 915T580 874Q503 871 449 830T366 711T337 523Q337 421 364 339T444 207T572 158Q634 158
693 193T816 301V1516H1058V287Q1058 207 1066 136T1088 0H905Q880 17 864 42T835 99L827 140L800 100Q729 30 660 3T530 -24Z" />
<glyph unicode="e" horiz-adv-x="1113" d="M610 -24Q483 -24 387 22T227 146T131 323T98 531Q98 695 164 813T346 994T609 1058Q717 1058 803 1014T943 891T1009 707T982 482H414Q435 546 475 590T576 634H783Q791 701 770 758T702 849T593 883Q527 883 469 846T376
731T340 536Q340 420 377 335T482 204T636 158Q705 158 770 174T922 232L985 66Q881 16 788 -4T610 -24Z" />
<glyph unicode="f" horiz-adv-x="838" d="M199 0V859H31V993L199 1034V1090Q199 1221 249 1319T393 1471T616 1526Q666 1526 732 1514T873 1469L819 1313Q759 1332 718 1339T643 1347Q582 1347 534 1319T457 1235T428 1098V0H199ZM498 859Q511 901 534 941T595
1008T686 1034H787V859H498Z" />
<glyph unicode="g" horiz-adv-x="1167" d="M524 -500Q446 -500 349 -484T141 -416L204 -249Q300 -290 372 -306T508 -322Q586 -322 651 -289T756 -189T795 -22V856Q754 866 718 870T650 874Q509 874 430 771T351 492Q351 409 371 334T439 211T563 169Q617 172
654 140T725 56Q672 25 615 6T509 -16Q416 -18 339 22T207 133T122 298T92 492Q92 653 159 781T350 982T643 1056Q700 1056 756 1051T878 1033T1033 995V0Q1033 -170 967 -280T785 -445T524 -500Z" />
<glyph unicode="h" horiz-adv-x="1196" d="M154 0V1516H396V0H154ZM800 0V741Q800 798 777 835T702 872Q682 872 669 868T629 860Q579 853 540 883T467 963Q569 1021 640 1039T766 1058Q838 1058 901 1025T1005 921T1045 736V0H800Z" />
<glyph unicode="i" horiz-adv-x="541" d="M148 0V1034H394V0H148ZM271 1187Q209 1187 167 1229T124 1334Q124 1398 166 1441T271 1484Q334 1484 376 1441T418 1334Q418 1272 376 1230T271 1187Z" />
<glyph unicode="j" horiz-adv-x="578" d="M43 -497L-62 -367Q41 -278 93 -212T162 -77T180 89V1034H424V89Q424 -29 392 -123T278 -305T43 -497ZM302 1187Q240 1187 198 1229T156 1334Q156 1398 198 1441T302 1485Q367 1485 409 1442T452 1334Q452 1272 410 1230T302
1187Z" />
<glyph unicode="k" horiz-adv-x="1215" d="M903 0L652 480L635 524L609 489L493 362Q471 470 499 572T594 754L830 1034H1113L779 674L1174 0H903ZM154 0V1516H396V0H154Z" />
<glyph unicode="l" horiz-adv-x="542" d="M158 0V1516H399V0H158Z" />
<glyph unicode="m" horiz-adv-x="1838" d="M1438 0V741Q1438 798 1413 835T1328 872Q1308 872 1287 867T1240 858Q1188 852 1145 883T1069 964Q1178 1016 1254 1037T1394 1058Q1467 1058 1533 1025T1640 921T1682 736V0H1438ZM158 0V782Q158 838 152 901T128 1034H326Q374
980 389 927T404 814V0H158ZM798 0V741Q798 798 776 835T699 872Q679 872 661 868T618 860Q566 854 525 885T452 966Q559 1017 631 1037T768 1058Q840 1058 903 1025T1005 921T1044 736V0H798Z" />
<glyph unicode="n" horiz-adv-x="1170" d="M781 0V741Q781 798 756 835T676 872Q655 872 637 867T591 858Q540 852 501 883T427 960Q529 1017 602 1037T740 1058Q813 1058 878 1025T984 921T1025 736V0H781ZM131 0V782Q131 838 124 901T99 1034H298Q346 980 361
927T377 814V0H131Z" />
<glyph unicode="o" horiz-adv-x="1186" d="M588 -24Q449 -24 332 39T144 223T73 518Q73 657 120 759T243 927T410 1025T588 1058Q744 1058 860 988T1039 796T1103 518Q1103 390 1060 289T944 119T778 13T588 -24ZM588 157Q673 157 730 206T815 337T844 518Q844
627 812 708T723 833T588 877Q511 877 453 833T363 708T331 518Q331 359 399 258T588 157Z" />
<glyph unicode="p" horiz-adv-x="1224" d="M158 -482V747Q158 828 151 899T128 1034H311Q337 1017 354 991T383 930L388 893L413 931Q486 1003 556 1030T687 1058Q829 1058 930 987T1084 791T1137 511Q1137 399 1100 304T1000 137T856 25T688 -16Q639 -16 589
-9T471 20Q498 81 537 120T634 160Q712 163 766 204T850 323T879 511Q879 613 852 696T772 827T644 876Q582 876 522 841T400 733V-482H158Z" />
<glyph unicode="q" horiz-adv-x="1192" d="M803 -482V856Q761 866 724 870T657 874Q516 874 437 771T358 492Q358 409 378 334T445 211T570 169Q624 172 661 140T733 56Q679 25 622 6T516 -16Q423 -18 347 22T215 133T129 298T99 492Q99 653 166 781T357 982T651
1056Q707 1056 763 1051T886 1033T1041 995V-482H803Z" />
<glyph unicode="r" horiz-adv-x="782" d="M148 0V744Q148 814 141 889T116 1034H300Q322 1013 339 972T364 881L366 838L385 881Q425 960 493 1006T631 1052Q660 1052 688 1047T749 1031L720 832Q683 842 658 845T610 849Q545 849 492 809T409 692T378 509V0H148Z" />
<glyph unicode="s" horiz-adv-x="857" d="M459 -20Q382 -20 287 -6T65 64L122 229Q209 193 283 178T421 162Q502 162 539 197T577 281Q577 330 542 362T452 421T335 474T218 539T128 630T93 766Q93 830 129 896T242 1007T444 1052Q508 1052 578 1042T739 1000L682
839Q610 860 560 868T463 876Q401 876 363 850T325 773Q325 727 360 694T450 635T567 580T684 513T774 420T809 284Q809 195 760 127T630 19T459 -20Z" />
<glyph unicode="t" horiz-adv-x="888" d="M578 -24Q398 -24 302 84T206 391V859H34V991L206 1034V1287L436 1361V382Q436 280 480 218T595 156Q628 156 664 162T753 186L805 26Q730 1 679 -11T578 -24ZM694 859Q640 859 603 885T543 952T506 1034H793V859H694Z" />
<glyph unicode="u" horiz-adv-x="1206" d="M418 -24Q346 -24 281 9T176 113T136 298V1034H379V293Q379 236 403 199T483 162Q504 162 522 167T567 176Q619 183 658 152T732 74Q630 17 556 -3T418 -24ZM860 0Q813 54 798 107T782 220V1034H1026V252Q1026 197 1033
134T1058 0H860Z" />
<glyph unicode="v" horiz-adv-x="1070" d="M408 0L20 1034H277L526 273L541 217L555 273L802 1034H1054L666 0H408Z" />
<glyph unicode="w" horiz-adv-x="1735" d="M1086 0L721 1034H979L1206 273L1220 217L1234 273L1459 1034H1710L1346 0H1086ZM423 0L58 1034H315L542 273L556 217L570 273L731 702Q762 654 785 578T810 417T782 254L675 0H423Z" />
<glyph unicode="x" horiz-adv-x="1016" d="M711 0Q633 127 551 254T384 507L37 1034H314L492 718L504 676L519 718L701 1034H963L622 517L983 0H711ZM19 0L327 444Q354 412 376 366T402 268T378 164L280 0H19Z" />
<glyph unicode="y" horiz-adv-x="1145" d="M249 -494Q209 -492 163 -485T71 -460L129 -298Q163 -307 192 -310T249 -314Q322 -314 367 -267T448 -132T523 74L824 1034H1075L709 22Q663 -98 622 -193T532 -356T416 -458T249 -494ZM404 24L31 1034H291L462 483Q487
405 484 317T458 150T404 24Z" />
<glyph unicode="z" horiz-adv-x="928" d="M64 0V102L547 837L577 871L535 865H122V1034H854V932L376 201L346 167L390 173H862V0H64Z" />
<glyph unicode="{" horiz-adv-x="806" d="M694 -352Q567 -266 493 -166T382 67T335 378Q329 449 274 490T141 544V676Q218 690 275 731T339 842Q351 1008 387 1133T498 1355T694 1534L806 1416Q717 1340 665 1263T586 1093T550 878Q544 796 504 733T400 628L351
606L400 584Q464 542 504 480T550 336Q558 205 583 106T662 -74T806 -232L694 -352Z" />
<glyph unicode="|" horiz-adv-x="634" d="M230 -586V1622H446V-586H230Z" />
<glyph unicode="}" horiz-adv-x="837" d="M269 -352L157 -232Q248 -155 301 -74T379 106T413 336Q419 419 459 481T563 585L613 606L561 628Q498 670 459 733T413 878Q404 1000 378 1092T299 1262T157 1416L269 1534Q391 1452 464 1355T575 1133T624 842Q630 772
688 731T822 676V544Q746 531 690 490T628 378Q617 199 581 67T470 -165T269 -352Z" />
<glyph unicode="~" horiz-adv-x="1228" d="M333 456L126 472Q129 573 172 641T285 745T433 781Q508 781 567 754T674 694Q713 667 750 648T832 628Q876 628 902 667T934 769L1138 753Q1132 640 1087 572T977 474T844 444Q760 444 701 472T597 533Q560 559 526
578T447 597Q408 597 374 564T333 456Z" />
<glyph unicode="&#xa0;" horiz-adv-x="514" />
<glyph unicode="&#xa1;" horiz-adv-x="702" d="M112 -420L144 609H320L356 -420H112ZM230 766Q167 766 125 810T83 917Q83 979 125 1021T230 1063Q293 1063 335 1021T378 917Q378 854 336 810T230 766Z" />
<glyph unicode="&#xa2;" horiz-adv-x="854" d="M468 -28V177Q355 198 265 263T121 439T67 709Q67 861 121 971T266 1147T468 1236V1432H644V1246Q688 1242 735 1233T825 1206L764 1041Q713 1054 667 1060T582 1067Q508 1067 450 1026T359 905T325 709Q325 593
358 513T450 392T582 350Q625 350 675 362T791 401L852 238Q795 209 742 194T644 172V-28H468Z" />
<glyph unicode="&#xa3;" horiz-adv-x="1026" d="M85 0V140Q193 194 262 282T331 484Q331 517 330 550T323 622H127V792H295Q288 839 282 900T275 1024Q275 1156 333 1245T491 1379T719 1424Q790 1424 866 1408T1032 1350L970 1182Q896 1215 829 1228T719 1241Q617
1241 562 1183T506 1022Q506 901 523 796T550 592T540 394Q529 345 509 308T459 234L420 195L468 199H966V0H85ZM780 622Q725 622 690 647T634 712T598 792H918V622H780Z" />
<glyph unicode="&#xa4;" horiz-adv-x="1026" d="M146 205L49 305L200 447Q173 483 152 543T130 680Q130 757 152 817T202 914L48 1056L145 1157L293 1015Q333 1047 389 1067T512 1088Q583 1088 641 1067T737 1014L890 1155L981 1059L824 914Q850 878 869 818T888
685Q888 609 869 547T824 449L979 302L887 206L736 350Q698 316 638 295T510 274Q446 274 389 294T291 346L146 205ZM509 410Q566 410 615 444T696 539T728 683Q728 752 700 813T624 913T510 952Q448 952 399 917T321 820T292 680Q292 595 324 535T406 442T509
410Z" />
<glyph unicode="&#xa5;" horiz-adv-x="1320" d="M527 0V264H222V382H527V510H222V629H527V634L27 1454H301L768 676V630L1072 629V510H768V382H1072V264H768V0H527ZM827 753Q801 786 776 839T745 953T769 1072L982 1454H1252L827 753Z" />
<glyph unicode="&#xa6;" horiz-adv-x="508" d="M154 -586V282H370V-586H154ZM154 774V1622H370V774H154Z" />
<glyph unicode="&#xa7;" horiz-adv-x="1000" d="M507 -102Q456 -102 386 -96T235 -72T73 -18L139 136Q229 101 318 83T481 65Q581 65 639 96T697 189Q697 243 654 279T542 343T397 399T252 466T141 562T97 704Q97 761 135 815T237 910L283 929L242 948Q185 988
151 1041T116 1170Q116 1242 164 1303T298 1402T500 1440Q568 1440 650 1429T832 1388L768 1235Q692 1256 633 1264T524 1273Q434 1273 383 1248T332 1172Q332 1118 375 1082T487 1018T632 960T777 892T888 795T932 650Q932 585 897 533T803 444L757 425L798 404Q849
366 881 313T914 186Q914 100 859 36T711 -65T507 -102ZM621 501Q675 538 699 578T724 660Q724 707 681 739T568 798T424 855Q365 825 335 791T305 711Q305 659 351 625T470 562T621 501Z" />
<glyph unicode="&#xa8;" horiz-adv-x="963" d="M278 1222Q231 1222 196 1256T161 1340Q161 1390 196 1424T278 1458Q328 1458 363 1424T398 1340Q398 1291 363 1257T278 1222ZM669 1222Q621 1222 586 1256T550 1340Q550 1390 585 1424T669 1458Q717 1458 752 1424T787
1340Q787 1291 752 1257T669 1222Z" />
<glyph unicode="&#xa9;" horiz-adv-x="1440" d="M714 50Q567 50 445 99T235 239T100 450T52 714Q52 848 100 967T237 1177T447 1320T714 1372Q860 1372 980 1323T1188 1184T1322 975T1370 714Q1370 578 1322 458T1187 246T979 102T714 50ZM754 352Q660 352 584
394T462 516T416 714Q416 830 462 910T585 1032T754 1074Q833 1074 920 1046L880 930Q844 942 814 947T754 952Q679 952 628 888T576 714Q576 603 627 538T754 472Q783 472 818 479T899 508L938 398Q883 371 835 362T754 352ZM714 190Q853 190 963 254T1137 436T1202
714Q1202 870 1138 987T963 1169T714 1234Q572 1233 461 1168T285 985T220 708Q220 551 284 435T460 255T714 190Z" />
<glyph unicode="&#xaa;" horiz-adv-x="1054" d="M312 590Q210 590 144 644T78 788Q78 890 165 947T468 1029Q465 1013 456 986T426 935T368 904Q296 893 271 864T246 798Q246 761 272 735T342 708Q389 708 434 730T518 800V1054Q518 1137 474 1177T348 1218Q311
1218 271 1211T185 1186L148 1294Q216 1324 272 1333T374 1342Q523 1342 601 1264T680 1044V844Q680 760 686 701T702 604H578Q560 618 549 636T529 676L528 700L512 676Q469 631 419 611T312 590Z" />
<glyph unicode="&#xab;" horiz-adv-x="1226" d="M568 94L115 516L568 939L669 840L403 516L669 192L568 94ZM1097 94L644 516L1097 939L1198 840L932 516L1198 192L1097 94Z" />
<glyph unicode="&#xac;" horiz-adv-x="1165" d="M891 312V727H86V897H1079V312H891Z" />
<glyph unicode="&#xad;" horiz-adv-x="750" d="M90 524V694H694V524H90Z" />
<glyph unicode="&#xae;" horiz-adv-x="1440" d="M714 50Q567 50 445 99T235 239T100 450T52 714Q52 848 100 967T237 1177T447 1320T714 1372Q860 1372 980 1323T1188 1184T1322 975T1370 714Q1370 578 1322 458T1187 246T979 102T714 50ZM714 190Q853 190 963
254T1137 436T1202 714Q1202 870 1138 987T963 1169T714 1234Q572 1233 461 1168T285 985T220 708Q220 551 284 435T460 255T714 190ZM490 378V1044Q547 1058 601 1065T708 1072Q831 1072 909 1016T988 862Q988 808 963 766T890 697L854 688L884 671Q922 641 939
595T969 494T1010 378H854Q829 432 819 489T790 592T722 657Q705 657 697 657T672 656Q682 689 701 722T764 764Q799 772 816 799T834 862Q834 903 801 929T708 956Q690 956 678 955T638 950V378H490Z" />
<glyph unicode="&#xaf;" horiz-adv-x="1000" d="M224 1214V1366H820V1214H224Z" />
<glyph unicode="&#xb0;" horiz-adv-x="674" d="M350 954Q270 954 201 990T89 1092T46 1246Q46 1328 88 1394T199 1499T350 1538Q426 1538 496 1504T610 1404T654 1246Q654 1158 610 1093T496 991T350 954ZM350 1082Q397 1082 431 1104T484 1164T503 1246Q503 1324
457 1367T350 1411Q304 1411 271 1390T218 1331T199 1246Q199 1174 240 1128T350 1082Z" />
<glyph unicode="&#xb1;" horiz-adv-x="1136" d="M467 269V586H94V754H467V1067H654V754H1030V586H654V269H467ZM94 0V169H1030V0H94Z" />
<glyph unicode="&#xb2;" horiz-adv-x="804" d="M141 620V703Q196 797 259 872T377 1009T468 1128T504 1242Q504 1295 468 1320T370 1346Q336 1346 302 1338T231 1314L180 1422Q234 1451 290 1461T394 1472Q470 1472 531 1447T629 1374T666 1256Q666 1184 633 1122T550
1001T447 887T356 772L338 752L364 756H668V620H141Z" />
<glyph unicode="&#xb3;" horiz-adv-x="762" d="M316 602Q252 602 196 621T110 658L151 769Q187 754 227 742T314 730Q388 730 429 771T470 866Q470 934 418 968T263 1002L250 1105L314 1131Q368 1154 405 1184T442 1262Q442 1294 415 1318T340 1342Q306 1342 269
1334T190 1311L142 1420Q199 1449 251 1459T352 1470Q462 1470 534 1421T606 1278Q606 1215 564 1163T452 1078Q521 1062 577 1007T634 862Q634 786 593 728T480 636T316 602Z" />
<glyph unicode="&#xb4;" horiz-adv-x="644" d="M119 1204L293 1480H539L374 1279Q340 1237 293 1219T200 1198T119 1204Z" />
<glyph unicode="&#xb5;" horiz-adv-x="1106" d="M126 -422V1034H354V420Q354 302 405 230T548 158Q610 158 661 190T742 276T772 398V1034H1002V310Q1002 226 1026 193T1112 162L1134 8Q1101 -4 1064 -10T1004 -16Q949 -16 895 14T814 112L805 153L785 111Q744
53 684 17T530 -20Q488 -20 444 -6T368 36L339 74L342 20V-422H126Z" />
<glyph unicode="&#xb6;" horiz-adv-x="1218" d="M650 -60V608Q649 608 648 609T646 610Q526 620 427 675T268 824T208 1040Q208 1156 265 1256T434 1418T706 1480Q816 1480 903 1472T1102 1440V-60H956V1316Q911 1324 872 1327T796 1332V-60H650Z" />
<glyph unicode="&#xb7;" horiz-adv-x="612" d="M304 462Q241 462 199 504T156 608Q156 671 198 714T304 758Q367 758 409 715T452 608Q452 546 410 504T304 462Z" />
<glyph unicode="&#xb8;" horiz-adv-x="1000" d="M468 -421Q434 -421 395 -412T308 -381L341 -281Q379 -294 408 -299T468 -305Q503 -305 530 -292T558 -252Q558 -219 520 -202T410 -177L455 -5L575 5L551 -91Q610 -102 661 -142T712 -246Q712 -306 676 -344T583
-402T468 -421Z" />
<glyph unicode="&#xb9;" horiz-adv-x="638" d="M346 618V1252L229 1194L165 1309L436 1454H520V618H346Z" />
<glyph unicode="&#xba;" horiz-adv-x="860" d="M428 588Q270 588 174 688T78 966Q78 1070 119 1155T238 1291T428 1342Q535 1342 613 1296T735 1166T778 966Q778 860 738 775T619 639T428 588ZM428 716Q488 716 528 749T589 839T610 966Q610 1034 591 1090T532
1181T428 1216Q370 1216 330 1183T269 1092T248 966Q248 856 294 786T428 716Z" />
<glyph unicode="&#xbb;" horiz-adv-x="1226" d="M207 94L105 192L371 516L105 840L207 939L660 516L207 94ZM736 94L634 192L900 516L634 840L736 939L1189 516L736 94Z" />
<glyph unicode="&#xbc;" horiz-adv-x="1396" d="M150 0L1022 1454H1202L330 0H150ZM226 618V1252L109 1194L45 1309L316 1454H400V618H226ZM1075 0V628L848 297H894Q947 297 977 253T1022 169H683V288L1057 846H1228V296H1324V169H1228V0H1075Z" />
<glyph unicode="&#xbd;" horiz-adv-x="1526" d="M150 0L1022 1454H1202L330 0H150ZM226 618V1252L109 1194L45 1309L316 1454H400V618H226ZM847 0V83Q902 177 965 252T1083 389T1174 508T1210 622Q1210 675 1174 700T1076 726Q1042 726 1008 718T937 694L886 802Q940
831 996 841T1100 852Q1176 852 1237 827T1335 754T1372 636Q1372 564 1339 502T1256 382T1154 270T1063 155L1044 132L1075 136H1374V0H847Z" />
<glyph unicode="&#xbe;" horiz-adv-x="1432" d="M223 0L1095 1454H1276L404 0H223ZM255 602Q191 602 135 621T49 658L90 769Q126 754 166 742T253 730Q327 730 368 771T409 866Q409 934 357 968T202 1002L189 1105L253 1131Q307 1154 344 1184T381 1262Q381 1294
354 1318T279 1342Q245 1342 208 1334T130 1311L81 1420Q138 1449 190 1459T291 1470Q401 1470 473 1421T546 1278Q546 1215 504 1163T392 1078Q461 1062 517 1007T574 862Q574 786 533 728T419 636T255 602ZM1149 0V628L922 297H968Q1021 297 1051 253T1096 169H757V288L1131
846H1302V296H1398V169H1302V0H1149Z" />
<glyph unicode="&#xbf;" horiz-adv-x="1166" d="M620 -441Q494 -441 397 -403T245 -293T190 -125Q190 -34 229 38T326 176T441 305T538 443T577 608H777Q777 490 743 406T659 256T559 137T475 28T441 -95Q441 -167 496 -212T640 -258Q697 -258 758 -246T908 -192L971
-359Q868 -408 786 -424T620 -441ZM678 765Q616 765 573 809T530 915Q530 977 573 1019T678 1062Q741 1062 783 1020T826 915Q826 853 784 809T678 765Z" />
<glyph unicode="&#xc0;" horiz-adv-x="1417" d="M64 0L587 1454H830L1353 0H1093L715 1117L700 1185L683 1114L492 548L469 508L497 512H694Q748 512 785 484T845 414T883 330H422L310 0H64ZM838 1531Q804 1522 756 1524T662 1545T585 1604L454 1780H690L838 1531Z" />
<glyph unicode="&#xc1;" horiz-adv-x="1417" d="M64 0L587 1454H830L1353 0H1093L715 1117L700 1185L683 1114L492 548L469 508L497 512H694Q748 512 785 484T845 414T883 330H422L310 0H64ZM592 1531L766 1780H1005L848 1604Q813 1565 766 1547T673 1525T592 1531Z" />
<glyph unicode="&#xc2;" horiz-adv-x="1417" d="M64 0L587 1454H830L1353 0H1093L715 1117L700 1185L683 1114L492 548L469 508L497 512H694Q748 512 785 484T845 414T883 330H422L310 0H64ZM545 1516L409 1545L622 1780H793L1010 1545L870 1517L706 1631L545 1516Z" />
<glyph unicode="&#xc3;" horiz-adv-x="1417" d="M64 0L587 1454H830L1353 0H1093L715 1117L700 1185L683 1114L492 548L469 508L497 512H694Q748 512 785 484T845 414T883 330H422L310 0H64ZM537 1554L402 1566Q405 1679 462 1736T592 1794Q637 1794 673 1777T737
1735Q762 1716 782 1701T828 1686Q855 1686 870 1713T890 1786L1021 1774Q1017 1690 988 1640T919 1568T841 1546Q789 1546 754 1564T692 1605Q668 1625 650 1639T607 1654Q584 1654 563 1632T537 1554Z" />
<glyph unicode="&#xc4;" horiz-adv-x="1417" d="M64 0L587 1454H830L1353 0H1093L715 1117L700 1185L683 1114L492 548L469 508L497 512H694Q748 512 785 484T845 414T883 330H422L310 0H64ZM512 1562Q465 1562 430 1596T395 1680Q395 1730 430 1764T512 1798Q562
1798 597 1764T632 1680Q632 1631 597 1597T512 1562ZM903 1562Q855 1562 820 1596T784 1680Q784 1730 819 1764T903 1798Q951 1798 986 1764T1021 1680Q1021 1631 986 1597T903 1562Z" />
<glyph unicode="&#xc5;" horiz-adv-x="1417" d="M64 0L587 1454H830L1353 0H1093L715 1117L700 1185L683 1114L492 548L469 508L497 512H694Q748 512 785 484T845 414T883 330H422L310 0H64ZM708 1416Q617 1416 558 1468T498 1597Q498 1679 558 1733T711 1787Q804
1787 861 1735T918 1599Q918 1519 857 1468T708 1416ZM709 1514Q749 1514 771 1539T793 1601Q793 1639 771 1664T708 1690Q672 1690 651 1665T629 1598Q629 1567 650 1541T709 1514Z" />
<glyph unicode="&#xc6;" horiz-adv-x="1950" d="M16 0L758 1454H1688V1272H1072L1237 182H1829V0H1033L858 1145L852 1221L824 1147L530 548L501 508L539 512H721Q775 512 811 484T871 414T909 330H428L266 0H16ZM1233 674Q1247 718 1271 759T1336 826T1437 852H1708V674H1233Z"
/>
<glyph unicode="&#xc7;" horiz-adv-x="1243" d="M869 -24Q638 -24 469 72T207 338T115 726Q115 887 168 1024T322 1264T560 1423T869 1480Q953 1480 1041 1464T1222 1412L1158 1249Q1070 1276 1004 1286T869 1297Q756 1297 666 1254T512 1135T414 954T380 726Q380
611 414 508T511 327T665 203T869 158Q938 158 1009 175T1156 230L1222 68Q1132 21 1043 -1T869 -24ZM704 -421Q670 -421 631 -412T544 -381L577 -281Q615 -294 644 -299T704 -305Q739 -305 766 -292T794 -252Q794 -219 756 -202T646 -177L691 -5L811 5L787 -91Q846
-102 897 -142T948 -246Q948 -306 912 -344T819 -402T704 -421Z" />
<glyph unicode="&#xc8;" horiz-adv-x="1168" d="M171 0V1454H1026V1272H420V182H1057V0H171ZM496 674Q509 715 532 756T593 825T685 852H958V674H496ZM739 1531Q705 1522 657 1524T563 1545T486 1604L355 1780H591L739 1531Z" />
<glyph unicode="&#xc9;" horiz-adv-x="1168" d="M171 0V1454H1026V1272H420V182H1057V0H171ZM496 674Q509 715 532 756T593 825T685 852H958V674H496ZM492 1531L666 1780H905L748 1604Q713 1565 666 1547T573 1525T492 1531Z" />
<glyph unicode="&#xca;" horiz-adv-x="1168" d="M171 0V1454H1026V1272H420V182H1057V0H171ZM496 674Q509 715 532 756T593 825T685 852H958V674H496ZM445 1516L309 1545L522 1780H693L910 1545L770 1517L606 1631L445 1516Z" />
<glyph unicode="&#xcb;" horiz-adv-x="1168" d="M171 0V1454H1026V1272H420V182H1057V0H171ZM496 674Q509 715 532 756T593 825T685 852H958V674H496ZM413 1562Q366 1562 331 1596T296 1680Q296 1730 331 1764T413 1798Q463 1798 498 1764T533 1680Q533 1631 498
1597T413 1562ZM804 1562Q756 1562 721 1596T685 1680Q685 1730 720 1764T804 1798Q852 1798 887 1764T922 1680Q922 1631 887 1597T804 1562Z" />
<glyph unicode="&#xcc;" horiz-adv-x="584" d="M171 0V1454H412V0H171ZM678 1531Q644 1522 596 1524T502 1545T425 1604L294 1780H530L678 1531Z" />
<glyph unicode="&#xcd;" horiz-adv-x="584" d="M171 0V1454H412V0H171ZM175 1531L349 1780H588L431 1604Q396 1565 349 1547T256 1525T175 1531Z" />
<glyph unicode="&#xce;" horiz-adv-x="584" d="M171 0V1454H412V0H171ZM384 1516L248 1545L461 1780H632L849 1545L709 1517L545 1631L384 1516Z" />
<glyph unicode="&#xcf;" horiz-adv-x="584" d="M171 0V1454H412V0H171ZM96 1562Q49 1562 14 1596T-21 1680Q-21 1730 14 1764T96 1798Q146 1798 181 1764T216 1680Q216 1631 181 1597T96 1562ZM487 1562Q439 1562 404 1596T368 1680Q368 1730 403 1764T487 1798Q535
1798 570 1764T605 1680Q605 1631 570 1597T487 1562Z" />
<glyph unicode="&#xd0;" horiz-adv-x="1468" d="M745 -24Q705 -24 670 -22T594 -12T495 10Q512 45 538 80T602 138T691 160Q705 158 713 158T731 158Q837 159 919 207T1057 336T1142 518T1171 730Q1171 901 1112 1028T928 1226T609 1297Q562 1297 513 1293T417
1282V0H171V1430Q290 1456 406 1468T609 1480Q871 1480 1055 1391T1337 1134T1435 730Q1435 570 1383 433T1236 193T1016 33T745 -24ZM1097 792V630H266V792H1097Z" />
<glyph unicode="&#xd1;" horiz-adv-x="1534" d="M196 0V1454H439L1088 418L1114 343L1110 420V1454H1330V0H1110L435 1074L404 1144L408 1076V0H196ZM604 1554L469 1566Q472 1679 529 1736T659 1794Q704 1794 740 1777T804 1735Q829 1716 849 1701T895 1686Q922
1686 937 1713T957 1786L1088 1774Q1084 1690 1055 1640T986 1568T908 1546Q856 1546 821 1564T759 1605Q735 1625 717 1639T674 1654Q651 1654 630 1632T604 1554Z" />
<glyph unicode="&#xd2;" horiz-adv-x="1580" d="M792 -28Q578 -28 420 68T175 334T88 728Q88 898 141 1037T289 1276T512 1430T792 1484Q975 1484 1108 1420T1327 1248T1454 1004T1496 728Q1496 571 1446 434T1304 193T1082 31T792 -28ZM792 154Q914 154 1014
225T1173 425T1232 728Q1232 897 1177 1026T1022 1228T792 1301Q658 1301 559 1226T407 1021T353 728Q353 612 383 509T470 326T608 200T792 154ZM922 1531Q888 1522 840 1524T746 1545T669 1604L538 1780H774L922 1531Z" />
<glyph unicode="&#xd3;" horiz-adv-x="1580" d="M792 -28Q578 -28 420 68T175 334T88 728Q88 898 141 1037T289 1276T512 1430T792 1484Q975 1484 1108 1420T1327 1248T1454 1004T1496 728Q1496 571 1446 434T1304 193T1082 31T792 -28ZM792 154Q914 154 1014
225T1173 425T1232 728Q1232 897 1177 1026T1022 1228T792 1301Q658 1301 559 1226T407 1021T353 728Q353 612 383 509T470 326T608 200T792 154ZM675 1531L849 1780H1088L931 1604Q896 1565 849 1547T756 1525T675 1531Z" />
<glyph unicode="&#xd4;" horiz-adv-x="1580" d="M792 -28Q578 -28 420 68T175 334T88 728Q88 898 141 1037T289 1276T512 1430T792 1484Q975 1484 1108 1420T1327 1248T1454 1004T1496 728Q1496 571 1446 434T1304 193T1082 31T792 -28ZM792 154Q914 154 1014
225T1173 425T1232 728Q1232 897 1177 1026T1022 1228T792 1301Q658 1301 559 1226T407 1021T353 728Q353 612 383 509T470 326T608 200T792 154ZM628 1516L492 1545L705 1780H876L1093 1545L953 1517L789 1631L628 1516Z" />
<glyph unicode="&#xd5;" horiz-adv-x="1580" d="M792 -28Q578 -28 420 68T175 334T88 728Q88 898 141 1037T289 1276T512 1430T792 1484Q975 1484 1108 1420T1327 1248T1454 1004T1496 728Q1496 571 1446 434T1304 193T1082 31T792 -28ZM792 154Q914 154 1014
225T1173 425T1232 728Q1232 897 1177 1026T1022 1228T792 1301Q658 1301 559 1226T407 1021T353 728Q353 612 383 509T470 326T608 200T792 154ZM620 1554L485 1566Q488 1679 545 1736T675 1794Q720 1794 756 1777T820 1735Q845 1716 865 1701T911 1686Q938 1686
953 1713T973 1786L1104 1774Q1100 1690 1071 1640T1002 1568T924 1546Q872 1546 837 1564T775 1605Q751 1625 733 1639T690 1654Q667 1654 646 1632T620 1554Z" />
<glyph unicode="&#xd6;" horiz-adv-x="1580" d="M792 -28Q578 -28 420 68T175 334T88 728Q88 898 141 1037T289 1276T512 1430T792 1484Q975 1484 1108 1420T1327 1248T1454 1004T1496 728Q1496 571 1446 434T1304 193T1082 31T792 -28ZM792 154Q914 154 1014
225T1173 425T1232 728Q1232 897 1177 1026T1022 1228T792 1301Q658 1301 559 1226T407 1021T353 728Q353 612 383 509T470 326T608 200T792 154ZM596 1562Q549 1562 514 1596T479 1680Q479 1730 514 1764T596 1798Q646 1798 681 1764T716 1680Q716 1631 681 1597T596
1562ZM987 1562Q939 1562 904 1596T868 1680Q868 1730 903 1764T987 1798Q1035 1798 1070 1764T1105 1680Q1105 1631 1070 1597T987 1562Z" />
<glyph unicode="&#xd7;" horiz-adv-x="1136" d="M216 140L90 266L433 612L90 954L218 1080L562 739L902 1080L1028 954L689 612L1032 266L906 140L562 483L216 140Z" />
<glyph unicode="&#xd8;" horiz-adv-x="1580" d="M792 -28Q578 -28 420 68T175 334T88 728Q88 898 141 1037T289 1276T512 1430T792 1484Q975 1484 1108 1420T1327 1248T1454 1004T1496 728Q1496 571 1446 434T1304 193T1082 31T792 -28ZM792 154Q914 154 1014
225T1173 425T1232 728Q1232 897 1177 1026T1022 1228T792 1301Q658 1301 559 1226T407 1021T353 728Q353 612 383 509T470 326T608 200T792 154ZM622 534Q594 568 572 610T546 701T567 800L1182 1832H1389L622 534ZM196 134L356 406L507 314L403 134H196Z" />
<glyph unicode="&#xd9;" horiz-adv-x="1429" d="M727 -28Q552 -28 425 40T230 238T162 548V1454H408V518Q408 349 497 252T727 154Q867 154 956 251T1046 518V1454H1291V548Q1291 374 1222 245T1025 44T727 -28ZM857 1531Q823 1522 775 1524T681 1545T604 1604L473
1780H709L857 1531Z" />
<glyph unicode="&#xda;" horiz-adv-x="1429" d="M727 -28Q552 -28 425 40T230 238T162 548V1454H408V518Q408 349 497 252T727 154Q867 154 956 251T1046 518V1454H1291V548Q1291 374 1222 245T1025 44T727 -28ZM610 1531L784 1780H1023L866 1604Q831 1565 784
1547T691 1525T610 1531Z" />
<glyph unicode="&#xdb;" horiz-adv-x="1429" d="M727 -28Q552 -28 425 40T230 238T162 548V1454H408V518Q408 349 497 252T727 154Q867 154 956 251T1046 518V1454H1291V548Q1291 374 1222 245T1025 44T727 -28ZM563 1516L427 1545L640 1780H811L1028 1545L888
1517L724 1631L563 1516Z" />
<glyph unicode="&#xdc;" horiz-adv-x="1429" d="M727 -28Q552 -28 425 40T230 238T162 548V1454H408V518Q408 349 497 252T727 154Q867 154 956 251T1046 518V1454H1291V548Q1291 374 1222 245T1025 44T727 -28ZM531 1562Q484 1562 449 1596T414 1680Q414 1730
449 1764T531 1798Q581 1798 616 1764T651 1680Q651 1631 616 1597T531 1562ZM922 1562Q874 1562 839 1596T803 1680Q803 1730 838 1764T922 1798Q970 1798 1005 1764T1040 1680Q1040 1631 1005 1597T922 1562Z" />
<glyph unicode="&#xdd;" horiz-adv-x="1368" d="M553 0V634L52 1454H327L794 676V0H553ZM852 753Q827 786 802 839T771 953T795 1072L1008 1454H1278L852 753ZM551 1531L725 1780H964L807 1604Q772 1565 725 1547T632 1525T551 1531Z" />
<glyph unicode="&#xde;" horiz-adv-x="1218" d="M158 0V1454H396V1175Q488 1183 584 1183Q746 1183 871 1127T1067 967T1139 727Q1139 593 1073 497T900 346T674 280Q630 276 580 279T473 297Q488 334 511 369T568 429T646 456Q707 459 760 495T847 591T881 727Q881
805 843 867T737 964T584 1000Q530 1000 490 997T396 988V0H158Z" />
<glyph unicode="&#xdf;" horiz-adv-x="1134" d="M788 -24Q728 -24 661 -11T498 50L560 208Q624 180 675 170T761 159Q818 159 856 193T894 282Q894 338 859 379T772 457T668 538T581 646T546 802Q546 889 607 967T774 1088Q780 1111 782 1132T784 1176Q784 1227
760 1266T694 1328T600 1351Q543 1351 494 1324T415 1244T384 1110V0L154 -1V1089Q154 1231 210 1328T364 1476T583 1526Q707 1526 795 1481T931 1356T978 1176Q978 1076 905 958Q837 929 802 893T766 802Q766 745 801 705T888 628T992 546T1079 437T1114 274Q1114
184 1068 117T948 13T788 -24Z" />
<glyph unicode="&#xe0;" horiz-adv-x="1072" d="M405 -24Q306 -24 234 16T124 124T85 271Q85 361 135 432T306 551T635 618Q629 579 614 542T571 479T496 444Q431 434 394 411T342 358T326 292Q326 236 365 197T466 158Q528 158 590 195T707 300V630Q707 740 650
806T475 873Q424 873 369 863T241 826L182 982Q274 1024 361 1039T517 1055Q722 1055 833 944T945 624V287Q945 207 953 136T977 0H798Q771 16 754 43T725 101L721 139L697 104Q613 25 547 1T405 -24ZM665 1204Q631 1195 585 1197T491 1218T410 1279L245 1480H491L665
1204Z" />
<glyph unicode="&#xe1;" horiz-adv-x="1072" d="M405 -24Q306 -24 234 16T124 124T85 271Q85 361 135 432T306 551T635 618Q629 579 614 542T571 479T496 444Q431 434 394 411T342 358T326 292Q326 236 365 197T466 158Q528 158 590 195T707 300V630Q707 740 650
806T475 873Q424 873 369 863T241 826L182 982Q274 1024 361 1039T517 1055Q722 1055 833 944T945 624V287Q945 207 953 136T977 0H798Q771 16 754 43T725 101L721 139L697 104Q613 25 547 1T405 -24ZM439 1204L613 1480H859L694 1279Q660 1237 613 1219T520 1198T439
1204Z" />
<glyph unicode="&#xe2;" horiz-adv-x="1072" d="M405 -24Q306 -24 234 16T124 124T85 271Q85 361 135 432T306 551T635 618Q629 579 614 542T571 479T496 444Q431 434 394 411T342 358T326 292Q326 236 365 197T466 158Q528 158 590 195T707 300V630Q707 740 650
806T475 873Q424 873 369 863T241 826L182 982Q274 1024 361 1039T517 1055Q722 1055 833 944T945 624V287Q945 207 953 136T977 0H798Q771 16 754 43T725 101L721 139L697 104Q613 25 547 1T405 -24ZM387 1173L251 1202L464 1486H635L852 1202L712 1174L548 1328L387
1173Z" />
<glyph unicode="&#xe3;" horiz-adv-x="1072" d="M405 -24Q306 -24 234 16T124 124T85 271Q85 361 135 432T306 551T635 618Q629 579 614 542T571 479T496 444Q431 434 394 411T342 358T326 292Q326 236 365 197T466 158Q528 158 590 195T707 300V630Q707 740 650
806T475 873Q424 873 369 863T241 826L182 982Q274 1024 361 1039T517 1055Q722 1055 833 944T945 624V287Q945 207 953 136T977 0H798Q771 16 754 43T725 101L721 139L697 104Q613 25 547 1T405 -24ZM374 1236L239 1248Q242 1361 299 1418T429 1476Q474 1476 510
1459T574 1417Q599 1398 619 1383T665 1368Q692 1368 707 1395T727 1468L858 1456Q854 1372 825 1322T756 1250T678 1228Q626 1228 591 1246T529 1287Q505 1307 487 1321T444 1336Q421 1336 400 1314T374 1236Z" />
<glyph unicode="&#xe4;" horiz-adv-x="1072" d="M405 -24Q306 -24 234 16T124 124T85 271Q85 361 135 432T306 551T635 618Q629 579 614 542T571 479T496 444Q431 434 394 411T342 358T326 292Q326 236 365 197T466 158Q528 158 590 195T707 300V630Q707 740 650
806T475 873Q424 873 369 863T241 826L182 982Q274 1024 361 1039T517 1055Q722 1055 833 944T945 624V287Q945 207 953 136T977 0H798Q771 16 754 43T725 101L721 139L697 104Q613 25 547 1T405 -24ZM355 1222Q308 1222 273 1256T238 1340Q238 1390 273 1424T355
1458Q405 1458 440 1424T475 1340Q475 1291 440 1257T355 1222ZM746 1222Q698 1222 663 1256T627 1340Q627 1390 662 1424T746 1458Q794 1458 829 1424T864 1340Q864 1291 829 1257T746 1222Z" />
<glyph unicode="&#xe5;" horiz-adv-x="1072" d="M405 -24Q306 -24 234 16T124 124T85 271Q85 361 135 432T306 551T635 618Q629 579 614 542T571 479T496 444Q431 434 394 411T342 358T326 292Q326 236 365 197T466 158Q528 158 590 195T707 300V630Q707 740 650
806T475 873Q424 873 369 863T241 826L182 982Q274 1024 361 1039T517 1055Q722 1055 833 944T945 624V287Q945 207 953 136T977 0H798Q771 16 754 43T725 101L721 139L697 104Q613 25 547 1T405 -24ZM551 1128Q460 1128 401 1180T341 1309Q341 1391 401 1445T554
1499Q647 1499 704 1447T761 1311Q761 1231 700 1180T551 1128ZM552 1226Q592 1226 614 1251T636 1313Q636 1351 614 1376T551 1402Q515 1402 494 1377T472 1310Q472 1279 493 1253T552 1226Z" />
<glyph unicode="&#xe6;" horiz-adv-x="1700" d="M419 -24Q261 -24 165 57T69 271Q69 361 119 432T290 551T619 618Q613 579 598 542T555 479T480 444Q415 434 378 411T326 358T310 292Q310 236 349 197T450 158Q563 158 627 258T691 528V630Q691 740 634 806T459
873Q408 873 353 863T225 826L166 982Q258 1024 345 1039T501 1055Q604 1055 693 999T833 839Q888 937 990 997T1202 1058Q1310 1058 1396 1014T1536 891T1602 707T1574 482H1007Q1028 546 1068 590T1168 634H1375Q1384 701 1362 758T1294 849T1186 883Q1119 883
1062 846T968 731T932 536Q932 420 970 335T1074 204T1228 158Q1297 158 1363 174T1515 232L1577 66Q1474 16 1381 -4T1202 -24Q1112 -24 1033 15T897 117T816 250Q779 158 716 98T574 7T419 -24Z" />
<glyph unicode="&#xe7;" horiz-adv-x="858" d="M582 -24Q445 -24 328 34T139 213T67 518Q67 696 139 816T329 997T582 1058Q636 1058 700 1048T825 1014L765 850Q714 863 667 869T582 876Q508 876 450 835T359 714T325 518Q325 401 358 322T450 200T582 158Q625
158 675 170T791 210L852 46Q773 9 703 -7T582 -24ZM474 -421Q440 -421 401 -412T314 -381L347 -281Q385 -294 414 -299T474 -305Q509 -305 536 -292T564 -252Q564 -219 526 -202T416 -177L461 -5L581 5L557 -91Q616 -102 667 -142T718 -246Q718 -306 682 -344T589
-402T474 -421Z" />
<glyph unicode="&#xe8;" horiz-adv-x="1113" d="M610 -24Q483 -24 387 22T227 146T131 323T98 531Q98 695 164 813T346 994T609 1058Q717 1058 803 1014T943 891T1009 707T982 482H414Q435 546 475 590T576 634H783Q791 701 770 758T702 849T593 883Q527 883 469
846T376 731T340 536Q340 420 377 335T482 204T636 158Q705 158 770 174T922 232L985 66Q881 16 788 -4T610 -24ZM698 1204Q664 1195 618 1197T524 1218T443 1279L278 1480H524L698 1204Z" />
<glyph unicode="&#xe9;" horiz-adv-x="1113" d="M610 -24Q483 -24 387 22T227 146T131 323T98 531Q98 695 164 813T346 994T609 1058Q717 1058 803 1014T943 891T1009 707T982 482H414Q435 546 475 590T576 634H783Q791 701 770 758T702 849T593 883Q527 883 469
846T376 731T340 536Q340 420 377 335T482 204T636 158Q705 158 770 174T922 232L985 66Q881 16 788 -4T610 -24ZM472 1204L646 1480H892L727 1279Q693 1237 646 1219T553 1198T472 1204Z" />
<glyph unicode="&#xea;" horiz-adv-x="1113" d="M610 -24Q483 -24 387 22T227 146T131 323T98 531Q98 695 164 813T346 994T609 1058Q717 1058 803 1014T943 891T1009 707T982 482H414Q435 546 475 590T576 634H783Q791 701 770 758T702 849T593 883Q527 883 469
846T376 731T340 536Q340 420 377 335T482 204T636 158Q705 158 770 174T922 232L985 66Q881 16 788 -4T610 -24ZM420 1173L284 1202L497 1486H668L885 1202L745 1174L581 1328L420 1173Z" />
<glyph unicode="&#xeb;" horiz-adv-x="1113" d="M610 -24Q483 -24 387 22T227 146T131 323T98 531Q98 695 164 813T346 994T609 1058Q717 1058 803 1014T943 891T1009 707T982 482H414Q435 546 475 590T576 634H783Q791 701 770 758T702 849T593 883Q527 883 469
846T376 731T340 536Q340 420 377 335T482 204T636 158Q705 158 770 174T922 232L985 66Q881 16 788 -4T610 -24ZM389 1222Q342 1222 307 1256T272 1340Q272 1390 307 1424T389 1458Q439 1458 474 1424T509 1340Q509 1291 474 1257T389 1222ZM780 1222Q732 1222
697 1256T661 1340Q661 1390 696 1424T780 1458Q828 1458 863 1424T898 1340Q898 1291 863 1257T780 1222Z" />
<glyph unicode="&#xec;" horiz-adv-x="541" d="M148 0V1034H394V0H148ZM640 1204Q606 1195 560 1197T466 1218T385 1279L220 1480H466L640 1204Z" />
<glyph unicode="&#xed;" horiz-adv-x="541" d="M148 0V1034H394V0H148ZM158 1204L332 1480H578L413 1279Q379 1237 332 1219T239 1198T158 1204Z" />
<glyph unicode="&#xee;" horiz-adv-x="541" d="M148 0V1034H394V0H148ZM361 1173L225 1202L438 1486H609L826 1202L686 1174L522 1328L361 1173Z" />
<glyph unicode="&#xef;" horiz-adv-x="541" d="M148 0V1034H394V0H148ZM330 1222Q283 1222 248 1256T213 1340Q213 1390 248 1424T330 1458Q380 1458 415 1424T450 1340Q450 1291 415 1257T330 1222ZM721 1222Q673 1222 638 1256T602 1340Q602 1390 637 1424T721
1458Q769 1458 804 1424T839 1340Q839 1291 804 1257T721 1222Z" />
<glyph unicode="&#xf0;" horiz-adv-x="1114" d="M563 -24Q419 -24 303 41T117 227T48 518Q48 679 117 800T304 990T563 1058Q607 1058 652 1046T739 1008Q692 1072 642 1122T539 1210L301 1097L253 1202L427 1286Q383 1314 339 1338T248 1384L325 1522Q397 1491
468 1453T604 1369L825 1476L877 1369L709 1290Q775 1234 840 1155T959 977T1045 763T1078 518Q1078 356 1008 235T822 45T563 -24ZM563 157Q640 157 697 201T787 327T819 518Q819 627 787 708T698 833T563 877Q486 877 429 833T339 708T306 518Q306 408 338 327T428
202T563 157Z" />
<glyph unicode="&#xf1;" horiz-adv-x="1170" d="M781 0V741Q781 798 756 835T676 872Q655 872 637 867T591 858Q540 852 501 883T427 960Q529 1017 602 1037T740 1058Q813 1058 878 1025T984 921T1025 736V0H781ZM131 0V782Q131 838 124 901T99 1034H298Q346 980
361 927T377 814V0H131ZM402 1236L267 1248Q270 1361 327 1418T457 1476Q502 1476 538 1459T602 1417Q627 1398 647 1383T693 1368Q720 1368 735 1395T755 1468L886 1456Q882 1372 853 1322T784 1250T706 1228Q654 1228 619 1246T557 1287Q533 1307 515 1321T472
1336Q449 1336 428 1314T402 1236Z" />
<glyph unicode="&#xf2;" horiz-adv-x="1186" d="M588 -24Q449 -24 332 39T144 223T73 518Q73 657 120 759T243 927T410 1025T588 1058Q744 1058 860 988T1039 796T1103 518Q1103 390 1060 289T944 119T778 13T588 -24ZM588 157Q673 157 730 206T815 337T844 518Q844
627 812 708T723 833T588 877Q511 877 453 833T363 708T331 518Q331 359 399 258T588 157ZM701 1204Q667 1195 621 1197T527 1218T446 1279L281 1480H527L701 1204Z" />
<glyph unicode="&#xf3;" horiz-adv-x="1186" d="M588 -24Q449 -24 332 39T144 223T73 518Q73 657 120 759T243 927T410 1025T588 1058Q744 1058 860 988T1039 796T1103 518Q1103 390 1060 289T944 119T778 13T588 -24ZM588 157Q673 157 730 206T815 337T844 518Q844
627 812 708T723 833T588 877Q511 877 453 833T363 708T331 518Q331 359 399 258T588 157ZM475 1204L649 1480H895L730 1279Q696 1237 649 1219T556 1198T475 1204Z" />
<glyph unicode="&#xf4;" horiz-adv-x="1186" d="M588 -24Q449 -24 332 39T144 223T73 518Q73 657 120 759T243 927T410 1025T588 1058Q744 1058 860 988T1039 796T1103 518Q1103 390 1060 289T944 119T778 13T588 -24ZM588 157Q673 157 730 206T815 337T844 518Q844
627 812 708T723 833T588 877Q511 877 453 833T363 708T331 518Q331 359 399 258T588 157ZM422 1173L286 1202L499 1486H670L887 1202L747 1174L583 1328L422 1173Z" />
<glyph unicode="&#xf5;" horiz-adv-x="1186" d="M588 -24Q449 -24 332 39T144 223T73 518Q73 657 120 759T243 927T410 1025T588 1058Q744 1058 860 988T1039 796T1103 518Q1103 390 1060 289T944 119T778 13T588 -24ZM588 157Q673 157 730 206T815 337T844 518Q844
627 812 708T723 833T588 877Q511 877 453 833T363 708T331 518Q331 359 399 258T588 157ZM410 1236L275 1248Q278 1361 335 1418T465 1476Q510 1476 546 1459T610 1417Q635 1398 655 1383T701 1368Q728 1368 743 1395T763 1468L894 1456Q890 1372 861 1322T792
1250T714 1228Q662 1228 627 1246T565 1287Q541 1307 523 1321T480 1336Q457 1336 436 1314T410 1236Z" />
<glyph unicode="&#xf6;" horiz-adv-x="1186" d="M588 -24Q449 -24 332 39T144 223T73 518Q73 657 120 759T243 927T410 1025T588 1058Q744 1058 860 988T1039 796T1103 518Q1103 390 1060 289T944 119T778 13T588 -24ZM588 157Q673 157 730 206T815 337T844 518Q844
627 812 708T723 833T588 877Q511 877 453 833T363 708T331 518Q331 359 399 258T588 157ZM391 1222Q344 1222 309 1256T274 1340Q274 1390 309 1424T391 1458Q441 1458 476 1424T511 1340Q511 1291 476 1257T391 1222ZM782 1222Q734 1222 699 1256T663 1340Q663
1390 698 1424T782 1458Q830 1458 865 1424T900 1340Q900 1291 865 1257T782 1222Z" />
<glyph unicode="&#xf7;" horiz-adv-x="1136" d="M94 526V694H1030V526H94ZM560 110Q510 110 478 142T446 224Q446 276 478 309T560 342Q612 342 645 309T678 224Q678 174 645 142T560 110ZM560 876Q512 876 480 908T448 988Q448 1039 480 1071T560 1104Q611 1104
643 1071T676 988Q676 940 643 908T560 876Z" />
<glyph unicode="&#xf8;" horiz-adv-x="1186" d="M588 -24Q449 -24 332 39T144 223T73 518Q73 657 120 759T243 927T410 1025T588 1058Q744 1058 860 988T1039 796T1103 518Q1103 390 1060 289T944 119T778 13T588 -24ZM588 157Q673 157 730 206T815 337T844 518Q844
627 812 708T723 833T588 877Q511 877 453 833T363 708T331 518Q331 359 399 258T588 157ZM518 251Q495 277 478 313T457 391T473 475L882 1156H1055L518 251ZM122 -122L268 127L400 50L301 -122H122Z" />
<glyph unicode="&#xf9;" horiz-adv-x="1206" d="M418 -24Q346 -24 281 9T176 113T136 298V1034H379V293Q379 236 403 199T483 162Q504 162 522 167T567 176Q619 183 658 152T732 74Q630 17 556 -3T418 -24ZM860 0Q813 54 798 107T782 220V1034H1026V252Q1026 197
1033 134T1058 0H860ZM704 1204Q670 1195 624 1197T530 1218T449 1279L284 1480H530L704 1204Z" />
<glyph unicode="&#xfa;" horiz-adv-x="1206" d="M418 -24Q346 -24 281 9T176 113T136 298V1034H379V293Q379 236 403 199T483 162Q504 162 522 167T567 176Q619 183 658 152T732 74Q630 17 556 -3T418 -24ZM860 0Q813 54 798 107T782 220V1034H1026V252Q1026 197
1033 134T1058 0H860ZM478 1204L652 1480H898L733 1279Q699 1237 652 1219T559 1198T478 1204Z" />
<glyph unicode="&#xfb;" horiz-adv-x="1206" d="M418 -24Q346 -24 281 9T176 113T136 298V1034H379V293Q379 236 403 199T483 162Q504 162 522 167T567 176Q619 183 658 152T732 74Q630 17 556 -3T418 -24ZM860 0Q813 54 798 107T782 220V1034H1026V252Q1026 197
1033 134T1058 0H860ZM426 1173L290 1202L503 1486H674L891 1202L751 1174L587 1328L426 1173Z" />
<glyph unicode="&#xfc;" horiz-adv-x="1206" d="M418 -24Q346 -24 281 9T176 113T136 298V1034H379V293Q379 236 403 199T483 162Q504 162 522 167T567 176Q619 183 658 152T732 74Q630 17 556 -3T418 -24ZM860 0Q813 54 798 107T782 220V1034H1026V252Q1026 197
1033 134T1058 0H860ZM394 1222Q347 1222 312 1256T277 1340Q277 1390 312 1424T394 1458Q444 1458 479 1424T514 1340Q514 1291 479 1257T394 1222ZM785 1222Q737 1222 702 1256T666 1340Q666 1390 701 1424T785 1458Q833 1458 868 1424T903 1340Q903 1291 868
1257T785 1222Z" />
<glyph unicode="&#xfd;" horiz-adv-x="1145" d="M249 -494Q209 -492 163 -485T71 -460L129 -298Q163 -307 192 -310T249 -314Q322 -314 367 -267T448 -132T523 74L824 1034H1075L709 22Q663 -98 622 -193T532 -356T416 -458T249 -494ZM404 24L31 1034H291L462
483Q487 405 484 317T458 150T404 24ZM446 1204L620 1480H866L701 1279Q667 1237 620 1219T527 1198T446 1204Z" />
<glyph unicode="&#xfe;" horiz-adv-x="1196" d="M160 -482V1516H391V181Q439 166 483 161T569 156Q696 156 769 264T843 542Q843 632 819 708T745 829T622 870Q564 867 529 905T462 999Q517 1024 577 1037T685 1050Q775 1050 851 1011T983 902T1070 740T1101 542Q1101
380 1036 252T851 49T569 -26Q522 -26 480 -21T391 -4V-482H160Z" />
<glyph unicode="&#xff;" horiz-adv-x="1145" d="M249 -494Q209 -492 163 -485T71 -460L129 -298Q163 -307 192 -310T249 -314Q322 -314 367 -267T448 -132T523 74L824 1034H1075L709 22Q663 -98 622 -193T532 -356T416 -458T249 -494ZM404 24L31 1034H291L462
483Q487 405 484 317T458 150T404 24ZM363 1222Q316 1222 281 1256T246 1340Q246 1390 281 1424T363 1458Q413 1458 448 1424T483 1340Q483 1291 448 1257T363 1222ZM754 1222Q706 1222 671 1256T635 1340Q635 1390 670 1424T754 1458Q802 1458 837 1424T872 1340Q872
1291 837 1257T754 1222Z" />
<glyph unicode="&#x2013;" horiz-adv-x="1080" d="M90 465V635H938V465H90Z" />
<glyph unicode="&#x2014;" horiz-adv-x="1698" d="M90 465V635H1568V465H90Z" />
<glyph unicode="&#x2018;" horiz-adv-x="410" d="M298 1454V1025H81V1181Q81 1239 92 1293T128 1389T196 1449T298 1454Z" />
<glyph unicode="&#x2019;" horiz-adv-x="407" d="M96 1025V1454H313V1298Q313 1240 302 1186T266 1090T198 1031T96 1025Z" />
<glyph unicode="&#x201a;" horiz-adv-x="394" d="M112 -233V196H329V40Q329 -18 318 -72T282 -168T214 -227T112 -233Z" />
<glyph unicode="&#x201c;" horiz-adv-x="773" d="M299 1454V1025H82V1181Q82 1239 93 1293T130 1389T197 1449T299 1454ZM684 1454V1025H467V1181Q467 1239 478 1293T514 1389T582 1449T684 1454Z" />
<glyph unicode="&#x201d;" horiz-adv-x="797" d="M82 1025V1454H299V1298Q299 1240 288 1186T252 1090T184 1031T82 1025ZM467 1025V1454H684V1298Q684 1240 673 1186T637 1090T569 1031T467 1025Z" />
<glyph unicode="&#x201e;" horiz-adv-x="763" d="M340 -233V196H557V40Q557 -18 546 -72T510 -168T442 -227T340 -233ZM468 -233V196H685V40Q685 -18 674 -72T638 -168T570 -227T468 -233Z" />
<glyph unicode="&#x2022;" horiz-adv-x="1000" d="M514 459Q440 459 392 507T343 630Q343 705 391 755T514 805Q589 805 639 755T689 630Q689 556 639 508T514 459Z" />
<glyph unicode="&#x2039;" horiz-adv-x="1226" d="M819 94L366 516L819 939L920 840L654 516L920 192L819 94Z" />
<glyph unicode="&#x203a;" horiz-adv-x="1226" d="M486 94L384 192L650 516L384 840L486 939L939 516L486 94Z" />
</font>
</defs>
</svg>
