<?xml version="1.0" standalone="no"?>
<!DOCTYPE svg PUBLIC "-//W3C//DTD SVG 1.1//EN" "http://www.w3.org/Graphics/SVG/1.1/DTD/svg11.dtd">
<svg xmlns="http://www.w3.org/2000/svg">
<defs >
<font id="ExpletusSans" horiz-adv-x="1094" ><font-face
    font-family="Expletus Sans SemiBold"
    units-per-em="2000"
    panose-1="0 0 0 0 0 0 0 0 0 0"
    ascent="2066"
    descent="-612"
    alphabetic="0" />
<glyph unicode=" " horiz-adv-x="514" />
<glyph unicode="!" horiz-adv-x="702" d="M196 425L290 1454H534L371 425H196ZM226 -29Q163 -29 126 13T96 117Q103 180 151 224T261 268Q324 268 361 224T391 117Q384 55 337 13T226 -29Z" />
<glyph unicode="&quot;" horiz-adv-x="797" d="M207 1025L260 1454H473L420 1025H207ZM592 1025L645 1454H858L805 1025H592Z" />
<glyph unicode="#" horiz-adv-x="1788" d="M304 0L397 295L411 319L382 316H181L200 472H450L587 910L600 936L564 933H375L394 1092H645L742 1404H938L840 1092H1258L1356 1404H1552L1453 1092H1677L1657 934H1404L1259 474H1481L1462 316H1212L1114 0H918L1009
290L1024 319L994 316H664Q682 354 710 390T781 450T886 474H1062L1198 904L1213 936L1178 933H791L500 0H304Z" />
<glyph unicode="$" horiz-adv-x="1028" d="M405 -214L429 -22Q352 -15 262 8T75 77L162 243Q259 197 346 179T509 160Q585 160 647 187T747 261T793 362Q803 437 762 489T650 584T500 668T351 762T243 889T217 1070Q229 1170 283 1244T422 1363T607 1420L631 1620H817L793
1418Q849 1412 909 1399T1047 1361L960 1199Q876 1224 808 1234T677 1244Q583 1244 522 1196T451 1079Q442 1010 484 960T597 867T748 781T897 681T1005 547T1031 358Q1019 262 965 184T822 55T617 -14L591 -214H405Z" />
<glyph unicode="%" horiz-adv-x="1628" d="M291 0L1339 1404H1530L482 0H291ZM440 619Q288 619 210 725T155 1027Q178 1220 283 1327T541 1434Q693 1434 772 1327T828 1027Q804 834 698 727T440 619ZM458 763Q520 763 564 828T626 1027Q642 1158 614 1224T523
1291Q463 1291 418 1225T356 1027Q339 894 368 829T458 763ZM1280 -26Q1128 -26 1050 80T995 382Q1019 574 1123 681T1380 788Q1532 788 1612 681T1668 382Q1644 189 1538 82T1280 -26ZM1298 117Q1360 117 1405 183T1466 382Q1482 512 1454 578T1362 645Q1302 645
1257 579T1196 382Q1180 249 1209 183T1298 117Z" />
<glyph unicode="&amp;" horiz-adv-x="1522" d="M666 -22Q531 -22 439 36T305 193T278 418Q295 554 377 656T565 831Q513 921 498 985T491 1109Q505 1222 569 1304T734 1430T963 1474Q1029 1474 1108 1457T1254 1406L1179 1244Q1122 1267 1056 1279T936 1291Q848
1291 787 1245T716 1127Q706 1045 746 976T856 808L1104 470L1120 438L1138 473Q1181 543 1210 611T1260 758H1457Q1414 626 1362 510T1234 293L1452 0H1166L674 668L660 695L639 667Q594 622 563 569T522 444Q507 321 556 241T719 161Q740 161 757 164T796 172Q869
184 917 158T1004 87Q927 34 846 6T666 -22Z" />
<glyph unicode="&apos;" horiz-adv-x="382" d="M200 1025L253 1454H466L413 1025H200Z" />
<glyph unicode="(" horiz-adv-x="806" d="M653 -352Q547 -274 487 -187T401 10T379 262T406 592Q429 779 460 921T543 1172T677 1368T885 1534L982 1416Q881 1338 818 1261T719 1092T661 879T619 592Q599 426 591 304T596 90T653 -78T779 -232L653 -352Z" />
<glyph unicode=")" horiz-adv-x="802" d="M66 -352L-28 -232Q72 -155 133 -79T231 90T290 304T332 592Q352 758 360 879T355 1091T298 1260T173 1416L298 1534Q404 1456 465 1369T550 1172T572 921T546 592Q523 405 491 263T408 11T274 -186T66 -352Z" />
<glyph unicode="*" horiz-adv-x="1060" d="M469 698L315 794L552 1048L224 996L246 1188L560 1138L384 1388L562 1485L644 1180L800 1485L954 1388Q877 1309 832 1262T764 1189T731 1152T716 1136L1044 1186L1022 995Q885 1018 822 1028T736 1042T703 1046L879
794L700 698L623 1004L469 698Z" />
<glyph unicode="+" horiz-adv-x="1136" d="M481 124L531 526H158L178 694H552L601 1092H788L738 694H1114L1094 526H717L668 124H481Z" />
<glyph unicode="," horiz-adv-x="464" d="M82 -233L136 196H353L333 40Q326 -18 308 -72T259 -168T185 -227T82 -233Z" />
<glyph unicode="-" horiz-adv-x="750" d="M154 524L174 694H778L758 524H154Z" />
<glyph unicode="." horiz-adv-x="571" d="M267 -30Q204 -30 167 12T137 116Q144 179 192 222T302 266Q365 266 402 223T432 116Q424 54 377 12T267 -30Z" />
<glyph unicode="/" horiz-adv-x="664" d="M-23 -124L656 1454H865L185 -124H-23Z" />
<glyph unicode="0" horiz-adv-x="1382" d="M653 -36Q482 -36 364 52T194 305T169 698Q197 919 287 1085T517 1343T832 1436Q977 1436 1077 1377T1235 1214T1313 978T1314 698Q1295 540 1240 406T1099 173T900 19T653 -36ZM675 145Q827 145 923 293T1052 698Q1084
955 1024 1105T811 1255Q658 1255 561 1105T432 698Q400 442 461 294T675 145Z" />
<glyph unicode="1" horiz-adv-x="638" d="M270 0L409 1136L176 1021L114 1168L578 1402H673L501 0H270Z" />
<glyph unicode="2" horiz-adv-x="1093" d="M98 0L110 102Q173 200 262 299T447 496T629 686T771 865T838 1029Q850 1131 788 1187T625 1243Q575 1243 508 1229T360 1177L317 1342Q419 1390 506 1407T667 1424Q809 1424 911 1380T1062 1252T1098 1050Q1087 965
1039 878T917 705T762 535T600 373T460 224L425 189L470 196H1015L992 0H98Z" />
<glyph unicode="3" horiz-adv-x="1056" d="M407 -22Q296 -22 203 5T37 71L115 233Q183 198 256 179T402 160Q484 160 553 193T667 281T721 402Q732 496 688 548T559 622T361 643V789L448 824Q531 858 598 892T707 970T757 1077Q766 1155 713 1198T575 1242Q518
1242 450 1229T289 1175L249 1341Q361 1390 455 1407T631 1424Q752 1424 843 1384T980 1271T1015 1098Q1003 1007 941 927T772 788L719 769L764 759Q831 733 882 682T960 559T975 398Q961 277 880 182T675 33T407 -22Z" />
<glyph unicode="4" horiz-adv-x="1190" d="M717 0L846 1058L857 1119L821 1065L385 503L352 470L390 473H505Q561 473 597 444T653 372T681 294H99L119 460L846 1402H1119L1004 472H1165L1144 294H983L947 0H717Z" />
<glyph unicode="5" horiz-adv-x="1072" d="M418 -23Q367 -23 309 -14T189 17T67 74L145 235Q235 193 309 176T439 158Q536 158 603 199T709 301T756 425Q771 550 692 613T476 676Q425 676 355 669T204 644L348 1402H1073L1048 1207H513L448 877L439 844L478 852Q500
854 519 854T557 855Q721 855 827 796T979 637T1012 421Q996 294 916 194T707 35T418 -23Z" />
<glyph unicode="6" horiz-adv-x="1272" d="M675 -30Q524 -30 425 26T272 179T203 398T205 653Q223 800 288 937T458 1182T700 1353T1000 1417Q1050 1417 1111 1406T1235 1370L1158 1205Q1107 1223 1062 1229T978 1236Q836 1236 727 1159T550 951T461 657Q451 575
453 486T478 321T552 197T692 149Q758 149 815 187T911 292T960 442Q976 568 930 630T811 692Q799 692 783 690T746 684Q697 675 661 691T599 734T560 788Q626 821 678 839T772 864T853 872Q968 872 1056 823T1189 678T1217 442Q1207 355 1163 272T1048 120T882
11T675 -30Z" />
<glyph unicode="7" horiz-adv-x="1004" d="M229 0Q287 228 366 427T551 810T801 1173L828 1200L788 1198H222L248 1402H1116L1093 1224Q998 1119 910 1003T744 743T600 418T482 0H229Z" />
<glyph unicode="8" horiz-adv-x="1287" d="M652 -27Q510 -27 404 18T244 148T204 356Q213 425 257 504T414 687Q453 639 476 579T472 457Q457 430 449 409T438 365Q426 266 493 210T674 153Q793 153 869 212T956 356Q964 425 932 473T842 556T713 622T571 688T443
772T357 891T340 1062Q354 1177 426 1258T607 1383T836 1426Q961 1426 1057 1383T1203 1259T1239 1062Q1230 984 1178 907T1047 748L1011 721L1042 705Q1119 650 1166 568T1197 356Q1182 234 1105 149T909 18T652 -27ZM857 805Q919 865 956 922T1000 1039Q1009
1111 985 1156T914 1223T814 1245Q758 1245 708 1224T623 1162T581 1062Q573 996 610 952T714 874T857 805Z" />
<glyph unicode="9" horiz-adv-x="1271" d="M456 -20Q407 -20 346 -8T222 29L300 193Q352 176 397 169T479 162Q622 162 731 238T909 446T998 741Q1008 823 1006 911T980 1075T906 1199T768 1247Q700 1247 643 1208T547 1104T499 956Q483 830 528 768T646 706Q657
706 674 707T712 713Q761 723 797 707T858 663T897 609Q831 576 780 558T686 533T606 526Q489 526 401 575T268 720T241 956Q252 1043 295 1127T410 1279T576 1387T783 1427Q934 1427 1033 1371T1186 1219T1255 1000T1254 745Q1236 597 1171 460T1000 215T757 43T456
-20Z" />
<glyph unicode=":" horiz-adv-x="598" d="M300 -30Q237 -30 200 12T170 116Q177 179 225 222T335 266Q398 266 435 223T465 116Q457 54 410 12T300 -30ZM390 705Q327 705 290 747T260 851Q267 914 315 957T425 1001Q488 1001 525 958T555 851Q547 789 500 747T390 705Z" />
<glyph unicode=";" horiz-adv-x="598" d="M165 -233L219 196H436L416 40Q409 -18 391 -72T342 -168T268 -227T165 -233ZM390 705Q327 705 290 747T260 851Q267 914 315 957T425 1001Q488 1001 525 958T555 851Q547 789 500 747T390 705Z" />
<glyph unicode="&lt;" horiz-adv-x="1226" d="M1108 0L132 477L150 627L1242 1104L1215 883L436 566L382 552L434 540L1135 223L1108 0Z" />
<glyph unicode="=" horiz-adv-x="1212" d="M228 776L249 948H1193L1172 776H228ZM174 334L194 506H1138L1118 334H174Z" />
<glyph unicode="&gt;" horiz-adv-x="1226" d="M96 0L123 223L902 540L954 552L904 566L203 883L230 1104L1206 627L1188 477L96 0Z" />
<glyph unicode="?" horiz-adv-x="1166" d="M433 425Q447 542 491 627T594 777T709 896T806 1005T855 1128Q864 1201 815 1246T676 1291Q619 1291 557 1279T400 1225L358 1392Q467 1442 552 1458T719 1474Q845 1474 937 1435T1076 1325T1111 1158Q1099 1067 1052
994T938 857T807 728T693 590T634 425H433ZM477 -29Q415 -29 377 13T347 117Q354 180 402 224T513 268Q575 268 612 224T643 117Q635 55 588 13T477 -29Z" />
<glyph unicode="@" horiz-adv-x="1838" d="M862 -256Q709 -256 581 -211T363 -73T234 167T220 514Q243 701 323 845T522 1088T786 1237T1081 1288Q1229 1288 1354 1246T1569 1121T1701 919T1725 644Q1708 508 1630 397T1428 212T1156 111Q1135 123 1127 144T1112
190L1113 228L1088 188Q1022 130 966 112T855 94Q732 94 667 155T614 316Q629 436 734 499T1075 585Q1071 567 1056 536T1014 476T945 443Q858 431 826 398T788 324Q783 281 814 254T905 227Q956 227 1011 252T1120 338L1154 610Q1165 702 1124 747T987 793Q945
793 900 785T791 756L758 878Q842 910 906 921T1033 932Q1191 932 1267 847T1322 600L1288 317L1281 273L1312 297Q1422 364 1478 457T1546 644Q1565 798 1510 909T1340 1080T1062 1140Q891 1140 750 1067T516 855T398 514Q374 314 431 176T605 -35T880 -108Q938
-108 992 -104T1108 -87T1256 -48L1292 -185Q1193 -216 1122 -231T989 -251T862 -256Z" />
<glyph unicode="A" horiz-adv-x="1417" d="M64 0L765 1454H1008L1353 0H1093L851 1117L844 1185L819 1114L559 548L530 508L559 512H757Q811 512 844 484T895 414T922 330H461L310 0H64Z" />
<glyph unicode="B" horiz-adv-x="1328" d="M737 -23Q700 -23 666 -20T590 -10T491 12Q513 47 544 82T615 140T706 160Q716 159 725 159T745 158Q815 159 874 190T973 277T1022 408Q1032 495 992 555T874 646T694 677H495L412 0H167L341 1434Q439 1450 513 1460T653
1475T791 1480Q967 1480 1080 1429T1242 1287T1277 1079Q1268 1007 1216 929T1084 804L1022 776L1076 762Q1146 732 1195 678T1267 555T1281 410Q1271 333 1229 257T1114 117T947 15T737 -23ZM514 846H714Q795 846 862 876T972 958T1024 1078Q1030 1133 1007 1183T925
1266T770 1299Q716 1299 670 1296T569 1286L514 846Z" />
<glyph unicode="C" horiz-adv-x="1243" d="M865 -24Q634 -24 477 72T248 338T203 726Q223 887 293 1024T475 1264T733 1423T1049 1480Q1133 1480 1219 1464T1394 1412L1310 1249Q1226 1276 1162 1286T1028 1297Q915 1297 819 1254T650 1135T530 954T468 726Q454
611 475 508T550 327T690 203T888 158Q957 158 1029 175T1184 230L1230 68Q1134 21 1042 -1T865 -24Z" />
<glyph unicode="D" horiz-adv-x="1468" d="M741 -24Q682 -24 631 -18T495 10Q516 45 547 80T618 138T710 160Q724 158 732 158T751 158Q857 159 944 207T1098 336T1205 518T1259 730Q1280 901 1237 1028T1078 1226T768 1297Q720 1297 671 1293T574 1282L417 0H171L345
1430Q467 1456 584 1468T789 1480Q1051 1480 1224 1391T1475 1134T1523 730Q1504 570 1435 433T1258 193T1019 33T741 -24Z" />
<glyph unicode="E" horiz-adv-x="1168" d="M171 0L349 1454H1204L1181 1272H575L440 182H1078L1057 0H171ZM577 674Q596 715 625 756T694 825T789 852H1062L1039 674H577Z" />
<glyph unicode="F" horiz-adv-x="1160" d="M171 0L349 1454H1204L1181 1272H575L420 0H171ZM577 674Q596 715 625 756T694 825T789 852H1062L1039 674H577Z" />
<glyph unicode="G" horiz-adv-x="1387" d="M850 -24Q677 -24 541 31T315 187T185 424T167 726Q187 888 260 1025T451 1265T717 1423T1038 1480Q1123 1480 1229 1461T1440 1392L1354 1224Q1250 1269 1168 1283T1016 1297Q904 1297 805 1256T627 1138T498 957T432
726Q417 604 441 500T524 320T671 201T873 158Q917 158 965 162T1080 185L1141 674H1369L1295 74Q1218 39 1137 18T982 -14T850 -24Z" />
<glyph unicode="H" horiz-adv-x="1502" d="M1087 0L1169 672H577Q595 714 624 756T694 825T788 853H1192L1265 1454H1512L1334 0H1087ZM171 0L349 1454H598L420 0H171Z" />
<glyph unicode="I" horiz-adv-x="584" d="M171 0L349 1454H590L412 0H171Z" />
<glyph unicode="J" horiz-adv-x="719" d="M39 -433L-52 -293Q30 -231 96 -178T212 -66T294 70T339 256L487 1454H736L588 256Q571 120 529 22T417 -150T254 -292T39 -433Z" />
<glyph unicode="K" horiz-adv-x="1381" d="M1056 0L785 663L776 707L749 666L588 486Q576 556 591 635T643 791T732 928L1179 1454H1455L934 870L1346 0H1056ZM171 0L349 1454H598L420 0H171Z" />
<glyph unicode="L" horiz-adv-x="1054" d="M169 0L347 1454H598L441 184H998L976 0H169Z" />
<glyph unicode="M" horiz-adv-x="1939" d="M144 0L471 1454H788L993 314L998 246L1023 314L1507 1454H1826L1793 0H1562L1607 1122L1612 1214L1577 1122L1095 20H846L631 1124L617 1214L600 1124L374 0H144Z" />
<glyph unicode="N" horiz-adv-x="1534" d="M196 0L374 1454H617L1139 418L1156 343L1162 420L1288 1454H1508L1330 0H1110L565 1074L543 1144L539 1076L408 0H196Z" />
<glyph unicode="O" horiz-adv-x="1580" d="M788 -28Q574 -28 428 68T215 334T176 728Q197 898 267 1037T446 1276T688 1430T974 1484Q1157 1484 1282 1420T1479 1248T1576 1004T1584 728Q1565 571 1499 434T1327 193T1085 31T788 -28ZM810 154Q932 154 1040 225T1224
425T1320 728Q1340 897 1301 1026T1172 1228T951 1301Q817 1301 709 1226T531 1021T441 728Q427 612 444 509T509 326T632 200T810 154Z" />
<glyph unicode="P" horiz-adv-x="1260" d="M171 0L347 1438Q444 1454 516 1464T652 1477T789 1481Q950 1481 1069 1425T1246 1267T1289 1031Q1273 900 1195 805T1004 656T770 590Q726 586 676 589T571 608Q590 644 618 679T683 739T763 766Q824 769 882 805T981
900T1030 1031Q1040 1106 1009 1166T916 1262T767 1298Q713 1298 673 1295T578 1286L421 0H171Z" />
<glyph unicode="Q" horiz-adv-x="1567" d="M779 -28Q573 -28 430 67T220 333T182 728Q202 895 271 1034T448 1273T690 1429T980 1484Q1192 1484 1338 1389T1550 1124T1589 728Q1573 592 1511 468T1347 230L1466 92L1314 -42L882 461L1034 597L1187 416L1208 375L1227
426Q1269 496 1293 574T1325 728Q1345 891 1308 1021T1181 1226T958 1301Q823 1301 715 1226T537 1021T446 728Q432 611 449 507T512 324T631 200T800 155Q823 155 849 158T898 163Q960 169 1014 140T1095 75Q1012 22 932 -3T779 -28Z" />
<glyph unicode="R" horiz-adv-x="1340" d="M171 0L347 1436Q444 1453 516 1463T652 1477T789 1482Q947 1482 1066 1427T1245 1273T1291 1042Q1276 923 1206 833T1034 690L978 670L1019 650Q1078 600 1105 529T1147 372T1175 193T1224 0H966Q939 80 927 170T901
347T860 503T770 611Q748 609 714 609T641 614T573 628Q592 664 620 700T686 760T767 788Q828 791 885 825T983 915T1032 1043Q1042 1116 1010 1174T914 1265T768 1299Q714 1299 677 1297T577 1285L421 0H171Z" />
<glyph unicode="S" horiz-adv-x="1136" d="M541 -25Q456 -25 345 -3T117 77L204 241Q299 195 390 176T555 157Q676 157 756 219T847 368Q855 435 825 484T739 573T616 650T481 728T360 821T278 942T262 1107Q276 1226 343 1309T512 1436T733 1480Q823 1480 908
1467T1106 1416L1020 1254Q936 1280 864 1290T730 1301Q632 1301 570 1249T498 1122Q490 1050 532 998T646 901T800 811T951 706T1060 567T1086 371Q1072 253 1000 164T811 25T541 -25Z" />
<glyph unicode="T" horiz-adv-x="1076" d="M411 0L566 1272H169L192 1454H1235L1212 1272H814L659 0H411Z" />
<glyph unicode="U" horiz-adv-x="1429" d="M723 -28Q548 -28 430 40T259 238T229 548L340 1454H586L470 518Q449 349 526 252T745 154Q885 154 986 251T1109 518L1224 1454H1469L1357 548Q1336 374 1251 245T1030 44T723 -28Z" />
<glyph unicode="V" horiz-adv-x="1305" d="M530 0L198 1454H464L685 315L689 243L713 313L1215 1454H1472L788 0H530Z" />
<glyph unicode="W" horiz-adv-x="2051" d="M458 0L232 1454H477L620 343L622 237L658 343L1072 1434H1344L1482 343L1489 237L1519 339L1936 1454H2175L1595 0H1335L1179 1094L1172 1177L1146 1097L724 0H458Z" />
<glyph unicode="X" horiz-adv-x="1295" d="M955 0L263 1454H543L745 956L759 899L781 956L1109 1454H1384L866 743L1229 0H955ZM62 0L538 654Q558 621 577 568T596 454T558 340L329 0H62Z" />
<glyph unicode="Y" horiz-adv-x="1368" d="M553 0L629 634L230 1454H505L876 676L794 0H553ZM944 753Q923 786 904 839T886 953T926 1072L1186 1454H1456L944 753Z" />
<glyph unicode="Z" horiz-adv-x="1213" d="M123 0L135 102L1010 1246L1046 1280L996 1274H350L373 1454H1357L1344 1352L468 206L433 176L478 182H1218L1198 0H123Z" />
<glyph unicode="[" horiz-adv-x="894" d="M212 -398L450 1542H1020L997 1359H655L463 -215H806L782 -398H212Z" />
<glyph unicode="\" horiz-adv-x="700" d="M473 -124L181 1454H399L691 -124H473Z" />
<glyph unicode="]" horiz-adv-x="902" d="M41 -398L63 -215H406L598 1359H256L279 1542H849L611 -398H41Z" />
<glyph unicode="^" horiz-adv-x="1256" d="M181 420L727 1454H891L1181 420H965L781 1115L775 1173L755 1115L401 420H181Z" />
<glyph unicode="_" horiz-adv-x="994" d="M33 -165L54 0H940L919 -165H33Z" />
<glyph unicode="`" horiz-adv-x="392" d="M606 1204Q571 1195 525 1197T434 1218T359 1279L220 1480H466L606 1204Z" />
<glyph unicode="a" horiz-adv-x="1189" d="M511 -15Q418 -23 346 16T227 129T161 296T154 492Q173 653 256 781T472 982T774 1056Q830 1056 886 1051T1007 1033T1157 995L1071 291Q1061 211 1060 140T1067 4L883 0Q857 16 836 72T823 204L903 856Q862 866 826
870T759 874Q617 874 526 771T412 492Q402 409 412 333T462 211T579 174Q632 179 667 150T734 69Q677 34 619 12T511 -15Z" />
<glyph unicode="b" horiz-adv-x="1198" d="M570 -26Q461 -26 363 -1T163 82L340 1516L580 1502L418 181Q464 166 506 161T591 156Q718 156 805 264T914 542Q924 632 911 708T855 829T740 865Q682 859 649 896T587 987Q645 1015 705 1031T814 1049Q904 1054 976
1016T1096 906T1164 741T1172 542Q1152 380 1070 252T860 49T570 -26Z" />
<glyph unicode="c" horiz-adv-x="858" d="M578 -24Q441 -24 331 34T164 213T129 518Q151 696 238 816T451 997T711 1058Q765 1058 828 1048T949 1014L868 850Q819 863 773 869T688 876Q578 876 494 784T387 518Q373 401 396 322T473 200T601 158Q644 158 695 170T815
210L857 46Q773 9 701 -7T578 -24Z" />
<glyph unicode="d" horiz-adv-x="1222" d="M526 -24Q383 -24 291 47T161 243T143 523Q156 635 204 730T325 897T483 1009T656 1050Q705 1050 754 1043T869 1014Q834 953 790 915T687 874Q609 871 550 830T452 711T401 523Q388 421 405 339T469 207T591 158Q653
158 716 193T851 301L1002 1516L1242 1502L1094 297Q1084 217 1083 146T1090 10L905 0Q882 17 869 42T846 99L843 140L811 100Q732 30 659 3T526 -24Z" />
<glyph unicode="e" horiz-adv-x="1113" d="M606 -24Q479 -24 389 22T245 146T170 323T162 531Q183 695 264 813T468 994T739 1058Q847 1058 927 1014T1051 891T1095 707T1039 482H472Q501 546 546 590T652 634H859Q876 701 861 758T805 849T701 883Q634 883 572
846T465 731T405 536Q391 420 418 335T506 204T655 158Q724 158 791 174T950 232L992 66Q882 16 786 -4T606 -24Z" />
<glyph unicode="f" horiz-adv-x="838" d="M199 0L304 859H136L152 993L325 1034L331 1090Q348 1221 410 1319T573 1471T802 1526Q852 1526 917 1514T1053 1469L980 1313Q921 1332 882 1339T808 1347Q747 1347 695 1319T607 1235T562 1098L428 0H199ZM603 859Q621
901 649 941T718 1008T812 1034H913L892 859H603Z" />
<glyph unicode="g" horiz-adv-x="1167" d="M462 -500Q384 -500 289 -484T89 -416L172 -249Q262 -290 333 -306T468 -322Q546 -322 615 -289T731 -189T791 -22L900 856Q859 866 823 870T757 874Q615 874 524 771T410 492Q400 409 410 333T460 210T576 173Q630 179
665 149T731 68Q676 34 617 12T510 -15Q416 -23 344 16T225 128T158 296T152 492Q171 653 254 781T469 982T771 1056Q828 1056 883 1051T1004 1033T1154 995L1033 0Q1011 -170 931 -280T730 -445T462 -500Z" />
<glyph unicode="h" horiz-adv-x="1196" d="M154 0L340 1516L580 1502L396 0H154ZM800 0L890 741Q897 798 878 835T809 872Q788 872 775 868T733 860Q683 853 648 883T585 963Q693 1021 766 1039T895 1058Q967 1058 1026 1025T1117 921T1134 736L1045 0H800Z" />
<glyph unicode="i" horiz-adv-x="541" d="M148 0L274 1034H520L394 0H148ZM415 1187Q353 1187 316 1229T286 1334Q295 1398 343 1441T453 1484Q516 1484 552 1441T580 1334Q573 1272 526 1230T415 1187Z" />
<glyph unicode="j" horiz-adv-x="578" d="M-17 -497L-106 -367Q6 -278 66 -212T152 -77T189 89L306 1034H550L433 89Q419 -29 376 -123T240 -305T-17 -497ZM446 1187Q384 1187 348 1229T318 1334Q327 1398 374 1441T484 1485Q548 1485 585 1442T614 1334Q607 1272
559 1230T446 1187Z" />
<glyph unicode="k" horiz-adv-x="1215" d="M903 0L711 478L699 524L665 486L537 362Q527 470 568 572T686 754L956 1034L1224 1020L861 674L1174 0H903ZM154 0L340 1516L580 1502L396 0H154Z" />
<glyph unicode="l" horiz-adv-x="542" d="M158 0L344 1516L583 1502L399 0H158Z" />
<glyph unicode="m" horiz-adv-x="1838" d="M1438 0L1528 741Q1535 798 1514 835T1435 872Q1414 872 1393 867T1344 858Q1292 852 1253 883T1187 964Q1302 1016 1380 1037T1523 1058Q1596 1058 1658 1025T1753 921T1772 736L1682 0H1438ZM158 0L252 772Q258 828
259 891T252 1024L452 1034Q494 980 502 927T502 814L404 0H158ZM798 0L889 741Q896 798 878 835T806 872Q785 872 767 868T723 860Q670 854 633 885T569 966Q683 1017 758 1037T897 1058Q970 1058 1028 1025T1117 921T1133 736L1044 0H798Z" />
<glyph unicode="n" horiz-adv-x="1170" d="M781 0L871 741Q878 798 858 835T783 872Q762 872 743 867T696 858Q643 852 608 883T544 960Q653 1017 729 1037T869 1058Q942 1058 1003 1025T1096 921T1115 736L1025 0H781ZM131 0L225 772Q231 828 231 891T223 1024L424
1034Q466 980 474 927T475 814L377 0H131Z" />
<glyph unicode="o" horiz-adv-x="1186" d="M584 -24Q445 -24 336 39T171 223T135 518Q152 657 211 759T355 927T535 1025T717 1058Q874 1058 981 988T1136 796T1165 518Q1149 390 1094 289T957 119T779 13T584 -24ZM605 157Q691 157 754 206T855 337T906 518Q919
627 898 708T824 833T694 877Q617 877 554 833T449 708T393 518Q374 359 430 258T605 157Z" />
<glyph unicode="p" horiz-adv-x="1224" d="M100 -468L248 737Q257 818 258 889T252 1024L437 1034Q460 1017 474 991T496 930V893L527 931Q609 1003 682 1030T816 1058Q958 1058 1050 987T1180 791T1199 511Q1185 399 1137 304T1016 137T858 25T684 -16Q636 -16
587 -9T473 20Q508 81 552 120T652 160Q730 163 790 204T888 323T941 511Q953 613 936 696T872 827T750 876Q688 876 624 841T488 733L340 -482L100 -468Z" />
<glyph unicode="q" horiz-adv-x="1192" d="M745 -468L908 856Q866 866 830 870T764 874Q622 874 531 771T417 492Q407 409 417 333T468 210T585 173Q638 179 673 149T740 68Q683 34 625 12T517 -15Q425 -23 353 16T233 128T166 296T158 492Q178 653 261 781T476
982T779 1056Q835 1056 891 1051T1012 1033T1162 995L981 -482L745 -468Z" />
<glyph unicode="r" horiz-adv-x="782" d="M148 0L237 734Q245 804 247 879T240 1024L426 1034Q445 1013 457 972T471 881L468 838L492 881Q541 960 615 1006T759 1052Q788 1052 816 1047T875 1031L821 832Q786 842 761 845T714 849Q648 849 590 809T492 692T439
509L378 0H148Z" />
<glyph unicode="s" horiz-adv-x="857" d="M455 -20Q378 -20 285 -6T71 64L150 229Q232 193 304 178T440 162Q520 162 562 197T610 281Q617 330 586 362T503 421T393 474T283 539T205 630T187 766Q194 830 238 896T365 1007T572 1052Q636 1052 704 1042T861 1000L784
839Q715 860 666 868T569 876Q507 876 467 850T420 773Q414 727 444 694T527 635T637 580T746 513T825 420T843 284Q832 195 774 127T631 19T455 -20Z" />
<glyph unicode="t" horiz-adv-x="888" d="M574 -24Q394 -24 312 84T254 391L312 859H139L155 991L332 1034L363 1287L602 1361L483 382Q470 280 506 218T614 156Q647 156 684 162T774 186L807 26Q729 1 676 -11T574 -24ZM799 859Q745 859 711 885T659 952T632
1034H919L898 859H799Z" />
<glyph unicode="u" horiz-adv-x="1206" d="M414 -24Q342 -24 282 9T189 113T172 298L262 1034H505L414 293Q407 236 426 199T502 162Q523 162 542 167T588 176Q640 183 676 152T741 74Q632 17 555 -3T414 -24ZM860 0Q819 54 810 107T808 220L908 1034H1152L1058
262Q1051 207 1051 144T1060 10L860 0Z" />
<glyph unicode="v" horiz-adv-x="1070" d="M408 0L146 1034H403L559 273L566 217L587 273L928 1034L1173 1020L666 0H408Z" />
<glyph unicode="w" horiz-adv-x="1735" d="M1086 0L847 1034H1105L1238 273L1245 217L1266 273L1585 1034L1829 1020L1346 0H1086ZM423 0L184 1034H441L574 273L581 217L602 273L816 702Q841 654 855 578T861 417T812 254L675 0H423Z" />
<glyph unicode="x" horiz-adv-x="1016" d="M711 0Q648 127 581 254T445 507L163 1034H440L579 718L586 676L606 718L827 1034L1077 1020L684 517L983 0H711ZM19 0L381 444Q404 412 420 366T434 268T397 164L280 0H19Z" />
<glyph unicode="y" horiz-adv-x="1145" d="M187 -494Q147 -492 103 -485T13 -460L91 -298Q125 -307 153 -310T210 -314Q283 -314 334 -267T430 -132T531 74L950 1034L1193 1020L711 22Q650 -98 597 -193T488 -356T359 -458T187 -494ZM406 24L157 1034H417L519
483Q535 405 522 317T476 150T406 24Z" />
<glyph unicode="z" horiz-adv-x="928" d="M64 0L76 102L648 837L683 871L640 865H228L248 1034H980L968 932L400 201L365 167L411 173H882L862 0H64Z" />
<glyph unicode="{" horiz-adv-x="806" d="M650 -352Q534 -266 471 -166T388 67T379 378Q383 449 333 490T207 544L222 676Q301 690 364 731T441 842Q474 1008 526 1133T663 1355T882 1534L980 1416Q880 1340 818 1263T719 1093T656 878Q641 796 593 733T476 628L425
606L470 584Q529 542 562 480T590 336Q582 205 595 106T651 -74T777 -232L650 -352Z" />
<glyph unicode="|" horiz-adv-x="634" d="M158 -586L428 1622H644L374 -586H158Z" />
<glyph unicode="}" horiz-adv-x="837" d="M225 -352L127 -232Q228 -155 291 -74T391 106T453 336Q470 419 518 481T633 585L687 606L637 628Q579 670 548 733T519 878Q525 1000 511 1092T453 1262T330 1416L457 1534Q569 1452 630 1355T712 1133T727 842Q724 772
777 731T903 676L888 544Q810 531 749 490T673 378Q640 199 588 67T449 -165T225 -352Z" />
<glyph unicode="~" horiz-adv-x="1228" d="M387 456L182 472Q198 573 250 641T375 745T528 781Q603 781 658 754T757 695Q794 668 829 648T908 628Q952 628 982 667T1028 769L1230 753Q1210 640 1157 572T1034 474T897 444Q814 444 759 472T662 533Q628 559 596
578T520 597Q481 597 443 564T387 456Z" />
<glyph unicode="&#xa0;" horiz-adv-x="514" />
<glyph unicode="&#xa1;" horiz-adv-x="702" d="M60 -420L218 609H394L304 -420H60ZM323 766Q260 766 224 810T195 917Q202 979 249 1021T360 1063Q423 1063 460 1021T490 917Q482 854 434 810T323 766Z" />
<glyph unicode="&#xa2;" horiz-adv-x="854" d="M464 -28L488 177Q378 198 295 263T173 439T153 709Q172 861 239 971T405 1147T618 1236L642 1432H818L796 1246Q839 1242 885 1233T972 1206L890 1041Q842 1054 796 1060T712 1067Q639 1067 576 1026T469 905T411
709Q396 593 420 513T497 392T624 350Q666 350 718 362T839 401L880 238Q820 209 765 194T664 172L640 -28H464Z" />
<glyph unicode="&#xa3;" horiz-adv-x="1026" d="M85 0L101 140Q215 194 295 282T389 484Q394 517 396 550T398 622H203L223 792H392Q390 839 391 900T399 1024Q416 1156 485 1245T660 1379T893 1424Q964 1424 1038 1408T1196 1350L1114 1182Q1043 1215 978 1228T870
1241Q768 1241 706 1183T630 1022Q615 901 619 796T622 592T588 394Q571 345 546 308T486 234L443 195L491 199H989L966 0H85ZM856 622Q800 622 768 647T720 712T694 792H1015L994 622H856Z" />
<glyph unicode="&#xa4;" horiz-adv-x="1026" d="M171 205L86 305L254 447Q231 483 217 543T212 680Q223 757 251 817T313 914L177 1056L286 1157L416 1015Q460 1047 519 1067T644 1088Q715 1088 771 1067T860 1014L1031 1155L1110 1059L935 914Q956 878 968 818T971
685Q961 609 935 547T878 449L1015 302L912 206L777 350Q735 316 672 295T542 274Q478 274 423 294T332 346L171 205ZM558 410Q615 410 669 444T761 539T810 683Q819 752 799 813T735 913T626 952Q564 952 510 917T420 820T374 680Q363 595 388 535T459 442T558
410Z" />
<glyph unicode="&#xa5;" horiz-adv-x="1320" d="M527 0L558 264H253L267 382H572L589 510H284L298 629H603V634L205 1454H479L850 676L845 629H1148L1134 510H830L813 382H1117L1103 264H799L768 0H527ZM919 753Q897 786 878 839T860 953T900 1072L1160 1454H1430L919
753Z" />
<glyph unicode="&#xa6;" horiz-adv-x="508" d="M82 -586L188 282H404L298 -586H82ZM248 774L352 1622H568L464 774H248Z" />
<glyph unicode="&#xa7;" horiz-adv-x="1000" d="M493 -102Q442 -102 372 -96T224 -72T69 -18L154 136Q239 101 326 83T487 65Q587 65 649 96T719 189Q726 243 687 279T583 343T445 399T308 466T208 562T183 704Q189 761 233 815T347 910L395 929L358 948Q306 988
278 1041T258 1170Q267 1242 323 1303T470 1402T676 1440Q744 1440 824 1429T1002 1388L918 1235Q845 1256 788 1264T680 1273Q590 1273 536 1248T474 1172Q468 1118 507 1082T611 1018T749 960T885 892T985 795T1010 650Q1003 585 961 533T857 444L809 425L846
404Q893 366 919 313T936 186Q925 100 862 36T701 -65T493 -102ZM681 501Q740 538 770 578T804 660Q810 707 770 739T665 798T528 855Q466 825 432 791T391 711Q384 659 426 625T538 562T681 501Z" />
<glyph unicode="&#xa8;" horiz-adv-x="963" d="M427 1222Q380 1222 349 1256T325 1340Q331 1390 370 1424T457 1458Q506 1458 537 1424T562 1340Q555 1291 516 1257T427 1222ZM817 1222Q769 1222 739 1256T714 1340Q720 1390 759 1424T847 1458Q896 1458 926 1424T951
1340Q945 1291 906 1257T817 1222Z" />
<glyph unicode="&#xa9;" horiz-adv-x="1440" d="M719 50Q522 50 384 136T180 373T138 714Q155 848 217 967T380 1177T608 1320T881 1372Q1076 1372 1213 1286T1415 1050T1456 714Q1440 578 1377 458T1215 246T990 102T719 50ZM796 352Q702 352 631 394T524 516T502
714Q517 830 573 910T710 1032T884 1074Q964 1074 1048 1046L993 930Q959 942 930 947T870 952Q795 952 736 888T662 714Q649 603 691 538T810 472Q839 472 875 479T960 508L986 398Q928 371 878 362T796 352ZM736 190Q875 190 993 254T1190 436T1288 714Q1307
870 1258 987T1106 1169T865 1234Q723 1233 604 1168T405 985T306 708Q287 551 337 435T491 255T736 190Z" />
<glyph unicode="&#xaa;" horiz-adv-x="1054" d="M384 590Q282 590 222 644T174 788Q186 890 280 947T594 1029Q589 1013 576 986T539 935T478 904Q405 893 377 864T342 798Q339 761 361 735T428 708Q475 708 523 730T615 800L646 1054Q657 1137 618 1177T497 1218Q460
1218 419 1211T329 1186L306 1294Q377 1324 434 1333T538 1342Q687 1342 756 1264T808 1044L782 844Q772 760 772 701T776 604H652Q635 618 626 636T611 676L612 700L594 676Q545 631 493 611T384 590Z" />
<glyph unicode="&#xab;" horiz-adv-x="1226" d="M578 94L177 516L682 939L771 840L465 516L692 192L578 94ZM1107 94L706 516L1211 939L1300 840L994 516L1221 192L1107 94Z" />
<glyph unicode="&#xac;" horiz-adv-x="1165" d="M929 312L979 727H174L194 897H1187L1117 312H929Z" />
<glyph unicode="&#xad;" horiz-adv-x="750" d="M154 524L174 694H778L758 524H154Z" />
<glyph unicode="&#xae;" horiz-adv-x="1440" d="M719 50Q522 50 384 136T180 373T138 714Q155 848 217 967T380 1177T608 1320T881 1372Q1076 1372 1213 1286T1415 1050T1456 714Q1440 578 1377 458T1215 246T990 102T719 50ZM736 190Q875 190 993 254T1190 436T1288
714Q1307 870 1258 987T1106 1169T865 1234Q723 1233 604 1168T405 985T306 708Q287 551 337 435T491 255T736 190ZM536 378L616 1044Q676 1058 731 1065T838 1072Q961 1072 1032 1016T1092 862Q1086 807 1054 764T970 695L938 688L964 671Q999 641 1011 595T1029
494T1056 378H900Q881 432 877 489T861 592T801 657Q784 657 776 657T751 656Q765 689 788 722T857 764Q893 772 913 799T938 862Q944 903 914 929T824 956Q806 956 794 955T754 950L684 378H536Z" />
<glyph unicode="&#xaf;" horiz-adv-x="1000" d="M373 1214L391 1366H988L969 1214H373Z" />
<glyph unicode="&#xb0;" horiz-adv-x="674" d="M467 954Q387 954 322 990T222 1092T198 1246Q208 1328 258 1394T381 1499T537 1538Q613 1538 679 1504T781 1404T806 1246Q795 1158 743 1093T617 991T467 954ZM482 1082Q529 1082 566 1104T627 1164T655 1246Q665
1324 625 1367T523 1411Q477 1411 441 1390T380 1331T351 1246Q342 1174 378 1128T482 1082Z" />
<glyph unicode="&#xb1;" horiz-adv-x="1136" d="M499 269L539 586H166L186 754H560L597 1067H784L746 754H1122L1102 586H725L685 269H499ZM94 0L114 169H1050L1030 0H94Z" />
<glyph unicode="&#xb2;" horiz-adv-x="804" d="M217 620L226 703Q293 797 365 872T500 1009T606 1128T656 1242Q662 1295 628 1320T534 1346Q500 1346 465 1338T392 1314L354 1422Q411 1451 468 1461T574 1472Q650 1472 708 1447T797 1374T820 1256Q811 1184 770
1122T672 1001T555 887T451 772L429 752L457 756H760L744 620H217Z" />
<glyph unicode="&#xb3;" horiz-adv-x="762" d="M388 602Q324 602 271 621T190 658L244 769Q278 754 317 742T402 730Q476 730 522 771T576 866Q584 934 536 968T385 1002V1105L451 1131Q508 1154 549 1184T596 1262Q600 1294 576 1318T504 1342Q470 1342 432 1334T350
1311L316 1420Q376 1449 429 1459T532 1470Q642 1470 708 1421T762 1278Q755 1215 706 1163T584 1078Q650 1062 700 1007T739 862Q729 786 681 728T556 636T388 602Z" />
<glyph unicode="&#xb4;" horiz-adv-x="644" d="M265 1204L473 1480H719L530 1279Q491 1237 442 1219T345 1198T265 1204Z" />
<glyph unicode="&#xb5;" horiz-adv-x="1106" d="M74 -422L252 1034H480L404 420Q395 341 410 282T465 191T566 158Q628 158 682 190T774 276T820 398L898 1034H1128L1040 310Q1030 226 1049 193T1132 162L1134 8Q1100 -4 1063 -10T1002 -16Q947 -16 896 14T827
112L822 153L797 111Q749 53 684 17T526 -20Q484 -20 442 -6T372 36L347 74L343 20L290 -422H74Z" />
<glyph unicode="&#xb6;" horiz-adv-x="1218" d="M642 -60L724 608Q723 608 722 609T720 610Q601 620 508 675T367 824T334 1040Q349 1156 418 1256T606 1418T886 1480Q996 1480 1082 1472T1278 1440L1094 -60H948L1116 1316Q1073 1324 1034 1327T958 1332L788 -60H642Z" />
<glyph unicode="&#xb7;" horiz-adv-x="612" d="M360 462Q297 462 260 504T230 608Q237 671 285 714T395 758Q458 758 495 715T525 608Q517 546 470 504T360 462Z" />
<glyph unicode="&#xb8;" horiz-adv-x="1000" d="M414 -421Q380 -421 343 -412T260 -381L305 -281Q341 -294 370 -299T429 -305Q464 -305 493 -292T526 -252Q529 -219 493 -202T386 -177L452 -5L574 5L538 -91Q596 -102 642 -142T680 -246Q673 -306 632 -344T532
-402T414 -421Z" />
<glyph unicode="&#xb9;" horiz-adv-x="638" d="M420 618L499 1252L375 1194L325 1309L614 1454H698L594 618H420Z" />
<glyph unicode="&#xba;" horiz-adv-x="860" d="M500 588Q342 588 258 688T196 966Q209 1070 260 1155T395 1291T592 1342Q699 1342 772 1296T877 1166T896 966Q884 860 833 775T698 639T500 588ZM514 716Q575 716 619 749T691 839T728 966Q736 1034 724 1090T675
1181T576 1216Q517 1216 473 1183T402 1092T366 966Q353 856 390 786T514 716Z" />
<glyph unicode="&#xbb;" horiz-adv-x="1226" d="M217 94L128 192L433 516L207 840L321 939L722 516L217 94ZM746 94L657 192L962 516L736 840L850 939L1251 516L746 94Z" />
<glyph unicode="&#xbc;" horiz-adv-x="1396" d="M150 0L1200 1454H1380L330 0H150ZM300 618L379 1252L255 1194L205 1309L494 1454H578L474 618H300ZM1076 0L1152 628L884 297H930Q982 297 1007 253T1043 169H704L718 288L1160 846H1330L1264 296H1360L1344 169H1248L1228
0H1076Z" />
<glyph unicode="&#xbd;" horiz-adv-x="1526" d="M150 0L1200 1454H1380L330 0H150ZM300 618L379 1252L255 1194L205 1309L494 1454H578L474 618H300ZM847 0L856 83Q923 177 995 252T1130 389T1236 508T1286 622Q1292 675 1258 700T1164 726Q1130 726 1095 718T1021
694L984 802Q1041 831 1098 841T1204 852Q1280 852 1338 827T1427 754T1450 636Q1441 564 1400 502T1302 382T1186 270T1082 155L1059 132L1092 136H1390L1374 0H847Z" />
<glyph unicode="&#xbe;" horiz-adv-x="1432" d="M223 0L1273 1454H1454L404 0H223ZM327 602Q263 602 210 621T129 658L183 769Q218 754 256 742T342 730Q415 730 461 771T515 866Q523 934 475 968T324 1002V1105L390 1131Q447 1154 488 1184T535 1262Q539 1294
515 1318T443 1342Q409 1342 371 1334T289 1311L255 1420Q315 1449 368 1459T471 1470Q581 1470 647 1421T702 1278Q695 1215 646 1163T524 1078Q590 1062 640 1007T678 862Q669 786 620 728T495 636T327 602ZM1149 0L1226 628L957 297H1003Q1056 297 1081 253T1116
169H777L791 288L1233 846H1404L1337 296H1433L1418 169H1322L1302 0H1149Z" />
<glyph unicode="&#xbf;" horiz-adv-x="1166" d="M564 -441Q438 -441 346 -403T208 -293T173 -125Q185 -34 233 38T346 176T477 305T591 443T651 608H851Q837 490 793 406T690 256T575 137T478 28T429 -95Q421 -167 470 -212T607 -258Q664 -258 726 -246T884 -192L926
-359Q816 -408 732 -424T564 -441ZM771 765Q708 765 671 809T643 915Q650 977 698 1019T808 1062Q871 1062 908 1020T939 915Q930 853 882 809T771 765Z" />
<glyph unicode="&#xc0;" horiz-adv-x="1417" d="M64 0L765 1454H1008L1353 0H1093L851 1117L844 1185L819 1114L559 548L530 508L559 512H757Q811 512 844 484T895 414T922 330H461L310 0H64ZM1025 1531Q990 1522 942 1524T850 1545T782 1604L672 1780H908L1025 1531Z" />
<glyph unicode="&#xc1;" horiz-adv-x="1417" d="M64 0L765 1454H1008L1353 0H1093L851 1117L844 1185L819 1114L559 548L530 508L559 512H757Q811 512 844 484T895 414T922 330H461L310 0H64ZM778 1531L984 1780H1222L1044 1604Q1004 1565 955 1547T858 1525T778 1531Z" />
<glyph unicode="&#xc2;" horiz-adv-x="1417" d="M64 0L765 1454H1008L1353 0H1093L851 1117L844 1185L819 1114L559 548L530 508L559 512H757Q811 512 844 484T895 414T922 330H461L310 0H64ZM740 1516L608 1545L850 1780H1020L1209 1545L1065 1517L915 1631L740 1516Z" />
<glyph unicode="&#xc3;" horiz-adv-x="1417" d="M64 0L765 1454H1008L1353 0H1093L851 1117L844 1185L819 1114L559 548L530 508L559 512H757Q811 512 844 484T895 414T922 330H461L310 0H64ZM726 1554L593 1566Q610 1679 674 1736T812 1794Q857 1794 890 1777T950
1735Q971 1716 989 1701T1035 1686Q1061 1686 1080 1713T1109 1786L1238 1774Q1224 1690 1189 1640T1110 1568T1029 1546Q978 1546 945 1563T888 1604Q867 1626 852 1640T809 1654Q787 1654 763 1632T726 1554Z" />
<glyph unicode="&#xc4;" horiz-adv-x="1417" d="M64 0L765 1454H1008L1353 0H1093L851 1117L844 1185L819 1114L559 548L530 508L559 512H757Q811 512 844 484T895 414T922 330H461L310 0H64ZM703 1562Q656 1562 625 1596T601 1680Q607 1730 646 1764T733 1798Q782
1798 813 1764T838 1680Q831 1631 792 1597T703 1562ZM1093 1562Q1045 1562 1015 1596T990 1680Q996 1730 1035 1764T1123 1798Q1172 1798 1202 1764T1227 1680Q1221 1631 1182 1597T1093 1562Z" />
<glyph unicode="&#xc5;" horiz-adv-x="1417" d="M64 0L765 1454H1008L1353 0H1093L851 1117L844 1185L819 1114L559 548L530 508L559 512H757Q811 512 844 484T895 414T922 330H461L310 0H64ZM882 1416Q791 1416 738 1468T694 1597Q705 1679 771 1733T930 1787Q1023
1787 1074 1735T1114 1599Q1104 1519 1037 1468T882 1416ZM894 1514Q934 1514 959 1539T989 1601Q994 1640 975 1665T916 1690Q880 1690 855 1665T824 1598Q820 1567 838 1541T894 1514Z" />
<glyph unicode="&#xc6;" horiz-adv-x="1950" d="M16 0L936 1454H1866L1843 1272H1227L1258 182H1850L1829 0H1033L997 1145L1002 1221L964 1147L597 548L561 508L602 512H783Q837 512 870 484T921 414T949 330H467L266 0H16ZM1315 674Q1334 718 1364 759T1437
826T1541 852H1812L1790 674H1315Z" />
<glyph unicode="&#xc7;" horiz-adv-x="1243" d="M865 -24Q634 -24 477 72T248 338T203 726Q223 887 293 1024T475 1264T733 1423T1049 1480Q1133 1480 1219 1464T1394 1412L1310 1249Q1226 1276 1162 1286T1028 1297Q915 1297 819 1254T650 1135T530 954T468 726Q454
611 475 508T550 327T690 203T888 158Q957 158 1029 175T1184 230L1230 68Q1134 21 1042 -1T865 -24ZM650 -421Q616 -421 579 -412T496 -381L541 -281Q577 -294 606 -299T665 -305Q700 -305 729 -292T762 -252Q765 -219 729 -202T622 -177L688 -5L810 5L774 -91Q832
-102 878 -142T916 -246Q909 -306 868 -344T768 -402T650 -421Z" />
<glyph unicode="&#xc8;" horiz-adv-x="1168" d="M171 0L349 1454H1204L1181 1272H575L440 182H1078L1057 0H171ZM577 674Q596 715 625 756T694 825T789 852H1062L1039 674H577ZM918 1531Q883 1522 835 1524T743 1545T675 1604L565 1780H801L918 1531Z" />
<glyph unicode="&#xc9;" horiz-adv-x="1168" d="M171 0L349 1454H1204L1181 1272H575L440 182H1078L1057 0H171ZM577 674Q596 715 625 756T694 825T789 852H1062L1039 674H577ZM671 1531L877 1780H1115L937 1604Q897 1565 848 1547T751 1525T671 1531Z" />
<glyph unicode="&#xca;" horiz-adv-x="1168" d="M171 0L349 1454H1204L1181 1272H575L440 182H1078L1057 0H171ZM577 674Q596 715 625 756T694 825T789 852H1062L1039 674H577ZM632 1516L500 1545L742 1780H912L1101 1545L957 1517L807 1631L632 1516Z" />
<glyph unicode="&#xcb;" horiz-adv-x="1168" d="M171 0L349 1454H1204L1181 1272H575L440 182H1078L1057 0H171ZM577 674Q596 715 625 756T694 825T789 852H1062L1039 674H577ZM596 1562Q549 1562 518 1596T494 1680Q500 1730 539 1764T626 1798Q675 1798 706
1764T731 1680Q724 1631 685 1597T596 1562ZM986 1562Q938 1562 908 1596T883 1680Q889 1730 928 1764T1016 1798Q1065 1798 1095 1764T1120 1680Q1114 1631 1075 1597T986 1562Z" />
<glyph unicode="&#xcc;" horiz-adv-x="584" d="M171 0L349 1454H590L412 0H171ZM609 1531Q574 1522 526 1524T434 1545T366 1604L256 1780H492L609 1531Z" />
<glyph unicode="&#xcd;" horiz-adv-x="584" d="M171 0L349 1454H590L412 0H171ZM362 1531L568 1780H806L628 1604Q588 1565 539 1547T442 1525T362 1531Z" />
<glyph unicode="&#xce;" horiz-adv-x="584" d="M171 0L349 1454H590L412 0H171ZM579 1516L447 1545L689 1780H859L1048 1545L904 1517L754 1631L579 1516Z" />
<glyph unicode="&#xcf;" horiz-adv-x="584" d="M171 0L349 1454H590L412 0H171ZM287 1562Q240 1562 209 1596T185 1680Q191 1730 230 1764T317 1798Q366 1798 397 1764T422 1680Q415 1631 376 1597T287 1562ZM677 1562Q629 1562 599 1596T574 1680Q580 1730 619
1764T707 1798Q756 1798 786 1764T811 1680Q805 1631 766 1597T677 1562Z" />
<glyph unicode="&#xd0;" horiz-adv-x="1468" d="M741 -24Q682 -24 631 -18T495 10Q516 45 547 80T618 138T710 160Q724 158 732 158T751 158Q857 159 944 207T1098 336T1205 518T1259 730Q1280 901 1237 1028T1078 1226T768 1297Q720 1297 671 1293T574 1282L417
0H171L345 1430Q467 1456 584 1468T789 1480Q1051 1480 1224 1391T1475 1134T1523 730Q1504 570 1435 433T1258 193T1019 33T741 -24ZM1195 792L1175 630H344L363 792H1195Z" />
<glyph unicode="&#xd1;" horiz-adv-x="1534" d="M196 0L374 1454H617L1139 418L1156 343L1162 420L1288 1454H1508L1330 0H1110L565 1074L543 1144L539 1076L408 0H196ZM793 1554L660 1566Q677 1679 741 1736T879 1794Q924 1794 957 1777T1017 1735Q1038 1716
1056 1701T1102 1686Q1128 1686 1147 1713T1176 1786L1305 1774Q1291 1690 1256 1640T1177 1568T1096 1546Q1045 1546 1012 1563T955 1604Q934 1626 919 1640T876 1654Q854 1654 830 1632T793 1554Z" />
<glyph unicode="&#xd2;" horiz-adv-x="1580" d="M788 -28Q574 -28 428 68T215 334T176 728Q197 898 267 1037T446 1276T688 1430T974 1484Q1157 1484 1282 1420T1479 1248T1576 1004T1584 728Q1565 571 1499 434T1327 193T1085 31T788 -28ZM810 154Q932 154 1040
225T1224 425T1320 728Q1340 897 1301 1026T1172 1228T951 1301Q817 1301 709 1226T531 1021T441 728Q427 612 444 509T509 326T632 200T810 154ZM1109 1531Q1074 1522 1026 1524T934 1545T866 1604L756 1780H992L1109 1531Z" />
<glyph unicode="&#xd3;" horiz-adv-x="1580" d="M788 -28Q574 -28 428 68T215 334T176 728Q197 898 267 1037T446 1276T688 1430T974 1484Q1157 1484 1282 1420T1479 1248T1576 1004T1584 728Q1565 571 1499 434T1327 193T1085 31T788 -28ZM810 154Q932 154 1040
225T1224 425T1320 728Q1340 897 1301 1026T1172 1228T951 1301Q817 1301 709 1226T531 1021T441 728Q427 612 444 509T509 326T632 200T810 154ZM862 1531L1068 1780H1306L1128 1604Q1088 1565 1039 1547T942 1525T862 1531Z" />
<glyph unicode="&#xd4;" horiz-adv-x="1580" d="M788 -28Q574 -28 428 68T215 334T176 728Q197 898 267 1037T446 1276T688 1430T974 1484Q1157 1484 1282 1420T1479 1248T1576 1004T1584 728Q1565 571 1499 434T1327 193T1085 31T788 -28ZM810 154Q932 154 1040
225T1224 425T1320 728Q1340 897 1301 1026T1172 1228T951 1301Q817 1301 709 1226T531 1021T441 728Q427 612 444 509T509 326T632 200T810 154ZM823 1516L691 1545L933 1780H1103L1292 1545L1148 1517L998 1631L823 1516Z" />
<glyph unicode="&#xd5;" horiz-adv-x="1580" d="M788 -28Q574 -28 428 68T215 334T176 728Q197 898 267 1037T446 1276T688 1430T974 1484Q1157 1484 1282 1420T1479 1248T1576 1004T1584 728Q1565 571 1499 434T1327 193T1085 31T788 -28ZM810 154Q932 154 1040
225T1224 425T1320 728Q1340 897 1301 1026T1172 1228T951 1301Q817 1301 709 1226T531 1021T441 728Q427 612 444 509T509 326T632 200T810 154ZM810 1554L677 1566Q694 1679 758 1736T896 1794Q941 1794 974 1777T1034 1735Q1055 1716 1073 1701T1119 1686Q1145
1686 1164 1713T1193 1786L1322 1774Q1308 1690 1273 1640T1194 1568T1113 1546Q1062 1546 1029 1563T972 1604Q951 1626 936 1640T893 1654Q871 1654 847 1632T810 1554Z" />
<glyph unicode="&#xd6;" horiz-adv-x="1580" d="M788 -28Q574 -28 428 68T215 334T176 728Q197 898 267 1037T446 1276T688 1430T974 1484Q1157 1484 1282 1420T1479 1248T1576 1004T1584 728Q1565 571 1499 434T1327 193T1085 31T788 -28ZM810 154Q932 154 1040
225T1224 425T1320 728Q1340 897 1301 1026T1172 1228T951 1301Q817 1301 709 1226T531 1021T441 728Q427 612 444 509T509 326T632 200T810 154ZM787 1562Q740 1562 709 1596T685 1680Q691 1730 730 1764T817 1798Q866 1798 897 1764T922 1680Q915 1631 876 1597T787
1562ZM1177 1562Q1129 1562 1099 1596T1074 1680Q1080 1730 1119 1764T1207 1798Q1256 1798 1286 1764T1311 1680Q1305 1631 1266 1597T1177 1562Z" />
<glyph unicode="&#xd7;" horiz-adv-x="1136" d="M232 140L122 266L507 612L205 954L351 1080L652 739L1034 1080L1144 954L763 612L1065 266L921 140L620 483L232 140Z" />
<glyph unicode="&#xd8;" horiz-adv-x="1580" d="M788 -28Q574 -28 428 68T215 334T176 728Q197 898 267 1037T446 1276T688 1430T974 1484Q1157 1484 1282 1420T1479 1248T1576 1004T1584 728Q1565 571 1499 434T1327 193T1085 31T788 -28ZM810 154Q932 154 1040
225T1224 425T1320 728Q1340 897 1301 1026T1172 1228T951 1301Q817 1301 709 1226T531 1021T441 728Q427 612 444 509T509 326T632 200T810 154ZM655 278Q632 312 615 354T599 445T634 544L1374 1576H1581L655 278ZM180 -122L372 148L512 56L387 -122H180Z" />
<glyph unicode="&#xd9;" horiz-adv-x="1429" d="M723 -28Q548 -28 430 40T259 238T229 548L340 1454H586L470 518Q449 349 526 252T745 154Q885 154 986 251T1109 518L1224 1454H1469L1357 548Q1336 374 1251 245T1030 44T723 -28ZM1044 1531Q1009 1522 961 1524T869
1545T801 1604L691 1780H927L1044 1531Z" />
<glyph unicode="&#xda;" horiz-adv-x="1429" d="M723 -28Q548 -28 430 40T259 238T229 548L340 1454H586L470 518Q449 349 526 252T745 154Q885 154 986 251T1109 518L1224 1454H1469L1357 548Q1336 374 1251 245T1030 44T723 -28ZM797 1531L1003 1780H1241L1063
1604Q1023 1565 974 1547T877 1525T797 1531Z" />
<glyph unicode="&#xdb;" horiz-adv-x="1429" d="M723 -28Q548 -28 430 40T259 238T229 548L340 1454H586L470 518Q449 349 526 252T745 154Q885 154 986 251T1109 518L1224 1454H1469L1357 548Q1336 374 1251 245T1030 44T723 -28ZM758 1516L626 1545L868 1780H1038L1227
1545L1083 1517L933 1631L758 1516Z" />
<glyph unicode="&#xdc;" horiz-adv-x="1429" d="M723 -28Q548 -28 430 40T259 238T229 548L340 1454H586L470 518Q449 349 526 252T745 154Q885 154 986 251T1109 518L1224 1454H1469L1357 548Q1336 374 1251 245T1030 44T723 -28ZM722 1562Q675 1562 644 1596T620
1680Q626 1730 665 1764T752 1798Q801 1798 832 1764T857 1680Q850 1631 811 1597T722 1562ZM1112 1562Q1064 1562 1034 1596T1009 1680Q1015 1730 1054 1764T1142 1798Q1191 1798 1221 1764T1246 1680Q1240 1631 1201 1597T1112 1562Z" />
<glyph unicode="&#xdd;" horiz-adv-x="1368" d="M553 0L629 634L230 1454H505L876 676L794 0H553ZM944 753Q923 786 904 839T886 953T926 1072L1186 1454H1456L944 753ZM733 1531L939 1780H1177L999 1604Q959 1565 910 1547T813 1525T733 1531Z" />
<glyph unicode="&#xde;" horiz-adv-x="1218" d="M158 0L336 1454H574L539 1175Q587 1179 632 1181T729 1183Q890 1183 1008 1127T1185 967T1227 727Q1211 593 1133 497T941 346T707 280Q662 276 612 279T508 297Q528 334 556 369T620 429T701 456Q762 459 820
495T919 591T969 727Q978 805 948 867T855 964T706 1000Q651 1000 612 997T516 988L396 0H158Z" />
<glyph unicode="&#xdf;" horiz-adv-x="1134" d="M784 -24Q724 -24 659 -11T504 50L584 208Q645 180 695 170T780 159Q837 159 879 193T928 282Q935 338 905 379T828 457T734 538T660 646T644 802Q655 889 725 967T907 1088Q916 1111 920 1132T928 1176Q937 1253
890 1302T766 1351Q708 1351 656 1324T567 1244T520 1110L384 0L153 -1L286 1089Q304 1231 372 1328T544 1476T769 1526Q893 1526 976 1481T1097 1356T1122 1176Q1115 1124 1091 1071T1022 958Q950 929 910 893T864 802Q856 745 886 705T964 628T1057 546T1131
437T1147 274Q1136 184 1082 117T948 13T784 -24Z" />
<glyph unicode="&#xe0;" horiz-adv-x="1189" d="M511 -15Q418 -23 346 16T227 129T161 296T154 492Q173 653 256 781T472 982T774 1056Q830 1056 886 1051T1007 1033T1157 995L1071 291Q1061 211 1060 140T1067 4L883 0Q857 16 836 72T823 204L903 856Q862 866
826 870T759 874Q617 874 526 771T412 492Q402 409 412 333T462 211T579 174Q632 179 667 150T734 69Q677 34 619 12T511 -15ZM888 1204Q853 1195 807 1197T716 1218T641 1279L502 1480H748L888 1204Z" />
<glyph unicode="&#xe1;" horiz-adv-x="1189" d="M511 -15Q418 -23 346 16T227 129T161 296T154 492Q173 653 256 781T472 982T774 1056Q830 1056 886 1051T1007 1033T1157 995L1071 291Q1061 211 1060 140T1067 4L883 0Q857 16 836 72T823 204L903 856Q862 866
826 870T759 874Q617 874 526 771T412 492Q402 409 412 333T462 211T579 174Q632 179 667 150T734 69Q677 34 619 12T511 -15ZM660 1204L868 1480H1114L925 1279Q886 1237 837 1219T740 1198T660 1204Z" />
<glyph unicode="&#xe2;" horiz-adv-x="1189" d="M511 -15Q418 -23 346 16T227 129T161 296T154 492Q173 653 256 781T472 982T774 1056Q830 1056 886 1051T1007 1033T1157 995L1071 291Q1061 211 1060 140T1067 4L883 0Q857 16 836 72T823 204L903 856Q862 866
826 870T759 874Q617 874 526 771T412 492Q402 409 412 333T462 211T579 174Q632 179 667 150T734 69Q677 34 619 12T511 -15ZM622 1173L490 1202L738 1486H908L1091 1202L947 1174L802 1328L622 1173Z" />
<glyph unicode="&#xe3;" horiz-adv-x="1189" d="M511 -15Q418 -23 346 16T227 129T161 296T154 492Q173 653 256 781T472 982T774 1056Q830 1056 886 1051T1007 1033T1157 995L1071 291Q1061 211 1060 140T1067 4L883 0Q857 16 836 72T823 204L903 856Q862 866
826 870T759 874Q617 874 526 771T412 492Q402 409 412 333T462 211T579 174Q632 179 667 150T734 69Q677 34 619 12T511 -15ZM600 1236L467 1248Q484 1361 548 1418T686 1476Q731 1476 764 1459T824 1417Q845 1398 863 1383T909 1368Q935 1368 954 1395T983 1468L1112
1456Q1098 1372 1063 1322T984 1250T903 1228Q852 1228 819 1245T762 1286Q741 1308 726 1322T683 1336Q661 1336 637 1314T600 1236Z" />
<glyph unicode="&#xe4;" horiz-adv-x="1189" d="M511 -15Q418 -23 346 16T227 129T161 296T154 492Q173 653 256 781T472 982T774 1056Q830 1056 886 1051T1007 1033T1157 995L1071 291Q1061 211 1060 140T1067 4L883 0Q857 16 836 72T823 204L903 856Q862 866
826 870T759 874Q617 874 526 771T412 492Q402 409 412 333T462 211T579 174Q632 179 667 150T734 69Q677 34 619 12T511 -15ZM580 1222Q533 1222 502 1256T478 1340Q484 1390 523 1424T610 1458Q659 1458 690 1424T715 1340Q708 1291 669 1257T580 1222ZM970 1222Q922
1222 892 1256T867 1340Q873 1390 912 1424T1000 1458Q1049 1458 1079 1424T1104 1340Q1098 1291 1059 1257T970 1222Z" />
<glyph unicode="&#xe5;" horiz-adv-x="1189" d="M511 -15Q418 -23 346 16T227 129T161 296T154 492Q173 653 256 781T472 982T774 1056Q830 1056 886 1051T1007 1033T1157 995L1071 291Q1061 211 1060 140T1067 4L883 0Q857 16 836 72T823 204L903 856Q862 866
826 870T759 874Q617 874 526 771T412 492Q402 409 412 333T462 211T579 174Q632 179 667 150T734 69Q677 34 619 12T511 -15ZM765 1128Q674 1128 621 1180T577 1309Q588 1391 654 1445T813 1499Q906 1499 957 1447T997 1311Q987 1231 920 1180T765 1128ZM777 1226Q817
1226 842 1251T872 1313Q877 1352 858 1377T799 1402Q763 1402 738 1377T707 1310Q703 1279 721 1253T777 1226Z" />
<glyph unicode="&#xe6;" horiz-adv-x="1700" d="M415 -24Q257 -24 171 57T101 271Q112 361 171 432T357 551T694 618Q684 579 664 542T613 479T534 444Q468 434 428 411T368 358T344 292Q338 236 373 197T469 158Q582 158 658 258T755 528L768 630Q781 740 732
806T565 873Q514 873 458 863T326 826L286 982Q382 1024 471 1039T629 1055Q732 1055 815 999T935 839Q1002 937 1112 997T1331 1058Q1439 1058 1519 1014T1644 891T1688 707T1632 482H1064Q1094 546 1139 590T1244 634H1451Q1469 701 1454 758T1398 849T1293 883Q1227
883 1165 846T1057 731T997 536Q983 420 1010 335T1099 204T1247 158Q1316 158 1383 174T1542 232L1584 66Q1475 16 1379 -4T1198 -24Q1108 -24 1034 15T910 117T845 250Q798 158 727 98T574 7T415 -24Z" />
<glyph unicode="&#xe7;" horiz-adv-x="858" d="M578 -24Q441 -24 331 34T164 213T129 518Q151 696 238 816T451 997T711 1058Q765 1058 828 1048T949 1014L868 850Q819 863 773 869T688 876Q578 876 494 784T387 518Q373 401 396 322T473 200T601 158Q644 158
695 170T815 210L857 46Q773 9 701 -7T578 -24ZM418 -421Q384 -421 347 -412T264 -381L309 -281Q345 -294 374 -299T433 -305Q468 -305 497 -292T530 -252Q533 -219 497 -202T390 -177L456 -5L578 5L542 -91Q600 -102 646 -142T684 -246Q677 -306 636 -344T536
-402T418 -421Z" />
<glyph unicode="&#xe8;" horiz-adv-x="1113" d="M606 -24Q479 -24 389 22T245 146T170 323T162 531Q183 695 264 813T468 994T739 1058Q847 1058 927 1014T1051 891T1095 707T1039 482H472Q501 546 546 590T652 634H859Q876 701 861 758T805 849T701 883Q634 883
572 846T465 731T405 536Q391 420 418 335T506 204T655 158Q724 158 791 174T950 232L992 66Q882 16 786 -4T606 -24ZM845 1204Q810 1195 764 1197T673 1218T598 1279L459 1480H705L845 1204Z" />
<glyph unicode="&#xe9;" horiz-adv-x="1113" d="M606 -24Q479 -24 389 22T245 146T170 323T162 531Q183 695 264 813T468 994T739 1058Q847 1058 927 1014T1051 891T1095 707T1039 482H472Q501 546 546 590T652 634H859Q876 701 861 758T805 849T701 883Q634 883
572 846T465 731T405 536Q391 420 418 335T506 204T655 158Q724 158 791 174T950 232L992 66Q882 16 786 -4T606 -24ZM617 1204L825 1480H1071L882 1279Q843 1237 794 1219T697 1198T617 1204Z" />
<glyph unicode="&#xea;" horiz-adv-x="1113" d="M606 -24Q479 -24 389 22T245 146T170 323T162 531Q183 695 264 813T468 994T739 1058Q847 1058 927 1014T1051 891T1095 707T1039 482H472Q501 546 546 590T652 634H859Q876 701 861 758T805 849T701 883Q634 883
572 846T465 731T405 536Q391 420 418 335T506 204T655 158Q724 158 791 174T950 232L992 66Q882 16 786 -4T606 -24ZM579 1173L447 1202L695 1486H865L1048 1202L904 1174L759 1328L579 1173Z" />
<glyph unicode="&#xeb;" horiz-adv-x="1113" d="M606 -24Q479 -24 389 22T245 146T170 323T162 531Q183 695 264 813T468 994T739 1058Q847 1058 927 1014T1051 891T1095 707T1039 482H472Q501 546 546 590T652 634H859Q876 701 861 758T805 849T701 883Q634 883
572 846T465 731T405 536Q391 420 418 335T506 204T655 158Q724 158 791 174T950 232L992 66Q882 16 786 -4T606 -24ZM537 1222Q490 1222 459 1256T435 1340Q441 1390 480 1424T567 1458Q616 1458 647 1424T672 1340Q665 1291 626 1257T537 1222ZM927 1222Q879
1222 849 1256T824 1340Q830 1390 869 1424T957 1458Q1006 1458 1036 1424T1061 1340Q1055 1291 1016 1257T927 1222Z" />
<glyph unicode="&#xec;" horiz-adv-x="541" d="M148 0L274 1034H520L394 0H148ZM788 1204Q753 1195 707 1197T616 1218T541 1279L402 1480H648L788 1204Z" />
<glyph unicode="&#xed;" horiz-adv-x="541" d="M148 0L274 1034H520L394 0H148ZM304 1204L512 1480H758L569 1279Q530 1237 481 1219T384 1198T304 1204Z" />
<glyph unicode="&#xee;" horiz-adv-x="541" d="M148 0L274 1034H520L394 0H148ZM521 1173L389 1202L637 1486H807L990 1202L846 1174L701 1328L521 1173Z" />
<glyph unicode="&#xef;" horiz-adv-x="541" d="M148 0L274 1034H520L394 0H148ZM479 1222Q432 1222 401 1256T377 1340Q383 1390 422 1424T509 1458Q558 1458 589 1424T614 1340Q607 1291 568 1257T479 1222ZM869 1222Q821 1222 791 1256T766 1340Q772 1390 811
1424T899 1458Q948 1458 978 1424T1003 1340Q997 1291 958 1257T869 1222Z" />
<glyph unicode="&#xf0;" horiz-adv-x="1114" d="M559 -24Q415 -24 307 41T144 227T110 518Q130 679 215 800T425 990T691 1058Q738 1058 779 1045T861 1004Q826 1063 786 1113T686 1210L435 1097L400 1202L583 1286Q543 1314 502 1338T417 1384L511 1522Q580 1491
646 1453T771 1369L1005 1476L1044 1369L867 1290Q926 1234 981 1155T1078 977T1138 763T1140 518Q1121 356 1036 235T826 45T559 -24ZM581 157Q658 157 721 201T826 327T881 518Q895 627 873 708T799 833T670 877Q592 877 529 833T424 708T368 518Q355 408 377
327T451 202T581 157Z" />
<glyph unicode="&#xf1;" horiz-adv-x="1170" d="M781 0L871 741Q878 798 858 835T783 872Q762 872 743 867T696 858Q643 852 608 883T544 960Q653 1017 729 1037T869 1058Q942 1058 1003 1025T1096 921T1115 736L1025 0H781ZM131 0L225 772Q231 828 231 891T223
1024L424 1034Q466 980 474 927T475 814L377 0H131ZM552 1236L419 1248Q436 1361 500 1418T638 1476Q683 1476 716 1459T776 1417Q797 1398 815 1383T861 1368Q887 1368 906 1395T935 1468L1064 1456Q1050 1372 1015 1322T936 1250T855 1228Q804 1228 771 1245T714
1286Q693 1308 678 1322T635 1336Q613 1336 589 1314T552 1236Z" />
<glyph unicode="&#xf2;" horiz-adv-x="1186" d="M584 -24Q445 -24 336 39T171 223T135 518Q152 657 211 759T355 927T535 1025T717 1058Q874 1058 981 988T1136 796T1165 518Q1149 390 1094 289T957 119T779 13T584 -24ZM605 157Q691 157 754 206T855 337T906
518Q919 627 898 708T824 833T694 877Q617 877 554 833T449 708T393 518Q374 359 430 258T605 157ZM849 1204Q814 1195 768 1197T677 1218T602 1279L463 1480H709L849 1204Z" />
<glyph unicode="&#xf3;" horiz-adv-x="1186" d="M584 -24Q445 -24 336 39T171 223T135 518Q152 657 211 759T355 927T535 1025T717 1058Q874 1058 981 988T1136 796T1165 518Q1149 390 1094 289T957 119T779 13T584 -24ZM605 157Q691 157 754 206T855 337T906
518Q919 627 898 708T824 833T694 877Q617 877 554 833T449 708T393 518Q374 359 430 258T605 157ZM621 1204L829 1480H1075L886 1279Q847 1237 798 1219T701 1198T621 1204Z" />
<glyph unicode="&#xf4;" horiz-adv-x="1186" d="M584 -24Q445 -24 336 39T171 223T135 518Q152 657 211 759T355 927T535 1025T717 1058Q874 1058 981 988T1136 796T1165 518Q1149 390 1094 289T957 119T779 13T584 -24ZM605 157Q691 157 754 206T855 337T906
518Q919 627 898 708T824 833T694 877Q617 877 554 833T449 708T393 518Q374 359 430 258T605 157ZM582 1173L450 1202L698 1486H868L1051 1202L907 1174L762 1328L582 1173Z" />
<glyph unicode="&#xf5;" horiz-adv-x="1186" d="M584 -24Q445 -24 336 39T171 223T135 518Q152 657 211 759T355 927T535 1025T717 1058Q874 1058 981 988T1136 796T1165 518Q1149 390 1094 289T957 119T779 13T584 -24ZM605 157Q691 157 754 206T855 337T906
518Q919 627 898 708T824 833T694 877Q617 877 554 833T449 708T393 518Q374 359 430 258T605 157ZM561 1236L428 1248Q445 1361 509 1418T647 1476Q692 1476 725 1459T785 1417Q806 1398 824 1383T870 1368Q896 1368 915 1395T944 1468L1073 1456Q1059 1372 1024
1322T945 1250T864 1228Q813 1228 780 1245T723 1286Q702 1308 687 1322T644 1336Q622 1336 598 1314T561 1236Z" />
<glyph unicode="&#xf6;" horiz-adv-x="1186" d="M584 -24Q445 -24 336 39T171 223T135 518Q152 657 211 759T355 927T535 1025T717 1058Q874 1058 981 988T1136 796T1165 518Q1149 390 1094 289T957 119T779 13T584 -24ZM605 157Q691 157 754 206T855 337T906
518Q919 627 898 708T824 833T694 877Q617 877 554 833T449 708T393 518Q374 359 430 258T605 157ZM540 1222Q493 1222 462 1256T438 1340Q444 1390 483 1424T570 1458Q619 1458 650 1424T675 1340Q668 1291 629 1257T540 1222ZM930 1222Q882 1222 852 1256T827
1340Q833 1390 872 1424T960 1458Q1009 1458 1039 1424T1064 1340Q1058 1291 1019 1257T930 1222Z" />
<glyph unicode="&#xf7;" horiz-adv-x="1136" d="M158 526L178 694H1114L1094 526H158ZM573 110Q523 110 495 142T472 224Q480 276 515 309T601 342Q653 342 682 309T704 224Q698 174 662 142T573 110ZM667 876Q618 876 590 907T568 988Q575 1039 611 1071T695
1104Q746 1104 775 1072T796 988Q791 939 754 908T667 876Z" />
<glyph unicode="&#xf8;" horiz-adv-x="1186" d="M584 -24Q445 -24 336 39T171 223T135 518Q152 657 211 759T355 927T535 1025T717 1058Q874 1058 981 988T1136 796T1165 518Q1149 390 1094 289T957 119T779 13T584 -24ZM605 157Q691 157 754 206T855 337T906
518Q919 627 898 708T824 833T694 877Q617 877 554 833T449 708T393 518Q374 359 430 258T605 157ZM548 251Q518 290 506 351T532 475L1024 1156H1196L548 251ZM101 -122L277 125L400 48L280 -122H101Z" />
<glyph unicode="&#xf9;" horiz-adv-x="1206" d="M414 -24Q342 -24 282 9T189 113T172 298L262 1034H505L414 293Q407 236 426 199T502 162Q523 162 542 167T588 176Q640 183 676 152T741 74Q632 17 555 -3T414 -24ZM860 0Q819 54 810 107T808 220L908 1034H1152L1058
262Q1051 207 1051 144T1060 10L860 0ZM852 1204Q817 1195 771 1197T680 1218T605 1279L466 1480H712L852 1204Z" />
<glyph unicode="&#xfa;" horiz-adv-x="1206" d="M414 -24Q342 -24 282 9T189 113T172 298L262 1034H505L414 293Q407 236 426 199T502 162Q523 162 542 167T588 176Q640 183 676 152T741 74Q632 17 555 -3T414 -24ZM860 0Q819 54 810 107T808 220L908 1034H1152L1058
262Q1051 207 1051 144T1060 10L860 0ZM624 1204L832 1480H1078L889 1279Q850 1237 801 1219T704 1198T624 1204Z" />
<glyph unicode="&#xfb;" horiz-adv-x="1206" d="M414 -24Q342 -24 282 9T189 113T172 298L262 1034H505L414 293Q407 236 426 199T502 162Q523 162 542 167T588 176Q640 183 676 152T741 74Q632 17 555 -3T414 -24ZM860 0Q819 54 810 107T808 220L908 1034H1152L1058
262Q1051 207 1051 144T1060 10L860 0ZM586 1173L454 1202L702 1486H872L1055 1202L911 1174L766 1328L586 1173Z" />
<glyph unicode="&#xfc;" horiz-adv-x="1206" d="M414 -24Q342 -24 282 9T189 113T172 298L262 1034H505L414 293Q407 236 426 199T502 162Q523 162 542 167T588 176Q640 183 676 152T741 74Q632 17 555 -3T414 -24ZM860 0Q819 54 810 107T808 220L908 1034H1152L1058
262Q1051 207 1051 144T1060 10L860 0ZM543 1222Q496 1222 465 1256T441 1340Q447 1390 486 1424T573 1458Q622 1458 653 1424T678 1340Q671 1291 632 1257T543 1222ZM933 1222Q885 1222 855 1256T830 1340Q836 1390 875 1424T963 1458Q1012 1458 1042 1424T1067
1340Q1061 1291 1022 1257T933 1222Z" />
<glyph unicode="&#xfd;" horiz-adv-x="1145" d="M187 -494Q147 -492 103 -485T13 -460L91 -298Q125 -307 153 -310T210 -314Q283 -314 334 -267T430 -132T531 74L950 1034L1193 1020L711 22Q650 -98 597 -193T488 -356T359 -458T187 -494ZM406 24L157 1034H417L519
483Q535 405 522 317T476 150T406 24ZM592 1204L800 1480H1046L857 1279Q818 1237 769 1219T672 1198T592 1204Z" />
<glyph unicode="&#xfe;" horiz-adv-x="1196" d="M100 -482L346 1516H577L413 181Q459 166 502 161T587 156Q714 156 801 264T909 542Q919 632 905 708T847 829T728 870Q670 867 639 905T583 999Q642 1024 703 1037T813 1050Q903 1050 974 1011T1093 902T1161 740T1168
542Q1147 380 1065 252T855 49T565 -26Q518 -26 477 -21T390 -4L331 -482H100Z" />
<glyph unicode="&#xff;" horiz-adv-x="1145" d="M187 -494Q147 -492 103 -485T13 -460L91 -298Q125 -307 153 -310T210 -314Q283 -314 334 -267T430 -132T531 74L950 1034L1193 1020L711 22Q650 -98 597 -193T488 -356T359 -458T187 -494ZM406 24L157 1034H417L519
483Q535 405 522 317T476 150T406 24ZM512 1222Q465 1222 434 1256T410 1340Q416 1390 455 1424T542 1458Q591 1458 622 1424T647 1340Q640 1291 601 1257T512 1222ZM902 1222Q854 1222 824 1256T799 1340Q805 1390 844 1424T932 1458Q981 1458 1011 1424T1036
1340Q1030 1291 991 1257T902 1222Z" />
<glyph unicode="&#x2013;" horiz-adv-x="1080" d="M146 465L166 635H1014L994 465H146Z" />
<glyph unicode="&#x2014;" horiz-adv-x="1698" d="M146 465L166 635H1644L1624 465H146Z" />
<glyph unicode="&#x2018;" horiz-adv-x="410" d="M477 1454L423 1025H206L226 1181Q233 1239 251 1293T300 1389T374 1449T477 1454Z" />
<glyph unicode="&#x2019;" horiz-adv-x="407" d="M220 1025L274 1454H491L471 1298Q464 1240 446 1186T397 1090T323 1031T220 1025Z" />
<glyph unicode="&#x201a;" horiz-adv-x="394" d="M82 -233L136 196H353L333 40Q326 -18 308 -72T259 -168T185 -227T82 -233Z" />
<glyph unicode="&#x201c;" horiz-adv-x="773" d="M478 1454L424 1025H207L227 1181Q234 1239 252 1293T301 1389T375 1449T478 1454ZM863 1454L809 1025H592L612 1181Q619 1239 637 1293T686 1389T760 1449T863 1454Z" />
<glyph unicode="&#x201d;" horiz-adv-x="797" d="M206 1025L260 1454H477L457 1298Q450 1240 432 1186T383 1090T309 1031T206 1025ZM591 1025L645 1454H862L842 1298Q835 1240 817 1186T768 1090T694 1031T591 1025Z" />
<glyph unicode="&#x201e;" horiz-adv-x="763" d="M310 -233L364 196H581L561 40Q554 -18 536 -72T487 -168T413 -227T310 -233ZM438 -233L492 196H709L689 40Q682 -18 664 -72T615 -168T541 -227T438 -233Z" />
<glyph unicode="&#x2022;" horiz-adv-x="1000" d="M570 459Q495 459 453 507T419 630Q429 705 483 755T612 805Q687 805 731 755T765 630Q757 556 701 508T570 459Z" />
<glyph unicode="&#x2039;" horiz-adv-x="1226" d="M829 94L428 516L933 939L1022 840L716 516L943 192L829 94Z" />
<glyph unicode="&#x203a;" horiz-adv-x="1226" d="M496 94L407 192L712 516L486 840L600 939L1001 516L496 94Z" />
</font>
</defs>
</svg>
