<?xml version="1.0" standalone="no"?>
<!DOCTYPE svg PUBLIC "-//W3C//DTD SVG 1.1//EN" "http://www.w3.org/Graphics/SVG/1.1/DTD/svg11.dtd">
<svg xmlns="http://www.w3.org/2000/svg">
<defs >
<font id="Hind" horiz-adv-x="523" ><font-face
    font-family="Hind"
    units-per-em="1000"
    panose-1="2 0 0 0 0 0 0 0 0 0"
    ascent="1055"
    descent="-546"
    alphabetic="0" />
<glyph unicode=" " glyph-name="space" horiz-adv-x="244" />
<glyph unicode="!" glyph-name="exclam" horiz-adv-x="251" d="M87 204V674H164V204H87ZM65 51Q65 75 82 92T124 110T166 93T184 51Q184 26 167 9T124 -8T82 9T65 51Z" />
<glyph unicode="&quot;" glyph-name="quotedbl" horiz-adv-x="295" d="M44 444V681H115V444H44ZM181 444V681H251V444H181Z" />
<glyph unicode="#" glyph-name="numbersign" horiz-adv-x="710" d="M425 233L469 439H290L246 233H425ZM657 439H541L498 233H605V170H485L449 0H376L412 170H233L197 0H126L162 170H53V233H175L218 439H107V503H232L268 674H340L304 503H483L519 674H590L554
503H657V439Z" />
<glyph unicode="$" glyph-name="dollar" horiz-adv-x="505" d="M417 649V564Q356 604 272 604Q211 604 175 576T139 501Q139 476 148 458T183 422T223 398T277 373Q284 370 288 368Q326 351 350 338T401 302T441 249T454 179Q454 97 402 49T264 -6V-109H195V-5Q113
3 56 36V123Q129 68 234 68Q297 68 333 96T370 177Q370 201 361 219T326 255T286 279T230 304Q218 309 212 312Q176 328 153 341T104 377T66 429T53 497Q53 577 107 625T246 679V783H315V677Q374 670 417 649Z" />
<glyph unicode="%" glyph-name="percent" horiz-adv-x="847" d="M206 -1L563 665H640L281 -1H206ZM482 151Q482 217 528 263T640 310Q705 310 751 263T798 151T752 40T640 -7Q574 -7 528 39T482 151ZM49 515Q49 580 95 626T207 673T319 627T366 515Q366 449 319
403T207 356T96 402T49 515ZM118 552T118 515T144 452T207 425T270 451T297 515T271 578T207 604T144 578ZM550 188T550 151T576 88T640 62T703 88T730 151T704 214T640 241Q603 241 577 215Z" />
<glyph unicode="&amp;" glyph-name="ampersand" horiz-adv-x="703" d="M315 65Q409 65 471 115Q436 148 389 191T313 262T273 299Q209 275 178 246T147 177Q147 126 194 96T315 65ZM318 618Q273 618 244 593T214 522Q214 490 232 459T299 378Q366 409 396 441T427
516Q427 559 399 588T318 618ZM701 0H594L526 63Q445 -8 317 -8Q204 -8 135 43T65 176Q65 289 223 349Q176 400 154 439T132 523Q132 598 183 644T319 690T456 641T508 517Q508 460 472 414T349 328L518 170Q542 214 546 268H622Q616 182 574 118L701 0Z" />
<glyph unicode="&apos;" glyph-name="quotesingle" horiz-adv-x="159" d="M44 444V681H115V444H44Z" />
<glyph unicode="(" glyph-name="parenleft" horiz-adv-x="310" d="M320 -196H232Q72 8 72 261Q72 383 113 499T225 707H312Q155 495 155 257Q155 17 320 -196Z" />
<glyph unicode=")" glyph-name="parenright" horiz-adv-x="310" d="M86 707Q157 615 198 499T239 261Q239 9 78 -196H-10Q155 17 155 257T-2 707H86Z" />
<glyph unicode="*" glyph-name="asterisk" horiz-adv-x="408" d="M250 488H243Q262 478 275 458L331 380L280 342L223 420Q209 440 204 459Q199 439 185 419L128 342L76 379L133 458Q149 479 164 487H156Q137 487 120 493L29 523L48 585L141 555Q162 548 180 532Q171
552 171 578V674H235V578Q235 552 227 534Q242 549 266 556L358 585L378 524L286 494Q270 488 250 488Z" />
<glyph unicode="+" glyph-name="plus" horiz-adv-x="553" d="M497 376V304H310V115H236V304H57V376H236V565H310V376H497Z" />
<glyph unicode="," glyph-name="comma" horiz-adv-x="225" d="M-8 -123L85 101H190L61 -123H-8Z" />
<glyph unicode="-" glyph-name="hyphen" horiz-adv-x="348" d="M57 234V303H291V234H57Z" />
<glyph unicode="." glyph-name="period" horiz-adv-x="166" d="M24 26T24 51T41 93T83 110T125 93T142 51T125 9T83 -8T41 9Z" />
<glyph unicode="/" glyph-name="slash" horiz-adv-x="403" d="M-9 -102L355 707H436L71 -102H-9Z" />
<glyph unicode="0" glyph-name="zero" horiz-adv-x="544" d="M43 329Q43 483 105 572T270 662Q376 662 438 573T501 329Q501 176 441 84T270 -8Q167 -8 105 84T43 329ZM124 452T124 329T166 137T270 67Q339 67 379 135T420 329Q420 454 378 520T270 587Q210 587 167 520Z" />
<glyph unicode="1" glyph-name="one" horiz-adv-x="323" d="M18 475V560L173 654H247V0H169V568L18 475Z" />
<glyph unicode="2" glyph-name="two" horiz-adv-x="494" d="M147 69H451V0H38V67Q348 301 348 457Q348 519 312 552T215 586Q136 586 59 527V606Q130 661 222 661Q310 661 370 610T430 465Q430 288 147 69Z" />
<glyph unicode="3" glyph-name="three" horiz-adv-x="466" d="M58 547V624Q116 661 192 661Q289 661 342 612T396 489Q396 436 370 394T291 331Q348 318 381 279T415 180Q415 100 359 47T201 -6Q107 -6 38 27V106Q112 67 199 67Q263 67 298 100T334 186T295 267T181
296H139V365H181Q237 365 275 396T314 481T281 561T190 588Q121 588 58 547Z" />
<glyph unicode="4" glyph-name="four" horiz-adv-x="540" d="M122 228H341V607L122 228ZM516 228V159H419V0H341V159H42V228L291 654H419V228H516Z" />
<glyph unicode="5" glyph-name="five" horiz-adv-x="509" d="M169 585V389Q214 399 247 399Q347 399 405 346T464 204Q464 107 401 50T227 -8Q128 -8 59 26V104Q123 66 214 66Q382 66 382 207Q382 264 343 295T242 327Q169 327 91 292V654H419V585H169Z" />
<glyph unicode="6" glyph-name="six" horiz-adv-x="526" d="M284 62Q341 62 374 104T408 214Q408 276 375 313T287 350Q197 350 131 277Q135 171 176 117T284 62ZM444 658V581Q401 600 353 600Q259 600 203 530T134 352Q200 421 297 421Q387 421 438 364T490 213Q490
113 434 51T284 -11Q172 -11 112 74T52 296Q52 459 132 566T352 673Q397 673 444 658Z" />
<glyph unicode="7" glyph-name="seven" horiz-adv-x="451" d="M12 654H439V585L168 0H84L355 585H12V654Z" />
<glyph unicode="8" glyph-name="eight" horiz-adv-x="536" d="M265 62Q332 62 368 95T404 177Q404 225 369 258T265 290Q198 289 165 255T131 169Q131 123 166 93T265 62ZM264 591Q208 591 175 558T142 478Q142 421 177 392T268 363Q321 363 355 393T389 479Q389
527 357 559T264 591ZM364 328Q485 291 485 170Q485 89 422 41T264 -8Q173 -8 112 39T51 165Q51 224 82 265T169 326Q62 367 62 477Q62 564 122 612T264 661Q349 661 409 614T469 476Q469 425 441 387T364 328Z" />
<glyph unicode="9" glyph-name="nine" horiz-adv-x="504" d="M384 368V373Q384 468 351 528T243 589Q186 589 152 551T118 447Q118 378 154 341T252 304Q334 304 384 368ZM64 11V89Q116 66 174 66Q355 66 380 293Q330 234 232 234Q152 234 94 292T36 447Q36 540
91 601T241 662Q351 662 406 580T462 373Q462 195 391 94T177 -8Q119 -8 64 11Z" />
<glyph unicode=":" glyph-name="colon" horiz-adv-x="235" d="M59 380Q59 404 75 421T117 438T159 421T176 380Q176 355 159 339T117 322T76 338T59 380ZM59 32T59 57T75 99T117 116T159 99T176 57T159 16T117 -1T76 15Z" />
<glyph unicode=";" glyph-name="semicolon" horiz-adv-x="225" d="M70 379Q70 403 86 420T128 437T170 420T187 379Q187 354 170 338T128 321T87 337T70 379ZM-8 -123L85 101H190L61 -123H-8Z" />
<glyph unicode="&lt;" glyph-name="less" horiz-adv-x="527" d="M57 303V379L478 567V486Q214 377 140 342Q174 325 258 289T410 224L478 196V114L57 303Z" />
<glyph unicode="=" glyph-name="equal" horiz-adv-x="553" d="M57 407V475H497V407H57ZM57 205V274H497V205H57Z" />
<glyph unicode="&gt;" glyph-name="greater" horiz-adv-x="527" d="M470 379V303L49 114V196Q311 304 386 342Q353 358 269 394T117 458L49 486V567L470 379Z" />
<glyph unicode="?" glyph-name="question" horiz-adv-x="452" d="M45 561V641Q110 682 205 682T357 634T414 499Q414 414 355 367T218 313L217 204H141L140 370Q232 370 282 401T332 496Q332 547 299 579T201 611Q124 611 45 561ZM119 51Q119 75 136 92T177 110Q202
110 220 93T238 51Q238 26 221 9T177 -8Q152 -8 136 9T119 51Z" />
<glyph unicode="@" glyph-name="at" horiz-adv-x="905" d="M429 83Q469 83 504 111T556 189Q558 225 560 244Q544 349 452 349Q400 349 366 305T332 198Q332 146 359 115T429 83ZM594 -57L590 -134Q523 -168 414 -168Q251 -168 156 -66T60 196Q60 375 186 494T491
613Q645 613 751 517T858 264Q858 149 804 85T681 21Q589 21 564 107Q511 18 416 18Q342 18 300 70T257 202Q257 292 312 353T450 415Q530 415 568 351Q568 359 569 378T572 410H638L623 272Q619 219 619 186Q619 85 685 85Q729 85 758 133T788 259Q788 395 704
470T489 546Q345 546 241 446T136 196Q136 54 217 -23T416 -100Q516 -100 594 -57Z" />
<glyph unicode="A" glyph-name="A" horiz-adv-x="648" d="M205 246H444L431 285L326 609Q314 566 218 284L205 246ZM526 0L467 177H182L122 0H35L270 674H382L613 0H526Z" />
<glyph unicode="B" glyph-name="B" horiz-adv-x="571" d="M158 69H311Q375 69 409 98T444 185T406 274T296 306H158V69ZM158 605V375H266Q347 375 386 409T425 497Q425 544 389 574T280 605H158ZM77 674H280Q384 674 446 626T509 497Q509 439 477 397T393 343Q449
334 488 293T528 180Q528 99 475 50T323 0H77V674Z" />
<glyph unicode="C" glyph-name="C" horiz-adv-x="602" d="M558 647V564Q514 587 479 597T387 607Q278 607 206 533T133 340Q133 216 205 142T396 68Q492 68 560 119V34Q498 -8 390 -8Q238 -8 143 85T48 340Q48 492 144 587T387 683Q492 683 558 647Z" />
<glyph unicode="D" glyph-name="D" horiz-adv-x="661" d="M159 71H280Q405 71 469 148T533 342Q533 452 462 527T276 602H159V71ZM77 674H277Q426 674 521 582T617 342Q617 196 529 98T281 0H77V674Z" />
<glyph unicode="E" glyph-name="E" horiz-adv-x="501" d="M158 71H453V0H77V674H448V603H158V372H414V301H158V71Z" />
<glyph unicode="F" glyph-name="F" horiz-adv-x="489" d="M447 603H158V364H412V293H158V0H77V674H447V603Z" />
<glyph unicode="G" glyph-name="G" horiz-adv-x="670" d="M603 378V56H602L603 53Q522 -8 394 -8Q238 -8 143 84T48 338Q48 491 142 588T381 686Q500 686 578 640V553Q496 607 388 607Q275 607 204 534T133 338Q133 213 203 142T396 70Q464 70 522 97V307H374V378H603Z" />
<glyph unicode="H" glyph-name="H" horiz-adv-x="643" d="M485 674H566V0H485V305H158V0H77V674H158V378H485V674Z" />
<glyph unicode="I" glyph-name="I" horiz-adv-x="247" d="M83 0V674H164V0H83Z" />
<glyph unicode="J" glyph-name="J" horiz-adv-x="358" d="M30 22V100Q70 74 114 74Q201 74 201 166V674H282V173Q282 0 125 0Q69 0 30 22Z" />
<glyph unicode="K" glyph-name="K" horiz-adv-x="573" d="M77 0V674H158V0H77ZM274 333L545 0H440L174 333L431 674H531L274 333Z" />
<glyph unicode="L" glyph-name="L" horiz-adv-x="477" d="M158 73H445V0H77V674H158V73Z" />
<glyph unicode="M" glyph-name="M" horiz-adv-x="857" d="M70 0L119 674H222L311 428L419 114Q477 278 533 428L626 674H729L788 0H707L684 266L660 565Q607 417 551 266L457 15H380L291 266L189 559Q189 520 170 266L151 0H70Z" />
<glyph unicode="N" glyph-name="N" horiz-adv-x="673" d="M77 0V674H179L348 390L519 98Q515 195 515 389V674H596V0H494L325 282Q274 367 231 440T170 546L153 577Q158 473 158 284V0H77Z" />
<glyph unicode="O" glyph-name="O" horiz-adv-x="700" d="M48 340Q48 499 129 593T350 687Q492 687 572 594T653 340Q653 181 572 87T351 -8Q214 -8 131 87T48 340ZM133 340Q133 215 192 142T351 69Q454 69 510 141T567 340T510 539T350 611Q248 611 191 539T133 340Z" />
<glyph unicode="P" glyph-name="P" horiz-adv-x="545" d="M158 317H262Q338 317 381 356T424 457Q424 525 380 565T255 605H158V317ZM77 674H254Q371 674 438 614T506 457Q506 367 439 308T262 248H158V0H77V674Z" />
<glyph unicode="Q" glyph-name="Q" horiz-adv-x="709" d="M133 340Q133 215 192 142T351 69Q454 69 510 141T567 340T510 539T350 611Q248 611 191 539T133 340ZM683 -105L595 -142L395 -5Q374 -8 351 -8Q214 -8 131 87T48 340Q48 499 129 593T350 687Q492 687
572 594T653 340Q653 224 609 141T483 19L683 -105Z" />
<glyph unicode="R" glyph-name="R" horiz-adv-x="548" d="M158 604V335H260Q329 335 365 372T402 469Q402 604 251 604H158ZM525 0H428L263 266H255H158V0H77V674H246Q363 674 423 619T484 467Q482 397 447 348T348 279L525 0Z" />
<glyph unicode="S" glyph-name="S" horiz-adv-x="524" d="M430 649V564Q369 604 284 604Q223 604 187 576T151 501Q151 477 160 458T194 423T235 398T288 373Q322 358 340 350T386 323T429 287T455 241T467 179Q467 90 406 42T249 -7Q143 -7 69 36V123Q142 68
247 68Q310 68 346 96T382 177Q382 199 374 216T346 248T309 272T261 296Q255 299 243 304Q200 323 178 335T125 370T80 425T66 497Q66 583 127 631T282 680Q369 680 430 649Z" />
<glyph unicode="T" glyph-name="T" horiz-adv-x="482" d="M463 674V603H281V0H200V603H18V674H463Z" />
<glyph unicode="U" glyph-name="U" horiz-adv-x="645" d="M488 254V674H569V256Q569 126 504 59T321 -8Q206 -8 141 57T76 248V674H157V249Q157 156 201 112T321 68Q488 68 488 254Z" />
<glyph unicode="V" glyph-name="V" horiz-adv-x="637" d="M601 674L366 0H264L36 674H123L211 407L316 73Q355 199 424 407L514 674H601Z" />
<glyph unicode="W" glyph-name="W" horiz-adv-x="938" d="M432 664H513L587 424L689 82Q735 303 763 423L820 674H902L744 0H640L575 213L474 550Q443 432 378 213L315 0H212L36 674H121L184 424L267 85Q323 290 362 424L432 664Z" />
<glyph unicode="X" glyph-name="X" horiz-adv-x="613" d="M256 340L51 674H146L301 413Q305 421 380 546T456 674H552L348 340L574 0H479L303 271Q302 269 221 139T135 0H39L256 340Z" />
<glyph unicode="Y" glyph-name="Y" horiz-adv-x="593" d="M567 674L336 251V0H255V250L26 674H120L171 575Q223 475 254 412T290 336L295 324Q304 349 422 575L473 674H567Z" />
<glyph unicode="Z" glyph-name="Z" horiz-adv-x="569" d="M502 674V608L146 69H517V0H52V67L408 605H57V674H502Z" />
<glyph unicode="[" glyph-name="bracketleft" horiz-adv-x="310" d="M307 637H155V-111H307V-183H77V707H307V637Z" />
<glyph unicode="\" glyph-name="backslash" horiz-adv-x="402" d="M48 707L412 -103H332L-33 707H48Z" />
<glyph unicode="]" glyph-name="bracketright" horiz-adv-x="310" d="M233 707V-183H3V-111H155V637H3V707H233Z" />
<glyph unicode="^" glyph-name="asciicircum" horiz-adv-x="461" d="M416 332H337L232 540L124 332H45L187 594H278L416 332Z" />
<glyph unicode="_" glyph-name="underscore" horiz-adv-x="561" d="M28 -100V-31H533V-100H28Z" />
<glyph unicode="`" glyph-name="grave" horiz-adv-x="421" d="M210 798L308 642H239L115 798H210Z" />
<glyph unicode="a" glyph-name="a" horiz-adv-x="492" d="M346 234H258Q194 234 162 209T130 146T155 85T228 61Q282 61 314 91T346 169V234ZM84 401V480Q141 515 234 515Q425 515 425 321V0H347V60Q308 -5 205 -5Q134 -5 91 37T47 143Q47 216 102 256T254 297H346V323Q346
383 319 413T228 444Q147 444 84 401Z" />
<glyph unicode="b" glyph-name="b" horiz-adv-x="570" d="M304 64Q365 64 405 115T445 248Q445 342 404 392T299 443Q245 443 200 398T155 257Q155 156 198 110T304 64ZM155 707V431Q210 515 309 515Q405 515 466 442T527 249Q527 142 470 67T311 -8Q209 -8 155
75V0H76V707H155Z" />
<glyph unicode="c" glyph-name="c" horiz-adv-x="471" d="M125 251Q126 169 175 115T314 60Q372 60 422 93V18Q374 -11 304 -11Q184 -11 114 65T43 252Q43 360 113 438T306 516Q371 516 422 488V413Q376 444 314 444Q228 444 177 389T125 251Z" />
<glyph unicode="d" glyph-name="d" horiz-adv-x="567" d="M266 64Q328 64 371 110T415 257Q415 353 370 398T271 443Q208 443 167 393T125 248Q125 166 165 115T266 64ZM415 707H494V0H415V75Q361 -8 259 -8Q158 -8 101 67T43 249Q43 368 104 441T261 515Q360
515 415 430V707Z" />
<glyph unicode="e" glyph-name="e" horiz-adv-x="522" d="M396 286V306Q396 369 362 406T268 444Q211 444 171 403T124 286H396ZM443 100V26Q384 -5 299 -5Q184 -5 114 65T43 252Q43 373 106 443T268 513Q363 513 419 452T475 279Q475 247 470 220H124Q133 145
181 105T307 65Q392 65 443 100Z" />
<glyph unicode="f" glyph-name="f" horiz-adv-x="329" d="M315 707V635Q291 643 269 643Q237 643 217 621T196 553V507H308V443H196V0H117V443H30V507H117V554Q117 628 156 671T266 714Q290 714 315 707Z" />
<glyph unicode="g" glyph-name="g" horiz-adv-x="549" d="M263 83Q318 83 360 125T403 252Q403 349 362 396T267 443Q202 443 164 392T126 257Q126 172 168 128T263 83ZM403 507H482V41Q482 -75 418 -133T253 -192Q161 -192 96 -161V-82Q160 -119 246 -119Q319
-119 361 -80T403 42V99Q353 13 254 13Q167 13 106 77T44 255Q44 368 101 441T250 514Q354 514 403 423V507Z" />
<glyph unicode="h" glyph-name="h" horiz-adv-x="540" d="M151 707V419Q196 514 311 514Q384 514 428 469T473 347V0H394V328Q394 383 366 413T291 443Q235 443 193 400T151 277V0H73V707H151Z" />
<glyph unicode="i" glyph-name="i" horiz-adv-x="233" d="M77 0V507H156V0H77ZM65 644T65 666T79 703T116 718T153 703T168 666T153 630T116 615T80 629Z" />
<glyph unicode="j" glyph-name="j" horiz-adv-x="228" d="M-46 -180V-110Q-8 -126 22 -126Q78 -126 78 -53V507H156V-55Q156 -121 122 -158T26 -195Q-7 -195 -46 -180ZM65 644T65 666T79 703T116 718T153 703T168 666T153 630T116 615T80 629Z" />
<glyph unicode="k" glyph-name="k" horiz-adv-x="480" d="M73 0V703H151V0H73ZM254 266L460 0H365L161 266L360 507H454L254 266Z" />
<glyph unicode="l" glyph-name="l" horiz-adv-x="233" d="M77 0V707H156V0H77Z" />
<glyph unicode="m" glyph-name="m" horiz-adv-x="818" d="M151 507V425Q193 514 294 514Q411 514 442 415Q464 463 503 488T592 514Q671 514 711 469T751 348V0H672V328Q672 443 575 443Q527 443 489 400T451 277V0H372V328Q372 443 275 443Q227 443 189 400T151
277V0H73V507H151Z" />
<glyph unicode="n" glyph-name="n" horiz-adv-x="540" d="M151 507V419Q196 514 311 514Q385 514 429 469T473 349V0H394V328Q394 384 366 413T291 443Q234 443 193 399T151 277V0H73V507H151Z" />
<glyph unicode="o" glyph-name="o" horiz-adv-x="562" d="M279 -9Q170 -9 107 64T43 250Q43 363 108 438T279 514Q394 514 456 440T519 252Q519 139 455 65T279 -9ZM279 444Q207 444 166 388T125 251Q125 172 167 117T279 61Q355 61 396 115T437 251Q437 335 398
389T279 444Z" />
<glyph unicode="p" glyph-name="p" horiz-adv-x="567" d="M296 64Q360 64 401 114T442 258Q442 341 402 392T301 443T196 399T151 253Q151 156 196 110T296 64ZM151 507V430Q204 515 308 515Q409 515 466 442T524 258Q524 141 464 67T306 -8Q206 -8 151 77V-197H73V507H151Z"
/>
<glyph unicode="q" glyph-name="q" horiz-adv-x="567" d="M271 64Q326 64 370 109T415 253Q415 354 371 398T266 443T165 392T125 258Q125 165 166 115T271 64ZM415 507H494V-197H415V76Q360 -8 261 -8Q164 -8 104 66T43 258Q43 368 101 441T260 515T415 432V507Z" />
<glyph unicode="r" glyph-name="r" horiz-adv-x="326" d="M151 507V418Q191 512 289 512Q307 512 317 510V432Q296 439 274 439Q221 439 186 390T151 277V0H72L73 507H151Z" />
<glyph unicode="s" glyph-name="s" horiz-adv-x="412" d="M349 490V415Q303 443 223 443Q183 443 160 425T136 377Q136 359 143 346T170 319T200 302T242 283Q306 257 342 224T378 135Q378 70 333 32T208 -6Q116 -6 59 25V102Q126 62 203 62Q249 62 273 80T297
129Q297 165 271 185T182 230Q125 252 91 285T56 374Q56 437 103 474T222 512Q301 512 349 490Z" />
<glyph unicode="t" glyph-name="t" horiz-adv-x="369" d="M182 443V146Q182 65 258 65Q297 65 327 88V13Q294 -5 253 -5Q103 -5 103 148V443H22V507H103V633H182V507H322V443H182Z" />
<glyph unicode="u" glyph-name="u" horiz-adv-x="540" d="M388 507H467V0H388V88Q348 -6 229 -6Q154 -6 111 38T67 158V507H146V178Q146 123 174 94T250 65Q313 65 350 109T388 228V507Z" />
<glyph unicode="v" glyph-name="v" horiz-adv-x="505" d="M202 0L25 507H107L177 293L251 62Q260 105 326 293L398 507H480L299 0H202Z" />
<glyph unicode="w" glyph-name="w" horiz-adv-x="792" d="M181 0L25 507H109L158 339Q184 251 201 186T224 98L229 77Q244 141 302 340L350 507H434L483 340L558 76Q572 135 635 340L686 507H767L607 0H510L462 166L392 419Q377 355 324 166L278 0H181Z" />
<glyph unicode="x" glyph-name="x" horiz-adv-x="478" d="M283 259L453 0H362L239 200L112 0H25L195 260L35 508H126L241 318L357 508H447L283 259Z" />
<glyph unicode="y" glyph-name="y" horiz-adv-x="493" d="M213 13L8 507H97L163 340L252 110Q260 136 332 340L391 507H476L293 13Q254 -90 201 -132T78 -174Q52 -174 36 -169V-98Q51 -102 70 -102Q171 -102 213 13Z" />
<glyph unicode="z" glyph-name="z" horiz-adv-x="453" d="M395 507V449L135 71H409V0H44V62L301 437H54V507H395Z" />
<glyph unicode="{" glyph-name="braceleft" horiz-adv-x="334" d="M321 705V627Q304 636 288 636Q257 636 241 615T225 562Q225 536 235 485T246 405Q246 349 215 310T124 262Q183 253 214 214T246 119Q246 89 236 38T225 -39Q225 -71 241 -92T288 -113Q304 -113
321 -104V-181Q300 -189 274 -189Q219 -189 182 -149T144 -40Q144 -13 154 34T165 103Q165 204 77 222Q68 224 48 224V301Q66 301 77 303Q120 309 142 341T165 420Q165 442 155 489T144 563Q144 631 182 672T274 713Q295 713 321 705Z" />
<glyph unicode="|" glyph-name="bar" horiz-adv-x="228" d="M78 -194V695H150V-194H78Z" />
<glyph unicode="}" glyph-name="braceright" horiz-adv-x="334" d="M13 627V705Q39 713 60 713Q114 713 152 672T190 563Q190 536 180 489T169 420Q169 374 191 342T257 303Q268 301 286 301V224Q266 224 257 222Q212 213 191 181T169 103Q169 81 179 34T190 -40Q190
-108 153 -148T60 -189Q34 -189 13 -181V-104Q30 -113 47 -113Q77 -113 93 -92T109 -39Q109 -13 99 38T89 119Q89 174 120 213T210 262Q152 271 121 310T89 405Q89 435 99 485T109 562Q109 594 93 615T47 636Q30 636 13 627Z" />
<glyph unicode="~" glyph-name="asciitilde" horiz-adv-x="599" d="M504 326L563 284Q505 194 420 194Q373 194 303 231T204 268Q137 268 89 199L36 245Q104 340 192 340Q246 340 313 303T413 266Q469 266 504 326Z" />
<glyph unicode="&#xa0;" glyph-name="uni00A0" horiz-adv-x="244" />
<glyph unicode="&#xa1;" glyph-name="exclamdown" horiz-adv-x="251" d="M65 458Q65 484 81 500T124 517T167 500T184 458Q184 434 167 417T124 399T82 416T65 458ZM87 -165V305H164V-165H87Z" />
<glyph unicode="&#xa2;" glyph-name="cent" horiz-adv-x="452" d="M412 490V416Q365 441 318 441Q231 441 180 387T127 251Q128 170 177 117T318 64Q370 64 412 88V14Q379 -2 334 -7V-111H265V-5Q162 8 104 80T46 252Q46 349 104 422T265 510V615H334V512Q376
507 412 490Z" />
<glyph unicode="&#xa3;" glyph-name="sterling" horiz-adv-x="522" d="M161 69H483V0H61V66Q118 93 139 133T160 249Q160 262 158 292H66V355H151Q143 423 143 449Q143 550 196 604T347 659Q405 659 455 634V556Q407 584 355 584Q224 584 224 453Q224 423 232
355H412V292H238Q240 262 240 250Q240 173 220 133T161 69Z" />
<glyph unicode="&#xa4;" glyph-name="currency" horiz-adv-x="543" d="M55 309Q55 381 95 437L34 498L85 547L145 486Q202 527 275 527Q345 527 401 490L459 547L509 498L451 440Q489 384 489 315Q489 244 447 186L509 125L459 76L397 137Q341 98 269 98Q196 98
143 134L85 76L34 125L93 183Q55 236 55 309ZM123 313Q123 248 165 206T272 163Q336 163 378 205T420 312Q420 376 378 419T272 462Q207 462 165 420T123 313Z" />
<glyph unicode="&#xa5;" glyph-name="yen" horiz-adv-x="585" d="M549 654L390 362H509V303H358L331 254V215H509V157H331V0H249V157H72V215H249V253L222 303H72V362H190L33 654H125L290 332L457 654H549Z" />
<glyph unicode="&#xa6;" glyph-name="brokenbar" horiz-adv-x="228" d="M150 367H78V698H150V367ZM150 -178H78V153H150V-178Z" />
<glyph unicode="&#xa7;" glyph-name="section" horiz-adv-x="512" d="M132 300Q132 275 141 256T174 221T216 195T273 169Q333 142 354 131Q379 161 379 203Q379 246 348 271T252 328Q239 334 207 347T158 369Q132 340 132 300ZM417 649V564Q356 604 272 604Q209
604 174 580T139 511Q139 491 145 477T169 451T198 433T241 414T288 394Q321 379 339 370T384 342T423 307T447 262T458 203Q458 132 415 84Q456 41 456 -22Q456 -109 396 -156T240 -203Q133 -203 59 -159V-72Q133 -128 237 -128Q302 -128 337 -101T373 -23Q373
18 343 43T242 100Q208 115 195 121T153 142T111 171T81 203T58 246T51 299Q51 365 93 412Q55 450 55 508Q55 591 115 635T269 680Q356 680 417 649Z" />
<glyph unicode="&#xa8;" glyph-name="dieresis" horiz-adv-x="421" d="M58 701T58 723T73 759T110 774T146 760T161 723T147 686T110 671T73 686ZM260 701T260 723T274 759T311 774T348 760T363 723T348 686T311 671T275 686Z" />
<glyph unicode="&#xa9;" glyph-name="copyright" horiz-adv-x="776" d="M43 336Q43 478 144 580T388 682T631 580T733 336Q733 195 632 93T388 -9T145 93T43 336ZM110 452T110 336T192 139T389 57T586 138T668 336T586 534T389 616T192 534ZM293 334Q294 280 328
244T417 208Q463 208 495 233V168Q463 147 411 147Q325 147 274 201T223 335Q224 412 274 468T412 524Q459 524 495 504V439Q460 462 417 462Q362 462 328 427T293 334Z" />
<glyph unicode="&#xaa;" glyph-name="ordfeminine" horiz-adv-x="350" d="M253 588H190Q71 588 71 514Q71 483 92 464T154 445Q197 445 225 470T253 529V588ZM33 730V795Q86 826 159 826Q243 826 281 785T320 662V392H255V446Q211 388 136 388Q76 388 39 421T2
512Q2 574 49 608T178 643H253V664Q253 715 231 741T154 767Q88 767 33 730Z" />
<glyph unicode="&#xab;" glyph-name="guillemotleft" horiz-adv-x="480" d="M264 415L118 253L264 91H177L27 253L177 415H264ZM450 415L304 253L450 91H363L213 253L363 415H450Z" />
<glyph unicode="&#xac;" glyph-name="logicalnot" horiz-adv-x="549" d="M512 160H439V342H25V413H512V160Z" />
<glyph unicode="&#xad;" glyph-name="uni00AD" horiz-adv-x="348" d="M57 234V303H291V234H57Z" />
<glyph unicode="&#xae;" glyph-name="registered" horiz-adv-x="449" d="M203 651V587H228Q257 587 257 619T225 651H203ZM159 687H220Q302 687 302 619Q302 576 266 559L320 473H268L222 551H203V473H159V687ZM226 406Q301 406 347 452T393 573Q393 648 347 694T226
741Q150 741 105 695T59 573T104 452T226 406ZM225 788Q318 788 378 727T439 573T379 420T225 360Q131 360 71 420T10 573T70 727T225 788Z" />
<glyph unicode="&#xaf;" glyph-name="overscore" horiz-adv-x="421" d="M351 693H69V749H351V693Z" />
<glyph unicode="&#xb0;" glyph-name="degree" horiz-adv-x="355" d="M30 530Q30 593 72 634T179 676Q242 676 283 636T325 533T282 428T176 386Q112 386 71 426T30 530ZM93 567T93 531T118 470T179 445T238 470T261 531T237 592T176 618T117 593Z" />
<glyph unicode="&#xb1;" glyph-name="plusminus" horiz-adv-x="553" d="M57 30V100H497V30H57ZM310 400H497V331H310V162H236V331H57V400H236V569H310V400Z" />
<glyph unicode="&#xb2;" glyph-name="twosuperior" horiz-adv-x="365" d="M47 392V441Q245 590 245 690Q245 729 224 748T168 767Q114 767 61 724V793Q115 826 170 826Q229 826 270 792T311 695Q311 636 263 571T136 447H326V392H47Z" />
<glyph unicode="&#xb3;" glyph-name="threesuperior" horiz-adv-x="325" d="M103 637H127Q163 637 187 655T212 705Q212 768 139 768Q95 768 47 737V800Q91 826 141 826Q207 826 242 793T278 710Q278 671 257 645T199 611Q236 608 263 579T290 508Q290 455 253
422T149 388Q83 388 35 413V473Q85 445 146 445Q183 445 204 463T225 511Q225 544 200 563T127 582H103V637Z" />
<glyph unicode="&#xb4;" glyph-name="acute" horiz-adv-x="421" d="M115 642L214 798H308L184 642H115Z" />
<glyph unicode="&#xb5;" glyph-name="uni00B5" horiz-adv-x="546" d="M394 507H473V0H394V77Q358 -6 261 -6Q195 -6 151 32V-179H73V507H151V178Q151 125 187 95T273 65Q329 65 361 108T394 228V507Z" />
<glyph unicode="&#xb6;" glyph-name="paragraph" horiz-adv-x="545" d="M286 674V-148H215V341Q125 341 76 388T26 505Q26 573 76 623T219 674H286ZM401 -148V674H472V-148H401Z" />
<glyph unicode="&#xb7;" glyph-name="middot" horiz-adv-x="232" d="M57 294T57 319T74 361T116 378T158 361T175 319T158 277T116 260T74 277Z" />
<glyph unicode="&#xb8;" glyph-name="cedilla" horiz-adv-x="421" d="M285 -122Q285 -176 247 -213T135 -252V-194Q219 -188 219 -123Q219 -89 196 -51H267Q285 -76 285 -122Z" />
<glyph unicode="&#xb9;" glyph-name="onesuperior" horiz-adv-x="250" d="M10 690V755L127 822H179V392H117V749L10 690Z" />
<glyph unicode="&#xba;" glyph-name="ordmasculine" horiz-adv-x="376" d="M186 386Q97 386 46 448T-6 605T47 764T186 828Q280 828 330 766T381 607Q381 510 330 448T186 386ZM186 769Q128 769 96 722T63 606T96 491T187 444Q248 444 280 490T312 606Q312 677
282 723T186 769Z" />
<glyph unicode="&#xbb;" glyph-name="guillemotright" horiz-adv-x="482" d="M116 415L267 253L116 91H29L176 253L29 415H116ZM302 415L453 253L302 91H215L362 253L215 415H302Z" />
<glyph unicode="&#xbc;" glyph-name="onequarter" horiz-adv-x="832" d="M172 281V638L65 579V644L183 711H235V281H172ZM595 712H666L215 0H144L595 712ZM531 150H664V380L531 150ZM787 150V99H725V0H664V99H467V150L631 429H725V150H787Z" />
<glyph unicode="&#xbd;" glyph-name="onehalf" horiz-adv-x="833" d="M514 0V49Q599 112 655 178T712 298Q712 337 691 356T635 375Q581 375 528 332V401Q582 434 637 434Q696 434 737 400T779 303Q779 244 731 179T604 55H793V0H514ZM65 579V644L183 711H235V281H172V638L65
579ZM144 0L595 712H666L215 0H144Z" />
<glyph unicode="&#xbe;" glyph-name="threequarters" horiz-adv-x="866" d="M84 626V689Q128 715 178 715Q244 715 279 682T315 599Q315 560 294 534T236 500Q273 497 300 468T327 397Q327 344 290 311T186 277Q120 277 72 302V362Q122 334 183 334Q220 334 241
352T262 400Q262 433 237 452T164 471H140V526H164Q200 526 224 544T249 594Q249 657 176 657Q132 657 84 626ZM651 712H722L272 0H200L651 712ZM587 150H720V379L587 150ZM843 150V99H781V0H720V99H523V150L687 429H781V150H843Z" />
<glyph unicode="&#xbf;" glyph-name="questiondown" horiz-adv-x="452" d="M414 -52V-132Q349 -173 254 -173T102 -125T45 10Q45 95 104 142T241 196L242 305H318L319 139Q227 139 177 108T127 13Q127 -38 160 -69T259 -101Q337 -101 414 -52ZM340 484T340 459T324
417T282 399T239 416T221 459T238 500T282 517Q307 517 323 501Z" />
<glyph unicode="&#xc0;" glyph-name="Agrave" horiz-adv-x="648" d="M354 727H285L161 883H256L354 727ZM205 246H444L431 285L326 609Q314 566 218 284L205 246ZM526 0L467 177H182L122 0H35L270 674H382L613 0H526Z" />
<glyph unicode="&#xc1;" glyph-name="Aacute" horiz-adv-x="648" d="M492 883L368 727H299L398 883H492ZM205 246H444L431 285L326 609Q314 566 218 284L205 246ZM526 0L467 177H182L122 0H35L270 674H382L613 0H526Z" />
<glyph unicode="&#xc2;" glyph-name="Acircumflex" horiz-adv-x="648" d="M327 832L242 727H162L289 883H365L492 727H412L327 832ZM205 246H444L431 285L326 609Q314 566 218 284L205 246ZM526 0L467 177H182L122 0H35L270 674H382L613 0H526Z" />
<glyph unicode="&#xc3;" glyph-name="Atilde" horiz-adv-x="648" d="M446 860L495 826Q463 757 396 757Q369 757 327 779T268 801Q227 801 200 753L157 790Q171 820 198 840T258 861Q288 861 331 839T392 817Q426 817 446 860ZM205 246H444L431 285L326 609Q314
566 218 284L205 246ZM526 0L467 177H182L122 0H35L270 674H382L613 0H526Z" />
<glyph unicode="&#xc4;" glyph-name="Adieresis" horiz-adv-x="648" d="M450 754T428 754T392 769T377 806T391 842T428 857T465 843T480 806T465 769ZM249 754T227 754T190 769T175 806T190 842T227 857T263 843T278 806T264 769ZM205 246H444L431 285L326 609Q314
566 218 284L205 246ZM526 0L467 177H182L122 0H35L270 674H382L613 0H526Z" />
<glyph unicode="&#xc5;" glyph-name="Aring" horiz-adv-x="648" d="M327 878Q305 878 290 863T274 824Q274 802 289 786T327 770T365 786T381 824T366 862T327 878ZM371 717T327 717T252 748T221 823T252 898T327 930T402 899T433 823T402 748ZM205 246H444L431
285L326 609Q314 566 218 284L205 246ZM526 0L467 177H182L122 0H35L270 674H382L613 0H526Z" />
<glyph unicode="&#xc6;" glyph-name="AE" horiz-adv-x="879" d="M252 246H456V610Q402 507 274 284L252 246ZM536 71H831V0H456V177H212L110 0H23L406 674H825V603H536V372H792V301H536V71Z" />
<glyph unicode="&#xc7;" glyph-name="Ccedilla" horiz-adv-x="602" d="M333 -51H404Q422 -76 422 -122Q422 -176 384 -213T272 -252V-194Q356 -188 356 -123Q356 -89 333 -51ZM558 647V564Q514 587 479 597T387 607Q278 607 206 533T133 340Q133 216 205 142T396
68Q492 68 560 119V34Q498 -8 390 -8Q238 -8 143 85T48 340Q48 492 144 587T387 683Q492 683 558 647Z" />
<glyph unicode="&#xc8;" glyph-name="Egrave" horiz-adv-x="501" d="M320 726H251L127 882H222L320 726ZM158 71H453V0H77V674H448V603H158V372H414V301H158V71Z" />
<glyph unicode="&#xc9;" glyph-name="Eacute" horiz-adv-x="501" d="M437 883L313 727H244L343 883H437ZM158 71H453V0H77V674H448V603H158V372H414V301H158V71Z" />
<glyph unicode="&#xca;" glyph-name="Ecircumflex" horiz-adv-x="501" d="M273 832L188 727H108L235 883H311L438 727H358L273 832ZM158 71H453V0H77V674H448V603H158V372H414V301H158V71Z" />
<glyph unicode="&#xcb;" glyph-name="Edieresis" horiz-adv-x="501" d="M391 753T369 753T333 768T318 805T332 841T369 856T406 842T421 805T406 768ZM190 753T168 753T131 768T116 805T131 841T168 856T204 842T219 805T205 768ZM158 71H453V0H77V674H448V603H158V372H414V301H158V71Z"
/>
<glyph unicode="&#xcc;" glyph-name="Igrave" horiz-adv-x="247" d="M83 0V674H164V0H83ZM55 883L153 727H84L-40 883H55Z" />
<glyph unicode="&#xcd;" glyph-name="Iacute" horiz-adv-x="247" d="M83 0V674H164V0H83ZM93 727L192 883H286L162 727H93Z" />
<glyph unicode="&#xce;" glyph-name="Icircumflex" horiz-adv-x="247" d="M86 883H162L289 727H209L124 832L39 727H-41L86 883ZM83 0V674H164V0H83Z" />
<glyph unicode="&#xcf;" glyph-name="Idieresis" horiz-adv-x="247" d="M83 0V674H164V0H83ZM-27 784T-27 806T-12 842T25 857T61 843T76 806T62 769T25 754T-12 769ZM175 784T175 806T189 842T226 857T263 843T278 806T263 769T226 754T190 769Z" />
<glyph unicode="&#xd0;" glyph-name="Eth" horiz-adv-x="730" d="M228 71H350Q414 71 463 93T542 153T587 239T602 342Q602 452 531 527T345 602H228V372H403V304H228V71ZM146 674H346Q496 674 591 582T686 342Q686 196 598 98T350 0H146V304H61V372H146V674Z" />
<glyph unicode="&#xd1;" glyph-name="Ntilde" horiz-adv-x="673" d="M77 0V674H179L348 390L519 98Q515 195 515 389V674H596V0H494L325 282Q274 367 231 440T170 546L153 577Q158 473 158 284V0H77ZM465 860L514 826Q482 757 415 757Q388 757 346 779T287 801Q246
801 219 753L176 790Q190 820 217 840T277 861Q307 861 350 839T411 817Q445 817 465 860Z" />
<glyph unicode="&#xd2;" glyph-name="Ograve" horiz-adv-x="700" d="M48 340Q48 499 129 593T350 687Q492 687 572 594T653 340Q653 181 572 87T351 -8Q214 -8 131 87T48 340ZM133 340Q133 215 192 142T351 69Q454 69 510 141T567 340T510 539T350 611Q248 611
191 539T133 340ZM295 883L393 727H324L200 883H295Z" />
<glyph unicode="&#xd3;" glyph-name="Oacute" horiz-adv-x="700" d="M324 727L423 883H517L393 727H324ZM48 340Q48 499 129 593T350 687Q492 687 572 594T653 340Q653 181 572 87T351 -8Q214 -8 131 87T48 340ZM133 340Q133 215 192 142T351 69Q454 69 510 141T567
340T510 539T350 611Q248 611 191 539T133 340Z" />
<glyph unicode="&#xd4;" glyph-name="Ocircumflex" horiz-adv-x="700" d="M133 340Q133 215 192 142T351 69Q454 69 510 141T567 340T510 539T350 611Q248 611 191 539T133 340ZM48 340Q48 499 129 593T350 687Q492 687 572 594T653 340Q653 181 572 87T351 -8Q214
-8 131 87T48 340ZM319 883H395L522 727H442L357 832L272 727H192L319 883Z" />
<glyph unicode="&#xd5;" glyph-name="Otilde" horiz-adv-x="700" d="M48 340Q48 499 129 593T350 687Q492 687 572 594T653 340Q653 181 572 87T351 -8Q214 -8 131 87T48 340ZM133 340Q133 215 192 142T351 69Q454 69 510 141T567 340T510 539T350 611Q248 611
191 539T133 340ZM472 861L521 827Q489 758 422 758Q395 758 353 780T294 802Q253 802 226 754L183 791Q197 821 224 841T284 862Q314 862 357 840T418 818Q452 818 472 861Z" />
<glyph unicode="&#xd6;" glyph-name="Odieresis" horiz-adv-x="700" d="M202 784T202 806T217 842T254 857T290 843T305 806T291 769T254 754T217 769ZM404 784T404 806T418 842T455 857T492 843T507 806T492 769T455 754T419 769ZM48 340Q48 499 129 593T350
687Q492 687 572 594T653 340Q653 181 572 87T351 -8Q214 -8 131 87T48 340ZM133 340Q133 215 192 142T351 69Q454 69 510 141T567 340T510 539T350 611Q248 611 191 539T133 340Z" />
<glyph unicode="&#xd7;" glyph-name="multiply" horiz-adv-x="491" d="M431 475L296 341L428 210L377 159L245 290L114 159L63 211L194 341L59 475L110 525L245 392L380 526L431 475Z" />
<glyph unicode="&#xd8;" glyph-name="Oslash" horiz-adv-x="675" d="M520 518L216 110Q270 67 345 67Q448 67 505 139T562 340Q562 449 520 518ZM169 163L473 571Q421 612 343 612Q241 612 183 540T125 340Q125 234 169 163ZM647 687L572 586Q646 493 646 340Q646
181 565 87T345 -8Q242 -8 168 46L127 -9H41L118 94Q41 190 41 340Q41 499 122 593T343 687Q448 687 520 635L559 687H647Z" />
<glyph unicode="&#xd9;" glyph-name="Ugrave" horiz-adv-x="645" d="M488 254V674H569V256Q569 126 504 59T321 -8Q206 -8 141 57T76 248V674H157V249Q157 156 201 112T321 68Q488 68 488 254ZM262 883L360 727H291L167 883H262Z" />
<glyph unicode="&#xda;" glyph-name="Uacute" horiz-adv-x="645" d="M300 727L399 883H493L369 727H300ZM488 254V674H569V256Q569 126 504 59T321 -8Q206 -8 141 57T76 248V674H157V249Q157 156 201 112T321 68Q488 68 488 254Z" />
<glyph unicode="&#xdb;" glyph-name="Ucircumflex" horiz-adv-x="645" d="M488 254V674H569V256Q569 126 504 59T321 -8Q206 -8 141 57T76 248V674H157V249Q157 156 201 112T321 68Q488 68 488 254ZM286 883H362L489 727H409L324 832L239 727H159L286 883Z" />
<glyph unicode="&#xdc;" glyph-name="Udieresis" horiz-adv-x="645" d="M171 784T171 806T186 842T223 857T259 843T274 806T260 769T223 754T186 769ZM373 784T373 806T387 842T424 857T461 843T476 806T461 769T424 754T388 769ZM488 254V674H569V256Q569 126
504 59T321 -8Q206 -8 141 57T76 248V674H157V249Q157 156 201 112T321 68Q488 68 488 254Z" />
<glyph unicode="&#xdd;" glyph-name="Yacute" horiz-adv-x="593" d="M472 882L348 726H279L378 882H472ZM567 674L336 251V0H255V250L26 674H120L171 575Q223 475 254 412T290 336L295 324Q304 349 422 575L473 674H567Z" />
<glyph unicode="&#xde;" glyph-name="Thorn" horiz-adv-x="536" d="M158 193H257Q336 193 376 231T416 331Q416 400 375 440T249 481H158V193ZM158 550H246Q368 550 433 491T498 333Q498 241 434 183T254 124H158V0H77V674H158V550Z" />
<glyph unicode="&#xdf;" glyph-name="germandbls" horiz-adv-x="541" d="M258 6V82Q297 62 343 62Q385 62 409 81T434 133Q434 158 419 180T381 219T337 255T300 297T284 352Q284 379 296 404T324 444T352 484T365 534Q365 571 338 594T267 617Q155 617 155 498V0H76V496Q76
592 128 641T269 690Q348 690 396 645T445 536Q445 492 426 459T387 402T368 358Q368 340 383 323T419 289T461 253T497 203T512 137Q512 74 468 34T344 -7Q289 -7 258 6Z" />
<glyph unicode="&#xe0;" glyph-name="agrave" horiz-adv-x="492" d="M291 560H222L98 716H193L291 560ZM346 234H258Q194 234 162 209T130 146T155 85T228 61Q282 61 314 91T346 169V234ZM84 401V480Q141 515 234 515Q425 515 425 321V0H347V60Q308 -5 205 -5Q134
-5 91 37T47 143Q47 216 102 256T254 297H346V323Q346 383 319 413T228 444Q147 444 84 401Z" />
<glyph unicode="&#xe1;" glyph-name="aacute" horiz-adv-x="492" d="M416 716L292 560H223L322 716H416ZM346 234H258Q194 234 162 209T130 146T155 85T228 61Q282 61 314 91T346 169V234ZM84 401V480Q141 515 234 515Q425 515 425 321V0H347V60Q308 -5 205 -5Q134
-5 91 37T47 143Q47 216 102 256T254 297H346V323Q346 383 319 413T228 444Q147 444 84 401Z" />
<glyph unicode="&#xe2;" glyph-name="acircumflex" horiz-adv-x="492" d="M254 664L169 559H89L216 715H292L419 559H339L254 664ZM346 234H258Q194 234 162 209T130 146T155 85T228 61Q282 61 314 91T346 169V234ZM84 401V480Q141 515 234 515Q425 515 425 321V0H347V60Q308
-5 205 -5Q134 -5 91 37T47 143Q47 216 102 256T254 297H346V323Q346 383 319 413T228 444Q147 444 84 401Z" />
<glyph unicode="&#xe3;" glyph-name="atilde" horiz-adv-x="492" d="M370 693L419 659Q387 590 320 590Q293 590 251 612T192 634Q151 634 124 586L81 623Q95 653 122 673T182 694Q212 694 255 672T316 650Q350 650 370 693ZM346 234H258Q194 234 162 209T130
146T155 85T228 61Q282 61 314 91T346 169V234ZM84 401V480Q141 515 234 515Q425 515 425 321V0H347V60Q308 -5 205 -5Q134 -5 91 37T47 143Q47 216 102 256T254 297H346V323Q346 383 319 413T228 444Q147 444 84 401Z" />
<glyph unicode="&#xe4;" glyph-name="adieresis" horiz-adv-x="492" d="M375 584T353 584T317 599T302 636T316 672T353 687T390 673T405 636T390 599ZM174 584T152 584T115 599T100 636T115 672T152 687T188 673T203 636T189 599ZM346 234H258Q194 234 162 209T130
146T155 85T228 61Q282 61 314 91T346 169V234ZM84 401V480Q141 515 234 515Q425 515 425 321V0H347V60Q308 -5 205 -5Q134 -5 91 37T47 143Q47 216 102 256T254 297H346V323Q346 383 319 413T228 444Q147 444 84 401Z" />
<glyph unicode="&#xe5;" glyph-name="aring" horiz-adv-x="492" d="M255 711Q233 711 218 696T202 657Q202 635 217 619T255 603T293 619T309 657Q309 680 294 695T255 711ZM299 550T255 550T180 581T149 656T180 731T255 763T330 732T361 656T330 581ZM346 234H258Q194
234 162 209T130 146T155 85T228 61Q282 61 314 91T346 169V234ZM84 401V480Q141 515 234 515Q425 515 425 321V0H347V60Q308 -5 205 -5Q134 -5 91 37T47 143Q47 216 102 256T254 297H346V323Q346 383 319 413T228 444Q147 444 84 401Z" />
<glyph unicode="&#xe6;" glyph-name="ae" horiz-adv-x="819" d="M351 177V232H276Q134 232 134 145Q134 108 159 86T233 64Q283 64 317 95T351 177ZM701 286V306Q700 372 666 408T575 444T479 404T429 286H701ZM774 220H430Q439 145 488 105T609 65Q692 65 743
100V26Q686 -5 603 -5Q538 -5 482 23T396 99Q377 53 330 24T215 -5Q142 -5 97 34T52 142Q52 216 108 257T261 298H351V323Q351 383 324 413T233 444Q153 444 89 402V479Q147 515 236 515Q365 515 401 425Q460 513 576 513Q674 513 726 452T779 275Q779 247 774
220Z" />
<glyph unicode="&#xe7;" glyph-name="ccedilla" horiz-adv-x="471" d="M125 251Q126 169 175 115T314 60Q372 60 422 93V18Q374 -11 304 -11Q184 -11 114 65T43 252Q43 360 113 438T306 516Q371 516 422 488V413Q376 444 314 444Q228 444 177 389T125 251ZM339
-122Q339 -176 301 -213T189 -252V-194Q273 -188 273 -123Q273 -89 250 -51H321Q339 -76 339 -122Z" />
<glyph unicode="&#xe8;" glyph-name="egrave" horiz-adv-x="522" d="M318 560H249L125 716H220L318 560ZM396 286V306Q396 369 362 406T268 444Q211 444 171 403T124 286H396ZM443 100V26Q384 -5 299 -5Q184 -5 114 65T43 252Q43 373 106 443T268 513Q363 513
419 452T475 279Q475 247 470 220H124Q133 145 181 105T307 65Q392 65 443 100Z" />
<glyph unicode="&#xe9;" glyph-name="eacute" horiz-adv-x="522" d="M444 716L320 560H251L350 716H444ZM396 286V306Q396 369 362 406T268 444Q211 444 171 403T124 286H396ZM443 100V26Q384 -5 299 -5Q184 -5 114 65T43 252Q43 373 106 443T268 513Q363 513
419 452T475 279Q475 247 470 220H124Q133 145 181 105T307 65Q392 65 443 100Z" />
<glyph unicode="&#xea;" glyph-name="ecircumflex" horiz-adv-x="522" d="M281 665L196 560H116L243 716H319L446 560H366L281 665ZM396 286V306Q396 369 362 406T268 444Q211 444 171 403T124 286H396ZM443 100V26Q384 -5 299 -5Q184 -5 114 65T43 252Q43 373
106 443T268 513Q363 513 419 452T475 279Q475 247 470 220H124Q133 145 181 105T307 65Q392 65 443 100Z" />
<glyph unicode="&#xeb;" glyph-name="edieresis" horiz-adv-x="522" d="M404 587T382 587T346 602T331 639T345 675T382 690T419 676T434 639T419 602ZM203 587T181 587T144 602T129 639T144 675T181 690T217 676T232 639T218 602ZM396 286V306Q396 369 362 406T268
444Q211 444 171 403T124 286H396ZM443 100V26Q384 -5 299 -5Q184 -5 114 65T43 252Q43 373 106 443T268 513Q363 513 419 452T475 279Q475 247 470 220H124Q133 145 181 105T307 65Q392 65 443 100Z" />
<glyph unicode="&#xec;" glyph-name="igrave" horiz-adv-x="233" d="M77 0V507H156V0H77ZM47 715L145 559H76L-48 715H47Z" />
<glyph unicode="&#xed;" glyph-name="iacute" horiz-adv-x="233" d="M77 0V507H156V0H77ZM88 560L187 716H281L157 560H88Z" />
<glyph unicode="&#xee;" glyph-name="icircumflex" horiz-adv-x="233" d="M79 716H155L282 560H202L117 665L32 560H-48L79 716ZM77 0V507H156V0H77Z" />
<glyph unicode="&#xef;" glyph-name="idieresis" horiz-adv-x="233" d="M77 0V507H156V0H77ZM-36 618T-36 640T-21 676T16 691T52 677T67 640T53 603T16 588T-21 603ZM166 618T166 640T180 676T217 691T254 677T269 640T254 603T217 588T181 603Z" />
<glyph unicode="&#xf0;" glyph-name="eth" horiz-adv-x="517" d="M251 64Q312 64 352 110T396 256Q336 335 245 335Q191 335 156 300T120 200Q120 138 157 101T251 64ZM452 613L367 569Q471 435 471 269Q471 133 412 62T251 -9Q156 -9 97 53T38 202Q38 298 97
353T239 408Q331 408 390 340Q372 446 301 536L161 464V525L263 577Q204 636 131 674H255Q295 648 330 612L452 674V613Z" />
<glyph unicode="&#xf1;" glyph-name="ntilde" horiz-adv-x="540" d="M400 693L449 659Q417 590 350 590Q323 590 281 612T222 634Q181 634 154 586L111 623Q125 653 152 673T212 694Q242 694 285 672T346 650Q380 650 400 693ZM151 507V419Q196 514 311 514Q385
514 429 469T473 349V0H394V328Q394 384 366 413T291 443Q234 443 193 399T151 277V0H73V507H151Z" />
<glyph unicode="&#xf2;" glyph-name="ograve" horiz-adv-x="562" d="M279 -9Q170 -9 107 64T43 250Q43 363 108 438T279 514Q394 514 456 440T519 252Q519 139 455 65T279 -9ZM279 444Q207 444 166 388T125 251Q125 172 167 117T279 61Q355 61 396 115T437 251Q437
335 398 389T279 444ZM220 716L318 560H249L125 716H220Z" />
<glyph unicode="&#xf3;" glyph-name="oacute" horiz-adv-x="562" d="M258 560L357 716H451L327 560H258ZM279 -9Q170 -9 107 64T43 250Q43 363 108 438T279 514Q394 514 456 440T519 252Q519 139 455 65T279 -9ZM279 444Q207 444 166 388T125 251Q125 172 167
117T279 61Q355 61 396 115T437 251Q437 335 398 389T279 444Z" />
<glyph unicode="&#xf4;" glyph-name="ocircumflex" horiz-adv-x="562" d="M279 444Q207 444 166 388T125 251Q125 172 167 117T279 61Q355 61 396 115T437 251Q437 335 398 389T279 444ZM279 -9Q170 -9 107 64T43 250Q43 363 108 438T279 514Q394 514 456 440T519
252Q519 139 455 65T279 -9ZM246 715H322L449 559H369L284 664L199 559H119L246 715Z" />
<glyph unicode="&#xf5;" glyph-name="otilde" horiz-adv-x="562" d="M279 -9Q170 -9 107 64T43 250Q43 363 108 438T279 514Q394 514 456 440T519 252Q519 139 455 65T279 -9ZM279 444Q207 444 166 388T125 251Q125 172 167 117T279 61Q355 61 396 115T437 251Q437
335 398 389T279 444ZM404 693L453 659Q421 590 354 590Q327 590 285 612T226 634Q185 634 158 586L115 623Q129 653 156 673T216 694Q246 694 289 672T350 650Q384 650 404 693Z" />
<glyph unicode="&#xf6;" glyph-name="odieresis" horiz-adv-x="562" d="M137 615T137 637T152 673T189 688T225 674T240 637T226 600T189 585T152 600ZM339 615T339 637T353 673T390 688T427 674T442 637T427 600T390 585T354 600ZM279 -9Q170 -9 107 64T43 250Q43
363 108 438T279 514Q394 514 456 440T519 252Q519 139 455 65T279 -9ZM279 444Q207 444 166 388T125 251Q125 172 167 117T279 61Q355 61 396 115T437 251Q437 335 398 389T279 444Z" />
<glyph unicode="&#xf7;" glyph-name="divide" horiz-adv-x="553" d="M223 518Q223 540 238 555T276 571Q297 571 312 556T328 518Q328 497 313 482T276 466Q254 466 239 481T223 518ZM57 304V376H497V304H57ZM223 162Q223 183 238 198T276 214Q297 214 312 199T328
162Q328 140 313 125T276 109Q254 109 239 124T223 162Z" />
<glyph unicode="&#xf8;" glyph-name="oslash" horiz-adv-x="563" d="M428 375L207 82Q245 55 293 55Q372 55 414 111T456 251Q456 323 428 375ZM163 133L383 425Q345 450 292 450Q217 450 175 393T133 251Q133 182 163 133ZM533 514L474 436Q533 363 533 252Q533
139 469 65T293 -9Q221 -9 165 26L138 -9H56L115 70Q56 141 56 250Q56 362 122 438T293 514Q368 514 424 479L450 514H533Z" />
<glyph unicode="&#xf9;" glyph-name="ugrave" horiz-adv-x="540" d="M304 559H235L111 715H206L304 559ZM388 507H467V0H388V88Q348 -6 229 -6Q154 -6 111 38T67 158V507H146V178Q146 123 174 94T250 65Q313 65 350 109T388 228V507Z" />
<glyph unicode="&#xfa;" glyph-name="uacute" horiz-adv-x="540" d="M433 716L309 560H240L339 716H433ZM388 507H467V0H388V88Q348 -6 229 -6Q154 -6 111 38T67 158V507H146V178Q146 123 174 94T250 65Q313 65 350 109T388 228V507Z" />
<glyph unicode="&#xfb;" glyph-name="ucircumflex" horiz-adv-x="540" d="M269 665L184 560H104L231 716H307L434 560H354L269 665ZM388 507H467V0H388V88Q348 -6 229 -6Q154 -6 111 38T67 158V507H146V178Q146 123 174 94T250 65Q313 65 350 109T388 228V507Z" />
<glyph unicode="&#xfc;" glyph-name="udieresis" horiz-adv-x="540" d="M393 585T371 585T335 600T320 637T334 673T371 688T408 674T423 637T408 600ZM192 585T170 585T133 600T118 637T133 673T170 688T206 674T221 637T207 600ZM388 507H467V0H388V88Q348 -6
229 -6Q154 -6 111 38T67 158V507H146V178Q146 123 174 94T250 65Q313 65 350 109T388 228V507Z" />
<glyph unicode="&#xfd;" glyph-name="yacute" horiz-adv-x="493" d="M222 560L321 716H415L291 560H222ZM213 13L8 507H97L163 340L252 110Q260 136 332 340L391 507H476L293 13Q254 -90 201 -132T78 -174Q52 -174 36 -169V-98Q51 -102 70 -102Q171 -102 213 13Z" />
<glyph unicode="&#xfe;" glyph-name="thorn" horiz-adv-x="567" d="M296 64Q360 64 401 114T442 258Q442 341 402 392T301 443T196 399T151 253Q151 156 196 110T296 64ZM151 707V430Q204 515 308 515Q409 515 466 442T524 258Q524 141 464 67T306 -8Q206 -8 151
77V-197H73V707H151Z" />
<glyph unicode="&#xff;" glyph-name="ydieresis" horiz-adv-x="493" d="M305 615T305 637T319 673T356 688T393 674T408 637T393 600T356 585T320 600ZM103 615T103 637T118 673T155 688T191 674T206 637T192 600T155 585T118 600ZM213 13L8 507H97L163 340L252
110Q260 136 332 340L391 507H476L293 13Q254 -90 201 -132T78 -174Q52 -174 36 -169V-98Q51 -102 70 -102Q171 -102 213 13Z" />
<glyph unicode="&#x2013;" glyph-name="endash" horiz-adv-x="540" d="M57 237V303H483V237H57Z" />
<glyph unicode="&#x2014;" glyph-name="emdash" horiz-adv-x="823" d="M57 239V305H766V239H57Z" />
<glyph unicode="&#x2018;" glyph-name="quoteleft" horiz-adv-x="180" d="M193 695L109 471H11L131 695H193Z" />
<glyph unicode="&#x2019;" glyph-name="quoteright" horiz-adv-x="181" d="M12 471L96 695H194L74 471H12Z" />
<glyph unicode="&#x201a;" glyph-name="quotesinglbase" horiz-adv-x="181" d="M2 -123L85 101H183L64 -123H2Z" />
<glyph unicode="&#x201c;" glyph-name="quotedblleft" horiz-adv-x="324" d="M193 695L109 471H12L132 695H193ZM337 695L254 471H159L276 695H337Z" />
<glyph unicode="&#x201d;" glyph-name="quotedblright" horiz-adv-x="323" d="M155 471L240 695H337L216 471H155ZM12 471L95 695H189L73 471H12Z" />
<glyph unicode="&#x201e;" glyph-name="quotedblbase" horiz-adv-x="323" d="M146 -123L230 101H327L207 -123H146ZM3 -123L85 101H180L64 -123H3Z" />
<glyph unicode="&#x2022;" glyph-name="bullet" horiz-adv-x="449" d="M92 299T92 356T129 451T224 489Q280 489 318 451T357 356T319 262T225 223Q168 223 130 261Z" />
<glyph unicode="&#x2039;" glyph-name="guilsinglleft" horiz-adv-x="299" d="M267 415L120 253L267 91H180L29 253L180 415H267Z" />
<glyph unicode="&#x203a;" glyph-name="guilsinglright" horiz-adv-x="297" d="M120 415L270 253L120 91H32L179 253L32 415H120Z" />
</font>
</defs>
</svg>
