<?xml version="1.0" standalone="no"?>
<!DOCTYPE svg PUBLIC "-//W3C//DTD SVG 1.1//EN" "http://www.w3.org/Graphics/SVG/1.1/DTD/svg11.dtd">
<svg xmlns="http://www.w3.org/2000/svg">
<defs >
<font id="Jost" horiz-adv-x="531" ><font-face
    font-family="Jost ExtraLight"
    units-per-em="1000"
    panose-1="0 0 0 0 0 0 0 0 0 0"
    ascent="1070"
    descent="-375"
    alphabetic="0" />
<glyph unicode=" " horiz-adv-x="301" />
<glyph unicode="!" horiz-adv-x="265" d="M206 700L129 201H151L245 700H206ZM84 12Q84 2 91 -4T108 -11Q118 -11 125 -5T132 12Q132 23 125 29T108 36Q98 36 91 29T84 12Z" />
<glyph unicode="&quot;" horiz-adv-x="409" d="M224 700L130 415H152L261 700H224ZM398 700L305 415H326L436 700H398Z" />
<glyph unicode="#" horiz-adv-x="564" d="M122 450H251H257H455H462H580L585 477H127L122 450ZM46 229H504L508 255H383H373H177H169H50L46 229ZM544 700L448 467L446 459L360 246L357 239L259 0H288L574 700H544ZM340 700L56 0L85 1L182 238L184 244L272 460L276
468L370 700H340Z" />
<glyph unicode="$" horiz-adv-x="563" d="M353 818L333 692H361L381 818H353ZM231 13L211 -112H239L259 13H231ZM486 538L515 553Q508 591 488 626T434 685T348 709Q300 709 257 688T184 631T147 547Q140 496 162 459T221 396T297 353Q334 337 366 314T417 257T429
177Q423 133 400 99T339 44T249 24Q196 24 163 51T112 119T85 206L56 190Q66 141 87 96T147 22T245 -8Q308 -8 354 17T427 84T462 179Q469 231 451 269T399 333T324 376Q296 389 269 404T219 439T186 485T180 545Q187 584 210 614T269 660T345 677Q391 677 419
656T463 604T486 538Z" />
<glyph unicode="%" horiz-adv-x="694" d="M101 558Q95 518 108 484T150 427T224 405Q268 405 304 425T365 481T396 557Q402 597 389 631T347 688T273 710Q229 710 193 689T132 634T101 558ZM129 557Q135 590 155 619T205 666T272 684Q308 684 331 665T363 618T368
557Q363 524 343 495T293 448T226 431Q190 431 167 449T134 497T129 557ZM365 144Q359 104 371 70T413 13T487 -9Q532 -9 568 11T628 67T659 143Q665 183 653 217T611 274T537 296Q492 296 456 275T396 220T365 144ZM392 143Q398 176 417 205T467 252T534 270Q571
269 594 251T627 204T631 143Q626 110 606 81T556 34T489 16Q452 17 429 35T396 83T392 143ZM645 699L84 0H115L677 699H645Z" />
<glyph unicode="&amp;" horiz-adv-x="655" d="M236 414L526 0H561L260 432Q247 453 235 474T217 519T215 570Q221 601 239 627T288 668T355 683Q391 682 413 666T444 623T449 568Q443 535 420 507T363 455T292 410Q266 396 236 381T174 347T117 304T72 249T48
176Q41 120 63 79T128 14T226 -9Q295 -9 352 20T459 97T552 198T638 300L616 316Q576 269 535 218T446 121T346 47T230 20Q182 20 146 39T92 94T80 177Q87 224 111 256T170 312T242 354T311 391Q353 415 388 441T448 499T479 568Q485 604 473 636T431 690T357 711Q312
712 275 694T214 643T184 571Q180 539 187 512T207 461T236 414Z" />
<glyph unicode="&apos;" horiz-adv-x="234" d="M224 700L130 415H152L261 700H224Z" />
<glyph unicode="(" horiz-adv-x="253" d="M302 780Q228 670 182 546T115 290Q96 167 103 43T151 -200H176Q142 -79 136 44T148 290Q168 421 213 543T328 780H302Z" />
<glyph unicode=")" horiz-adv-x="253" d="M7 -199Q81 -89 127 35T194 290Q212 414 205 538T157 780H132Q166 659 172 537T160 290Q140 160 95 38T-19 -199H7Z" />
<glyph unicode="*" horiz-adv-x="575" d="M524 589L347 529L350 511L527 561L524 589ZM440 381L356 525L340 513L415 364L440 381ZM231 365L355 512L342 525L210 383L231 365ZM185 561L345 511L355 528L197 589L185 561ZM366 700L339 520H358L395 700H366Z" />
<glyph unicode="+" horiz-adv-x="552" d="M77 240H497L502 270H82L77 240ZM313 486L234 25H265L346 486H313Z" />
<glyph unicode="," horiz-adv-x="277" d="M152 98L11 -155L31 -163L182 85L152 98Z" />
<glyph unicode="-" horiz-adv-x="204" d="M20 246H214L220 275H25L20 246Z" />
<glyph unicode="." horiz-adv-x="263" d="M83 13Q83 3 90 -4T107 -11Q117 -11 124 -4T131 13Q131 23 124 29T107 36Q97 36 90 30T83 13Z" />
<glyph unicode="/" horiz-adv-x="472" d="M519 700L-39 -149H-7L552 699L519 700Z" />
<glyph unicode="0" horiz-adv-x="548" d="M114 350Q122 407 142 465T194 572T268 650T364 679Q407 679 435 658T478 602T500 524T505 436T499 350Q492 293 472 235T420 128T345 50T249 21Q206 21 179 42T136 98T114 176T108 264T114 350ZM82 350Q76 304 76 254T85
157T113 73T165 13T247 -9Q307 -9 355 22T440 105T500 222T532 350Q537 397 537 447T529 544T501 628T449 688T367 710Q307 710 258 679T173 596T114 479T82 350Z" />
<glyph unicode="1" horiz-adv-x="409" d="M168 628L335 666L221 0H252L374 707L174 662L168 628Z" />
<glyph unicode="2" horiz-adv-x="515" d="M6 0H458L463 31L79 32L396 322Q437 361 473 409T518 516Q525 562 509 606T454 681T353 711Q285 712 235 677T152 585T108 461H139Q150 519 177 569T249 650T351 680Q403 680 435 655T479 592T485 515Q479 478 462 448T421
391T371 340L6 0Z" />
<glyph unicode="3" horiz-adv-x="534" d="M280 358Q322 360 362 372T435 405T492 458T522 531Q529 577 513 617T459 684T367 710Q310 710 266 686T193 620T154 527H184Q194 569 218 604T280 660T364 680Q410 680 440 658T483 602T490 529Q482 482 450 450T374
400T283 380L280 358ZM254 -9Q313 -9 363 15T447 81T487 178Q494 226 479 261T434 320T363 357T282 372L279 350Q313 348 346 337T407 304T447 253T455 181Q449 135 421 99T350 43T256 22Q202 22 167 43T117 102T105 185H73Q69 131 87 87T148 17T254 -9Z" />
<glyph unicode="4" horiz-adv-x="546" d="M20 141L510 140L515 169H395H388L79 170L453 618L375 159L374 152L347 0H379L500 700H488L20 141Z" />
<glyph unicode="5" horiz-adv-x="543" d="M503 230Q511 288 494 338T438 420T340 452Q289 453 246 432T171 383L287 671H582L588 700H267L120 328Q165 370 216 397T327 423Q379 422 413 395T463 325T471 230Q463 169 432 122T353 49T246 22Q178 22 139 59T79 155L51
137Q73 72 118 32T243 -9Q293 -9 337 8T416 57T473 133T503 230Z" />
<glyph unicode="6" d="M96 223Q104 275 135 319T215 390T322 418Q373 417 408 389T460 317T470 223Q463 168 433 122T355 48T251 21Q195 21 158 49T104 124T96 223ZM410 699L140 378Q114 347 94 307T65 223Q57 161 75 108T138 23T248 -9Q316 -9 369 22T458 106T501
223Q508 279 489 329T430 411T332 443Q284 444 243 425T169 374L171 372L452 699H410Z" />
<glyph unicode="7" horiz-adv-x="503" d="M118 669H533L94 0H129L587 700H123L118 669Z" />
<glyph unicode="8" horiz-adv-x="510" d="M146 538Q141 504 149 473T177 417T226 379T291 365Q327 365 361 378T423 415T469 470T494 538Q499 571 491 601T463 656T414 695T348 710Q298 710 255 687T182 624T146 538ZM175 535Q182 575 206 608T267 661T345 681Q387
681 415 660T456 606T463 535Q456 495 430 461T367 407T292 386Q256 387 228 408T184 463T175 535ZM64 187Q58 148 66 113T96 51T150 7T227 -9Q272 -9 310 6T379 48T429 110T455 186Q460 226 450 260T418 321T363 362T291 377Q250 377 213 363T144 323T92 262T64
187ZM95 189Q104 235 133 273T204 333T290 356Q333 356 366 333T415 272T425 189Q417 142 390 104T321 43T230 20Q180 20 148 43T102 106T95 189Z" />
<glyph unicode="9" d="M510 477Q501 426 471 382T392 310T284 283Q233 284 197 312T145 384T135 477Q143 533 173 579T251 652T355 680Q412 680 449 651T501 576T510 477ZM195 0L466 322Q491 353 512 394T540 477Q549 540 530 592T468 677T357 710Q291 710 237
679T148 595T104 477Q97 422 116 372T175 290T273 257Q322 256 363 275T437 327L434 329L155 0H195Z" />
<glyph unicode=":" horiz-adv-x="291" d="M83 13Q83 3 90 -4T107 -11Q117 -11 124 -4T131 13Q131 23 124 29T107 36Q97 36 90 30T83 13ZM144 370Q144 361 151 354T168 346Q178 346 185 353T192 370Q192 380 185 387T168 394Q159 394 152 387T144 370Z" />
<glyph unicode=";" horiz-adv-x="283" d="M173 370Q173 361 180 354T198 346Q208 346 214 353T221 370Q221 380 215 387T198 394Q188 394 181 387T173 370ZM152 98L11 -155L31 -163L182 85L152 98Z" />
<glyph unicode="&lt;" horiz-adv-x="621" d="M130 258L608 448L613 479L81 266L78 249L538 37L543 66L130 258Z" />
<glyph unicode="=" horiz-adv-x="597" d="M66 172H537L541 201H70L66 172ZM88 304H559L565 333H93L88 304Z" />
<glyph unicode="&gt;" horiz-adv-x="621" d="M526 258L47 68L42 37L574 249L577 267L117 479L112 449L526 258Z" />
<glyph unicode="?" horiz-adv-x="530" d="M490 514Q480 465 445 428T358 369T248 345H240L220 171H243L271 323Q331 328 384 352T473 418T520 514Q526 554 518 589T487 652T432 694T354 710Q280 710 229 677T136 594L158 578Q195 621 240 651T348 681Q400 681
434 658T482 598T490 514ZM177 12Q177 2 184 -4T200 -11Q211 -11 217 -5T224 12Q224 22 218 29T201 36Q192 36 185 30T177 12Z" />
<glyph unicode="@" horiz-adv-x="747" d="M251 320Q258 370 284 411T347 477T427 500Q459 500 477 480T502 430T505 370Q499 324 474 283T413 216T335 191Q301 192 282 210T255 258T251 320ZM222 319Q217 278 227 243T262 185T328 163Q377 163 418 192T487 269T522
368Q527 405 521 441T492 503T429 529Q380 531 335 503T260 426T222 319ZM61 320Q51 252 62 193T105 88T192 18T321 -8Q395 -9 455 8T566 50L556 74Q506 51 448 35T323 19Q233 20 177 60T99 169T89 320Q101 393 136 459T225 575T347 654T493 682Q559 681 607 656T684
589T724 496T725 390Q720 350 703 312T660 242T605 193T545 180Q522 182 512 194T501 224T502 256Q504 264 506 273T510 289L590 520H560L481 285L485 284Q477 253 477 223T492 174T540 152Q576 150 611 168T677 220T727 297T753 390Q763 449 751 505T706 608T620
681T495 709Q411 709 338 679T208 594T112 469T61 320Z" />
<glyph unicode="A" horiz-adv-x="599" d="M147 254H488L484 284H160L147 254ZM384 645L467 271L468 263L525 0H561L396 721L-17 0H20L170 265L174 273L384 645Z" />
<glyph unicode="B" horiz-adv-x="498" d="M146 382H257Q310 383 355 399T432 450T471 536Q478 575 468 605T435 657T378 689T302 700H177L57 0H195Q260 0 314 23T405 91T451 201Q457 246 444 281T403 341T341 378T266 391H148L145 372H259Q306 372 345 351T406
292T419 203Q411 147 380 109T302 50T198 30H94L204 670H300Q370 670 409 634T439 534Q432 489 404 460T336 417T252 401H149L146 382Z" />
<glyph unicode="C" horiz-adv-x="665" d="M113 350Q123 417 153 475T230 579T335 649T461 675Q525 676 576 654T664 587L671 630Q630 670 581 690T464 709Q390 709 325 681T209 603T124 489T78 350Q68 281 80 217T127 102T216 22T345 -8Q416 -9 471 12T576 71L583
114Q535 74 477 50T348 26Q282 26 234 53T155 126T114 230T113 350Z" />
<glyph unicode="D" horiz-adv-x="629" d="M177 700L57 0H89L209 700H177ZM228 0Q305 0 370 26T487 100T571 212T617 350Q628 421 615 484T567 596T477 672T346 700H194L188 667H342Q412 667 462 642T542 573T584 472T584 350Q570 260 522 188T400 75T231 33H80L74 0H228Z" />
<glyph unicode="E" horiz-adv-x="506" d="M72 0H406L410 31H77L72 0ZM187 669H519L525 700H192L187 669ZM136 371H449L454 402H141L136 371ZM177 700L57 0H89L209 700H177Z" />
<glyph unicode="F" horiz-adv-x="451" d="M187 669H480L486 700H193L187 669ZM135 364L419 363L424 394H140L135 364ZM177 700L57 0H89L209 700H177Z" />
<glyph unicode="G" horiz-adv-x="745" d="M430 314H687Q672 258 643 206T571 114T475 49T356 25Q289 25 239 52T157 124T115 228T112 350Q123 418 154 477T234 580T341 650T470 676Q549 676 607 639T695 537L722 557Q685 627 623 668T473 709Q397 709 331 681T212
604T125 489T78 350Q68 280 81 216T131 102T223 22T353 -8Q429 -8 492 21T602 100T681 213T726 344H435L430 314Z" />
<glyph unicode="H" horiz-adv-x="647" d="M136 366H588L593 397H140L136 366ZM624 700L503 0H535L657 700H624ZM177 700L57 0H89L209 700H177Z" />
<glyph unicode="I" horiz-adv-x="193" d="M174 700L54 0H85L206 700H174Z" />
<glyph unicode="J" horiz-adv-x="203" d="M-159 -142L-179 -166Q-164 -185 -136 -202T-72 -219Q-25 -220 6 -200T56 -143T83 -60L212 700H181L53 -50Q44 -112 16 -150T-69 -188Q-98 -188 -120 -174T-159 -142Z" />
<glyph unicode="K" horiz-adv-x="472" d="M174 700L54 0H86L206 700H174ZM497 699L141 373L393 0H432L179 371L540 699H497Z" />
<glyph unicode="L" horiz-adv-x="423" d="M177 700L57 0H380L385 31H94L209 700H177Z" />
<glyph unicode="M" horiz-adv-x="799" d="M227 616L389 93L731 614L688 0H720L770 723L400 161L225 721L25 0H57L227 616Z" />
<glyph unicode="N" horiz-adv-x="698" d="M681 700L571 65L167 721L43 0H76L185 632L590 -21L714 700H681Z" />
<glyph unicode="O" horiz-adv-x="756" d="M112 350Q122 416 153 475T232 580T339 650T468 676Q535 676 585 649T666 576T708 472T710 350Q699 284 668 225T590 121T483 50T354 24Q286 24 237 51T156 125T114 229T112 350ZM78 350Q68 280 81 216T130 102T221 21T351
-9Q426 -9 492 19T610 97T697 211T744 350Q754 420 740 484T691 599T601 679T470 709Q396 709 330 681T211 603T125 489T78 350Z" />
<glyph unicode="P" horiz-adv-x="485" d="M177 700L57 0H89L209 700H177ZM190 669H313Q366 669 403 648T457 587T466 495Q457 442 427 403T352 342T251 320H130L125 290H248Q311 290 364 315T452 386T498 495Q507 556 486 602T421 674T316 700H195L190 669Z" />
<glyph unicode="Q" horiz-adv-x="754" d="M112 350Q122 417 153 476T232 580T339 650T467 676Q535 676 585 649T666 576T708 472T710 350Q699 284 668 225T590 121T483 50T354 24Q286 24 237 51T156 125T114 229T112 350ZM78 350Q68 281 81 217T130 102T221 21T351
-9Q426 -9 492 19T610 97T697 212T744 350Q754 420 740 484T691 599T601 679T471 709Q396 709 330 681T211 603T125 489T78 350ZM407 300L661 0H702L448 300H407Z" />
<glyph unicode="R" horiz-adv-x="480" d="M223 325L388 0H426L258 325H223ZM177 700L57 0H89L209 700H177ZM186 670H306Q361 670 402 651T463 594T474 502Q465 448 433 410T352 353T246 333H129L124 304H244Q309 305 364 328T458 395T506 502Q516 564 492 608T420
676T309 700H192L186 670Z" />
<glyph unicode="S" horiz-adv-x="491" d="M75 199L48 182Q56 134 77 91T136 20T235 -8Q294 -8 341 17T418 86T454 184Q458 237 440 273T387 335T315 377Q283 390 256 406T208 442T179 488T173 546Q178 584 200 613T257 660T334 677Q381 677 410 658T455 610T478
550L507 563Q500 599 480 632T424 687T337 709Q285 709 243 687T173 628T140 542Q136 504 148 474T182 422T233 383T291 353Q329 336 360 314T408 259T420 181Q415 137 391 102T327 45T236 23Q182 24 149 49T100 114T75 199Z" />
<glyph unicode="T" horiz-adv-x="428" d="M103 669H285L170 0H203L317 669H499L505 700H109L103 669Z" />
<glyph unicode="U" horiz-adv-x="573" d="M173 700L91 223Q82 162 96 109T151 24T260 -9Q331 -9 382 22T464 106T506 223L587 700H555L472 223Q463 167 436 122T366 49T262 22Q205 22 172 50T128 124T123 223L204 700H173Z" />
<glyph unicode="V" horiz-adv-x="599" d="M291 57L138 700H103L279 -21L680 700H642L291 57Z" />
<glyph unicode="W" horiz-adv-x="933" d="M670 73L561 722L251 73L142 700H107L236 -21L547 627L657 -21L1009 700H973L670 73Z" />
<glyph unicode="X" horiz-adv-x="501" d="M523 699L297 397L169 700H132L277 368L-2 0H38L288 337L430 0H467L309 366L562 699H523Z" />
<glyph unicode="Y" horiz-adv-x="507" d="M552 699L275 310L140 700H104L255 278L207 0H239L286 277L590 699H552Z" />
<glyph unicode="Z" horiz-adv-x="522" d="M124 669H537L-10 0H467L472 32H53L600 700H130L124 669Z" />
<glyph unicode="[" horiz-adv-x="263" d="M227 750L344 751L348 780H200L46 -220H194L199 -190H81L227 750Z" />
<glyph unicode="\" horiz-adv-x="445" d="M107 700L371 0H403L140 700H107Z" />
<glyph unicode="]" horiz-adv-x="263" d="M90 -190H-27L-32 -220H116L270 780H123L118 750H235L90 -190Z" />
<glyph unicode="^" horiz-adv-x="495" d="M336 671L452 460H484L347 709H335L113 461H148L336 671Z" />
<glyph unicode="_" horiz-adv-x="485" d="M-47 -116H439L443 -92H-43L-47 -116Z" />
<glyph unicode="`" horiz-adv-x="349" d="M177 683L325 529L342 540L207 700L177 683Z" />
<glyph unicode="a" horiz-adv-x="533" d="M482 460L403 0H431L511 460H482ZM53 230Q44 167 61 112T119 24T224 -9Q271 -9 310 11T379 66T429 142T455 230Q461 272 456 314T432 391T383 447T304 470Q240 471 187 439T99 352T53 230ZM83 230Q93 288 124 336T203
413T306 441Q345 440 373 421T418 371T441 304T441 230Q434 191 416 154T369 86T306 38T232 20Q176 20 140 49T90 127T83 230Z" />
<glyph unicode="b" horiz-adv-x="533" d="M211 780H181L47 0H77L211 780ZM505 230Q514 294 497 348T439 436T333 470Q286 470 247 450T179 395T130 318T103 230Q97 188 102 146T126 69T176 13T254 -9Q318 -10 371 22T460 109T505 230ZM475 230Q466 172 435 124T356
47T252 20Q213 21 186 39T141 89T118 156T117 230Q124 270 142 307T189 375T252 423T326 441Q382 442 418 412T468 334T475 230Z" />
<glyph unicode="c" horiz-adv-x="471" d="M85 230Q93 288 126 336T208 412T315 441Q363 441 400 421T456 374L462 412Q440 436 402 453T318 470Q251 470 195 438T101 351T54 230Q46 167 67 113T134 25T246 -9Q295 -9 337 8T406 48L412 86Q386 61 343 41T249 20Q191
20 152 50T95 127T85 230Z" />
<glyph unicode="d" horiz-adv-x="533" d="M535 780L401 0H431L565 780H535ZM53 230Q44 167 61 112T119 24T224 -9Q271 -9 310 11T379 66T429 142T455 230Q461 272 456 314T432 391T383 447T304 470Q240 471 187 439T99 352T53 230ZM83 230Q93 288 124 336T203
413T306 441Q345 440 373 421T418 371T441 304T441 230Q434 191 416 154T369 86T306 38T232 20Q176 20 140 49T90 127T83 230Z" />
<glyph unicode="e" horiz-adv-x="501" d="M229 -10Q295 -10 348 20T442 107L418 123Q383 73 336 46T232 19Q186 19 153 42T101 105T83 199Q83 245 100 288T148 367T218 422T302 442Q346 442 377 421T427 364T445 281Q445 266 441 253T432 230L446 250H76V223H466Q470
234 473 248T476 276Q476 332 454 375T394 444T304 470Q253 470 208 448T128 386T73 299T53 198Q53 135 75 88T137 16T229 -10Z" />
<glyph unicode="f" horiz-adv-x="272" d="M97 460L92 431H292L297 460H97ZM364 719L385 743Q373 760 355 774T308 789Q267 790 239 769T194 715T172 644L62 0H92L202 641Q207 668 218 695T251 741T304 758Q325 758 339 746T364 719Z" />
<glyph unicode="g" horiz-adv-x="533" d="M22 -30Q16 -84 33 -129T88 -202T187 -229Q251 -229 303 -198T389 -113T434 10L511 460H481L403 10Q394 -51 364 -99T288 -173T188 -200Q137 -199 106 -176T61 -115T52 -30H22ZM53 230Q44 167 61 112T119 24T224 -9Q271
-9 310 11T379 66T429 142T455 230Q461 272 456 314T432 391T383 447T304 470Q240 471 187 439T99 352T53 230ZM83 230Q93 288 124 336T203 413T306 441Q344 440 372 421T418 372T441 305T442 234Q435 194 417 156T370 87T307 38T232 20Q176 20 140 49T90 127T83
230Z" />
<glyph unicode="h" horiz-adv-x="475" d="M216 780H186L52 0H82L216 780ZM392 308L338 0H368L423 311Q428 354 420 390T385 448T311 470Q261 470 221 443T155 373T118 281H130Q140 321 163 358T223 418T303 441Q344 441 364 422T391 374T392 308Z" />
<glyph unicode="i" horiz-adv-x="204" d="M169 682Q169 673 175 666T192 659Q202 659 208 666T215 682Q215 692 209 698T192 705Q182 705 176 699T169 682ZM139 460L60 0H91L170 460H139Z" />
<glyph unicode="j" horiz-adv-x="195" d="M158 682Q158 673 165 666T181 659Q191 659 197 666T204 682Q204 692 198 698T181 705Q172 705 165 699T158 682ZM-124 -150L-145 -174Q-132 -191 -114 -205T-67 -219Q-26 -219 2 -199T46 -145T68 -76L160 460H130L38
-73Q34 -98 22 -125T-11 -170T-64 -189Q-85 -189 -100 -176T-124 -150Z" />
<glyph unicode="k" horiz-adv-x="380" d="M181 780L47 0H77L212 780H181ZM367 459L114 272L310 0H346L150 268L408 459H367Z" />
<glyph unicode="l" horiz-adv-x="189" d="M186 780L52 0H82L216 780H186Z" />
<glyph unicode="m" horiz-adv-x="696" d="M642 311Q647 351 641 387T613 446T548 470Q496 471 456 438T390 351Q391 382 382 409T352 453T295 470Q261 471 232 455T180 413T144 354L162 460H132L52 0H82L134 289Q140 329 162 364T216 420T287 441Q322 440 338
421T359 371T359 308L305 0H335L386 288Q392 327 414 362T469 419T540 441Q576 440 592 421T612 371T612 308L558 0H589L642 311Z" />
<glyph unicode="n" horiz-adv-x="475" d="M392 308L338 0H368L423 311Q428 354 420 389T385 447T311 470Q253 470 210 437T145 352L162 460H132L52 0H82L134 288Q141 329 164 364T224 420T303 441Q344 441 364 422T391 374T392 308Z" />
<glyph unicode="o" horiz-adv-x="537" d="M59 230Q51 167 72 113T139 25T251 -9Q318 -9 374 23T468 110T515 230Q524 293 503 347T435 436T323 470Q256 470 199 438T105 351T59 230ZM89 230Q98 288 131 336T213 412T320 441Q378 441 417 411T474 334T485 230Q476
173 444 125T362 49T253 20Q196 20 157 50T99 127T89 230Z" />
<glyph unicode="p" horiz-adv-x="533" d="M40 -219L157 460H127L9 -219H40ZM505 230Q514 294 497 348T439 436T333 470Q286 470 247 450T179 395T130 318T103 230Q97 188 102 146T126 69T176 13T254 -9Q318 -10 371 22T460 109T505 230ZM475 230Q466 172 435 124T356
47T252 20Q213 21 186 39T141 89T118 156T117 230Q124 270 142 307T189 375T252 423T326 441Q382 442 418 412T468 334T475 230Z" />
<glyph unicode="q" horiz-adv-x="533" d="M364 -219H393L511 460H481L364 -219ZM53 230Q44 167 61 112T119 24T224 -9Q271 -9 310 11T379 66T429 142T455 230Q461 272 456 314T432 391T383 447T304 470Q240 471 187 439T99 352T53 230ZM83 230Q93 288 124 336T203
413T306 441Q345 440 373 421T418 371T441 304T441 230Q434 191 416 154T369 86T306 38T232 20Q176 20 140 49T90 127T83 230Z" />
<glyph unicode="r" horiz-adv-x="296" d="M162 460H132L52 0H82L162 460ZM314 420L335 445Q320 455 304 462T270 470Q226 471 195 443T144 371T115 281H130Q137 318 153 355T195 417T261 441Q276 440 289 435T314 420Z" />
<glyph unicode="s" horiz-adv-x="391" d="M68 134L42 122Q46 90 62 60T108 10T185 -9Q226 -9 259 8T314 54T338 122Q342 159 326 183T284 223T226 251Q197 261 174 273T138 305T128 357Q134 397 165 419T238 442Q285 441 309 417T347 358L371 372Q358 412 327
440T240 469Q206 469 175 456T124 417T99 354Q95 315 109 291T150 252T208 226Q236 216 260 203T298 170T308 120Q303 75 269 47T188 18Q148 19 123 35T86 78T68 134Z" />
<glyph unicode="t" horiz-adv-x="198" d="M65 460L60 431H236L241 460H65ZM163 620L57 0H87L194 620H163Z" />
<glyph unicode="u" horiz-adv-x="475" d="M109 159L162 460H132L79 156Q73 112 80 75T114 14T188 -9Q247 -10 289 23T355 106L338 0H368L448 460H418L367 173Q361 134 337 99T276 42T197 20Q156 21 136 40T110 91T109 159Z" />
<glyph unicode="v" horiz-adv-x="414" d="M61 460L186 -21L462 460H427L197 48L94 460H61Z" />
<glyph unicode="w" horiz-adv-x="619" d="M64 460L138 -21L347 399L418 -21L660 460H626L430 61L360 482L154 62L96 460H64Z" />
<glyph unicode="x" horiz-adv-x="380" d="M381 459L213 261L105 460H70L193 239L-12 0H26L207 213L322 0H356L227 236L418 459H381Z" />
<glyph unicode="y" horiz-adv-x="416" d="M463 460H428L184 46L201 43L92 460H58L174 35L20 -219H55L463 460Z" />
<glyph unicode="z" horiz-adv-x="426" d="M391 431L-10 0H375L381 30H53L453 460H91L87 431H391Z" />
<glyph unicode="{" horiz-adv-x="282" d="M235 646Q242 694 260 723T322 752H346L350 780H318Q283 780 260 763T223 714T203 640L171 430Q165 382 146 350T98 302L94 278Q119 260 126 228T129 150L97 -60Q93 -99 96 -130T116 -181T169 -200H199L204 -172H179Q151
-172 138 -158T124 -120T125 -66L156 132Q159 161 159 187T154 235T136 273T102 294L100 287Q124 292 141 306T171 342T192 391T204 448L235 646Z" />
<glyph unicode="|" horiz-adv-x="222" d="M201 785L46 -215H75L229 785H201Z" />
<glyph unicode="}" horiz-adv-x="282" d="M104 -66Q98 -113 79 -142T17 -172H-6L-11 -200H21Q57 -200 80 -182T117 -133T136 -60L168 150Q175 199 193 231T241 278L245 302Q221 321 214 352T211 430L243 640Q248 679 244 711T223 761T170 780H140L136 752H160Q189
752 201 738T216 700T215 646L183 448Q180 420 180 394T185 345T203 308T238 286L239 294Q216 290 198 275T168 239T147 190T135 132L104 -66Z" />
<glyph unicode="~" horiz-adv-x="558" d="M112 178Q111 183 111 189T111 200Q117 240 143 269T211 298Q233 298 249 288T278 264T301 236Q321 213 344 193T400 173Q424 172 446 182T483 211Q497 227 505 248T517 290Q518 297 518 304T517 318L488 322Q489 315
489 307T488 292Q483 256 461 229T401 202Q374 202 355 220T319 259Q299 283 275 304T214 327Q187 327 163 316T121 286Q106 270 97 249T84 206Q83 199 83 193T83 182L112 178Z" />
<glyph unicode="&#xa0;" horiz-adv-x="301" />
<glyph unicode="&#xa1;" horiz-adv-x="291" d="M109 -244L186 255H165L70 -244H109ZM230 442Q232 452 226 459T211 466Q202 467 194 460T184 443Q183 434 189 427T204 419Q213 419 221 426T230 442Z" />
<glyph unicode="&#xa2;" horiz-adv-x="563" d="M271 8L246 -111H275L293 8H271ZM124 230Q134 288 167 335T251 412T359 441Q407 441 444 422T499 374L505 412Q483 436 446 453T361 470Q294 470 238 438T143 351T94 230Q85 168 105 113T170 25T283 -9Q332 -9 374
8T444 48L450 86Q423 61 380 41T285 20Q227 20 189 50T133 128T124 230ZM365 578L346 454H367L393 578H365Z" />
<glyph unicode="&#xa3;" horiz-adv-x="563" d="M107 324L102 295H418L423 324H107ZM515 493L543 501Q546 533 541 569T520 637T475 689T398 710Q358 710 323 696T259 658T213 601T189 532Q184 491 195 457T222 391T250 328T256 260Q247 210 215 168T141 85T55
0H462L467 31H93V16Q116 36 146 62T206 119T258 187T288 264Q293 302 282 334T254 396T227 460T222 533Q229 572 253 605T314 659T395 678Q435 678 459 660T497 614T513 554T515 493Z" />
<glyph unicode="&#xa4;" horiz-adv-x="549" d="M110 518L170 446L194 466L135 539L110 518ZM54 62L137 133L120 155L36 84L54 62ZM485 446L568 516L550 539L467 467L485 446ZM410 135L469 61L493 83L434 155L410 135ZM74 300Q65 238 85 184T150 95T260 61Q325
61 381 93T476 180T524 300Q533 363 513 417T448 506T338 540Q273 540 217 507T122 420T74 300ZM105 300Q114 357 147 405T229 482T336 511Q393 511 430 481T485 402T493 300Q484 244 451 196T368 119T262 90Q205 90 167 120T113 198T105 300Z" />
<glyph unicode="&#xa5;" horiz-adv-x="552" d="M54 276H519L524 305H59L54 276ZM31 144H497L502 173H36L31 144ZM565 699L289 310L153 700H118L269 279L220 0H253L300 276L602 699H565Z" />
<glyph unicode="&#xa6;" horiz-adv-x="222" d="M189 695L147 456H175L218 695H189ZM141 245H112L70 6H98L141 245Z" />
<glyph unicode="&#xa7;" horiz-adv-x="389" d="M410 605L435 620Q422 661 382 685T292 710Q256 710 221 697T162 659T131 596Q127 569 137 549T168 515T211 489T256 469Q281 459 307 445T351 410T364 362Q360 329 338 308T283 273T216 251L214 241Q248 242 278
249T333 270T374 307T396 363Q401 397 384 420T338 460T281 490Q263 497 241 507T200 529T170 557T162 596Q166 625 186 643T235 671T289 681Q330 681 363 661T410 605ZM50 137L23 123Q27 85 48 55T104 8T180 -9Q220 -9 257 3T320 41T352 109Q358 147 341 173T294
216T235 248Q217 256 196 266T157 289T128 320T122 362Q127 391 148 412T202 449T272 472L273 480Q237 478 207 470T152 446T112 410T91 360Q86 325 104 301T153 259T210 228Q237 216 265 201T310 164T321 107Q316 76 294 56T243 28T184 19Q128 20 92 54T50 137Z"
/>
<glyph unicode="&#xa8;" horiz-adv-x="423" d="M373 681Q372 672 378 665T393 657Q403 657 411 664T420 680Q421 690 415 697T399 704Q391 705 383 698T373 681ZM179 681Q178 672 184 665T199 657Q209 657 217 664T226 680Q227 690 221 697T205 704Q197 705 189
698T179 681Z" />
<glyph unicode="&#xa9;" horiz-adv-x="776" d="M241 350Q248 404 277 448T350 518T447 545Q486 545 516 532T569 493L574 519Q548 542 519 553T448 565Q390 565 341 536T260 458T220 350Q213 294 230 245T286 166T384 136Q426 135 459 148T522 182L526 208Q497
185 463 170T385 156Q332 157 298 184T249 256T241 350ZM99 350Q110 420 143 481T228 589T343 662T479 688Q548 688 603 661T695 586T747 478T752 350Q741 281 708 220T623 111T508 38T372 12Q303 12 248 39T156 114T104 223T99 350ZM76 350Q66 278 82 214T138
99T237 20T371 -10Q448 -10 516 18T639 95T728 210T775 350Q785 422 769 487T713 602T614 681T479 710Q402 710 334 683T211 606T122 491T76 350Z" />
<glyph unicode="&#xaa;" horiz-adv-x="231" d="M101 529Q105 558 132 575T189 592Q210 592 225 585T252 568L254 579Q244 588 229 595T189 604Q155 604 124 584T87 530Q82 496 101 477T150 456Q187 455 212 479T246 535L242 543Q233 515 210 492T154 470Q128 471
113 487T101 529ZM136 658Q150 669 169 679T212 687Q239 686 249 669T257 628L227 461H242L272 628Q275 658 261 679T213 701Q187 702 166 692T129 670L136 658Z" />
<glyph unicode="&#xab;" horiz-adv-x="478" d="M243 256L464 471L447 489L210 257L368 20L390 38L243 256ZM88 256L309 471L292 489L55 257L213 20L234 38L88 256Z" />
<glyph unicode="&#xac;" horiz-adv-x="602" d="M94 346H543L513 176H541L576 375H100L94 346Z" />
<glyph unicode="&#xad;" horiz-adv-x="204" d="M20 246H214L220 275H25L20 246Z" />
<glyph unicode="&#xae;" horiz-adv-x="776" d="M385 345L488 150H512L407 345H385ZM355 570L290 150H309L375 570H355ZM360 552H432Q480 551 511 526T535 451Q528 402 490 377T400 350H329L326 332L398 333Q456 335 501 364T555 451Q563 507 527 538T434 570H363L360
552ZM99 350Q110 420 143 481T228 589T343 662T479 688Q548 688 603 661T695 586T747 478T752 350Q741 281 708 220T623 111T508 38T372 12Q303 12 248 39T156 114T104 223T99 350ZM76 350Q66 278 82 214T138 99T237 20T371 -10Q448 -10 516 18T639 95T728 210T775
350Q785 422 769 487T713 602T614 681T479 710Q402 710 334 683T211 606T122 491T76 350Z" />
<glyph unicode="&#xaf;" horiz-adv-x="495" d="M160 646H500L505 675H165L160 646Z" />
<glyph unicode="&#xb0;" horiz-adv-x="270" d="M94 601Q87 553 114 517T191 481Q225 481 253 497T301 540T326 600Q331 632 321 659T288 703T230 720Q197 720 168 704T119 661T94 601ZM113 600Q118 628 135 651T176 688T229 702Q271 701 292 671T307 600Q304 572
287 549T245 513T192 499Q150 500 128 530T113 600Z" />
<glyph unicode="&#xb1;" horiz-adv-x="593" d="M46 0H514L519 31H51L46 0ZM104 370H571L576 400H108L104 370ZM359 620L287 150H318L392 620H359Z" />
<glyph unicode="&#xb2;" horiz-adv-x="326" d="M49 283L320 282L323 300L93 301L286 475Q311 499 333 527T360 590Q365 618 357 645T326 690T266 709Q225 710 194 689T143 633T114 559H133Q141 593 158 623T203 673T265 691Q296 690 314 675T339 638T341 592Q336
558 315 533T271 486L49 283Z" />
<glyph unicode="&#xb3;" horiz-adv-x="300" d="M193 495Q226 497 258 509T312 543T341 598Q346 626 336 650T305 690T250 706Q198 707 165 675T120 597H138Q148 634 176 662T249 688Q289 687 308 660T322 598Q316 570 296 551T250 522T195 508L193 495ZM175 275Q210
275 240 289T291 328T316 387Q321 415 312 436T285 472T244 493T195 503L193 490Q220 487 246 476T287 444T297 389Q291 348 256 320T176 293Q126 294 105 322T86 391H67Q66 359 76 333T112 291T175 275Z" />
<glyph unicode="&#xb4;" horiz-adv-x="349" d="M348 681L323 699L138 541L154 529L348 681Z" />
<glyph unicode="&#xb5;" horiz-adv-x="475" d="M162 460H131L-2 -319H27L93 58Q101 29 123 10T188 -9Q246 -10 289 23T355 104L338 0H368L448 460H418L366 173Q360 133 336 98T276 41T197 20Q158 20 137 37T110 84T106 149L162 460Z" />
<glyph unicode="&#xb6;" horiz-adv-x="472" d="M298 270L214 -219H242L395 674H475L322 -219H349L507 700H372Q308 700 253 674T162 600T114 485Q104 421 125 374T192 301T298 270Z" />
<glyph unicode="&#xb7;" horiz-adv-x="251" d="M114 227Q113 221 115 216T123 207T134 203Q140 203 146 206T156 215T161 226Q162 233 160 238T152 246T141 250Q135 251 129 248T119 239T114 227Z" />
<glyph unicode="&#xb8;" horiz-adv-x="340" d="M152 17L71 -93Q89 -83 109 -76T148 -70Q163 -71 174 -78T192 -97T196 -126Q193 -147 178 -163T143 -187T102 -196Q81 -196 66 -188T35 -166L18 -181Q37 -200 55 -209T100 -219Q127 -219 153 -208T197 -176T219 -126Q223
-94 205 -74T159 -52Q144 -51 132 -56T106 -68L179 17H152Z" />
<glyph unicode="&#xb9;" horiz-adv-x="456" d="M226 651L325 674L257 275H276L350 698L229 671L226 651Z" />
<glyph unicode="&#xba;" horiz-adv-x="270" d="M91 581Q84 533 111 497T188 461Q222 461 250 477T298 520T323 580Q328 612 318 639T284 683T226 700Q193 700 164 684T116 641T91 581ZM110 580Q114 608 131 631T173 668T226 682Q267 681 289 651T304 580Q300 552
283 529T242 493T188 479Q147 480 125 510T110 580Z" />
<glyph unicode="&#xbb;" horiz-adv-x="478" d="M268 254L47 39L64 21L301 253L143 490L121 472L268 254ZM423 254L202 39L219 21L456 253L298 490L277 472L423 254Z" />
<glyph unicode="&#xbc;" horiz-adv-x="732" d="M728 699L68 0H96L756 699H728ZM107 651L207 674L138 275H157L231 698L110 671L107 651ZM376 84H670L673 101H601H597H394L376 84ZM396 85L636 371L588 95V91L572 0H591L663 420L657 419L375 85H396Z" />
<glyph unicode="&#xbd;" horiz-adv-x="795" d="M728 699L68 0H96L756 699H728ZM107 651L207 674L138 275H157L231 698L110 671L107 651ZM454 3L725 2L728 20L499 21L691 195Q716 219 738 246T766 310Q771 338 763 364T731 409T670 429Q629 430 598 409T547 353T519
279H538Q546 313 563 343T607 392T669 410Q701 409 719 394T744 357T747 311Q741 278 720 253T676 206L454 3Z" />
<glyph unicode="&#xbe;" horiz-adv-x="796" d="M793 699L133 0H161L821 699H793ZM198 495Q231 497 263 509T317 543T346 598Q351 626 341 650T310 690T254 706Q202 707 169 675T124 597H142Q153 634 181 662T253 688Q293 687 313 660T327 598Q321 570 301 551T255
522T200 508L198 495ZM179 275Q214 275 245 289T296 328T321 387Q326 415 317 436T290 472T249 493T200 503L197 490Q224 487 250 476T292 444T302 389Q296 348 261 320T180 293Q131 294 110 322T91 391H72Q71 359 81 333T116 291T179 275ZM441 84H735L738 101H666H662H459L441
84ZM461 85L701 371L654 95L653 91L637 0H656L728 420L722 419L440 85H461Z" />
<glyph unicode="&#xbf;" horiz-adv-x="530" d="M107 186Q114 227 144 264T226 326T349 356L356 355L376 530H353L325 377Q266 372 213 348T123 282T76 186Q70 146 78 111T109 49T164 7T243 -9Q317 -10 368 23T461 106L438 123Q401 80 356 50T248 20Q197 20 162
43T113 103T107 186ZM419 687Q420 697 414 704T399 711Q393 712 387 709T377 700T372 688Q371 679 376 672T391 664Q397 664 403 667T414 676T419 687Z" />
<glyph unicode="&#xc0;" horiz-adv-x="599" d="M146 254H488L484 284H158L146 254ZM384 645L467 271L468 263L525 0H561L396 721L-17 0H20L170 265L174 273L384 645ZM302 936L447 782L465 793L331 953L302 936Z" />
<glyph unicode="&#xc1;" horiz-adv-x="599" d="M146 254H488L484 284H158L146 254ZM384 645L467 271L468 263L525 0H561L396 721L-17 0H20L170 265L174 273L384 645ZM564 935L538 952L352 794L366 782L564 935Z" />
<glyph unicode="&#xc2;" horiz-adv-x="599" d="M146 254H488L484 284H158L146 254ZM384 645L467 271L468 263L525 0H561L396 721L-17 0H20L170 265L174 273L384 645ZM426 892L542 769L562 786L430 926L251 787L268 770L426 892Z" />
<glyph unicode="&#xc3;" horiz-adv-x="599" d="M146 254H488L484 284H158L146 254ZM384 645L467 271L468 263L525 0H561L396 721L-17 0H20L170 265L174 273L384 645ZM275 802L296 790Q303 807 316 823T357 840Q378 840 393 829T425 806T467 794Q486 794 501 801T530
822T553 852L534 867Q521 848 506 834T471 820Q448 819 433 830T401 854T358 866Q337 866 321 857T293 833T275 802Z" />
<glyph unicode="&#xc4;" horiz-adv-x="599" d="M146 254H488L484 284H158L146 254ZM384 645L467 271L468 263L525 0H561L396 721L-17 0H20L170 265L174 273L384 645ZM486 819Q486 810 491 803T506 795Q515 795 523 802T533 819Q534 828 529 835T514 843Q505 843
497 836T486 819ZM292 819Q291 810 297 803T312 795Q321 795 329 802T339 819Q340 828 335 835T319 843Q310 843 302 836T292 819Z" />
<glyph unicode="&#xc5;" horiz-adv-x="599" d="M146 254H488L484 284H158L146 254ZM384 645L467 271L468 263L525 0H561L396 721L-17 0H20L170 265L174 273L384 645ZM311 806Q307 779 317 757T347 720T394 706Q421 706 446 719T488 754T510 805Q514 832 504 854T474
891T427 905Q401 905 376 892T333 856T311 806ZM333 805Q336 827 350 845T384 874T424 884Q455 883 473 860T488 805Q483 773 455 750T396 727Q365 728 347 751T333 805Z" />
<glyph unicode="&#xc6;" horiz-adv-x="888" d="M221 260L506 259L511 290H226L221 260ZM550 700L-23 0H14L577 687L550 700ZM467 0H786L792 31H472L467 0ZM587 669H901L906 700H550L587 669ZM530 371H830L836 402H536L530 371ZM568 700L448 0H480L601 700H568Z" />
<glyph unicode="&#xc7;" horiz-adv-x="665" d="M113 350Q123 417 153 475T230 579T335 649T461 675Q525 676 576 654T664 587L671 630Q630 670 581 690T464 709Q390 709 325 681T209 603T124 489T78 350Q68 281 80 217T127 102T216 22T345 -8Q416 -9 471 12T576
71L583 114Q535 74 477 50T348 26Q282 26 234 53T155 126T114 230T113 350ZM340 16L259 -94Q277 -84 297 -77T336 -71Q351 -72 362 -79T379 -98T383 -127Q381 -148 366 -164T331 -188T290 -197Q269 -197 254 -189T223 -167L206 -182Q225 -201 243 -210T287 -220Q314
-220 340 -209T385 -177T407 -127Q411 -95 393 -75T348 -53Q331 -52 320 -57T294 -69L366 16H340Z" />
<glyph unicode="&#xc8;" horiz-adv-x="506" d="M72 0H406L410 31H77L72 0ZM187 670L519 669L525 700H192L187 670ZM136 371H449L454 402H141L136 371ZM177 700L57 0H89L209 700H177ZM245 924L390 769L407 781L273 941L245 924Z" />
<glyph unicode="&#xc9;" horiz-adv-x="506" d="M72 0H406L410 31H77L72 0ZM187 670L519 669L525 700H192L187 670ZM136 371H449L454 402H141L136 371ZM177 700L57 0H89L209 700H177ZM533 922L509 940L321 782L336 770L533 922Z" />
<glyph unicode="&#xca;" horiz-adv-x="506" d="M72 0H406L410 31H77L72 0ZM187 670L519 669L525 700H192L187 670ZM136 371H449L454 402H141L136 371ZM177 700L57 0H89L209 700H177ZM387 892L503 769L524 785L391 925L212 787L229 770L387 892Z" />
<glyph unicode="&#xcb;" horiz-adv-x="506" d="M72 0H406L410 31H77L72 0ZM187 670L519 669L525 700H192L187 670ZM136 371H449L454 402H141L136 371ZM177 700L57 0H89L209 700H177ZM446 813Q446 804 451 797T466 789Q475 789 483 796T493 812Q494 822 489 829T474
836Q465 837 457 830T446 813ZM252 813Q251 804 257 797T272 789Q281 789 289 796T299 812Q300 822 295 829T279 836Q270 837 262 830T252 813Z" />
<glyph unicode="&#xcc;" horiz-adv-x="193" d="M174 700L54 0H85L206 700H174ZM83 924L229 769L246 781L112 941L83 924Z" />
<glyph unicode="&#xcd;" horiz-adv-x="193" d="M174 700L54 0H85L206 700H174ZM371 922L348 940L160 782L175 770L371 922Z" />
<glyph unicode="&#xce;" horiz-adv-x="193" d="M174 700L54 0H85L206 700H174ZM223 892L338 769L359 785L227 925L48 787L65 770L223 892Z" />
<glyph unicode="&#xcf;" horiz-adv-x="193" d="M174 700L54 0H85L206 700H174ZM260 807Q259 798 265 791T280 783Q290 783 298 790T308 806Q308 816 303 823T287 831Q278 831 270 824T260 807ZM107 807Q107 798 112 791T127 783Q137 783 145 790T155 806Q155 816
150 823T135 831Q126 831 118 824T107 807Z" />
<glyph unicode="&#xd0;" horiz-adv-x="660" d="M35 335H327L332 364H40L35 335ZM177 700L57 0H89L209 700H177ZM228 0Q330 2 412 48T547 172T617 350Q631 445 604 524T511 651T346 700H194L188 667H342Q434 666 492 623T574 508T584 350Q570 260 522 189T399 77T231
33H80L74 0H228Z" />
<glyph unicode="&#xd1;" horiz-adv-x="676" d="M667 700L557 65L153 721L29 0H62L171 632L576 -21L699 700H667ZM305 768L325 756Q331 773 345 789T386 806Q407 806 423 795T456 772T496 760Q514 760 529 767T558 788T581 818L563 833Q549 814 535 800T500 786Q477
785 461 796T428 820T387 832Q366 832 350 823T322 799T305 768Z" />
<glyph unicode="&#xd2;" horiz-adv-x="756" d="M112 350Q122 417 153 476T232 580T339 650T467 676Q535 676 585 649T666 576T708 472T710 350Q699 284 668 225T590 121T483 50T354 24Q286 24 237 51T156 125T114 229T112 350ZM78 350Q68 281 81 217T130 102T221
21T351 -9Q426 -9 492 19T610 97T697 212T744 350Q754 420 740 484T691 599T601 679T470 709Q396 709 330 681T211 603T125 489T78 350ZM381 924L525 769L544 781L411 941L381 924Z" />
<glyph unicode="&#xd3;" horiz-adv-x="756" d="M112 350Q122 417 153 476T232 580T339 650T467 676Q535 676 585 649T666 576T708 472T710 350Q699 284 668 225T590 121T483 50T354 24Q286 24 237 51T156 125T114 229T112 350ZM78 350Q68 281 81 217T130 102T221
21T351 -9Q426 -9 492 19T610 97T697 212T744 350Q754 420 740 484T691 599T601 679T470 709Q396 709 330 681T211 603T125 489T78 350ZM636 922L611 940L424 782L440 770L636 922Z" />
<glyph unicode="&#xd4;" horiz-adv-x="756" d="M112 350Q122 417 153 476T232 580T339 650T467 676Q535 676 585 649T666 576T708 472T710 350Q699 284 668 225T590 121T483 50T354 24Q286 24 237 51T156 125T114 229T112 350ZM78 350Q68 281 81 217T130 102T221
21T351 -9Q426 -9 492 19T610 97T697 212T744 350Q754 420 740 484T691 599T601 679T471 709Q396 709 330 681T211 603T125 489T78 350ZM504 892L620 769L641 785L509 925L329 787L346 770L504 892Z" />
<glyph unicode="&#xd5;" horiz-adv-x="756" d="M112 350Q122 417 153 476T232 580T339 650T467 676Q535 676 585 649T666 576T708 472T710 350Q699 284 668 225T590 121T483 50T354 24Q286 24 237 51T156 125T114 229T112 350ZM78 350Q68 281 81 217T130 102T221
21T351 -9Q426 -9 492 19T610 97T697 212T744 350Q754 420 740 484T691 599T601 679T471 709Q396 709 330 681T211 603T125 489T78 350ZM353 796L373 784Q379 801 393 817T435 834Q456 834 471 823T504 800T544 788Q563 787 578 795T606 816T629 845L611 860Q598
841 584 828T548 813Q525 813 509 824T477 847T436 859Q416 859 399 850T369 827T353 796Z" />
<glyph unicode="&#xd6;" horiz-adv-x="756" d="M112 350Q122 417 153 476T232 580T339 650T467 676Q535 676 585 649T666 576T708 472T710 350Q699 284 668 225T590 121T483 50T354 24Q286 24 237 51T156 125T114 229T112 350ZM78 350Q68 281 81 217T130 102T221
21T351 -9Q426 -9 492 19T610 97T697 212T744 350Q754 420 740 484T691 599T601 679T470 709Q396 709 330 681T211 603T125 489T78 350ZM570 814Q569 805 575 798T590 790Q599 790 607 797T617 813Q618 823 613 830T597 838Q588 838 580 831T570 814ZM362 814Q362
805 367 798T382 790Q392 790 400 797T409 813Q410 823 405 830T390 838Q381 838 373 831T362 814Z" />
<glyph unicode="&#xd7;" horiz-adv-x="566" d="M75 40L297 235L452 39L476 60L318 254L543 447L525 470L301 274L147 470L123 450L282 255L57 62L75 40Z" />
<glyph unicode="&#xd8;" horiz-adv-x="767" d="M112 350Q122 417 153 476T232 580T339 650T467 676Q535 676 585 649T666 576T708 472T710 350Q699 284 668 225T590 121T483 50T354 24Q286 24 237 51T156 125T114 229T112 350ZM78 350Q68 281 81 217T130 102T221
21T351 -9Q426 -9 492 19T610 97T697 212T744 350Q754 420 740 484T691 599T601 679T471 709Q396 709 330 681T211 603T125 489T78 350ZM783 738L24 -21L46 -37L805 721L783 738Z" />
<glyph unicode="&#xd9;" horiz-adv-x="573" d="M173 700L91 223Q82 162 96 109T151 24T260 -9Q328 -9 379 22T462 106T506 223L587 700H555L472 223Q463 167 436 122T364 49T262 22Q205 23 172 51T128 124T123 223L204 700H173ZM287 924L432 769L449 781L316 941L287
924Z" />
<glyph unicode="&#xda;" horiz-adv-x="573" d="M173 700L91 223Q82 162 96 109T151 24T260 -9Q328 -9 379 22T462 106T506 223L587 700H555L472 223Q463 167 436 122T364 49T262 22Q205 23 172 51T128 124T123 223L204 700H173ZM548 922L523 940L336 782L351 770L548
922Z" />
<glyph unicode="&#xdb;" horiz-adv-x="573" d="M173 700L91 223Q82 162 96 109T151 24T260 -9Q328 -9 379 22T462 106T506 223L587 700H555L472 223Q463 167 436 122T364 49T262 22Q205 23 172 51T128 124T123 223L204 700H173ZM413 892L528 769L550 785L417 925L238
787L255 770L413 892Z" />
<glyph unicode="&#xdc;" horiz-adv-x="573" d="M173 700L91 223Q82 162 96 109T151 24T260 -9Q328 -9 379 22T462 106T506 223L587 700H555L472 223Q463 167 436 122T364 49T262 22Q205 23 172 51T128 124T123 223L204 700H173ZM462 793Q461 784 466 777T482 769Q491
769 499 776T509 792Q510 802 504 809T489 816Q480 817 472 810T462 793ZM281 793Q281 784 286 777T301 769Q310 769 319 776T328 792Q330 802 324 809T309 816Q300 817 291 810T281 793Z" />
<glyph unicode="&#xdd;" horiz-adv-x="507" d="M529 922L504 940L317 782L332 770L529 922ZM552 699L275 310L140 700H104L255 278L207 0H239L286 277L590 699H552Z" />
<glyph unicode="&#xde;" horiz-adv-x="514" d="M170 700L50 0H81L202 700H170ZM157 529H306Q361 528 401 506T462 444T473 350Q464 297 431 257T348 195T242 171H96L90 140H239Q305 142 362 168T457 240T506 350Q516 412 492 459T421 532T309 560H162L157 529Z" />
<glyph unicode="&#xdf;" horiz-adv-x="540" d="M302 -11Q359 -11 404 20T477 102T504 217Q504 265 489 293T451 337T405 363T367 386T351 421Q351 443 367 458T407 490T455 527T495 578T512 653Q512 697 492 728T439 777T361 794Q305 794 260 766T187 691T148
587L49 -1H80L180 582Q188 634 213 675T275 741T357 766Q410 766 445 735T480 651Q480 611 464 584T424 537T376 499T335 464T318 422Q318 393 334 377T372 350T418 324T456 283T472 213Q472 160 450 116T390 46T303 19Q267 19 232 33T172 71L153 49Q169 31 193
18T245 -3T302 -11Z" />
<glyph unicode="&#xe0;" horiz-adv-x="533" d="M482 460L403 0H431L511 460H482ZM53 230Q44 167 61 112T119 24T224 -9Q271 -9 310 11T379 66T429 142T455 230Q461 272 456 314T432 391T383 447T304 470Q240 471 187 439T99 352T53 230ZM83 230Q93 288 124 336T203
413T306 441Q345 440 373 421T418 371T441 304T441 230Q434 191 416 154T369 86T306 38T232 20Q176 20 140 49T90 127T83 230ZM234 692L380 538L396 549L264 709L234 692Z" />
<glyph unicode="&#xe1;" horiz-adv-x="533" d="M482 460L403 0H431L511 460H482ZM53 230Q44 167 61 112T119 24T224 -9Q271 -9 310 11T379 66T429 142T455 230Q461 272 456 314T432 391T383 447T304 470Q240 471 187 439T99 352T53 230ZM83 230Q93 288 124 336T203
413T306 441Q345 440 373 421T418 371T441 304T441 230Q434 191 416 154T369 86T306 38T232 20Q176 20 140 49T90 127T83 230ZM446 691L421 709L235 551L249 538L446 691Z" />
<glyph unicode="&#xe2;" horiz-adv-x="533" d="M482 460L403 0H431L511 460H482ZM53 230Q44 167 61 112T119 24T224 -9Q271 -9 310 11T379 66T429 142T455 230Q461 272 456 314T432 391T383 447T304 470Q240 471 187 439T99 352T53 230ZM83 230Q93 288 124 336T203
413T306 441Q345 440 373 421T418 371T441 304T441 230Q434 191 416 154T369 86T306 38T232 20Q176 20 140 49T90 127T83 230ZM346 667L461 544L482 561L349 701L171 562L188 545L346 667Z" />
<glyph unicode="&#xe3;" horiz-adv-x="533" d="M482 460L403 0H431L511 460H482ZM53 230Q44 167 61 112T119 24T224 -9Q271 -9 310 11T379 66T429 142T455 230Q461 272 456 314T432 391T383 447T304 470Q240 471 187 439T99 352T53 230ZM83 230Q93 288 124 336T203
413T306 441Q345 440 373 421T418 371T441 304T441 230Q434 191 416 154T369 86T306 38T232 20Q176 20 140 49T90 127T83 230ZM192 557L213 545Q220 562 233 578T273 595Q294 595 310 584T343 561T383 549Q402 549 417 556T446 577T468 607L450 622Q436 603 422
589T386 575Q363 574 347 585T315 609T274 621Q257 621 238 612T206 588T192 557Z" />
<glyph unicode="&#xe4;" horiz-adv-x="533" d="M482 460L403 0H431L511 460H482ZM53 230Q44 167 61 112T119 24T224 -9Q271 -9 310 11T379 66T429 142T455 230Q461 272 456 314T432 391T383 447T304 470Q240 471 187 439T99 352T53 230ZM83 230Q93 288 124 336T203
413T306 441Q345 440 373 421T418 371T441 304T441 230Q434 191 416 154T369 86T306 38T232 20Q176 20 140 49T90 127T83 230ZM411 590Q411 581 416 574T431 566Q441 565 449 572T459 589Q459 599 454 606T439 613Q430 613 422 606T411 590ZM217 590Q217 581 222
574T237 566Q247 565 255 572T264 589Q265 599 260 606T245 613Q236 613 228 606T217 590Z" />
<glyph unicode="&#xe5;" horiz-adv-x="533" d="M482 460L403 0H431L511 460H482ZM53 230Q44 167 61 112T119 24T224 -9Q271 -9 310 11T379 66T429 142T455 230Q461 272 456 314T432 391T383 447T304 470Q240 471 187 439T99 352T53 230ZM83 230Q93 288 124 336T203
413T306 441Q345 440 373 421T418 371T441 304T441 230Q434 191 416 154T369 86T306 38T232 20Q176 20 140 49T90 127T83 230ZM231 631Q227 604 237 582T267 545T314 531Q341 531 366 544T408 579T430 630Q434 657 424 679T394 716T347 730Q320 730 295 717T253
681T231 631ZM252 630Q256 651 270 669T304 698T345 709Q376 708 394 685T409 630Q406 609 392 591T357 563T316 552Q285 552 267 575T252 630Z" />
<glyph unicode="&#xe6;" horiz-adv-x="818" d="M165 -10Q238 -10 290 34T365 158H357Q362 76 406 33T530 -10Q597 -10 657 20T759 107L735 123Q697 73 643 46T531 19Q475 19 439 46T390 120T386 230L376 223H784Q787 233 789 240T793 258Q800 319 780 367T718
442T621 470Q569 470 521 448T436 387T381 299L390 304Q406 387 379 428T282 470Q238 470 193 454T109 406L124 382Q148 402 174 415T227 435T281 442Q334 442 357 410T370 317L356 232L371 233Q344 258 310 270T234 282Q177 282 132 263T59 209T25 128Q18 70 56
30T165 -10ZM170 18Q111 18 80 49T56 131Q61 169 85 197T149 242T235 258Q275 258 307 247T359 215L355 227L352 161L357 196Q335 110 287 64T170 18ZM386 237Q397 295 430 341T511 415T614 442Q665 442 700 418T751 351T760 256Q758 243 756 239L768 250H377L386
237Z" />
<glyph unicode="&#xe7;" horiz-adv-x="471" d="M78 230Q88 288 121 336T205 412T313 441Q361 441 398 421T453 374L459 412Q437 436 400 453T316 470Q249 470 192 438T96 351T48 230Q39 168 59 113T124 25T236 -9Q285 -9 327 8T397 48L403 86Q376 61 333 41T239
20Q181 20 143 50T87 128T78 230ZM232 15L151 -95Q169 -86 189 -79T228 -73Q243 -73 254 -80T271 -99T275 -128Q273 -150 258 -165T223 -190T182 -199Q160 -199 145 -191T115 -168L97 -184Q117 -202 135 -211T179 -221Q206 -221 232 -210T277 -178T298 -129Q302
-96 284 -76T239 -54Q223 -54 212 -59T186 -71L258 15H232Z" />
<glyph unicode="&#xe8;" horiz-adv-x="491" d="M76 223H465Q467 229 468 235T470 248Q477 306 460 356T402 438T303 470Q251 470 206 447T128 386T76 299Q69 283 65 266T57 231Q50 172 66 117T122 26T224 -9Q278 -9 317 7T386 50T440 106L418 123Q397 98 370 74T309
35T229 20Q174 21 141 51T95 130T88 232L90 241Q99 296 129 342T204 415T301 442Q353 442 386 414T432 341T437 250H80L76 223ZM185 687L332 533L350 544L214 705L185 687Z" />
<glyph unicode="&#xe9;" horiz-adv-x="491" d="M76 223H465Q467 229 468 235T470 248Q477 306 460 356T402 438T303 470Q251 470 206 447T128 386T76 299Q69 283 65 266T57 231Q50 172 66 117T122 26T224 -9Q278 -9 317 7T386 50T440 106L418 123Q397 98 370 74T309
35T229 20Q174 21 141 51T95 130T88 232L90 241Q99 296 129 342T204 415T301 442Q353 442 386 414T432 341T437 250H80L76 223ZM491 686L466 704L282 546L297 533L491 686Z" />
<glyph unicode="&#xea;" horiz-adv-x="491" d="M76 223H465Q467 229 468 235T470 248Q477 306 460 356T402 438T303 470Q251 470 206 447T128 386T76 299Q69 283 65 266T57 231Q50 172 66 117T122 26T224 -9Q278 -9 317 7T386 50T440 106L418 123Q397 98 370 74T309
35T229 20Q174 21 141 51T95 130T88 232L90 241Q99 296 129 342T204 415T301 442Q353 442 386 414T432 341T437 250H80L76 223ZM332 653L448 530L469 546L336 686L157 548L174 531L332 653Z" />
<glyph unicode="&#xeb;" horiz-adv-x="491" d="M76 223H465Q467 229 468 235T470 248Q477 306 460 356T402 438T303 470Q251 470 206 447T128 386T76 299Q69 283 65 266T57 231Q50 172 66 117T122 26T224 -9Q278 -9 317 7T386 50T440 106L418 123Q397 98 370 74T309
35T229 20Q174 21 141 51T95 130T88 232L90 241Q99 296 129 342T204 415T301 442Q353 442 386 414T432 341T437 250H80L76 223ZM387 554Q387 545 392 538T407 530Q417 530 425 537T434 554Q435 563 430 570T414 578Q405 578 397 571T387 554ZM193 554Q193 545 198
538T213 530Q223 530 231 537T240 554Q241 563 236 570T220 578Q211 578 203 571T193 554Z" />
<glyph unicode="&#xec;" horiz-adv-x="204" d="M139 460L60 0H90L169 460H139ZM41 691L185 537L203 548L71 708L41 691Z" />
<glyph unicode="&#xed;" horiz-adv-x="204" d="M139 460L60 0H90L169 460H139ZM346 690L321 707L134 549L150 537L346 690Z" />
<glyph unicode="&#xee;" horiz-adv-x="204" d="M139 460L60 0H90L169 460H139ZM188 656L304 533L325 549L192 690L13 551L30 534L188 656Z" />
<glyph unicode="&#xef;" horiz-adv-x="204" d="M139 460L60 0H90L169 460H139ZM231 563Q230 554 236 547T251 539Q260 539 268 546T278 562Q279 572 273 579T258 587Q249 587 241 580T231 563ZM64 563Q64 554 69 547T84 539Q94 539 102 546T112 562Q112 572 107
579T92 587Q83 587 75 580T64 563Z" />
<glyph unicode="&#xf0;" horiz-adv-x="548" d="M245 -10Q297 -10 344 12T429 72T487 159T507 262Q507 289 502 316T482 375T443 452T379 559T284 707L264 687Q304 627 332 584T380 507T417 439T453 363L465 364Q435 403 394 423T299 443Q253 443 209 423T130 367T73
285T51 187Q51 127 74 83T141 14T245 -10ZM245 20Q172 20 127 65T82 187Q82 232 101 273T152 347T223 399T303 418Q359 418 397 396T455 337T475 255Q475 210 456 168T405 93T331 40T245 20ZM232 515L503 624L495 645L225 536L232 515Z" />
<glyph unicode="&#xf1;" horiz-adv-x="475" d="M162 460H132L52 0H82L162 460ZM392 308L338 0H368L423 311Q428 354 420 390T385 448T311 470Q260 470 220 443T153 373T116 281H130Q140 321 163 358T223 418T303 441Q344 441 364 422T391 374T392 308ZM172 557L192
545Q199 562 212 578T254 595Q275 595 290 584T323 561T363 549Q381 549 396 556T425 577T448 607L430 622Q417 603 403 589T367 575Q344 574 328 585T296 609T254 621Q233 621 217 612T190 588T172 557Z" />
<glyph unicode="&#xf2;" horiz-adv-x="537" d="M53 230Q44 168 64 113T129 25T241 -9Q308 -9 365 23T461 110T509 230Q518 293 498 347T432 436T320 470Q253 470 196 438T101 351T53 230ZM83 230Q93 288 126 336T210 412T318 441Q376 441 414 411T470 333T478
230Q469 173 436 125T353 49T243 20Q185 20 147 50T92 127T83 230ZM220 691L366 537L383 548L250 708L220 691Z" />
<glyph unicode="&#xf3;" horiz-adv-x="537" d="M53 230Q44 168 64 113T129 25T241 -9Q308 -9 365 23T461 110T509 230Q518 293 498 347T432 436T320 470Q253 470 196 438T101 351T53 230ZM83 230Q93 288 126 336T210 412T318 441Q376 441 414 411T470 333T478
230Q469 173 436 125T353 49T243 20Q185 20 147 50T92 127T83 230ZM499 690L474 707L287 549L302 537L499 690Z" />
<glyph unicode="&#xf4;" horiz-adv-x="537" d="M53 230Q44 168 64 113T129 25T241 -9Q308 -9 365 23T461 110T509 230Q518 293 498 347T432 436T320 470Q253 470 196 438T101 351T53 230ZM83 230Q93 288 126 336T210 412T318 441Q376 441 414 411T470 333T478
230Q469 173 436 125T353 49T243 20Q185 20 147 50T92 127T83 230ZM357 673L473 550L494 566L362 707L182 568L199 551L357 673Z" />
<glyph unicode="&#xf5;" horiz-adv-x="537" d="M53 230Q44 168 64 113T129 25T241 -9Q308 -9 365 23T461 110T509 230Q518 293 498 347T432 436T320 470Q253 470 196 438T101 351T53 230ZM83 230Q93 288 126 336T210 412T318 441Q376 441 414 411T470 333T478
230Q469 173 436 125T353 49T243 20Q185 20 147 50T92 127T83 230ZM202 557L223 545Q230 562 243 578T284 595Q305 595 321 584T354 561T394 549Q413 549 428 556T456 577T479 607L461 622Q447 603 433 589T398 575Q375 574 359 585T326 609T285 621Q269 621 249
612T214 588T202 557Z" />
<glyph unicode="&#xf6;" horiz-adv-x="537" d="M53 230Q44 168 64 113T129 25T241 -9Q308 -9 365 23T461 110T509 230Q518 293 498 347T432 436T320 470Q253 470 196 438T101 351T53 230ZM83 230Q93 288 126 336T210 412T318 441Q376 441 414 411T470 333T478
230Q469 173 436 125T353 49T243 20Q185 20 147 50T92 127T83 230ZM414 577Q412 568 418 561T433 553Q443 553 451 560T460 577Q461 586 456 593T440 601Q432 601 423 594T414 577ZM220 577Q218 568 224 561T239 553Q248 553 256 560T266 577Q267 586 262 593T246
601Q238 601 229 594T220 577Z" />
<glyph unicode="&#xf7;" horiz-adv-x="605" d="M328 451Q327 445 329 440T337 431T348 427Q353 427 359 430T369 439T375 451Q375 457 373 462T366 470T355 475Q349 475 343 472T332 463T328 451ZM258 43Q257 34 263 27T278 19Q284 19 290 22T300 31T305 42Q306
48 304 53T296 62T285 66Q279 67 273 64T263 55T258 43ZM71 232H557L562 263H76L71 232Z" />
<glyph unicode="&#xf8;" horiz-adv-x="530" d="M53 230Q44 168 64 113T129 25T241 -9Q308 -9 365 23T461 110T509 230Q518 293 498 347T432 436T320 470Q253 470 196 438T101 351T53 230ZM83 230Q93 288 126 336T210 412T318 441Q376 441 414 411T470 333T478
230Q469 173 436 125T353 49T243 20Q185 20 147 50T92 127T83 230ZM497 495L28 -28L47 -38L515 484L497 495Z" />
<glyph unicode="&#xf9;" horiz-adv-x="475" d="M338 0H368L448 460H418L338 0ZM109 159L162 460H132L79 156Q74 112 81 75T114 14T188 -9Q239 -9 280 17T348 87T385 179H370Q360 139 337 103T278 43T197 20Q156 20 136 39T110 91T109 159ZM188 698L333 544L352
555L218 715L188 698Z" />
<glyph unicode="&#xfa;" horiz-adv-x="475" d="M338 0H368L448 460H418L338 0ZM109 159L162 460H132L79 156Q74 112 81 75T114 14T188 -9Q239 -9 280 17T348 87T385 179H370Q360 139 337 103T278 43T197 20Q156 20 136 39T110 91T109 159ZM471 697L446 715L260
557L275 544L471 697Z" />
<glyph unicode="&#xfb;" horiz-adv-x="475" d="M338 0H368L448 460H418L338 0ZM109 159L162 460H132L79 156Q74 112 81 75T114 14T188 -9Q239 -9 280 17T348 87T385 179H370Q360 139 337 103T278 43T197 20Q156 20 136 39T110 91T109 159ZM326 666L440 543L462
559L330 700L151 561L167 544L326 666Z" />
<glyph unicode="&#xfc;" horiz-adv-x="475" d="M338 0H368L448 460H418L338 0ZM109 159L162 460H132L79 156Q74 112 81 75T114 14T188 -9Q239 -9 280 17T348 87T385 179H370Q360 139 337 103T278 43T197 20Q156 20 136 39T110 91T109 159ZM369 575Q367 566 373
559T389 550Q398 550 406 557T415 574Q416 583 411 590T396 598Q387 598 378 591T369 575ZM201 575Q201 566 207 559T222 550Q231 550 239 557T248 574Q250 583 244 590T229 598Q220 598 212 591T201 575Z" />
<glyph unicode="&#xfd;" horiz-adv-x="416" d="M463 460H428L184 46L201 43L94 460H58L174 35L20 -219H55L463 460ZM444 690L418 707L232 549L247 537L444 690Z" />
<glyph unicode="&#xfe;" horiz-adv-x="533" d="M40 -219L211 780H181L10 -219H40ZM505 230Q514 294 497 348T439 436T333 470Q286 470 247 450T179 395T130 318T103 230Q97 188 102 146T126 69T176 13T254 -9Q318 -10 371 22T460 109T505 230ZM475 230Q466 172
435 124T356 47T252 20Q213 21 186 39T141 89T118 156T117 230Q124 270 142 307T189 375T252 423T326 441Q382 442 418 412T468 334T475 230Z" />
<glyph unicode="&#xff;" horiz-adv-x="416" d="M463 460H428L184 46L201 43L94 460H58L174 35L20 -219H55L463 460ZM338 568Q338 559 343 552T358 544Q367 544 375 551T385 568Q386 577 380 584T365 592Q356 592 348 585T338 568ZM172 568Q171 559 176 552T191
544Q201 544 209 551T219 568Q220 577 214 584T199 592Q190 592 182 585T172 568Z" />
<glyph unicode="&#x2013;" horiz-adv-x="718" d="M83 246H666L671 275H88L83 246Z" />
<glyph unicode="&#x2014;" horiz-adv-x="864" d="M83 246H811L816 275H88L83 246Z" />
<glyph unicode="&#x2018;" horiz-adv-x="232" d="M150 471L271 699H248L112 471H150Z" />
<glyph unicode="&#x2019;" horiz-adv-x="247" d="M243 699L121 471H145L279 699H243Z" />
<glyph unicode="&#x201a;" horiz-adv-x="247" d="M126 79L5 -149H28L163 79H126Z" />
<glyph unicode="&#x201c;" horiz-adv-x="400" d="M163 471L284 699H261L126 471H163ZM316 471L437 699H414L279 471H316Z" />
<glyph unicode="&#x201d;" horiz-adv-x="400" d="M229 699L107 471H131L266 699H229ZM382 699L260 471H284L419 699H382Z" />
<glyph unicode="&#x201e;" horiz-adv-x="400" d="M125 79L3 -149H27L161 79H125ZM278 79L156 -149H179L315 79H278Z" />
<glyph unicode="&#x2022;" horiz-adv-x="291" d="M148 388Q148 382 151 377T159 368T172 364Q178 364 183 367T192 376T195 388Q195 395 192 400T184 408T172 412Q165 412 160 409T151 401T148 388Z" />
<glyph unicode="&#x2039;" horiz-adv-x="322" d="M88 256L309 471L292 489L55 257L213 20L234 38L88 256Z" />
<glyph unicode="&#x203a;" horiz-adv-x="340" d="M285 254L64 39L81 21L318 253L160 490L138 472L285 254Z" />
</font>
</defs>
</svg>
