<?xml version="1.0" standalone="no"?>
<!DOCTYPE svg PUBLIC "-//W3C//DTD SVG 1.1//EN" "http://www.w3.org/Graphics/SVG/1.1/DTD/svg11.dtd">
<svg xmlns="http://www.w3.org/2000/svg">
<defs >
<font id="Karla" horiz-adv-x="978" ><font-face
    font-family="Karla ExtraLight"
    units-per-em="2000"
    panose-1="2 11 0 4 3 5 3 3 0 3"
    ascent="1834"
    descent="-504"
    alphabetic="0" />
<glyph unicode=" " horiz-adv-x="398" />
<glyph unicode="!" horiz-adv-x="470" d="M237 259L316 1174H372L281 259H237ZM233 -18Q206 -18 191 2T176 44Q178 68 196 89T243 110Q269 110 284 91T296 44Q293 18 275 0T233 -18Z" />
<glyph unicode="&quot;" horiz-adv-x="398" d="M380 950L406 1351H485L436 950H380ZM143 950L169 1351H248L199 950H143Z" />
<glyph unicode="#" horiz-adv-x="1028" d="M261 58L315 353H117L131 411H326L403 811H203L212 862H412L466 1158H528L474 862H785L839 1158H897L843 862H1040L1035 811H834L757 411H954L945 353H746L692 58H629L684 353H373L319 58H261ZM388 411H699L776 811H465L388
411Z" />
<glyph unicode="$" horiz-adv-x="1027" d="M459 -160L471 -14Q378 -7 305 38T193 161T162 348H220Q210 205 284 133T476 50L533 613L512 622Q373 670 308 734T257 924Q266 1048 351 1131T593 1226L605 1374H673L661 1224Q795 1219 867 1148T943 965H879Q868 1057
812 1106T652 1162L607 660L695 632Q802 595 868 519T922 313Q913 234 867 162T739 43T542 -13L530 -160H459ZM547 50Q682 62 761 141T853 314Q859 409 812 471T673 564L600 588L547 50ZM541 686L583 1156Q467 1147 398 1081T322 920Q315 832 355 783T489 699L541
686Z" />
<glyph unicode="%" horiz-adv-x="1230" d="M440 1232Q522 1232 580 1161T627 959Q615 832 544 763T389 693Q332 693 287 724T218 814T202 959Q211 1046 246 1107T332 1200T440 1232ZM435 1174Q365 1174 318 1119T260 959Q251 856 287 806T394 755Q455 755 502
805T559 959Q570 1064 533 1119T435 1174ZM215 0L1052 1215H1128L285 0H215ZM948 522Q1034 522 1092 452T1137 249Q1125 122 1053 54T895 -15Q815 -15 759 53T714 249Q726 382 797 452T948 522ZM945 463Q878 463 831 409T770 249Q763 146 800 96T904 45Q970 45
1016 95T1069 249Q1081 355 1045 409T945 463Z" />
<glyph unicode="&amp;" horiz-adv-x="1552" d="M556 -15Q434 -15 347 30T217 153T183 324Q198 459 291 533T562 638L540 660Q469 729 440 803T417 962Q425 1042 470 1103T587 1198T750 1232Q828 1232 887 1197T977 1101T1001 962Q993 862 920 779T674 609L992
277Q1071 371 1132 491T1246 743L1294 713Q1245 577 1181 454T1035 236L1151 115Q1186 77 1213 62T1285 47Q1330 47 1373 87T1432 228H1503Q1481 105 1424 45T1275 -15Q1230 -15 1202 -4T1148 30T1087 91T993 182Q903 90 795 38T556 -15ZM566 44Q677 44 773 91T953
224L610 589Q441 568 352 503T252 321Q240 208 318 126T566 44ZM635 645Q759 709 821 763T907 869T936 974Q944 1059 891 1116T744 1174Q626 1174 561 1106T489 949Q483 887 502 828T580 704L635 645Z" />
<glyph unicode="&apos;" horiz-adv-x="157" d="M121 953L147 1354H226L177 953H121Z" />
<glyph unicode="(" horiz-adv-x="553" d="M596 1400L644 1363Q531 1254 449 1126T318 862T256 590Q244 456 266 319T346 53T496 -187L446 -215Q352 -107 290 25T200 302T186 590Q207 807 316 1020T596 1400Z" />
<glyph unicode=")" horiz-adv-x="553" d="M71 -215L25 -187Q136 -76 217 53T348 319T411 590Q422 725 400 861T320 1126T171 1363L221 1400Q364 1233 432 1020T477 590Q464 447 411 303T271 26T71 -215Z" />
<glyph unicode="*" horiz-adv-x="749" d="M291 759L239 811L430 1006L217 1092L258 1166L449 1049L457 1325H534L494 1049L712 1161L733 1090L504 1004L654 811L599 759L464 973L291 759Z" />
<glyph unicode="+" horiz-adv-x="913" d="M514 982H584L539 519H931L928 463H532L492 0H426L466 463H76L80 519H473L514 982Z" />
<glyph unicode="," horiz-adv-x="293" d="M99 -159L51 -134Q97 -114 126 -84T168 -10Q134 -12 116 5T102 53Q106 76 122 92T163 109Q183 109 197 98T220 65T226 16Q225 -9 213 -41T173 -104T99 -159Z" />
<glyph unicode="-" horiz-adv-x="580" d="M101 529L108 589H581L573 529H101Z" />
<glyph unicode="." horiz-adv-x="253" d="M121 -18Q94 -18 81 2T70 48Q73 74 91 92T136 110Q161 110 176 93T188 48Q185 25 167 4T121 -18Z" />
<glyph unicode="/" horiz-adv-x="700" d="M97 -129L685 1432H749L158 -129H97Z" />
<glyph unicode="0" horiz-adv-x="994" d="M491 -15Q370 -15 289 55T174 264T159 610Q176 814 237 952T394 1161T615 1232Q737 1232 819 1162T936 953T953 610Q936 403 874 264T713 55T491 -15ZM503 48Q670 48 763 195T883 610Q911 875 842 1019T603 1164Q443 1164
348 1020T224 610Q199 342 269 195T503 48Z" />
<glyph unicode="1" horiz-adv-x="546" d="M398 1214H463L349 0H289L394 1128Q349 1091 296 1067T197 1037L205 1117Q257 1122 308 1146T398 1214Z" />
<glyph unicode="2" horiz-adv-x="996" d="M202 154L194 70H837L834 0H125L136 147Q145 256 186 325T289 438T424 513L636 611Q733 652 791 722T858 902Q872 1021 805 1092T615 1164Q491 1164 408 1112T304 953H235Q252 1036 300 1099T430 1197T623 1232Q725 1232
796 1187T904 1066T932 897Q916 753 839 670T663 545L442 445Q334 396 274 328T202 154Z" />
<glyph unicode="3" horiz-adv-x="1003" d="M502 -15Q424 -15 355 9T236 80T160 198T145 362H206Q195 257 234 187T348 83T513 48Q651 48 734 129T830 328Q837 401 810 461T713 558T522 595H420L430 656H468Q626 656 726 723T838 905Q850 1015 783 1089T589 1164Q498
1164 421 1122T308 961H242Q280 1110 380 1171T601 1232Q697 1232 770 1189T882 1073T913 908Q901 809 842 741T681 634Q786 606 848 530T899 326Q888 224 839 147T705 28T502 -15Z" />
<glyph unicode="4" horiz-adv-x="937" d="M632 0L658 321H83L90 383L760 1237H810L729 386H919L909 321H720L692 0H632ZM171 383H661L728 1095L171 383Z" />
<glyph unicode="5" horiz-adv-x="981" d="M480 -15Q394 -15 317 21T195 129T163 309H223Q210 183 289 116T487 48Q630 48 716 143T815 382Q827 520 750 591T518 663H270L369 1215H919L912 1149H426L347 711Q389 719 434 724T518 729Q708 729 805 644T887 382Q874
266 822 176T682 36T480 -15Z" />
<glyph unicode="6" horiz-adv-x="967" d="M495 -20Q371 -20 291 61T176 279T155 584Q174 781 237 926T404 1152T647 1232Q734 1232 794 1194T888 1090T926 938H854Q845 1041 796 1102T639 1164Q512 1164 408 1061T248 772T208 334Q225 477 278 561T407 681T564
717Q658 717 732 669T846 537T877 342Q865 234 814 153T681 26T495 -20ZM502 48Q625 48 710 126T807 344Q820 479 751 557T561 635Q482 635 417 595T309 489T260 344Q247 204 318 126T502 48Z" />
<glyph unicode="7" horiz-adv-x="792" d="M130 0L793 1145H152L158 1215H873L868 1155L220 0H130Z" />
<glyph unicode="8" horiz-adv-x="1043" d="M515 -15Q401 -15 313 28T178 148T141 321Q150 446 226 528T420 634Q374 657 327 695T251 789T231 920Q238 1004 289 1075T430 1189T639 1232Q749 1232 827 1189T945 1072T974 906Q965 800 894 712T693 603L747 582Q860
533 917 464T962 281Q952 190 896 124T742 21T515 -15ZM527 48Q679 48 781 114T892 286Q902 367 850 422T711 511L498 602Q374 580 296 500T209 324Q195 190 287 119T527 48ZM601 643Q726 648 811 720T908 907Q921 1018 843 1091T628 1164Q541 1164 472 1130T358
1040T305 918Q299 831 345 783T477 697L601 643Z" />
<glyph unicode="9" horiz-adv-x="990" d="M484 -15Q379 -15 306 34T198 169T173 359H245Q233 219 296 134T490 48Q662 48 756 212T879 657Q882 706 883 746T883 837Q868 732 821 656T701 539T537 498Q442 498 368 546T254 680T226 874Q236 982 287 1062T419 1187T602
1232Q722 1232 806 1160T928 953T949 632Q930 430 874 285T721 63T484 -15ZM542 575Q621 575 686 615T792 722T839 869Q852 1007 785 1084T595 1162Q475 1162 392 1085T296 869Q283 734 351 655T542 575Z" />
<glyph unicode=":" horiz-adv-x="340" d="M234 723Q212 723 195 740T179 785Q181 802 195 826T243 851Q272 851 286 831T297 785Q294 764 277 744T234 723ZM178 79Q154 79 138 97T123 141Q125 158 139 182T187 207Q216 207 230 187T241 141Q238 119 221 99T178 79Z" />
<glyph unicode=";" horiz-adv-x="383" d="M140 -159L93 -134Q139 -114 168 -84T210 -10Q176 -13 159 7T144 53Q146 76 163 92T205 109Q236 109 254 84T269 16Q265 -24 236 -75T140 -159ZM265 710Q242 710 226 728T210 772Q211 792 226 815T273 838Q302 838 317
818T328 772Q325 750 308 730T265 710Z" />
<glyph unicode="&lt;" horiz-adv-x="725" d="M694 1046L730 991L176 573L652 165L607 106L111 546L114 602L694 1046Z" />
<glyph unicode="=" horiz-adv-x="843" d="M174 342H733L730 282H171L174 342ZM205 687H765L759 620H200L205 687Z" />
<glyph unicode="&gt;" horiz-adv-x="725" d="M141 106L102 165L647 573L180 991L228 1046L717 602L713 546L141 106Z" />
<glyph unicode="?" horiz-adv-x="863" d="M346 250L354 351Q361 441 383 495T449 590T566 680Q631 724 676 759T746 837T774 943Q779 1051 714 1107T523 1164Q399 1164 332 1110T235 965H157Q180 1081 279 1156T530 1232Q641 1232 712 1192T815 1085T841 937Q835
853 797 796T707 699T607 629Q542 588 505 557T448 481T418 350L405 250H346ZM350 -15Q320 -15 308 4T299 48Q302 74 319 92T365 111Q398 111 409 90T418 47Q415 20 397 3T350 -15Z" />
<glyph unicode="@" horiz-adv-x="1523" d="M903 -282Q720 -282 576 -228T335 -72T193 168T164 478Q178 637 242 774T409 1014T648 1174T940 1232Q1078 1232 1188 1182T1373 1045T1482 843T1505 599Q1494 491 1458 400T1368 243T1251 141T1122 104Q1054 104 1019
141T991 250L989 282Q953 207 892 156T741 104Q671 104 614 142T526 251T504 422Q514 518 551 598T644 736T769 827T909 859Q1001 859 1049 795T1086 600L1052 250Q1049 198 1065 173T1123 148Q1169 148 1218 180T1311 273T1388 416T1433 599Q1446 764 1388 892T1214
1093T933 1166Q788 1166 666 1110T453 956T307 735T239 475Q217 261 293 104T528 -139T912 -225L903 -282ZM751 158Q831 158 889 214T1007 373L1023 598Q1035 709 1006 753T905 798Q840 798 767 753T639 623T575 421Q558 298 610 228T751 158Z" />
<glyph unicode="A" horiz-adv-x="934" d="M53 0L547 1215H622L879 0H816L739 363H270L122 0H53ZM294 429H722L574 1118L294 429Z" />
<glyph unicode="B" horiz-adv-x="1070" d="M197 0L311 1215H683Q797 1215 867 1171T967 1055T988 900Q981 797 921 715T742 606Q815 597 864 552T938 446T959 327Q952 259 927 200T854 96T737 26T569 0H197ZM269 64H575Q735 64 807 137T889 324Q903 438 832 507T623
577H317L269 64ZM369 1152L321 637H629Q742 637 826 706T921 899Q932 1019 864 1085T676 1152H369Z" />
<glyph unicode="C" horiz-adv-x="1063" d="M550 -15Q405 -15 312 69T181 298T159 619Q176 816 250 953T435 1161T670 1232Q828 1232 926 1141T1065 903L985 882Q954 1016 866 1092T663 1168Q561 1168 467 1105T308 920T228 619Q213 462 241 332T347 124T558 46Q716
46 821 139T939 386H1008Q999 262 935 172T771 34T550 -15Z" />
<glyph unicode="D" horiz-adv-x="1142" d="M309 1215H593Q759 1215 870 1139T1031 927T1064 610Q1048 426 971 289T768 76T475 0H195L309 1215ZM367 1155L262 55H483Q625 55 736 127T916 324T997 610Q1011 767 967 890T826 1084T588 1155H367Z" />
<glyph unicode="E" horiz-adv-x="966" d="M195 0L309 1215H948L937 1152H367L319 644H858L855 586H315L267 64H840L830 0H195Z" />
<glyph unicode="F" horiz-adv-x="901" d="M197 0L311 1215H947L939 1152H369L321 652H861L858 588H317L263 0H197Z" />
<glyph unicode="G" horiz-adv-x="1097" d="M561 -15Q437 -15 338 55T189 259T157 584Q171 751 225 872T359 1072T534 1189T724 1228Q822 1228 907 1188T1065 1059L1010 1011Q942 1094 868 1129T717 1164Q600 1164 494 1095T315 897T222 584Q209 431 244 310T362
119T570 48Q659 48 739 93T871 237T922 494Q922 501 918 512T895 544L969 499L616 520L622 572H996L947 0H891Q893 63 896 127T901 255L911 258Q866 129 781 57T561 -15Z" />
<glyph unicode="H" horiz-adv-x="1132" d="M197 0L311 1215H377L321 648H927L983 1215H1053L935 0H869L923 588H317L263 0H197Z" />
<glyph unicode="I" horiz-adv-x="456" d="M197 0L311 1215H377L263 0H197Z" />
<glyph unicode="J" horiz-adv-x="650" d="M7 71L10 157Q63 107 119 80T239 52Q352 52 403 124T469 321L553 1215H615L533 321Q520 206 481 132T379 21T233 -15Q163 -15 111 10T7 71Z" />
<glyph unicode="K" horiz-adv-x="1007" d="M311 1215H379L321 580L935 1215H1027L500 672L939 0H854L453 617L307 471L265 0H197L311 1215Z" />
<glyph unicode="L" horiz-adv-x="790" d="M197 0L311 1215H377L269 64H799L793 0H197Z" />
<glyph unicode="M" horiz-adv-x="1474" d="M197 0L311 1215H406L765 276L1297 1215H1395L1277 0H1213L1319 1129L1338 1133L780 175H730L349 1139L370 1132L263 0H197Z" />
<glyph unicode="N" horiz-adv-x="1169" d="M193 0L307 1215H402L928 62L909 66L1021 1215H1087L974 0H882L350 1155L370 1151L263 0H193Z" />
<glyph unicode="O" horiz-adv-x="1088" d="M543 -15Q419 -15 325 51T185 255T159 604Q178 814 250 953T430 1162T663 1232Q787 1232 881 1163T1023 954T1052 604Q1030 392 956 255T774 51T543 -15ZM551 53Q724 53 839 190T982 602Q1009 876 919 1021T655 1166Q477
1166 365 1021T224 604Q199 329 287 191T551 53Z" />
<glyph unicode="P" horiz-adv-x="946" d="M195 0L309 1215H625Q741 1215 812 1167T914 1037T934 851Q919 698 825 600T555 501H307L259 0H195ZM311 561H563Q698 561 777 637T869 851Q881 992 816 1072T618 1152H365L311 561Z" />
<glyph unicode="Q" horiz-adv-x="1109" d="M838 -306Q765 -306 717 -269T625 -154L544 -15Q418 -15 324 52T185 256T159 604Q178 814 250 953T430 1162T663 1232Q787 1232 881 1163T1023 954T1052 604Q1025 323 907 173T627 -11L701 -140Q733 -188 758 -206T811
-226Q864 -226 903 -213T993 -172L985 -266Q942 -288 907 -297T838 -306ZM551 53Q724 53 839 190T982 602Q1009 876 919 1021T655 1166Q477 1166 365 1021T224 604Q199 329 287 191T551 53Z" />
<glyph unicode="R" horiz-adv-x="1043" d="M197 0L311 1215H664Q844 1215 919 1117T978 867Q966 721 877 625T624 518L913 0H833L550 523H313L263 0H197ZM319 581H602Q742 581 822 661T915 870Q929 1002 860 1077T656 1152H369L319 581Z" />
<glyph unicode="S" horiz-adv-x="1023" d="M507 -15Q403 -15 323 29T199 154T162 348H220Q212 246 251 180T360 81T513 48Q614 48 688 87T805 186T853 313Q862 408 815 469T673 562L514 622Q374 668 308 733T253 924Q267 1057 363 1144T632 1232Q780 1232 859
1158T942 965H878Q876 1063 808 1113T624 1164Q489 1164 410 1095T322 918Q315 831 354 782T488 701L695 633Q804 596 869 521T922 312Q916 231 866 156T725 33T507 -15Z" />
<glyph unicode="T" horiz-adv-x="841" d="M389 0L493 1152H118L126 1215H945L937 1152H559L455 0H389Z" />
<glyph unicode="U" horiz-adv-x="1109" d="M545 -15Q375 -15 279 88T202 415L280 1215H346L268 415Q250 223 328 136T555 48Q698 48 791 135T903 415L981 1215H1047L967 415Q955 266 897 171T747 30T545 -15Z" />
<glyph unicode="V" horiz-adv-x="929" d="M145 1215H209L472 87L943 1215H1015L497 0H432L145 1215Z" />
<glyph unicode="W" horiz-adv-x="1471" d="M129 1215H200L391 108L790 1037H834L1032 104L1503 1215H1567L1056 0H986L795 882L415 0H347L129 1215Z" />
<glyph unicode="X" horiz-adv-x="1073" d="M112 0L557 600L228 1215H300L604 651L1002 1215H1079L629 600L959 0H877L580 548L195 0H112Z" />
<glyph unicode="Y" horiz-adv-x="879" d="M409 0L455 494L119 1215H200L497 571L913 1215H988L525 494L479 0H409Z" />
<glyph unicode="Z" horiz-adv-x="994" d="M132 0L137 75L933 1138L240 1149L246 1215H1021L1014 1138L216 76L913 66L903 0H132Z" />
<glyph unicode="[" horiz-adv-x="501" d="M136 -119L270 1334H528L527 1272H333L205 -60H400L396 -119H136Z" />
<glyph unicode="\" horiz-adv-x="700" d="M787 -131L199 1429H260L851 -131H787Z" />
<glyph unicode="]" horiz-adv-x="412" d="M-32 -119L-27 -60H167L309 1272H115L120 1334H382L228 -119H-32Z" />
<glyph unicode="^" horiz-adv-x="652" d="M89 549L418 1135H461L681 549H605L431 1047L168 549H89Z" />
<glyph unicode="_" horiz-adv-x="1223" d="M83 -1L86 59H1109L1106 -1H83Z" />
<glyph unicode="`" horiz-adv-x="486" d="M192 1563L238 1633L573 1365L545 1317L192 1563Z" />
<glyph unicode="a" horiz-adv-x="960" d="M428 -15Q339 -15 282 25T201 126T182 251Q194 352 245 413T369 502T519 530Q581 530 650 514T777 463L792 613Q808 771 751 836T583 901Q523 901 469 882T378 819T336 701H259Q268 801 319 857T442 937T584 960Q716 960
793 882T853 614L795 0H741Q743 49 745 95T749 190Q702 84 611 35T428 -15ZM419 44Q503 44 586 88T724 216T772 418Q703 441 638 453T511 466Q409 466 336 420T250 251Q242 166 279 105T419 44Z" />
<glyph unicode="b" horiz-adv-x="993" d="M538 -15Q447 -15 380 31T280 168L252 0H197L325 1351H389L331 771Q380 859 457 909T624 960Q714 960 789 910T909 767T954 549Q954 461 929 363T852 179T722 39T538 -15ZM537 44Q631 44 697 94T804 222T865 388T884 551Q884
715 808 807T620 899Q542 899 475 852T363 716T305 499L299 434Q286 324 308 236T387 96T537 44Z" />
<glyph unicode="c" horiz-adv-x="896" d="M471 -15Q368 -15 288 42T166 209T139 473Q154 626 215 735T366 902T559 960Q616 960 663 943T748 892T812 814T851 711L785 688Q764 791 701 845T552 899Q469 899 396 848T273 701T211 473Q200 352 227 255T319 101T483
44Q586 44 661 108T742 296H815Q808 200 758 131T631 23T471 -15Z" />
<glyph unicode="d" horiz-adv-x="1031" d="M492 -15Q400 -15 326 35T208 176T165 387Q165 468 188 566T260 754T387 902T576 960Q671 960 736 913T837 777L892 1351H955L830 0H777L781 167Q732 79 656 32T492 -15ZM498 44Q563 44 629 78T743 181T800 351L824 629Q825
639 825 640T826 652Q826 737 788 791T690 872T570 899Q478 899 415 848T313 717T257 551T240 394Q240 232 314 138T498 44Z" />
<glyph unicode="e" horiz-adv-x="896" d="M461 -15Q349 -15 271 40T158 203T138 465Q153 619 208 730T352 900T550 960Q621 960 674 936T765 868T820 764T839 630Q839 595 835 550T821 462H160L209 490Q196 367 216 266T298 105T470 45Q574 45 646 102T741 269H813Q789
171 737 108T613 15T461 -15ZM207 502L172 514H815L766 509Q780 613 767 702T702 847T550 902Q449 902 378 845T264 697T207 502Z" />
<glyph unicode="f" horiz-adv-x="575" d="M190 885L193 939H346L362 1119Q370 1205 404 1260T492 1341T610 1367Q637 1367 665 1362T724 1339L707 1278Q679 1293 648 1301T587 1310Q554 1310 521 1295T462 1239T428 1117L410 939H605L602 885H407L320 0H260L341 885H190Z" />
<glyph unicode="g" horiz-adv-x="981" d="M431 -481Q306 -481 221 -444T93 -343T56 -199Q61 -121 106 -64T231 23Q179 47 156 90T137 185Q143 257 192 302T305 360Q270 407 254 472T244 615Q254 718 301 795T425 916T596 960Q663 960 719 938T812 873Q827 936
857 984T935 1059T1056 1086L1028 1006Q950 1006 903 964T841 825Q865 783 876 731T881 615Q871 512 822 431T694 304T521 258Q466 258 416 274T328 322Q282 316 245 280T200 184Q193 131 226 96T369 61H747Q848 61 903 4T952 -138Q946 -224 878 -303T695 -431T431
-481ZM426 -422Q549 -422 651 -383T815 -281T884 -142Q889 -85 855 -41T743 3H348Q251 3 189 -57T122 -200Q118 -288 189 -355T426 -422ZM533 316Q609 316 671 355T773 462T821 615Q833 740 770 820T590 901Q476 901 398 822T307 615Q294 488 357 402T533 316Z"
/>
<glyph unicode="h" horiz-adv-x="1051" d="M197 0L325 1351H389L331 741Q378 841 459 900T651 960Q746 960 815 914T917 777T938 555L884 0H824L876 555Q892 723 827 811T640 899Q536 899 463 838T350 669T301 419L263 0H197Z" />
<glyph unicode="i" horiz-adv-x="482" d="M345 1219Q321 1219 310 1235T300 1273Q302 1291 315 1311T356 1332Q381 1332 393 1314T403 1273Q400 1248 384 1234T345 1219ZM194 0L282 941H348L260 0H194Z" />
<glyph unicode="j" horiz-adv-x="527" d="M388 1219Q369 1219 354 1233T342 1273Q345 1299 361 1315T401 1332Q424 1332 439 1316T450 1273Q447 1253 430 1236T388 1219ZM13 -481Q-42 -481 -96 -460T-207 -394L-192 -328Q-138 -372 -91 -394T12 -417Q101 -417
153 -356T221 -158L328 943H394L290 -154Q279 -273 238 -345T137 -449T13 -481Z" />
<glyph unicode="k" horiz-adv-x="996" d="M789 0L449 541L303 419L263 0H197L325 1351H389L311 507L843 939H943L505 583L875 0H789Z" />
<glyph unicode="l" horiz-adv-x="456" d="M197 0L325 1351H389L263 0H197Z" />
<glyph unicode="m" horiz-adv-x="1654" d="M193 0L281 939H336Q334 887 331 835T325 731Q373 840 455 900T647 960Q761 960 835 896T930 709Q978 834 1061 897T1255 960Q1350 960 1419 914T1522 778T1541 555L1489 0H1429L1483 555Q1499 719 1435 809T1245 899Q1147
899 1082 847T979 702T924 490L880 0H820L872 555Q888 726 821 812T635 899Q488 899 404 779T303 472L259 0H193Z" />
<glyph unicode="n" horiz-adv-x="1047" d="M193 0L281 939H336L325 731Q373 840 455 900T647 960Q743 960 812 914T913 778T932 555L880 0H820L872 555Q888 726 821 812T635 899Q488 899 404 779T303 472L259 0H193Z" />
<glyph unicode="o" horiz-adv-x="943" d="M468 -15Q354 -15 275 41T159 207T138 471Q154 626 211 735T358 902T562 960Q678 960 757 901T871 733T892 471Q878 317 821 209T673 43T468 -15ZM471 45Q628 45 716 163T824 471Q843 661 777 779T553 898Q397 898 314
782T212 471Q201 348 222 252T304 100T471 45Z" />
<glyph unicode="p" horiz-adv-x="1040" d="M151 -466L285 939H338Q337 899 337 858T334 777Q387 865 462 912T626 960Q724 960 802 902T921 734T949 473Q935 322 873 213T721 44T530 -15Q443 -15 377 30T278 157L217 -466H151ZM546 44Q620 44 691 93T813 237T877
473Q890 611 858 706T763 850T620 899Q550 899 484 861T371 746T313 556L296 384Q287 272 323 197T420 83T546 44Z" />
<glyph unicode="q" horiz-adv-x="1002" d="M873 -481Q773 -446 742 -378T725 -174L757 182Q711 90 633 38T462 -15Q365 -15 287 44T169 213T143 473Q158 625 220 734T373 901T559 960Q648 960 715 911T809 772L838 939H893L787 -175Q780 -252 787 -295T823 -364T908
-413L873 -481ZM472 44Q542 44 608 83T721 198T778 384L801 619Q796 713 758 775T665 868T548 899Q473 899 402 851T280 707T216 473Q203 331 236 236T332 92T472 44Z" />
<glyph unicode="r" horiz-adv-x="619" d="M193 0L281 941H347L329 769Q370 867 428 912T574 957Q597 957 629 953T690 934L672 869Q642 882 611 890T549 898Q465 898 414 837T335 673T296 439L259 0H193Z" />
<glyph unicode="s" horiz-adv-x="944" d="M476 -15Q361 -15 289 25T185 129T154 267H222Q218 162 293 102T484 41Q594 41 675 95T766 239Q774 312 726 351T586 422L447 469Q336 507 280 566T233 720Q241 790 281 844T391 929T557 960Q695 960 773 899T848 743H777Q773
823 713 862T556 902Q471 902 417 875T335 808T301 725Q291 652 341 605T483 529L613 489Q726 455 784 395T832 239Q824 171 781 113T661 20T476 -15Z" />
<glyph unicode="t" horiz-adv-x="639" d="M429 -15Q365 -15 321 11T256 90T244 224L306 905L347 885H142L154 939H350L300 894L334 1215H400L366 894L326 939H676L668 885H319L368 905L302 220Q294 134 328 90T431 45Q473 45 514 56T600 86L604 32Q558 7 514 -4T429 -15Z" />
<glyph unicode="u" horiz-adv-x="1049" d="M476 -18Q375 -18 309 25T215 149T195 346L250 941H316L263 345Q246 197 302 122T486 46Q585 46 658 106T775 264T829 472L873 941H939L849 0H786L806 207Q752 104 667 43T476 -18Z" />
<glyph unicode="v" horiz-adv-x="876" d="M131 939H199L446 90L848 939H916L469 0H402L131 939Z" />
<glyph unicode="w" horiz-adv-x="1239" d="M131 939H198L367 107L682 901H722L891 93L1214 939H1280L914 0H855L688 766L384 0H325L131 939Z" />
<glyph unicode="x" horiz-adv-x="839" d="M66 0L422 471L153 941H232L474 529L783 941H862L499 471L770 0H691L453 416L144 0H66Z" />
<glyph unicode="y" horiz-adv-x="833" d="M154 -481Q105 -481 65 -461T-17 -405L-9 -330Q29 -377 70 -397T160 -417Q227 -417 273 -367T351 -244T404 -102L440 0L176 939H243L479 113L783 939H849L436 -205Q408 -282 368 -345T275 -444T154 -481Z" />
<glyph unicode="z" horiz-adv-x="815" d="M89 0L91 59L732 880H170L177 939H819L812 880L172 59H733L732 0H89Z" />
<glyph unicode="{" horiz-adv-x="545" d="M499 -237Q385 -237 327 -182T251 -29T246 192L262 378Q271 467 256 508T209 549H197L202 608H217Q250 608 271 648T303 779L317 959Q329 1083 365 1181T470 1337T654 1394L651 1338Q519 1338 459 1238T381 959L367 784Q358
694 335 648T280 581L276 576Q308 560 321 512T324 373L310 194Q295 17 333 -82T507 -181L499 -237Z" />
<glyph unicode="|" horiz-adv-x="456" d="M173 -244L331 1454H397L239 -244H173Z" />
<glyph unicode="}" horiz-adv-x="435" d="M-15 -237L-11 -181Q121 -181 183 -81T258 198L272 373Q281 463 306 512T364 580V581Q338 596 325 632T314 738Q314 747 314 760T316 784L329 963Q332 998 332 1016T333 1048Q337 1185 293 1261T133 1338L140 1394Q242
1394 298 1351T377 1229T397 1049Q397 1030 395 1008T393 965L377 779Q376 763 375 752T373 730Q373 660 388 634T430 608H442L437 549H422Q390 549 367 509T336 378L322 198Q310 74 275 -24T169 -180T-15 -237Z" />
<glyph unicode="~" horiz-adv-x="817" d="M175 487L131 509Q166 592 213 630T300 668Q326 668 359 658T463 612Q543 578 573 567T627 556Q697 556 757 672L790 649Q755 562 711 522T622 482Q599 482 561 497T453 538Q377 576 345 588T288 601Q263 601 232 576T175 487Z" />
<glyph unicode="&#xa0;" horiz-adv-x="398" />
<glyph unicode="&#xa1;" horiz-adv-x="470" d="M366 897L287 -18H231L322 897H366ZM370 1174Q397 1174 412 1154T427 1112Q425 1088 407 1067T360 1046Q334 1046 319 1065T307 1112Q310 1138 328 1156T370 1174Z" />
<glyph unicode="&#xa2;" horiz-adv-x="896" d="M579 950L612 1142H666L633 950H579ZM401 -178L434 14H489L457 -178H401ZM482 -15Q379 -15 299 42T177 209T150 473Q165 626 226 735T377 902T570 960Q627 960 674 943T759 892T823 814T862 711L796 688Q775 791
712 845T563 899Q480 899 407 848T284 701T222 473Q211 352 238 255T330 101T494 44Q597 44 672 108T753 296H826Q819 200 769 131T642 23T482 -15Z" />
<glyph unicode="&#xa3;" horiz-adv-x="942" d="M32 0L35 55H78Q149 55 190 101T237 242L262 504H87L92 566H271L296 838Q308 955 345 1044T451 1182T627 1232Q728 1232 796 1168T872 987H810Q797 1078 744 1121T619 1164Q510 1164 444 1088T362 838L333 566H683L677
504H328L301 241Q294 171 276 125T213 55H638Q724 55 771 101T841 243H902Q878 134 819 67T629 0H32Z" />
<glyph unicode="&#xa4;" horiz-adv-x="1200" d="M577 273Q489 273 417 317T304 436T270 602Q277 688 325 762T450 881T619 927Q710 927 781 883T891 765T925 602Q920 510 870 436T743 317T577 273ZM214 229L182 264L342 407L372 372L214 229ZM907 224L783 367L819
403L946 258L907 224ZM579 349Q647 349 706 381T805 471T849 602Q854 674 824 730T739 818T616 851Q547 851 488 818T391 729T347 602Q342 530 371 473T456 383T579 349ZM401 809L270 960L308 995L441 840L401 809ZM847 787L809 823L971 965L1006 929L847 787Z"
/>
<glyph unicode="&#xa5;" horiz-adv-x="879" d="M773 427H198L206 488H785L773 427ZM764 295H188L199 356H774L764 295ZM409 0L455 494L119 1215H200L497 571L913 1215H988L525 494L479 0H409Z" />
<glyph unicode="&#xa6;" horiz-adv-x="456" d="M173 -244L245 530H311L239 -244H173ZM259 680L331 1454H397L325 680H259Z" />
<glyph unicode="&#xa7;" horiz-adv-x="984" d="M561 236L569 292Q676 294 753 350T841 492Q849 565 801 604T661 675L522 722Q411 760 355 819T308 973Q316 1043 356 1097T466 1182T632 1213Q770 1213 848 1152T923 996H852Q848 1076 788 1115T631 1155Q546 1155
492 1129T410 1061T376 978Q366 905 416 858T558 782L688 742Q801 708 859 648T907 492Q899 422 855 365T737 272T561 236ZM449 -205Q334 -205 262 -165T158 -61T127 77H195Q191 -28 266 -88T457 -149Q567 -149 648 -95T739 49Q747 122 699 161T559 232L420 279Q309
317 253 376T206 530Q217 635 301 704T530 780L529 722Q402 715 342 657T274 535Q264 462 314 415T456 339L586 299Q699 265 757 205T805 49Q797 -19 754 -77T634 -170T449 -205Z" />
<glyph unicode="&#xa8;" horiz-adv-x="467" d="M200 1641Q205 1668 222 1688T263 1708Q290 1708 308 1688T321 1641Q321 1617 299 1598T247 1578Q223 1578 210 1597T200 1641ZM452 1639Q457 1668 475 1687T515 1706Q542 1706 560 1687T575 1639Q574 1617 551 1596T499
1575Q477 1575 463 1596T452 1639Z" />
<glyph unicode="&#xa9;" horiz-adv-x="1337" d="M623 -12Q495 -12 388 36T204 169T91 367T68 608Q82 736 142 848T296 1046T507 1180T753 1228Q881 1228 988 1180T1172 1047T1285 849T1308 608Q1295 480 1235 368T1080 170T869 36T623 -12ZM628 35Q747 35 855
79T1051 203T1193 386T1261 608Q1273 727 1240 830T1136 1013T966 1136T748 1181Q630 1181 521 1137T325 1013T183 831T115 608Q103 490 136 386T240 203T410 80T628 35ZM642 229Q552 229 495 281T414 422T400 620Q410 742 456 826T571 955T716 999Q813 999 874
943T960 796L910 783Q891 865 837 912T712 959Q649 959 591 920T492 806T443 620Q434 524 451 444T517 315T647 266Q744 266 809 323T882 476H925Q919 400 880 345T778 259T642 229Z" />
<glyph unicode="&#xaa;" horiz-adv-x="960" d="M428 -15Q339 -15 282 25T201 126T182 251Q194 352 245 413T369 502T519 530Q581 530 650 514T777 463L792 613Q808 771 751 836T583 901Q523 901 469 882T378 819T336 701H259Q268 801 319 857T442 937T584 960Q716
960 793 882T853 614L795 0H741Q743 49 745 95T749 190Q702 84 611 35T428 -15ZM419 44Q503 44 586 88T724 216T772 418Q703 441 638 453T511 466Q409 466 336 420T250 251Q242 166 279 105T419 44Z" />
<glyph unicode="&#xab;" horiz-adv-x="1077" d="M489 94L144 520L609 946L680 918L213 495L209 545L558 122L489 94ZM899 94L554 520L1019 946L1090 918L623 495L619 545L968 122L899 94Z" />
<glyph unicode="&#xac;" horiz-adv-x="1200" d="M261 591H918L876 289H804L843 567L866 530H253L261 591Z" />
<glyph unicode="&#xad;" horiz-adv-x="1200" d="M101 529L108 589H581L573 529H101Z" />
<glyph unicode="&#xae;" horiz-adv-x="1337" d="M623 -12Q495 -12 388 36T204 169T91 367T69 608Q82 736 142 848T296 1046T507 1180T753 1228Q881 1228 988 1180T1172 1047T1285 849T1309 608Q1295 480 1235 368T1080 170T869 36T623 -12ZM628 35Q747 35 855
79T1051 203T1193 386T1261 608Q1273 727 1240 830T1136 1013T966 1136T748 1181Q630 1181 521 1137T325 1013T183 831T115 608Q103 490 136 386T240 203T410 80T628 35ZM448 206L524 1010H757Q876 1010 926 945T965 780Q957 683 898 620T731 549L922 206H869L682
552H525L492 206H448ZM529 590H716Q809 590 862 643T923 782Q932 869 887 918T752 968H562L529 590Z" />
<glyph unicode="&#xaf;" horiz-adv-x="748" d="M249 1233H805L791 1167H235L249 1233Z" />
<glyph unicode="&#xb0;" horiz-adv-x="584" d="M374 960Q310 960 260 991T184 1075T162 1192Q168 1256 203 1308T294 1391T414 1423Q478 1423 527 1392T604 1308T625 1192Q620 1128 584 1076T493 992T374 960ZM379 1011Q452 1011 509 1065T573 1192Q579 1266 531
1318T408 1371Q333 1371 277 1318T213 1192Q206 1118 255 1065T379 1011Z" />
<glyph unicode="&#xb1;" horiz-adv-x="797" d="M436 978H502L472 626H831L828 570H467L438 223H372L401 570H53L56 626H406L436 978ZM27 56H743L734 0H18L27 56Z" />
<glyph unicode="&#xb2;" horiz-adv-x="714" d="M229 569L224 517H620L618 474H182L189 564Q194 632 219 674T283 744T366 790L496 850Q556 875 591 918T633 1029Q642 1102 601 1146T483 1190Q407 1190 356 1158T292 1060H250Q260 1112 290 1150T369 1210T488 1232Q551
1232 595 1205T661 1130T679 1026Q669 937 622 886T513 809L377 748Q311 718 274 676T229 569Z" />
<glyph unicode="&#xb3;" horiz-adv-x="712" d="M412 465Q364 465 322 479T248 523T202 596T192 697H230Q223 632 247 589T317 525T419 504Q504 504 555 554T614 676Q618 721 601 758T542 817T424 840H361L368 878H391Q488 878 550 919T619 1031Q626 1099 585 1144T465
1190Q409 1190 362 1165T293 1065H252Q275 1157 336 1194T473 1232Q532 1232 577 1206T646 1134T665 1033Q657 972 621 930T522 864Q587 847 625 800T656 675Q649 612 619 565T537 491T412 465Z" />
<glyph unicode="&#xb4;" horiz-adv-x="582" d="M256 1084L230 1132L615 1400L653 1330L256 1084Z" />
<glyph unicode="&#xb5;" horiz-adv-x="1049" d="M476 -18Q375 -18 309 25T215 149T195 346L250 941H316L263 345Q246 197 302 122T486 46Q585 46 658 106T775 264T829 472L873 941H939L849 0H786L806 207Q752 104 667 43T476 -18ZM120 -410L251 941H315L186 -410H120Z" />
<glyph unicode="&#xb6;" horiz-adv-x="1200" d="M541 496Q346 496 261 595T191 852Q208 1009 314 1111T616 1213H933L927 1150H667L598 496H541ZM495 -252L649 1213H713L559 -252H495ZM745 -252L899 1213H963L809 -252H745Z" />
<glyph unicode="&#xb7;" horiz-adv-x="253" d="M188 457Q161 457 148 477T137 523Q140 549 158 567T203 585Q228 585 243 568T255 523Q252 500 234 479T188 457Z" />
<glyph unicode="&#xb8;" horiz-adv-x="575" d="M23 -344L41 -296Q125 -343 190 -349T294 -334T332 -272Q332 -230 293 -200T202 -150T106 -121L160 33L234 31L181 -118L136 -65Q221 -89 285 -117T384 -183T420 -271Q420 -328 379 -361T275 -403T144 -398T23 -344Z" />
<glyph unicode="&#xb9;" horiz-adv-x="430" d="M329 1214H369L299 467H262L326 1161Q299 1138 266 1124T205 1105L210 1154Q242 1157 273 1172T329 1214Z" />
<glyph unicode="&#xba;" horiz-adv-x="943" d="M468 -15Q354 -15 275 41T159 207T138 471Q154 626 211 735T358 902T562 960Q678 960 757 901T871 733T892 471Q878 317 821 209T673 43T468 -15ZM471 45Q628 45 716 163T824 471Q843 661 777 779T553 898Q397 898
314 782T212 471Q201 348 222 252T304 100T471 45Z" />
<glyph unicode="&#xbb;" horiz-adv-x="1077" d="M159 94L88 122L555 545L559 495L210 918L279 946L624 520L159 94ZM569 94L498 122L965 545L969 495L620 918L689 946L1034 520L569 94Z" />
<glyph unicode="&#xbc;" horiz-adv-x="1633" d="M699 1359H739L668 600H631L696 1305Q668 1282 635 1267T573 1248L578 1298Q610 1302 642 1317T699 1359ZM271 0L1237 1351H1287L318 0H271ZM1291 0L1307 201H948L952 239L1371 773H1402L1352 241H1470L1464 201H1346L1329
0H1291ZM1003 239H1309L1351 684L1003 239Z" />
<glyph unicode="&#xbd;" horiz-adv-x="1617" d="M698 1359H738L667 600H630L695 1305Q667 1282 634 1267T572 1248L577 1298Q609 1302 641 1317T698 1359ZM258 0L1224 1351H1274L305 0H258ZM1024 96L1019 44H1421L1419 0H976L983 92Q991 194 1043 242T1163 321L1296
382Q1356 408 1392 452T1434 564Q1443 638 1401 683T1282 728Q1205 728 1153 695T1088 596H1045Q1056 648 1086 687T1166 748T1287 770Q1351 770 1396 742T1463 667T1481 561Q1471 471 1423 419T1312 341L1174 278Q1107 248 1070 205T1024 96Z" />
<glyph unicode="&#xbe;" horiz-adv-x="1718" d="M734 585Q669 585 615 611T532 690T511 820H549Q539 721 597 673T741 624Q827 624 879 675T939 799Q946 867 903 916T746 966H683L689 1004H713Q811 1004 874 1045T944 1160Q952 1228 910 1275T788 1322Q731 1322
684 1296T613 1195H571Q595 1288 657 1326T796 1364Q886 1364 942 1306T991 1162Q984 1100 947 1058T846 990Q911 973 950 925T982 798Q975 734 944 686T861 612T734 585ZM444 0L1410 1351H1460L491 0H444ZM1376 0L1392 201H1033L1037 239L1456 773H1487L1437 241H1555L1549
201H1431L1414 0H1376ZM1088 239H1394L1436 684L1088 239Z" />
<glyph unicode="&#xbf;" horiz-adv-x="863" d="M549 914L541 813Q534 723 512 669T446 574T329 484Q264 440 219 405T149 327T121 221Q116 113 181 57T372 0Q496 0 563 54T660 199H738Q715 83 616 8T365 -68Q254 -68 183 -28T80 79T54 227Q60 311 98 368T188 465T288
535Q353 576 390 607T447 683T477 814L490 914H549ZM545 1179Q575 1179 587 1160T596 1116Q593 1090 576 1072T530 1053Q497 1053 486 1074T477 1117Q480 1144 498 1161T545 1179Z" />
<glyph unicode="&#xc0;" horiz-adv-x="934" d="M53 0L547 1215H622L879 0H816L739 363H270L122 0H53ZM294 429H722L574 1118L294 429ZM771 1365L419 1611L465 1681L800 1413L771 1365Z" />
<glyph unicode="&#xc1;" horiz-adv-x="934" d="M53 0L547 1215H622L879 0H816L739 363H270L122 0H53ZM294 429H722L574 1118L294 429ZM528 1360L502 1408L887 1676L925 1606L528 1360Z" />
<glyph unicode="&#xc2;" horiz-adv-x="934" d="M53 0L547 1215H622L879 0H816L739 363H270L122 0H53ZM294 429H722L574 1118L294 429ZM343 1385L305 1420L600 1721L838 1420L798 1385L591 1616L343 1385Z" />
<glyph unicode="&#xc3;" horiz-adv-x="934" d="M53 0L547 1215H622L879 0H816L739 363H270L122 0H53ZM294 429H722L574 1118L294 429ZM383 1445L355 1464Q387 1550 421 1584T496 1619Q516 1619 539 1609T620 1563Q679 1529 699 1519T737 1509Q769 1509 794 1532T846
1619L878 1595Q859 1542 836 1509T788 1461T737 1445Q716 1445 692 1458T599 1505Q543 1534 524 1541T491 1549Q463 1549 438 1527T383 1445Z" />
<glyph unicode="&#xc4;" horiz-adv-x="934" d="M53 0L547 1215H622L879 0H816L739 363H270L122 0H53ZM294 429H722L574 1118L294 429ZM478 1469Q452 1469 439 1488T429 1532Q431 1551 447 1575T494 1599Q515 1599 532 1584T550 1540Q550 1504 526 1487T478 1469ZM728
1466Q704 1466 692 1487T681 1530Q683 1551 700 1574T745 1597Q760 1597 782 1585T804 1538Q804 1498 775 1482T728 1466Z" />
<glyph unicode="&#xc5;" horiz-adv-x="934" d="M53 0L547 1215H622L879 0H816L739 363H270L122 0H53ZM294 429H722L574 1118L294 429ZM609 1369Q565 1369 528 1391T469 1450T447 1531Q447 1576 469 1612T528 1671T609 1693Q654 1693 690 1671T749 1613T771 1531Q771
1487 749 1450T691 1391T609 1369ZM609 1434Q650 1434 678 1462T706 1531Q706 1572 678 1600T609 1628Q569 1628 541 1600T512 1531Q512 1491 540 1463T609 1434Z" />
<glyph unicode="&#xc6;" horiz-adv-x="1411" d="M53 0L542 1215H1387L1381 1152H763L782 1183L731 624L719 644H1302L1298 586H711L731 623L678 53L667 64H1283L1276 0H603L639 387L681 363H236L280 395L122 0H53ZM640 398L713 1183L754 1152H554L596 1180L285
408L277 429H690L640 398Z" />
<glyph unicode="&#xc7;" horiz-adv-x="1063" d="M550 -15Q405 -15 312 69T181 298T159 619Q176 816 250 953T435 1161T670 1232Q828 1232 926 1141T1065 903L985 882Q954 1016 866 1092T663 1168Q561 1168 467 1105T308 920T228 619Q213 462 241 332T347 124T558
46Q716 46 821 139T939 386H1008Q999 262 935 172T771 34T550 -15ZM391 -344L409 -296Q493 -343 558 -349T662 -334T700 -272Q700 -230 661 -200T570 -150T474 -121L528 33L602 31L549 -118L504 -65Q589 -89 653 -117T752 -183T788 -271Q788 -328 747 -361T643
-403T512 -398T391 -344Z" />
<glyph unicode="&#xc8;" horiz-adv-x="966" d="M195 0L309 1215H948L937 1152H367L319 644H858L855 586H315L267 64H840L830 0H195ZM787 1365L435 1611L481 1681L816 1413L787 1365Z" />
<glyph unicode="&#xc9;" horiz-adv-x="966" d="M195 0L309 1215H948L937 1152H367L319 644H858L855 586H315L267 64H840L830 0H195ZM544 1360L518 1408L903 1676L941 1606L544 1360Z" />
<glyph unicode="&#xca;" horiz-adv-x="966" d="M195 0L309 1215H948L937 1152H367L319 644H858L855 586H315L267 64H840L830 0H195ZM359 1385L321 1420L616 1721L854 1420L814 1385L607 1616L359 1385Z" />
<glyph unicode="&#xcb;" horiz-adv-x="966" d="M195 0L309 1215H948L937 1152H367L319 644H858L855 586H315L267 64H840L830 0H195ZM494 1469Q468 1469 455 1488T445 1532Q447 1551 463 1575T510 1599Q531 1599 548 1584T566 1540Q566 1504 542 1487T494 1469ZM744
1466Q720 1466 708 1487T697 1530Q699 1551 716 1574T761 1597Q776 1597 798 1585T820 1538Q820 1498 791 1482T744 1466Z" />
<glyph unicode="&#xcc;" horiz-adv-x="456" d="M197 0L311 1215H377L263 0H197ZM532 1365L180 1611L226 1681L561 1413L532 1365Z" />
<glyph unicode="&#xcd;" horiz-adv-x="456" d="M197 0L311 1215H377L263 0H197ZM289 1360L263 1408L648 1676L686 1606L289 1360Z" />
<glyph unicode="&#xce;" horiz-adv-x="456" d="M197 0L311 1215H377L263 0H197ZM104 1385L66 1420L361 1721L599 1420L559 1385L352 1616L104 1385Z" />
<glyph unicode="&#xcf;" horiz-adv-x="456" d="M197 0L311 1215H377L263 0H197ZM239 1469Q213 1469 200 1488T190 1532Q192 1551 208 1575T255 1599Q276 1599 293 1584T311 1540Q311 1504 287 1487T239 1469ZM489 1466Q465 1466 453 1487T442 1530Q444 1551 461
1574T506 1597Q521 1597 543 1585T565 1538Q565 1498 536 1482T489 1466Z" />
<glyph unicode="&#xd0;" horiz-adv-x="1142" d="M128 645H663L659 586H121L128 645ZM309 1215H593Q759 1215 870 1139T1031 927T1064 610Q1048 426 971 289T768 76T475 0H195L309 1215ZM367 1155L262 55H483Q625 55 736 127T916 324T997 610Q1011 767 967 890T826
1084T588 1155H367Z" />
<glyph unicode="&#xd1;" horiz-adv-x="1169" d="M193 0L307 1215H402L928 62L909 66L1021 1215H1087L974 0H882L350 1155L370 1151L263 0H193ZM501 1445L473 1464Q505 1550 539 1584T614 1619Q634 1619 657 1609T738 1563Q797 1529 817 1519T855 1509Q887 1509
912 1532T964 1619L996 1595Q977 1542 954 1509T906 1461T855 1445Q834 1445 810 1458T717 1505Q661 1534 642 1541T609 1549Q581 1549 556 1527T501 1445Z" />
<glyph unicode="&#xd2;" horiz-adv-x="1088" d="M543 -15Q419 -15 325 51T185 255T159 604Q178 814 250 953T430 1162T663 1232Q787 1232 881 1163T1023 954T1052 604Q1030 392 956 255T774 51T543 -15ZM551 53Q724 53 839 190T982 602Q1009 876 919 1021T655
1166Q477 1166 365 1021T224 604Q199 329 287 191T551 53ZM848 1365L496 1611L542 1681L877 1413L848 1365Z" />
<glyph unicode="&#xd3;" horiz-adv-x="1088" d="M543 -15Q419 -15 325 51T185 255T159 604Q178 814 250 953T430 1162T663 1232Q787 1232 881 1163T1023 954T1052 604Q1030 392 956 255T774 51T543 -15ZM551 53Q724 53 839 190T982 602Q1009 876 919 1021T655
1166Q477 1166 365 1021T224 604Q199 329 287 191T551 53ZM605 1360L579 1408L964 1676L1002 1606L605 1360Z" />
<glyph unicode="&#xd4;" horiz-adv-x="1088" d="M543 -15Q419 -15 325 51T185 255T159 604Q178 814 250 953T430 1162T663 1232Q787 1232 881 1163T1023 954T1052 604Q1030 392 956 255T774 51T543 -15ZM551 53Q724 53 839 190T982 602Q1009 876 919 1021T655
1166Q477 1166 365 1021T224 604Q199 329 287 191T551 53ZM420 1385L382 1420L677 1721L915 1420L875 1385L668 1616L420 1385Z" />
<glyph unicode="&#xd5;" horiz-adv-x="1088" d="M543 -15Q419 -15 325 51T185 255T159 604Q178 814 250 953T430 1162T663 1232Q787 1232 881 1163T1023 954T1052 604Q1030 392 956 255T774 51T543 -15ZM551 53Q724 53 839 190T982 602Q1009 876 919 1021T655
1166Q477 1166 365 1021T224 604Q199 329 287 191T551 53ZM460 1445L432 1464Q464 1550 498 1584T573 1619Q593 1619 616 1609T697 1563Q756 1529 776 1519T814 1509Q846 1509 871 1532T923 1619L955 1595Q936 1542 913 1509T865 1461T814 1445Q793 1445 769 1458T676
1505Q620 1534 601 1541T568 1549Q540 1549 515 1527T460 1445Z" />
<glyph unicode="&#xd6;" horiz-adv-x="1088" d="M543 -15Q419 -15 325 51T185 255T159 604Q178 814 250 953T430 1162T663 1232Q787 1232 881 1163T1023 954T1052 604Q1030 392 956 255T774 51T543 -15ZM551 53Q724 53 839 190T982 602Q1009 876 919 1021T655
1166Q477 1166 365 1021T224 604Q199 329 287 191T551 53ZM555 1469Q529 1469 516 1488T506 1532Q508 1551 524 1575T571 1599Q592 1599 609 1584T627 1540Q627 1504 603 1487T555 1469ZM805 1466Q781 1466 769 1487T758 1530Q760 1551 777 1574T822 1597Q837 1597
859 1585T881 1538Q881 1498 852 1482T805 1466Z" />
<glyph unicode="&#xd7;" horiz-adv-x="980" d="M138 154L86 200L482 525L474 459L164 768L218 814L527 505L456 503L844 830L894 780L501 457L509 523L818 214L765 168L455 477L527 479L138 154Z" />
<glyph unicode="&#xd8;" horiz-adv-x="1088" d="M543 -15Q419 -15 325 51T185 255T159 604Q178 814 250 953T430 1162T663 1232Q787 1232 881 1163T1023 954T1052 604Q1030 392 956 255T774 51T543 -15ZM551 53Q724 53 839 190T982 602Q1009 876 919 1021T655
1166Q477 1166 365 1021T224 604Q199 329 287 191T551 53Z" />
<glyph unicode="&#xd9;" horiz-adv-x="1109" d="M545 -15Q375 -15 279 88T202 415L280 1215H346L268 415Q250 223 328 136T555 48Q698 48 791 135T903 415L981 1215H1047L967 415Q955 266 897 171T747 30T545 -15ZM859 1365L507 1611L553 1681L888 1413L859 1365Z" />
<glyph unicode="&#xda;" horiz-adv-x="1109" d="M545 -15Q375 -15 279 88T202 415L280 1215H346L268 415Q250 223 328 136T555 48Q698 48 791 135T903 415L981 1215H1047L967 415Q955 266 897 171T747 30T545 -15ZM616 1360L590 1408L975 1676L1013 1606L616 1360Z" />
<glyph unicode="&#xdb;" horiz-adv-x="1109" d="M545 -15Q375 -15 279 88T202 415L280 1215H346L268 415Q250 223 328 136T555 48Q698 48 791 135T903 415L981 1215H1047L967 415Q955 266 897 171T747 30T545 -15ZM431 1385L393 1420L688 1721L926 1420L886 1385L679
1616L431 1385Z" />
<glyph unicode="&#xdc;" horiz-adv-x="1109" d="M545 -15Q375 -15 279 88T202 415L280 1215H346L268 415Q250 223 328 136T555 48Q698 48 791 135T903 415L981 1215H1047L967 415Q955 266 897 171T747 30T545 -15ZM566 1469Q540 1469 527 1488T517 1532Q519 1551
535 1575T582 1599Q603 1599 620 1584T638 1540Q638 1504 614 1487T566 1469ZM816 1466Q792 1466 780 1487T769 1530Q771 1551 788 1574T833 1597Q848 1597 870 1585T892 1538Q892 1498 863 1482T816 1466Z" />
<glyph unicode="&#xdd;" horiz-adv-x="879" d="M409 0L455 494L119 1215H200L497 571L913 1215H988L525 494L479 0H409ZM501 1360L475 1408L860 1676L898 1606L501 1360Z" />
<glyph unicode="&#xde;" horiz-adv-x="946" d="M195 0L309 1215H371L346 950L305 995H603Q719 995 790 947T892 817T912 631Q897 478 803 380T533 281H240L289 326L259 0H195ZM286 296L245 341H541Q676 341 755 417T847 631Q859 772 793 852T596 932H300L349 977L286
296Z" />
<glyph unicode="&#xdf;" horiz-adv-x="1037" d="M657 -19Q617 -19 566 -5T466 36L491 87Q533 65 579 52T657 38Q702 38 750 64T830 142T863 264Q863 327 838 374T777 461T704 536T642 608T617 691Q617 738 643 780T702 865T762 959T788 1070Q788 1153 734 1206T591
1260Q529 1260 473 1228T378 1123T327 924L242 0H182L266 925Q278 1052 320 1140T431 1274T592 1320Q657 1320 705 1299T784 1243T832 1164T848 1073Q848 1007 822 954T763 858T703 777T677 701Q677 665 702 631T764 561T839 482T901 387T926 268Q926 187 887 122T786
19T657 -19Z" />
<glyph unicode="&#xe0;" horiz-adv-x="960" d="M428 -15Q339 -15 282 25T201 126T182 251Q194 352 245 413T369 502T519 530Q581 530 650 514T777 463L792 613Q808 771 751 836T583 901Q523 901 469 882T378 819T336 701H259Q268 801 319 857T442 937T584 960Q716
960 793 882T853 614L795 0H741Q743 49 745 95T749 190Q702 84 611 35T428 -15ZM419 44Q503 44 586 88T724 216T772 418Q703 441 638 453T511 466Q409 466 336 420T250 251Q242 166 279 105T419 44ZM745 1089L393 1335L439 1405L774 1137L745 1089Z" />
<glyph unicode="&#xe1;" horiz-adv-x="960" d="M428 -15Q339 -15 282 25T201 126T182 251Q194 352 245 413T369 502T519 530Q581 530 650 514T777 463L792 613Q808 771 751 836T583 901Q523 901 469 882T378 819T336 701H259Q268 801 319 857T442 937T584 960Q716
960 793 882T853 614L795 0H741Q743 49 745 95T749 190Q702 84 611 35T428 -15ZM419 44Q503 44 586 88T724 216T772 418Q703 441 638 453T511 466Q409 466 336 420T250 251Q242 166 279 105T419 44ZM502 1084L476 1132L861 1400L899 1330L502 1084Z" />
<glyph unicode="&#xe2;" horiz-adv-x="960" d="M428 -15Q339 -15 282 25T201 126T182 251Q194 352 245 413T369 502T519 530Q581 530 650 514T777 463L792 613Q808 771 751 836T583 901Q523 901 469 882T378 819T336 701H259Q268 801 319 857T442 937T584 960Q716
960 793 882T853 614L795 0H741Q743 49 745 95T749 190Q702 84 611 35T428 -15ZM419 44Q503 44 586 88T724 216T772 418Q703 441 638 453T511 466Q409 466 336 420T250 251Q242 166 279 105T419 44ZM317 1109L279 1144L574 1445L812 1144L772 1109L565 1340L317
1109Z" />
<glyph unicode="&#xe3;" horiz-adv-x="960" d="M428 -15Q339 -15 282 25T201 126T182 251Q194 352 245 413T369 502T519 530Q581 530 650 514T777 463L792 613Q808 771 751 836T583 901Q523 901 469 882T378 819T336 701H259Q268 801 319 857T442 937T584 960Q716
960 793 882T853 614L795 0H741Q743 49 745 95T749 190Q702 84 611 35T428 -15ZM419 44Q503 44 586 88T724 216T772 418Q703 441 638 453T511 466Q409 466 336 420T250 251Q242 166 279 105T419 44ZM357 1169L329 1188Q361 1274 395 1308T470 1343Q490 1343 513
1333T594 1287Q653 1253 673 1243T711 1233Q743 1233 768 1256T820 1343L852 1319Q833 1266 810 1233T762 1185T711 1169Q690 1169 666 1182T573 1229Q517 1258 498 1265T465 1273Q437 1273 412 1251T357 1169Z" />
<glyph unicode="&#xe4;" horiz-adv-x="960" d="M428 -15Q339 -15 282 25T201 126T182 251Q194 352 245 413T369 502T519 530Q581 530 650 514T777 463L792 613Q808 771 751 836T583 901Q523 901 469 882T378 819T336 701H259Q268 801 319 857T442 937T584 960Q716
960 793 882T853 614L795 0H741Q743 49 745 95T749 190Q702 84 611 35T428 -15ZM419 44Q503 44 586 88T724 216T772 418Q703 441 638 453T511 466Q409 466 336 420T250 251Q242 166 279 105T419 44ZM452 1193Q426 1193 413 1212T403 1256Q405 1275 421 1299T468
1323Q489 1323 506 1308T524 1264Q524 1228 500 1211T452 1193ZM702 1190Q678 1190 666 1211T655 1254Q657 1275 674 1298T719 1321Q734 1321 756 1309T778 1262Q778 1222 749 1206T702 1190Z" />
<glyph unicode="&#xe5;" horiz-adv-x="960" d="M428 -15Q339 -15 282 25T201 126T182 251Q194 352 245 413T369 502T519 530Q581 530 650 514T777 463L792 613Q808 771 751 836T583 901Q523 901 469 882T378 819T336 701H259Q268 801 319 857T442 937T584 960Q716
960 793 882T853 614L795 0H741Q743 49 745 95T749 190Q702 84 611 35T428 -15ZM419 44Q503 44 586 88T724 216T772 418Q703 441 638 453T511 466Q409 466 336 420T250 251Q242 166 279 105T419 44ZM583 1093Q539 1093 502 1115T443 1174T421 1255Q421 1300 443
1336T502 1395T583 1417Q628 1417 664 1395T723 1337T745 1255Q745 1211 723 1174T665 1115T583 1093ZM583 1158Q624 1158 652 1186T680 1255Q680 1296 652 1324T583 1352Q543 1352 515 1324T486 1255Q486 1215 514 1187T583 1158Z" />
<glyph unicode="&#xe6;" horiz-adv-x="1509" d="M183 251Q190 344 240 406T364 499T513 530Q573 530 647 510T785 446L754 418L773 613Q789 774 734 837T579 901Q523 901 469 882T379 819T337 701H260Q269 803 322 859T446 937T580 960Q688 960 760 900T837 694L819
703Q872 826 961 893T1166 960Q1235 960 1288 936T1378 868T1433 764T1452 630Q1452 595 1448 550T1434 462H784L833 500Q819 372 838 269T918 106T1085 45Q1188 45 1260 103T1354 269H1426Q1403 171 1350 108T1226 15T1083 -15Q993 -15 926 24T818 123T768 248H791Q727
121 622 53T419 -15Q351 -15 295 17T208 109T183 251ZM251 251Q243 166 280 105T414 44Q476 44 540 71T656 152T736 282T750 457L786 407Q707 434 637 450T505 466Q447 466 392 448T298 383T251 251ZM828 481L787 514H1380Q1394 620 1379 708T1312 849T1166 902Q1063
902 992 841T881 683T828 481Z" />
<glyph unicode="&#xe7;" horiz-adv-x="896" d="M471 -15Q368 -15 288 42T166 209T139 473Q154 626 215 735T366 902T559 960Q616 960 663 943T748 892T812 814T851 711L785 688Q764 791 701 845T552 899Q469 899 396 848T273 701T211 473Q200 352 227 255T319
101T483 44Q586 44 661 108T742 296H815Q808 200 758 131T631 23T471 -15ZM303 -344L321 -296Q405 -343 470 -349T574 -334T612 -272Q612 -230 573 -200T482 -150T386 -121L440 33L514 31L461 -118L416 -65Q501 -89 565 -117T664 -183T700 -271Q700 -328 659 -361T555
-403T424 -398T303 -344Z" />
<glyph unicode="&#xe8;" horiz-adv-x="896" d="M461 -15Q349 -15 271 40T158 203T138 465Q153 619 208 730T352 900T550 960Q621 960 674 936T765 868T820 764T839 630Q839 595 835 550T821 462H160L209 490Q196 367 216 266T298 105T470 45Q574 45 646 102T741
269H813Q789 171 737 108T613 15T461 -15ZM207 502L172 514H815L766 509Q780 613 767 702T702 847T550 902Q449 902 378 845T264 697T207 502ZM713 1089L361 1335L407 1405L742 1137L713 1089Z" />
<glyph unicode="&#xe9;" horiz-adv-x="896" d="M461 -15Q349 -15 271 40T158 203T138 465Q153 619 208 730T352 900T550 960Q621 960 674 936T765 868T820 764T839 630Q839 595 835 550T821 462H160L209 490Q196 367 216 266T298 105T470 45Q574 45 646 102T741
269H813Q789 171 737 108T613 15T461 -15ZM207 502L172 514H815L766 509Q780 613 767 702T702 847T550 902Q449 902 378 845T264 697T207 502ZM470 1084L444 1132L829 1400L867 1330L470 1084Z" />
<glyph unicode="&#xea;" horiz-adv-x="896" d="M461 -15Q349 -15 271 40T158 203T138 465Q153 619 208 730T352 900T550 960Q621 960 674 936T765 868T820 764T839 630Q839 595 835 550T821 462H160L209 490Q196 367 216 266T298 105T470 45Q574 45 646 102T741
269H813Q789 171 737 108T613 15T461 -15ZM207 502L172 514H815L766 509Q780 613 767 702T702 847T550 902Q449 902 378 845T264 697T207 502ZM285 1109L247 1144L542 1445L780 1144L740 1109L533 1340L285 1109Z" />
<glyph unicode="&#xeb;" horiz-adv-x="896" d="M461 -15Q349 -15 271 40T158 203T138 465Q153 619 208 730T352 900T550 960Q621 960 674 936T765 868T820 764T839 630Q839 595 835 550T821 462H160L209 490Q196 367 216 266T298 105T470 45Q574 45 646 102T741
269H813Q789 171 737 108T613 15T461 -15ZM207 502L172 514H815L766 509Q780 613 767 702T702 847T550 902Q449 902 378 845T264 697T207 502ZM420 1193Q394 1193 381 1212T371 1256Q373 1275 389 1299T436 1323Q457 1323 474 1308T492 1264Q492 1228 468 1211T420
1193ZM670 1190Q646 1190 634 1211T623 1254Q625 1275 642 1298T687 1321Q702 1321 724 1309T746 1262Q746 1222 717 1206T670 1190Z" />
<glyph unicode="&#xec;" horiz-adv-x="482" d="M194 0L282 941H348L260 0H194ZM762 1089L410 1335L456 1405L791 1137L762 1089Z" />
<glyph unicode="&#xed;" horiz-adv-x="482" d="M194 0L282 941H348L260 0H194ZM263 1084L237 1132L622 1400L660 1330L263 1084Z" />
<glyph unicode="&#xee;" horiz-adv-x="482" d="M194 0L282 941H348L260 0H194ZM78 1109L40 1144L335 1445L573 1144L533 1109L326 1340L78 1109Z" />
<glyph unicode="&#xef;" horiz-adv-x="482" d="M194 0L282 941H348L260 0H194ZM469 1193Q443 1193 430 1212T420 1256Q422 1275 438 1299T485 1323Q506 1323 523 1308T541 1264Q541 1228 517 1211T469 1193ZM719 1190Q695 1190 683 1211T672 1254Q674 1275 691
1298T736 1321Q751 1321 773 1309T795 1262Q795 1222 766 1206T719 1190Z" />
<glyph unicode="&#xf0;" horiz-adv-x="1015" d="M445 -19Q369 -19 303 18T196 132T155 322Q155 430 192 518T291 670T428 767T580 801Q625 801 672 786T760 733T826 627T851 454L841 452Q879 704 851 903T738 1261T523 1548L572 1580Q697 1454 772 1321T882 1043T916
735Q916 528 872 384T757 151T604 22T445 -19ZM462 42Q564 42 640 104T758 264T800 467Q800 601 735 672T569 743Q470 743 392 681T269 522T224 322Q224 204 285 123T462 42ZM514 1023L492 1072L1061 1402L1085 1353L514 1023Z" />
<glyph unicode="&#xf1;" horiz-adv-x="1047" d="M193 0L281 939H336L325 731Q373 840 455 900T647 960Q743 960 812 914T913 778T932 555L880 0H820L872 555Q888 726 821 812T635 899Q488 899 404 779T303 472L259 0H193ZM401 1169L373 1188Q405 1274 439 1308T514
1343Q534 1343 557 1333T638 1287Q697 1253 717 1243T755 1233Q787 1233 812 1256T864 1343L896 1319Q877 1266 854 1233T806 1185T755 1169Q734 1169 710 1182T617 1229Q561 1258 542 1265T509 1273Q481 1273 456 1251T401 1169Z" />
<glyph unicode="&#xf2;" horiz-adv-x="943" d="M468 -15Q354 -15 275 41T159 207T138 471Q154 626 211 735T358 902T562 960Q678 960 757 901T871 733T892 471Q878 317 821 209T673 43T468 -15ZM471 45Q628 45 716 163T824 471Q843 661 777 779T553 898Q397 898
314 782T212 471Q201 348 222 252T304 100T471 45ZM737 1089L385 1335L431 1405L766 1137L737 1089Z" />
<glyph unicode="&#xf3;" horiz-adv-x="943" d="M468 -15Q354 -15 275 41T159 207T138 471Q154 626 211 735T358 902T562 960Q678 960 757 901T871 733T892 471Q878 317 821 209T673 43T468 -15ZM471 45Q628 45 716 163T824 471Q843 661 777 779T553 898Q397 898
314 782T212 471Q201 348 222 252T304 100T471 45ZM494 1084L468 1132L853 1400L891 1330L494 1084Z" />
<glyph unicode="&#xf4;" horiz-adv-x="943" d="M468 -15Q354 -15 275 41T159 207T138 471Q154 626 211 735T358 902T562 960Q678 960 757 901T871 733T892 471Q878 317 821 209T673 43T468 -15ZM471 45Q628 45 716 163T824 471Q843 661 777 779T553 898Q397 898
314 782T212 471Q201 348 222 252T304 100T471 45ZM309 1109L271 1144L566 1445L804 1144L764 1109L557 1340L309 1109Z" />
<glyph unicode="&#xf5;" horiz-adv-x="943" d="M468 -15Q354 -15 275 41T159 207T138 471Q154 626 211 735T358 902T562 960Q678 960 757 901T871 733T892 471Q878 317 821 209T673 43T468 -15ZM471 45Q628 45 716 163T824 471Q843 661 777 779T553 898Q397 898
314 782T212 471Q201 348 222 252T304 100T471 45ZM349 1169L321 1188Q353 1274 387 1308T462 1343Q482 1343 505 1333T586 1287Q645 1253 665 1243T703 1233Q735 1233 760 1256T812 1343L844 1319Q825 1266 802 1233T754 1185T703 1169Q682 1169 658 1182T565
1229Q509 1258 490 1265T457 1273Q429 1273 404 1251T349 1169Z" />
<glyph unicode="&#xf6;" horiz-adv-x="943" d="M468 -15Q354 -15 275 41T159 207T138 471Q154 626 211 735T358 902T562 960Q678 960 757 901T871 733T892 471Q878 317 821 209T673 43T468 -15ZM471 45Q628 45 716 163T824 471Q843 661 777 779T553 898Q397 898
314 782T212 471Q201 348 222 252T304 100T471 45ZM444 1193Q418 1193 405 1212T395 1256Q397 1275 413 1299T460 1323Q481 1323 498 1308T516 1264Q516 1228 492 1211T444 1193ZM694 1190Q670 1190 658 1211T647 1254Q649 1275 666 1298T711 1321Q726 1321 748
1309T770 1262Q770 1222 741 1206T694 1190Z" />
<glyph unicode="&#xf7;" horiz-adv-x="843" d="M306 756H1022L1013 700H297L306 756ZM439 632Q412 632 399 652T388 698Q391 724 409 742T454 760Q479 760 494 743T506 698Q503 675 485 654T439 632ZM355 188Q328 188 315 208T304 254Q307 280 325 298T370 316Q395
316 410 299T422 254Q419 231 401 210T355 188Z" />
<glyph unicode="&#xf8;" horiz-adv-x="943" d="M468 -15Q354 -15 275 41T159 207T138 471Q154 626 211 735T358 902T562 960Q678 960 757 901T871 733T892 471Q878 317 821 209T673 43T468 -15ZM471 45Q628 45 716 163T824 471Q843 661 777 779T553 898Q397 898
314 782T212 471Q201 348 222 252T304 100T471 45Z" />
<glyph unicode="&#xf9;" horiz-adv-x="1049" d="M476 -18Q375 -18 309 25T215 149T195 346L250 941H316L263 345Q246 197 302 122T486 46Q585 46 658 106T775 264T829 472L873 941H939L849 0H786L806 207Q752 104 667 43T476 -18ZM790 1089L438 1335L484 1405L819
1137L790 1089Z" />
<glyph unicode="&#xfa;" horiz-adv-x="1049" d="M476 -18Q375 -18 309 25T215 149T195 346L250 941H316L263 345Q246 197 302 122T486 46Q585 46 658 106T775 264T829 472L873 941H939L849 0H786L806 207Q752 104 667 43T476 -18ZM547 1084L521 1132L906 1400L944
1330L547 1084Z" />
<glyph unicode="&#xfb;" horiz-adv-x="1049" d="M476 -18Q375 -18 309 25T215 149T195 346L250 941H316L263 345Q246 197 302 122T486 46Q585 46 658 106T775 264T829 472L873 941H939L849 0H786L806 207Q752 104 667 43T476 -18ZM362 1109L324 1144L619 1445L857
1144L817 1109L610 1340L362 1109Z" />
<glyph unicode="&#xfc;" horiz-adv-x="1049" d="M476 -18Q375 -18 309 25T215 149T195 346L250 941H316L263 345Q246 197 302 122T486 46Q585 46 658 106T775 264T829 472L873 941H939L849 0H786L806 207Q752 104 667 43T476 -18ZM497 1193Q471 1193 458 1212T448
1256Q450 1275 466 1299T513 1323Q534 1323 551 1308T569 1264Q569 1228 545 1211T497 1193ZM747 1190Q723 1190 711 1211T700 1254Q702 1275 719 1298T764 1321Q779 1321 801 1309T823 1262Q823 1222 794 1206T747 1190Z" />
<glyph unicode="&#xfd;" horiz-adv-x="833" d="M154 -481Q105 -481 65 -461T-17 -405L-9 -330Q29 -377 70 -397T160 -417Q227 -417 273 -367T351 -244T404 -102L440 0L176 939H243L479 113L783 939H849L436 -205Q408 -282 368 -345T275 -444T154 -481ZM439 1084L413
1132L798 1400L836 1330L439 1084Z" />
<glyph unicode="&#xfe;" horiz-adv-x="1040" d="M151 -466L313 1236H381L334 747H317Q370 849 450 904T626 960Q724 960 802 902T922 734T949 473Q935 322 873 213T721 44T530 -15Q443 -15 377 30T278 157L217 -466H151ZM546 44Q620 44 691 93T813 237T877 473Q890
611 858 706T763 850T620 899Q551 899 485 861T371 747T313 556L297 384Q287 273 322 197T419 83T546 44Z" />
<glyph unicode="&#xff;" horiz-adv-x="833" d="M154 -481Q105 -481 65 -461T-17 -405L-9 -330Q29 -377 70 -397T160 -417Q227 -417 273 -367T351 -244T404 -102L440 0L176 939H243L479 113L783 939H849L436 -205Q408 -282 368 -345T275 -444T154 -481ZM389 1193Q363
1193 350 1212T340 1256Q342 1275 358 1299T405 1323Q426 1323 443 1308T461 1264Q461 1228 437 1211T389 1193ZM639 1190Q615 1190 603 1211T592 1254Q594 1275 611 1298T656 1321Q671 1321 693 1309T715 1262Q715 1222 686 1206T639 1190Z" />
<glyph unicode="&#x2013;" horiz-adv-x="756" d="M150 529L153 589H712L704 529H150Z" />
<glyph unicode="&#x2014;" horiz-adv-x="1223" d="M150 529L153 589H1177L1173 529H150Z" />
<glyph unicode="&#x2018;" horiz-adv-x="275" d="M223 921Q195 921 177 948T160 1016Q164 1048 178 1081T219 1144T289 1196L333 1174Q289 1146 263 1115T225 1046Q257 1047 273 1031T287 983Q284 959 267 940T223 921Z" />
<glyph unicode="&#x2019;" horiz-adv-x="275" d="M137 921L90 948Q134 975 162 1004T201 1074Q173 1074 154 1090T135 1135Q138 1159 155 1177T197 1196Q219 1196 235 1185T258 1153T262 1101Q260 1072 246 1040T206 978T137 921Z" />
<glyph unicode="&#x201a;" horiz-adv-x="338" d="M302 -159L254 -134Q300 -114 329 -84T371 -10Q337 -12 319 5T305 53Q309 76 325 92T366 109Q386 109 400 98T423 65T429 16Q428 -9 416 -41T376 -104T302 -159Z" />
<glyph unicode="&#x201c;" horiz-adv-x="538" d="M426 921Q398 921 380 948T363 1016Q367 1048 381 1081T422 1144T492 1196L536 1174Q492 1146 466 1115T428 1046Q460 1047 476 1031T490 983Q487 959 470 940T426 921ZM223 921Q195 921 177 948T160 1016Q164
1048 178 1081T219 1144T289 1196L333 1174Q289 1146 263 1115T225 1046Q257 1047 273 1031T287 983Q284 959 267 940T223 921Z" />
<glyph unicode="&#x201d;" horiz-adv-x="542" d="M404 921L357 948Q401 975 429 1004T468 1074Q440 1074 421 1090T402 1135Q405 1159 422 1177T464 1196Q486 1196 502 1185T525 1153T529 1101Q527 1072 513 1040T473 978T404 921ZM197 921L150 948Q194 975 222
1004T261 1074Q233 1074 214 1090T195 1135Q198 1159 215 1177T257 1196Q279 1196 295 1185T318 1153T322 1101Q320 1072 306 1040T266 978T197 921Z" />
<glyph unicode="&#x201e;" horiz-adv-x="558" d="M266 -159L218 -134Q264 -114 293 -84T335 -10Q301 -12 283 5T269 53Q273 76 289 92T330 109Q350 109 364 98T387 65T393 16Q392 -9 380 -41T340 -104T266 -159ZM302 -159L254 -134Q300 -114 329 -84T371 -10Q337
-12 319 5T305 53Q309 76 325 92T366 109Q386 109 400 98T423 65T429 16Q428 -9 416 -41T376 -104T302 -159Z" />
<glyph unicode="&#x2022;" horiz-adv-x="365" d="M212 337Q163 337 138 374T119 457Q124 504 157 537T239 570Q285 570 313 539T334 457Q329 415 296 376T212 337Z" />
<glyph unicode="&#x2039;" horiz-adv-x="667" d="M489 94L144 520L609 946L680 918L213 495L209 545L558 122L489 94Z" />
<glyph unicode="&#x203a;" horiz-adv-x="667" d="M159 94L88 122L555 545L559 495L210 918L279 946L624 520L159 94Z" />
</font>
</defs>
</svg>
