<?xml version="1.0" standalone="no"?>
<!DOCTYPE svg PUBLIC "-//W3C//DTD SVG 1.1//EN" "http://www.w3.org/Graphics/SVG/1.1/DTD/svg11.dtd">
<svg xmlns="http://www.w3.org/2000/svg">
<defs >
<font id="Karla" horiz-adv-x="978" ><font-face
    font-family="Karla"
    units-per-em="2000"
    panose-1="2 11 0 4 3 5 3 3 0 3"
    ascent="1834"
    descent="-504"
    alphabetic="0" />
<glyph unicode=" " horiz-adv-x="456" />
<glyph unicode="!" horiz-adv-x="528" d="M220 438L278 1328H510L402 438H220ZM268 -18Q202 -18 165 28T134 140Q140 206 185 252T297 298Q364 298 402 252T434 140Q428 76 382 29T268 -18Z" />
<glyph unicode="&quot;" horiz-adv-x="690" d="M530 896L548 1372H760L686 896H530ZM168 896L186 1372H398L324 896H168Z" />
<glyph unicode="#" horiz-adv-x="1220" d="M248 66L298 328H134L160 482H326L386 798H220L250 954H416L466 1212H666L616 954H860L910 1212H1110L1060 954H1232L1198 798H1030L970 482H1142L1112 328H942L892 66H692L742 328H498L448 66H248ZM526 482H770L830
798H586L526 482Z" />
<glyph unicode="$" horiz-adv-x="1240" d="M526 -202L542 -22Q424 -9 332 41T190 182T154 406H366Q356 310 407 260T564 196L600 584L512 618Q366 674 291 753T228 970Q243 1115 356 1211T668 1322L684 1474H836L820 1320Q991 1299 1074 1199T1168 940H958Q954
1000 916 1048T802 1112L766 748L920 686Q1050 634 1109 555T1156 346Q1147 257 1094 176T940 39T692 -26L676 -202H526ZM714 192Q812 201 861 247T916 352Q922 409 892 451T802 518L746 542L714 192ZM620 794L650 1118Q561 1112 514 1068T461 968Q456 913 482
880T574 816L620 794Z" />
<glyph unicode="%" horiz-adv-x="1376" d="M478 1324Q579 1324 646 1249T698 1022Q683 869 602 794T422 718Q357 718 305 751T224 852T206 1022Q215 1123 255 1190T355 1290T478 1324ZM464 1174Q425 1174 399 1140T364 1022Q355 938 376 903T436 868Q475 868 502
903T538 1022Q546 1105 525 1139T464 1174ZM190 0L1106 1298H1320L406 0H190ZM1086 580Q1184 580 1251 505T1304 278Q1290 123 1209 48T1028 -28Q929 -28 863 47T810 278Q825 430 906 505T1086 580ZM1070 430Q1032 430 1005 395T970 278Q963 194 983 159T1042 124Q1080
124 1108 159T1144 278Q1154 359 1132 394T1070 430Z" />
<glyph unicode="&amp;" horiz-adv-x="1736" d="M644 -28Q511 -28 407 24T246 167T200 370Q212 505 305 582T558 688L532 718Q482 775 453 849T430 1004Q438 1092 491 1164T636 1278T854 1320Q976 1320 1058 1278T1180 1165T1210 1008Q1198 884 1115 794T874 638L1080
410Q1143 485 1199 577T1304 776L1440 688Q1391 568 1331 464T1202 274L1249 227Q1274 203 1298 192T1356 180Q1398 180 1433 215T1478 328H1670Q1650 165 1572 69T1358 -28Q1316 -28 1277 -18T1201 13T1129 63T1060 132Q967 56 863 14T644 -28ZM666 186Q737 186
803 209T932 274L668 568Q552 550 498 504T436 384Q428 302 488 244T666 186ZM768 758Q834 788 877 821T944 892T974 978Q978 1038 941 1077T836 1116Q758 1116 712 1073T660 970Q654 924 672 883T730 800L768 758Z" />
<glyph unicode="&apos;" horiz-adv-x="324" d="M162 878L180 1354H393L319 878H162Z" />
<glyph unicode="(" horiz-adv-x="720" d="M650 1508L790 1384Q677 1264 597 1144T470 899T410 636Q398 500 420 375T500 131T650 -108L484 -236Q367 -109 297 31T201 322T190 636Q214 880 326 1099T650 1508Z" />
<glyph unicode=")" horiz-adv-x="720" d="M188 -236L46 -108Q161 11 242 130T369 375T428 636Q441 773 419 898T338 1144T188 1384L354 1508Q528 1319 599 1100T648 636Q633 474 578 323T425 31T188 -236Z" />
<glyph unicode="*" horiz-adv-x="736" d="M312 792L218 894L388 1056L196 1130L262 1270L432 1170V1408H576L532 1170L720 1274L762 1132L558 1058L696 894L582 792L468 994L312 792Z" />
<glyph unicode="+" horiz-adv-x="980" d="M476 982H688L652 594H1002L982 388H632L596 0H384L420 388H68L88 594H440L476 982Z" />
<glyph unicode="," horiz-adv-x="456" d="M174 -272L26 -184Q88 -151 137 -108T206 -10Q158 1 126 36T98 128Q104 188 150 230T260 272Q315 272 350 242T400 164T410 58Q404 -4 374 -66T293 -183T174 -272Z" />
<glyph unicode="-" horiz-adv-x="672" d="M130 500L150 706H656L636 500H130Z" />
<glyph unicode="." horiz-adv-x="386" d="M188 -18Q124 -18 86 27T55 141Q62 207 108 252T219 298Q282 298 321 254T355 141Q349 70 301 26T188 -18Z" />
<glyph unicode="/" horiz-adv-x="850" d="M80 -162L698 1490H916L296 -162H80Z" />
<glyph unicode="0" horiz-adv-x="1140" d="M566 -28Q422 -28 320 46T171 270T146 648Q167 877 242 1027T434 1250T694 1324Q837 1324 940 1251T1090 1027T1116 648Q1094 420 1018 270T826 46T566 -28ZM586 190Q712 190 793 308T896 648Q917 872 859 991T674 1110Q548
1110 467 991T366 648Q344 426 402 308T586 190Z" />
<glyph unicode="1" horiz-adv-x="642" d="M436 1306H596L474 0H260L356 1024Q308 998 261 986T168 974L188 1200Q250 1209 311 1233T436 1306Z" />
<glyph unicode="2" horiz-adv-x="1088" d="M344 254L340 216H1008L988 0H108L128 222Q139 331 175 407T275 535T432 626L682 728Q763 763 806 814T854 940Q862 1015 818 1066T682 1118Q595 1118 533 1070T450 928H214Q229 1061 296 1149T468 1280T698 1324Q816
1324 907 1275T1046 1137T1082 930Q1069 780 986 683T746 520L492 416Q418 386 384 350T344 254Z" />
<glyph unicode="3" horiz-adv-x="1120" d="M560 -28Q468 -28 384 0T236 83T139 219T116 408H344Q341 340 369 291T451 216T580 190Q690 190 757 245T834 386Q839 442 817 482T745 544T614 566H458L476 752H610Q712 752 775 801T846 934Q852 1009 807 1059T660
1110Q578 1110 511 1073T416 944H192Q230 1144 361 1234T672 1324Q799 1324 894 1279T1037 1152T1076 962Q1068 863 1012 790T856 680Q958 640 1015 561T1062 364Q1051 249 985 161T809 22T560 -28Z" />
<glyph unicode="4" horiz-adv-x="1070" d="M632 0L658 288H66L82 466L760 1312H964L888 490H1090L1072 288H870L842 0H632ZM334 466H686L732 962L334 466Z" />
<glyph unicode="5" horiz-adv-x="1048" d="M530 -28Q404 -28 313 20T175 162T138 388H356Q347 288 403 239T550 190Q649 190 718 259T798 432Q807 530 752 580T576 630H220L336 1298H1036L1016 1082H522L468 790Q514 798 565 803T656 808Q836 808 935 711T1016
432Q1005 303 940 199T770 33T530 -28Z" />
<glyph unicode="6" horiz-adv-x="1092" d="M578 -28Q431 -28 327 57T173 289T142 626Q163 850 241 1006T441 1243T714 1324Q830 1324 914 1277T1042 1143T1080 942H854Q851 1020 814 1065T702 1110Q597 1110 518 1032T395 811T350 476Q375 598 430 668T557 767T706
796Q816 796 895 743T1012 597T1040 384Q1028 261 966 168T803 24T578 -28ZM598 190Q684 190 747 245T820 394Q830 492 776 547T636 602Q580 602 532 576T451 503T414 394Q405 301 459 246T598 190Z" />
<glyph unicode="7" horiz-adv-x="896" d="M80 0L714 1070H144L166 1298H986L964 1072L366 0H80Z" />
<glyph unicode="8" horiz-adv-x="1164" d="M578 -28Q428 -28 322 21T163 156T120 350Q132 471 216 546T420 638Q367 667 318 712T240 822T218 970Q229 1079 290 1158T457 1281T706 1324Q834 1324 932 1276T1082 1144T1124 952Q1115 854 1047 778T864 678L872 674Q995
619 1057 546T1108 344Q1098 236 1032 152T850 20T578 -28ZM598 190Q738 190 810 229T888 332Q891 382 863 417T778 478L598 556Q493 550 421 498T342 374Q335 287 409 239T598 190ZM672 764Q759 765 827 812T904 936Q910 1016 850 1063T686 1110Q620 1110 565
1091T476 1037T438 960Q432 911 459 880T544 822L672 764Z" />
<glyph unicode="9" horiz-adv-x="1098" d="M530 -28Q410 -28 319 24T180 169T144 384H366Q360 294 410 242T544 190Q691 190 767 326T866 690Q869 720 870 748T870 808Q842 698 789 631T664 533T512 502Q404 502 326 554T208 699T180 912Q192 1036 254 1129T416
1273T640 1324Q780 1324 885 1242T1043 1013T1078 670Q1057 457 989 301T806 58T530 -28ZM584 696Q638 696 686 722T767 795T806 902Q815 997 760 1052T620 1108Q538 1108 474 1053T400 902Q389 805 444 751T584 696Z" />
<glyph unicode=":" horiz-adv-x="486" d="M299 598Q233 598 197 644T166 756Q173 825 219 869T328 914Q392 914 430 869T464 756Q459 687 412 643T299 598ZM238 16Q169 16 135 64T106 174Q112 242 158 287T268 332Q334 332 372 286T404 174Q399 106 352 61T238 16Z" />
<glyph unicode=";" horiz-adv-x="554" d="M228 -272L80 -184Q142 -151 191 -108T260 -10Q212 0 180 36T152 128Q157 188 203 230T314 272Q393 272 433 210T464 58Q454 -39 390 -129T228 -272ZM359 610Q294 610 257 654T225 768Q232 835 277 880T387 926Q452 926
491 881T524 768Q519 700 472 655T359 610Z" />
<glyph unicode="&lt;" horiz-adv-x="904" d="M798 1234L922 1054L360 644L844 236L686 56L132 538L152 752L798 1234Z" />
<glyph unicode="=" horiz-adv-x="910" d="M178 396H804L784 190H158L178 396ZM218 816H844L826 612H200L218 816Z" />
<glyph unicode="&gt;" horiz-adv-x="904" d="M224 56L102 236L664 644L180 1054L336 1234L892 752L872 538L224 56Z" />
<glyph unicode="?" horiz-adv-x="930" d="M350 388L358 468Q368 561 392 616T459 707T566 780Q613 807 648 831T704 887T728 964Q733 1031 693 1070T569 1110Q478 1110 421 1063T352 940H132Q157 1113 273 1218T582 1324Q712 1324 799 1277T928 1147T962 962Q957
883 926 828T847 732T740 658Q681 623 644 597T589 536T568 446L564 388H350ZM423 -28Q354 -28 319 19T290 132Q297 199 342 241T455 284Q524 284 558 240T588 132Q583 62 537 17T423 -28Z" />
<glyph unicode="@" horiz-adv-x="1848" d="M982 -436Q778 -436 618 -370T349 -187T192 85T160 420Q179 623 261 789T474 1074T772 1259T1132 1324Q1300 1324 1432 1267T1654 1110T1784 875T1810 586Q1797 448 1750 341T1634 161T1484 50T1322 12Q1238 12 1187
47T1124 146L1118 178Q1076 103 1020 58T870 12Q794 12 731 60T632 192T608 384Q618 489 661 579T770 737T919 842T1088 880Q1209 880 1272 801T1320 562L1294 300Q1289 244 1303 221T1348 198Q1377 198 1415 219T1491 287T1558 407T1596 586Q1611 734 1561 853T1397
1042T1112 1112Q962 1112 834 1058T607 908T448 683T372 404Q354 215 420 70T633 -159T1000 -242L982 -436ZM930 204Q995 204 1040 243T1128 360L1148 560Q1154 622 1137 660T1064 698Q1013 698 955 661T853 554T800 388Q793 299 830 252T930 204Z" />
<glyph unicode="A" horiz-adv-x="1126" d="M40 0L560 1298H826L1088 0H862L806 280H374L264 0H40ZM444 458H772L662 1018L444 458Z" />
<glyph unicode="B" horiz-adv-x="1166" d="M168 0L290 1298H762Q897 1298 981 1252T1102 1127T1130 954Q1119 845 1057 767T892 656Q956 641 1004 601T1076 500T1092 360Q1087 299 1062 236T985 119T849 33T640 0H168ZM398 206H654Q755 206 806 252T864 374Q872
451 829 497T686 544H430L398 206ZM482 1094L450 750H700Q795 750 847 796T908 924Q915 1001 872 1047T734 1094H482Z" />
<glyph unicode="C" horiz-adv-x="1142" d="M588 -28Q434 -28 328 53T173 286T146 652Q167 872 246 1022T447 1248T716 1324Q920 1324 1024 1214T1144 928L914 882Q896 984 841 1047T696 1110Q619 1110 551 1060T436 907T374 652Q361 508 383 404T462 244T608 188Q722
188 792 255T872 428H1100Q1086 283 1020 182T844 26T588 -28Z" />
<glyph unicode="D" horiz-adv-x="1234" d="M288 1298H668Q846 1298 972 1219T1159 993T1202 648Q1183 451 1095 306T866 80T546 0H166L288 1298ZM480 1084L400 214H566Q679 214 765 270T905 425T972 648Q984 775 949 873T836 1027T646 1084H480Z" />
<glyph unicode="E" horiz-adv-x="1054" d="M166 0L288 1298H1040L1020 1094H480L448 752H954L934 548H428L396 206H936L918 0H166Z" />
<glyph unicode="F" horiz-adv-x="984" d="M168 0L290 1298H1026L1006 1094H482L450 752H928L908 550H430L380 0H168Z" />
<glyph unicode="G" horiz-adv-x="1218" d="M590 -28Q447 -28 340 56T179 290T144 642Q160 801 213 927T350 1142T539 1277T762 1324Q926 1324 1029 1245T1178 996L956 940Q919 1023 863 1066T730 1110Q644 1110 567 1054T438 892T372 642Q359 506 387 405T477
247T628 190Q702 190 765 224T870 325T922 486Q925 504 925 520T924 565L969 509L662 516L676 668H1142L1080 0H908Q906 61 906 121T903 242L917 245Q872 116 791 44T590 -28Z" />
<glyph unicode="H" horiz-adv-x="1270" d="M168 0L290 1298H502L450 756H960L1012 1298H1224L1102 0H890L940 550H430L380 0H168Z" />
<glyph unicode="I" horiz-adv-x="548" d="M168 0L290 1298H502L380 0H168Z" />
<glyph unicode="J" horiz-adv-x="800" d="M32 54L56 290Q122 243 189 223T314 202Q393 202 433 252T482 404L566 1298H782L696 404Q681 247 628 152T494 15T312 -28Q233 -28 164 -5T32 54Z" />
<glyph unicode="K" horiz-adv-x="1178" d="M290 1298H504L454 764L964 1298H1256L688 714L1168 0H892L528 550L424 442L382 0H168L290 1298Z" />
<glyph unicode="L" horiz-adv-x="890" d="M168 0L290 1298H502L398 206H878L860 0H168Z" />
<glyph unicode="M" horiz-adv-x="1574" d="M168 0L290 1298H594L840 526L1234 1298H1528L1406 0H1192L1286 1029L1302 1026L872 142H734L461 1061H478L380 0H168Z" />
<glyph unicode="N" horiz-adv-x="1290" d="M164 0L286 1298H517L981 321L941 324L1034 1298H1246L1124 0H908L427 1000L470 997L376 0H164Z" />
<glyph unicode="O" horiz-adv-x="1230" d="M610 -28Q454 -28 342 48T177 275T146 650Q167 878 248 1027T455 1250T738 1324Q895 1324 1007 1249T1173 1023T1206 650Q1184 423 1103 273T895 47T610 -28ZM630 186Q773 186 869 306T986 652Q1007 870 934 991T718
1112Q577 1112 482 991T366 650Q344 425 417 306T630 186Z" />
<glyph unicode="P" horiz-adv-x="1046" d="M162 0L284 1298H696Q828 1298 917 1250T1048 1110T1076 884Q1058 688 936 580T618 472H420L376 0H162ZM440 678H638Q736 678 792 736T856 884Q865 976 820 1035T676 1094H478L440 678Z" />
<glyph unicode="Q" horiz-adv-x="1234" d="M938 -360Q850 -360 778 -307T658 -158L594 -28Q443 -24 335 53T175 279T146 650Q167 878 248 1027T455 1250T738 1324Q895 1324 1007 1249T1173 1023T1206 650Q1179 382 1071 220T798 2L822 -48Q845 -90 877 -107T944
-126Q988 -126 1031 -114T1122 -80L1098 -324Q1055 -343 1016 -351T938 -360ZM630 186Q773 186 869 306T986 652Q1007 870 934 991T718 1112Q577 1112 482 991T366 650Q344 425 417 306T630 186Z" />
<glyph unicode="R" horiz-adv-x="1160" d="M168 0L290 1298H722Q930 1298 1033 1190T1120 900Q1105 761 1026 663T812 526L1076 0H800L588 506H426L380 0H168ZM440 664H640Q757 664 823 723T898 878Q906 975 858 1034T702 1094H482L440 664Z" />
<glyph unicode="S" horiz-adv-x="1148" d="M570 -28Q449 -28 351 19T199 162T154 406H366Q358 331 386 284T468 213T588 190Q653 190 705 209T790 262T828 346Q834 411 803 448T698 516L476 618Q346 677 281 754T228 970Q245 1128 367 1226T690 1324Q885 1324
983 1222T1080 940H870Q865 1017 818 1063T670 1110Q579 1110 524 1069T460 964Q456 912 486 880T584 818L828 708Q953 653 1014 568T1064 354Q1053 237 992 152T823 19T570 -28Z" />
<glyph unicode="T" horiz-adv-x="958" d="M372 0L476 1094H114L134 1298H1070L1050 1094H688L584 0H372Z" />
<glyph unicode="U" horiz-adv-x="1242" d="M620 -28Q396 -28 284 108T194 490L272 1298H484L406 490Q391 330 457 260T638 190Q753 190 833 260T928 490L1006 1298H1218L1142 490Q1126 326 1059 210T880 33T620 -28Z" />
<glyph unicode="V" horiz-adv-x="1092" d="M158 1298H384L572 296L956 1298H1178L656 0H432L158 1298Z" />
<glyph unicode="W" horiz-adv-x="1738" d="M158 1298H396L558 312L894 1212H1038L1216 308L1586 1298H1826L1302 0H1078L928 732L640 0H418L158 1298Z" />
<glyph unicode="X" horiz-adv-x="1232" d="M62 0L532 646L182 1298H442L692 830L994 1298H1250L796 650L1168 0H902L638 460L320 0H62Z" />
<glyph unicode="Y" horiz-adv-x="1088" d="M430 0L480 536L152 1298H404L610 780L930 1298H1180L692 536L642 0H430Z" />
<glyph unicode="Z" horiz-adv-x="1132" d="M132 0L150 204L850 1080L232 1082L254 1298H1138L1118 1096L420 218L1034 216L1016 0H132Z" />
<glyph unicode="[" horiz-adv-x="634" d="M131 -282L307 1580H753L731 1368H499L363 -68H595L575 -282H131Z" />
<glyph unicode="\" horiz-adv-x="850" d="M781 -160L163 1492H379L999 -160H781Z" />
<glyph unicode="]" horiz-adv-x="604" d="M2 -282L24 -68H255L405 1368H173L195 1580H642L446 -282H2Z" />
<glyph unicode="^" horiz-adv-x="948" d="M76 436L506 1206H678L960 436H726L564 926L310 436H76Z" />
<glyph unicode="_" horiz-adv-x="1382" d="M69 -1L88 205H1275L1254 -1H69Z" />
<glyph unicode="`" horiz-adv-x="640" d="M192 1596L288 1800L744 1536L674 1388L192 1596Z" />
<glyph unicode="a" horiz-adv-x="1052" d="M436 -28Q326 -28 254 15T149 130T124 284Q132 377 182 440T316 535T509 568Q573 568 631 558T744 530L754 626Q765 728 732 777T611 826Q559 826 520 809T457 761T428 684H196Q206 797 264 866T412 966T611 998Q802
998 893 905T966 618L908 0H724Q722 33 722 66T720 132Q669 53 602 13T436 -28ZM496 152Q559 152 609 181T691 262T730 380Q687 393 635 402T535 412Q462 412 409 383T350 284Q346 227 386 190T496 152Z" />
<glyph unicode="b" horiz-adv-x="1106" d="M611 -28Q530 -28 466 21T372 168L306 0H168L296 1372H510L460 850Q507 922 574 960T723 998Q822 998 898 945T1018 795T1062 564Q1062 472 1035 369T951 176T810 29T611 -28ZM599 186Q662 186 708 218T785 302T831 417T846
539Q846 652 793 719T656 786Q606 786 557 761T473 687T432 570L420 430Q414 359 437 304T503 218T599 186Z" />
<glyph unicode="c" horiz-adv-x="954" d="M496 -28Q387 -28 298 35T162 214T130 486Q145 651 213 765T382 938T593 998Q677 998 739 968T842 886T904 772T926 644L710 638Q701 701 667 743T571 786Q520 786 472 755T389 657T344 486Q335 386 355 320T417 220T514
186Q593 186 635 229T684 346H898Q889 243 838 158T701 23T496 -28Z" />
<glyph unicode="d" horiz-adv-x="1106" d="M486 -28Q385 -28 305 27T178 183T132 417Q132 531 163 634T251 820T389 950T567 998Q650 998 710 961T804 852L854 1372H1068L938 0H764L752 154Q703 62 633 17T486 -28ZM539 186Q586 186 635 215T719 298T762 426L774
546Q776 555 776 561T776 576Q776 643 752 690T688 761T597 786Q532 786 485 755T408 672T363 560T348 442Q348 326 400 256T539 186Z" />
<glyph unicode="e" horiz-adv-x="954" d="M493 -28Q380 -28 292 36T160 215T130 486Q145 646 211 760T376 936T588 998Q683 998 750 960T857 856T912 707T918 534Q915 507 911 481T900 428H289L338 465Q326 378 340 310T396 202T511 162Q570 162 615 194T678 290H892Q870
196 814 125T675 13T493 -28ZM345 541L305 573H769L720 544Q730 611 722 671T679 771T573 810Q508 810 460 775T382 678T345 541Z" />
<glyph unicode="f" horiz-adv-x="658" d="M148 814L164 972H292L304 1086Q314 1193 357 1259T464 1356T599 1388Q641 1388 688 1382T778 1364L720 1182Q698 1191 675 1196T628 1202Q603 1202 579 1191T539 1155T516 1084L506 972H668L652 814H490L416 0H202L278 814H148Z" />
<glyph unicode="g" horiz-adv-x="1048" d="M444 -502Q308 -502 206 -459T52 -341T8 -174Q17 -89 73 -33T210 36Q162 70 139 115T120 214Q125 282 169 330T280 398Q235 445 213 507T198 648Q209 755 267 834T415 955T606 998Q667 998 720 983T816 940Q831 1017
874 1074T977 1162T1106 1194L1074 968Q999 968 956 941T904 854Q931 812 944 761T952 648Q943 543 884 465T734 344T535 300Q498 300 459 307T386 330Q356 321 333 297T304 234Q299 194 328 169T432 144H726Q864 144 938 88T1002 -88Q994 -193 923 -287T730 -442T444
-502ZM455 -314Q557 -314 630 -283T744 -204T790 -104Q793 -63 772 -43T710 -22H402Q322 -22 273 -62T220 -162Q217 -234 282 -274T455 -314ZM560 466Q618 466 656 490T716 556T742 648Q750 733 712 783T594 834Q510 834 462 782T408 648Q401 571 438 519T560 466Z"
/>
<glyph unicode="h" horiz-adv-x="1122" d="M168 0L296 1372H510L456 816Q510 907 584 952T745 998Q853 998 920 945T1016 794T1032 568L980 0H766L818 568Q830 676 789 731T673 786Q613 786 563 753T478 652T426 482L380 0H168Z" />
<glyph unicode="i" horiz-adv-x="590" d="M399 1148Q337 1148 307 1184T279 1286Q285 1348 323 1386T424 1424Q485 1424 516 1387T544 1286Q538 1221 499 1185T399 1148ZM186 0L278 974H490L398 0H186Z" />
<glyph unicode="j" horiz-adv-x="602" d="M409 1148Q351 1148 319 1184T292 1286Q296 1349 336 1386T437 1424Q498 1424 529 1387T554 1286Q550 1222 512 1185T409 1148ZM66 -502Q-3 -502 -61 -485T-178 -440L-154 -236Q-112 -261 -62 -278T33 -296Q99 -296 138
-255T188 -112L290 976H502L398 -116Q385 -255 342 -340T229 -463T66 -502Z" />
<glyph unicode="k" horiz-adv-x="1034" d="M776 0L520 474L416 386L380 0H168L296 1372H510L440 632L818 972H1106L684 612L1034 0H776Z" />
<glyph unicode="l" horiz-adv-x="548" d="M168 0L296 1372H510L380 0H168Z" />
<glyph unicode="m" horiz-adv-x="1708" d="M168 0L260 972H444Q446 930 447 889T450 806Q504 902 579 950T745 998Q855 998 923 942T1018 788Q1074 900 1156 949T1336 998Q1444 998 1511 945T1605 795T1620 568L1568 0H1354L1406 568Q1415 675 1375 730T1259 786Q1195
786 1145 748T1063 634T1020 440L980 0H766L818 568Q830 676 788 731T673 786Q576 786 507 698T420 434L380 0H168Z" />
<glyph unicode="n" horiz-adv-x="1122" d="M168 0L260 972H444L450 806Q504 902 579 950T745 998Q853 998 921 945T1016 795T1032 568L980 0H766L818 568Q830 676 788 731T673 786Q576 786 507 698T420 434L380 0H168Z" />
<glyph unicode="o" horiz-adv-x="1018" d="M509 -28Q388 -28 297 29T160 200T130 484Q146 658 213 772T383 942T604 998Q722 998 813 942T950 771T980 484Q963 313 896 200T728 29T509 -28ZM520 178Q615 178 683 255T766 484Q781 639 734 716T592 794Q496 794
428 717T344 484Q334 384 352 316T414 213T520 178Z" />
<glyph unicode="p" horiz-adv-x="1098" d="M122 -474L260 972H434Q436 939 438 906T442 840Q491 921 560 959T707 998Q811 998 896 938T1027 762T1058 486Q1044 324 976 209T808 33T602 -28Q527 -28 473 -2T386 78L334 -474H122ZM591 186Q643 186 697 219T793
318T844 486Q853 580 831 647T763 750T652 786Q597 786 549 759T470 681T432 556L416 392Q410 328 429 282T490 211T591 186Z" />
<glyph unicode="q" horiz-adv-x="1098" d="M940 -502Q796 -461 743 -374T704 -132L728 128Q690 55 632 14T490 -28Q384 -28 297 33T163 209T130 486Q145 647 212 762T376 937T577 998Q657 998 722 955T822 822L884 972H1022L916 -150Q911 -209 917 -242T948 -294T1016
-330L940 -502ZM541 186Q590 186 636 210T714 281T752 392L768 556Q770 630 749 681T688 759T594 786Q530 786 477 750T390 647T344 486Q334 384 361 318T438 219T541 186Z" />
<glyph unicode="r" horiz-adv-x="748" d="M168 0L260 974H472L454 782Q503 888 569 939T711 990Q730 990 748 987T786 976L760 740Q736 746 710 749T661 752Q592 752 542 715T461 606T421 426L380 0H168Z" />
<glyph unicode="s" horiz-adv-x="948" d="M474 -28Q365 -28 281 10T151 120T116 296H314Q307 229 351 194T472 158Q553 158 599 191T651 272Q656 316 625 339T548 380L364 456Q268 494 219 562T179 724Q188 809 239 870T375 964T568 998Q743 998 824 916T898 710H698Q698
760 662 787T560 814Q511 814 477 800T424 762T401 712Q396 673 424 648T496 608L696 522Q786 487 840 427T886 272Q879 197 829 128T688 16T474 -28Z" />
<glyph unicode="t" horiz-adv-x="710" d="M457 -28Q380 -28 320 4T228 102T206 270L260 859L301 818H134L150 972H317L268 927L296 1228H508L480 927L439 972H722L706 818H423L472 859L418 278Q412 217 436 188T514 158Q540 158 572 165T646 190L662 24Q610 2
561 -13T457 -28Z" />
<glyph unicode="u" horiz-adv-x="1128" d="M480 -18Q387 -18 315 19T206 138T182 354L242 974H454L396 378Q389 283 426 236T536 188Q599 188 654 224T748 332T796 510L840 974H1052L962 0H748L764 174Q713 77 640 30T480 -18Z" />
<glyph unicode="v" horiz-adv-x="934" d="M114 972H358L488 236L760 972H1004L586 0H348L114 972Z" />
<glyph unicode="w" horiz-adv-x="1364" d="M114 972H336L446 278L674 918H868L974 272L1218 972H1430L1052 0H842L734 582L522 0H312L114 972Z" />
<glyph unicode="x" horiz-adv-x="998" d="M28 0L414 484L120 974H382L566 662L800 974H1058L674 484L966 0H708L520 312L290 0H28Z" />
<glyph unicode="y" horiz-adv-x="908" d="M192 -502Q131 -502 73 -487T-42 -438L-22 -230Q23 -264 68 -280T160 -296Q202 -296 236 -271T299 -200T350 -94L386 0L126 972H368L512 272L762 972H978L532 -176Q487 -291 436 -363T324 -468T192 -502Z" />
<glyph unicode="z" horiz-adv-x="890" d="M102 0L120 192L628 780H174L194 972H882L862 780L368 192H808L790 0H102Z" />
<glyph unicode="{" horiz-adv-x="704" d="M666 -312Q502 -312 406 -247T273 -69T250 192L266 374Q275 457 266 488T222 520H176L198 758H242Q278 758 293 789T316 904L334 1088Q348 1235 406 1348T573 1525T846 1590L826 1376Q694 1376 627 1305T544 1084L526
892Q517 796 478 735T384 644V634Q432 606 460 544T478 386L460 194Q445 46 499 -26T686 -98L666 -312Z" />
<glyph unicode="|" horiz-adv-x="548" d="M144 -244L314 1542H526L356 -244H144Z" />
<glyph unicode="}" horiz-adv-x="806" d="M-44 -312L-24 -98Q108 -98 176 -27T258 194L276 386Q285 482 324 543T418 634V644Q376 668 350 717T322 842Q322 854 322 866T324 892L342 1084Q345 1115 345 1130T346 1156Q343 1269 288 1322T116 1376L136 1590Q281
1590 373 1539T509 1395T556 1182Q556 1159 556 1136T552 1086L536 904Q535 885 534 866T532 830Q532 795 542 777T580 758H626L604 520H560Q525 520 510 489T486 374L468 190Q454 43 396 -70T229 -247T-44 -312Z" />
<glyph unicode="~" horiz-adv-x="1026" d="M254 408L148 476Q192 605 253 680T404 756Q443 756 486 743T592 700Q654 672 690 660T752 648Q826 648 878 760L986 678Q938 551 869 488T714 424Q684 424 642 437T536 480Q473 506 440 518T380 530Q346 530 316 502T254 408Z" />
<glyph unicode="&#xa0;" horiz-adv-x="456" />
<glyph unicode="&#xa1;" horiz-adv-x="528" d="M469 872L411 -18H179L287 872H469ZM421 1328Q487 1328 524 1282T555 1170Q549 1104 504 1058T392 1012Q325 1012 287 1058T255 1170Q261 1234 307 1281T421 1328Z" />
<glyph unicode="&#xa2;" horiz-adv-x="954" d="M460 950L503 1130H711L666 950H460ZM270 -157L315 22H523L478 -157H270ZM430 -28Q321 -28 233 35T97 214T65 486Q80 651 148 765T316 938T528 998Q612 998 674 968T777 886T838 772T861 644L645 638Q636 701 602
743T505 786Q454 786 406 755T324 657T279 486Q270 386 289 320T351 220T449 186Q527 186 569 229T619 346H833Q823 243 773 158T635 23T430 -28Z" />
<glyph unicode="&#xa3;" horiz-adv-x="1084" d="M40 0L60 214H116Q183 214 214 257T254 388L270 562H120L134 720H284L300 888Q314 1032 369 1129T511 1275T710 1324Q859 1324 938 1236T1022 974H814Q811 1040 779 1075T690 1110Q621 1110 573 1056T512 888L496
720H804L790 562H482L468 404Q461 340 442 293T384 214H630Q719 214 761 251T820 368H1052Q1031 195 931 98T612 0H40Z" />
<glyph unicode="&#xa4;" horiz-adv-x="1200" d="M568 206Q447 206 351 265T202 425T158 648Q167 770 233 870T405 1030T632 1090Q754 1090 850 1031T998 871T1042 648Q1033 526 966 426T795 266T568 206ZM182 144L67 271L313 502L432 374L182 144ZM939 143L747
352L882 480L1079 269L939 143ZM584 412Q651 412 706 444T797 531T836 648Q841 715 812 768T732 853T616 884Q549 884 494 851T404 765T364 648Q360 582 388 529T469 444T584 412ZM328 810L124 1027L260 1154L465 937L328 810ZM903 810L784 937L1015 1151L1132
1023L903 810Z" />
<glyph unicode="&#xa5;" horiz-adv-x="1088" d="M944 397H190L202 529H956L944 397ZM918 189H163L178 323H931L918 189ZM430 0L480 536L152 1298H404L610 780L930 1298H1180L692 536L642 0H430Z" />
<glyph unicode="&#xa6;" horiz-adv-x="548" d="M144 -244L219 545H431L356 -244H144ZM239 754L314 1542H526L451 754H239Z" />
<glyph unicode="&#xa7;" horiz-adv-x="965" d="M523 193V378Q603 382 648 416T699 498Q705 541 676 564T597 606L413 682Q317 720 267 787T227 950Q236 1034 287 1095T424 1190T617 1224Q793 1224 874 1142T947 936H747Q746 985 711 1012T609 1040Q560 1040 526
1026T473 988T450 938Q445 898 473 874T545 834L745 748Q835 712 889 652T935 498Q928 422 877 353T737 240T523 193ZM448 -218Q339 -218 254 -180T124 -70T89 106H288Q281 39 324 4T446 -32Q527 -32 572 1T624 82Q630 126 599 149T521 190L338 266Q242 304 192
372T152 534Q165 660 271 735T542 814L537 630Q463 626 422 595T375 522Q370 483 398 458T469 418L670 332Q760 297 814 237T859 82Q853 7 802 -62T662 -174T448 -218Z" />
<glyph unicode="&#xa8;" horiz-adv-x="688" d="M200 1670Q205 1729 244 1766T338 1804Q394 1804 426 1767T454 1670Q448 1615 408 1578T314 1540Q259 1540 227 1577T200 1670ZM548 1672Q553 1730 592 1768T686 1806Q741 1806 774 1768T800 1672Q795 1616 756 1579T662
1542Q608 1542 576 1579T548 1672Z" />
<glyph unicode="&#xa9;" horiz-adv-x="1419" d="M663 -12Q526 -12 412 39T216 181T96 391T71 649Q86 785 150 904T314 1115T540 1257T802 1309Q938 1309 1052 1258T1248 1115T1368 905T1393 649Q1378 511 1314 392T1150 181T924 39T663 -12ZM676 103Q789 103 892
145T1077 262T1213 437T1278 649Q1290 762 1258 860T1158 1034T997 1151T789 1194Q677 1194 574 1152T388 1035T252 861T187 649Q175 536 207 437T306 263T468 146T676 103ZM686 246Q594 246 531 294T438 434T421 653Q434 785 481 874T601 1009T762 1055Q884 1055
947 989T1019 818L882 791Q871 852 838 890T751 928Q704 928 664 898T595 806T557 653Q549 566 562 504T610 408T698 374Q766 374 808 415T857 519H992Q984 432 945 371T839 278T686 246Z" />
<glyph unicode="&#xaa;" horiz-adv-x="1052" d="M436 -28Q326 -28 254 15T149 130T124 284Q132 377 182 440T316 535T509 568Q573 568 631 558T744 530L754 626Q765 728 732 777T611 826Q559 826 520 809T457 761T428 684H196Q206 797 264 866T412 966T611 998Q802
998 893 905T966 618L908 0H724Q722 33 722 66T720 132Q669 53 602 13T436 -28ZM496 152Q559 152 609 181T691 262T730 380Q687 393 635 402T535 412Q462 412 409 383T350 284Q346 227 386 190T496 152Z" />
<glyph unicode="&#xab;" horiz-adv-x="1265" d="M489 108L136 539L610 970L749 847L348 502L353 570L658 224L489 108ZM1020 108L667 539L1141 970L1280 847L879 502L884 570L1189 224L1020 108Z" />
<glyph unicode="&#xac;" horiz-adv-x="1200" d="M246 672H954L902 297H749L784 550L824 498H222L246 672Z" />
<glyph unicode="&#xad;" horiz-adv-x="1200" d="M130 500L150 706H656L636 500H130Z" />
<glyph unicode="&#xae;" horiz-adv-x="1419" d="M663 -12Q526 -12 412 39T216 181T96 391T71 649Q86 785 150 904T314 1115T540 1257T802 1309Q938 1309 1052 1258T1248 1115T1368 905T1393 649Q1378 511 1314 392T1150 181T924 39T663 -12ZM676 103Q789 103 892
145T1077 262T1213 437T1278 649Q1290 762 1258 860T1158 1034T997 1151T789 1194Q677 1194 574 1152T388 1035T252 861T187 649Q175 536 207 437T306 263T468 146T676 103ZM448 252L523 1049H788Q916 1049 979 982T1032 805Q1023 719 974 659T842 575L1004 252H837L706
563H605L577 252H448ZM614 659H738Q810 659 851 696T897 792Q902 852 872 888T775 925H640L614 659Z" />
<glyph unicode="&#xaf;" horiz-adv-x="854" d="M253 1357H940L912 1168H225L253 1357Z" />
<glyph unicode="&#xb0;" horiz-adv-x="717" d="M445 994Q369 994 309 1031T216 1132T191 1273Q198 1350 240 1412T350 1512T493 1550Q570 1550 630 1513T722 1413T748 1273Q741 1196 698 1133T589 1032T445 994ZM457 1128Q516 1128 562 1170T612 1273Q618 1333
580 1374T481 1415Q420 1415 376 1373T325 1273Q320 1212 359 1170T457 1128Z" />
<glyph unicode="&#xb1;" horiz-adv-x="1110" d="M545 1124H757L733 864H1003L984 658H713L690 398H477L503 658H230L249 864H521L545 1124ZM176 206H981L954 0H151L176 206Z" />
<glyph unicode="&#xb2;" horiz-adv-x="740" d="M316 666L313 643H724L712 510H170L183 647Q190 714 212 760T273 839T370 895L524 958Q574 980 600 1011T630 1088Q634 1135 607 1166T524 1198Q470 1198 432 1168T381 1081H236Q245 1163 286 1217T392 1298T534
1325Q606 1325 662 1295T747 1210T770 1082Q762 990 711 931T563 830L407 766Q361 748 340 726T316 666Z" />
<glyph unicode="&#xb3;" horiz-adv-x="752" d="M438 493Q381 493 330 510T239 561T179 645T164 761H305Q303 719 320 689T370 643T450 627Q518 627 559 661T606 748Q609 782 596 806T552 844T471 858H375L386 973H468Q531 973 570 1003T614 1085Q617 1131 590
1162T499 1193Q449 1193 408 1171T349 1091H211Q235 1214 315 1269T507 1325Q585 1325 643 1297T731 1219T755 1102Q750 1041 716 996T620 928Q683 904 718 855T747 734Q740 663 699 609T591 524T438 493Z" />
<glyph unicode="&#xb4;" horiz-adv-x="718" d="M279 1132L241 1279L747 1544L801 1340L279 1132Z" />
<glyph unicode="&#xb5;" horiz-adv-x="1129" d="M481 -18Q388 -18 316 19T207 138T183 354L243 974H455L397 378Q390 283 427 236T537 188Q600 188 655 224T749 332T797 510L841 974H1053L963 0H749L765 174Q714 77 641 30T481 -18ZM110 -398L241 974H453L320 -398H110Z" />
<glyph unicode="&#xb6;" horiz-adv-x="1200" d="M531 473Q314 473 204 580T113 884Q134 1082 268 1188T617 1295H1064L1043 1088H721L656 473H531ZM463 -252L625 1295H796L634 -252H463ZM764 -252L926 1295H1096L934 -252H764Z" />
<glyph unicode="&#xb7;" horiz-adv-x="386" d="M251 428Q187 428 149 473T118 587Q125 653 171 698T282 744Q345 744 384 700T418 587Q412 516 364 472T251 428Z" />
<glyph unicode="&#xb8;" horiz-adv-x="585" d="M9 -366L36 -285Q106 -318 160 -322T244 -308T275 -259Q276 -230 252 -208T185 -169T85 -140L149 77L253 63L196 -135L160 -75Q258 -90 320 -120T411 -189T441 -272Q441 -330 399 -365T289 -413T148 -414T9 -366Z" />
<glyph unicode="&#xb9;" horiz-adv-x="467" d="M346 1307H445L370 503H238L297 1133Q268 1117 239 1110T181 1102L194 1241Q232 1247 269 1262T346 1307Z" />
<glyph unicode="&#xba;" horiz-adv-x="1018" d="M509 -28Q388 -28 297 29T160 200T130 484Q146 658 213 772T383 942T604 998Q722 998 813 942T950 771T980 484Q963 313 896 200T728 29T509 -28ZM520 178Q615 178 683 255T766 484Q781 639 734 716T592 794Q496
794 428 717T344 484Q334 384 352 316T414 213T520 178Z" />
<glyph unicode="&#xbb;" horiz-adv-x="1260" d="M232 108L92 224L494 570L489 508L184 854L352 970L705 539L232 108ZM757 108L617 224L1019 570L1014 508L709 854L877 970L1230 539L757 108Z" />
<glyph unicode="&#xbc;" horiz-adv-x="1783" d="M707 1416H808L731 600H597L657 1240Q627 1224 598 1217T539 1209L552 1350Q591 1356 629 1370T707 1416ZM289 -1L1245 1348H1411L453 -1H289ZM1364 0L1380 180H1010L1020 291L1444 820H1571L1524 306H1650L1639
180H1513L1495 0H1364ZM1178 291H1397L1426 601L1178 291Z" />
<glyph unicode="&#xbd;" horiz-adv-x="1821" d="M708 1416H809L732 600H598L658 1240Q628 1224 599 1217T540 1209L553 1350Q592 1356 630 1370T708 1416ZM277 -1L1233 1348H1399L441 -1H277ZM1251 159L1248 135H1665L1653 0H1103L1116 139Q1125 241 1171 298T1306
390L1462 454Q1513 474 1539 507T1569 587Q1574 635 1547 667T1461 699Q1408 699 1369 669T1317 580H1169Q1178 663 1220 718T1328 800T1472 828Q1546 828 1602 797T1689 711T1711 581Q1703 488 1652 427T1501 325L1337 258Q1295 239 1275 217T1251 159Z" />
<glyph unicode="&#xbe;" horiz-adv-x="2000" d="M505 572Q428 572 362 603T257 694T227 844H369Q366 781 406 745T517 708Q586 708 628 743T676 831Q681 884 648 914T538 944H441L452 1059H536Q599 1059 638 1090T683 1173Q687 1220 659 1251T567 1283Q515 1283
474 1260T415 1180H274Q297 1305 379 1361T575 1417Q694 1417 765 1355T827 1191Q821 1130 786 1084T690 1014Q753 990 789 941T818 817Q811 745 770 690T660 604T505 572ZM493 -1L1449 1348H1615L657 -1H493ZM1581 0L1597 180H1227L1237 291L1661 820H1788L1741
306H1867L1856 180H1730L1712 0H1581ZM1395 291H1614L1643 601L1395 291Z" />
<glyph unicode="&#xbf;" horiz-adv-x="929" d="M657 889L649 809Q639 716 615 661T548 570T441 497Q394 470 359 446T303 390T279 313Q274 246 314 207T438 167Q529 167 586 214T655 337H875Q850 164 734 59T425 -47Q295 -47 208 0T79 130T45 315Q50 394 81 449T160
545T267 619Q326 654 363 680T418 741T439 831L443 889H657ZM584 1305Q653 1305 688 1258T717 1145Q710 1078 665 1036T552 993Q483 993 449 1037T419 1145Q424 1215 470 1260T584 1305Z" />
<glyph unicode="&#xc0;" horiz-adv-x="1126" d="M40 0L560 1298H826L1088 0H862L806 280H374L264 0H40ZM444 458H772L662 1018L444 458ZM909 1409L428 1617L524 1821L980 1557L909 1409Z" />
<glyph unicode="&#xc1;" horiz-adv-x="1126" d="M40 0L560 1298H826L1088 0H862L806 280H374L264 0H40ZM444 458H772L662 1018L444 458ZM550 1458L512 1605L1018 1870L1072 1666L550 1458Z" />
<glyph unicode="&#xc2;" horiz-adv-x="1126" d="M40 0L560 1298H826L1088 0H862L806 280H374L264 0H40ZM444 458H772L662 1018L444 458ZM459 1452L337 1570L741 1892L1087 1570L939 1452L719 1654L459 1452Z" />
<glyph unicode="&#xc3;" horiz-adv-x="1126" d="M40 0L560 1298H826L1088 0H862L806 280H374L264 0H40ZM444 458H772L662 1018L444 458ZM489 1516L411 1572Q445 1696 502 1762T629 1828Q655 1828 682 1817T754 1780Q795 1756 817 1743T862 1730Q889 1730 916 1752T968
1828L1050 1762Q1031 1689 998 1634T924 1547T841 1516Q816 1516 785 1529T705 1572Q663 1598 645 1607T607 1616Q579 1616 550 1596T489 1516Z" />
<glyph unicode="&#xc4;" horiz-adv-x="1126" d="M40 0L560 1298H826L1088 0H862L806 280H374L264 0H40ZM444 458H772L662 1018L444 458ZM547 1552Q491 1552 459 1589T433 1682Q437 1738 475 1777T571 1816Q622 1816 656 1780T687 1685Q681 1625 639 1589T547 1552ZM895
1554Q840 1554 808 1590T781 1684Q785 1738 824 1778T919 1818Q970 1818 1003 1783T1033 1687Q1026 1623 986 1589T895 1554Z" />
<glyph unicode="&#xc5;" horiz-adv-x="1126" d="M40 0L560 1298H826L1088 0H862L806 280H374L264 0H40ZM444 458H772L662 1018L444 458ZM713 1416Q648 1416 595 1448T510 1533T478 1650Q478 1715 509 1768T594 1854T713 1886Q778 1886 831 1854T916 1769T948 1650Q948
1587 916 1534T831 1448T713 1416ZM713 1570Q747 1570 770 1593T794 1651Q794 1685 771 1708T713 1732Q679 1732 656 1709T632 1650Q632 1617 655 1594T713 1570Z" />
<glyph unicode="&#xc6;" horiz-adv-x="1559" d="M40 0L565 1298H1543L1527 1094H932L1022 1154L979 680L896 752H1458L1442 548H879L971 602L927 126L843 206H1444L1424 0H697L730 345L771 318H340L401 346L264 0H40ZM736 409L806 1151L846 1094H658L718 1151L428
414L400 496H784L736 409Z" />
<glyph unicode="&#xc7;" horiz-adv-x="1142" d="M588 -28Q434 -28 328 53T173 286T146 652Q167 872 246 1022T447 1248T716 1324Q920 1324 1024 1214T1144 928L914 882Q896 984 841 1047T696 1110Q619 1110 551 1060T436 907T374 652Q361 508 383 404T462 244T608
188Q722 188 792 255T872 428H1100Q1086 283 1020 182T844 26T588 -28ZM416 -366L443 -285Q513 -318 567 -322T651 -308T682 -259Q683 -230 659 -208T592 -169T492 -140L556 77L660 63L603 -135L567 -75Q665 -90 727 -120T818 -189T848 -272Q848 -330 806 -365T696
-413T555 -414T416 -366Z" />
<glyph unicode="&#xc8;" horiz-adv-x="1054" d="M166 0L288 1298H1040L1020 1094H480L448 752H954L934 548H428L396 206H936L918 0H166ZM873 1409L392 1617L488 1821L944 1557L873 1409Z" />
<glyph unicode="&#xc9;" horiz-adv-x="1054" d="M166 0L288 1298H1040L1020 1094H480L448 752H954L934 548H428L396 206H936L918 0H166ZM514 1458L476 1605L982 1870L1036 1666L514 1458Z" />
<glyph unicode="&#xca;" horiz-adv-x="1054" d="M166 0L288 1298H1040L1020 1094H480L448 752H954L934 548H428L396 206H936L918 0H166ZM423 1452L301 1570L705 1892L1051 1570L903 1452L683 1654L423 1452Z" />
<glyph unicode="&#xcb;" horiz-adv-x="1054" d="M166 0L288 1298H1040L1020 1094H480L448 752H954L934 548H428L396 206H936L918 0H166ZM511 1552Q455 1552 423 1589T397 1682Q401 1738 439 1777T535 1816Q586 1816 620 1780T651 1685Q645 1625 603 1589T511 1552ZM859
1554Q804 1554 772 1590T745 1684Q749 1738 788 1778T883 1818Q934 1818 967 1783T997 1687Q990 1623 950 1589T859 1554Z" />
<glyph unicode="&#xcc;" horiz-adv-x="548" d="M168 0L290 1298H502L380 0H168ZM621 1409L140 1617L236 1821L692 1557L621 1409Z" />
<glyph unicode="&#xcd;" horiz-adv-x="548" d="M168 0L290 1298H502L380 0H168ZM262 1458L224 1605L730 1870L784 1666L262 1458Z" />
<glyph unicode="&#xce;" horiz-adv-x="548" d="M168 0L290 1298H502L380 0H168ZM170 1452L48 1570L452 1892L798 1570L650 1452L430 1654L170 1452Z" />
<glyph unicode="&#xcf;" horiz-adv-x="548" d="M168 0L290 1298H502L380 0H168ZM258 1552Q202 1552 170 1589T144 1682Q148 1738 186 1777T282 1816Q333 1816 367 1780T398 1685Q392 1625 350 1589T258 1552ZM606 1554Q551 1554 519 1590T492 1684Q496 1738 535
1778T630 1818Q681 1818 714 1783T744 1687Q737 1623 697 1589T606 1554Z" />
<glyph unicode="&#xd0;" horiz-adv-x="1234" d="M119 760H680L655 546H93L119 760ZM288 1298H668Q846 1298 972 1219T1159 993T1202 648Q1183 451 1095 306T866 80T546 0H166L288 1298ZM480 1084L400 214H566Q679 214 765 270T905 425T972 648Q984 775 949 873T836
1027T646 1084H480Z" />
<glyph unicode="&#xd1;" horiz-adv-x="1290" d="M164 0L286 1298H517L981 321L941 324L1034 1298H1246L1124 0H908L427 1000L470 997L376 0H164ZM571 1516L493 1572Q527 1696 584 1762T711 1828Q737 1828 764 1817T836 1780Q877 1756 899 1743T944 1730Q971 1730
998 1752T1050 1828L1132 1762Q1113 1689 1080 1634T1006 1547T923 1516Q898 1516 867 1529T787 1572Q745 1598 727 1607T689 1616Q661 1616 632 1596T571 1516Z" />
<glyph unicode="&#xd2;" horiz-adv-x="1230" d="M610 -28Q454 -28 342 48T177 275T146 650Q167 878 248 1027T455 1250T738 1324Q895 1324 1007 1249T1173 1023T1206 650Q1184 423 1103 273T895 47T610 -28ZM630 186Q773 186 869 306T986 652Q1007 870 934 991T718
1112Q577 1112 482 991T366 650Q344 425 417 306T630 186ZM961 1409L480 1617L576 1821L1032 1557L961 1409Z" />
<glyph unicode="&#xd3;" horiz-adv-x="1230" d="M610 -28Q454 -28 342 48T177 275T146 650Q167 878 248 1027T455 1250T738 1324Q895 1324 1007 1249T1173 1023T1206 650Q1184 423 1103 273T895 47T610 -28ZM630 186Q773 186 869 306T986 652Q1007 870 934 991T718
1112Q577 1112 482 991T366 650Q344 425 417 306T630 186ZM603 1458L565 1605L1071 1870L1125 1666L603 1458Z" />
<glyph unicode="&#xd4;" horiz-adv-x="1230" d="M610 -28Q454 -28 342 48T177 275T146 650Q167 878 248 1027T455 1250T738 1324Q895 1324 1007 1249T1173 1023T1206 650Q1184 423 1103 273T895 47T610 -28ZM630 186Q773 186 869 306T986 652Q1007 870 934 991T718
1112Q577 1112 482 991T366 650Q344 425 417 306T630 186ZM511 1452L389 1570L793 1892L1139 1570L991 1452L771 1654L511 1452Z" />
<glyph unicode="&#xd5;" horiz-adv-x="1230" d="M610 -28Q454 -28 342 48T177 275T146 650Q167 878 248 1027T455 1250T738 1324Q895 1324 1007 1249T1173 1023T1206 650Q1184 423 1103 273T895 47T610 -28ZM630 186Q773 186 869 306T986 652Q1007 870 934 991T718
1112Q577 1112 482 991T366 650Q344 425 417 306T630 186ZM541 1516L463 1572Q497 1696 554 1762T681 1828Q707 1828 734 1817T806 1780Q847 1756 869 1743T914 1730Q941 1730 968 1752T1020 1828L1102 1762Q1083 1689 1050 1634T976 1547T893 1516Q868 1516 837
1529T757 1572Q715 1598 697 1607T659 1616Q631 1616 602 1596T541 1516Z" />
<glyph unicode="&#xd6;" horiz-adv-x="1230" d="M610 -28Q454 -28 342 48T177 275T146 650Q167 878 248 1027T455 1250T738 1324Q895 1324 1007 1249T1173 1023T1206 650Q1184 423 1103 273T895 47T610 -28ZM630 186Q773 186 869 306T986 652Q1007 870 934 991T718
1112Q577 1112 482 991T366 650Q344 425 417 306T630 186ZM599 1552Q543 1552 511 1589T485 1682Q489 1738 527 1777T623 1816Q674 1816 708 1780T739 1685Q733 1625 691 1589T599 1552ZM947 1554Q892 1554 860 1590T833 1684Q837 1738 876 1778T971 1818Q1022
1818 1055 1783T1085 1687Q1078 1623 1038 1589T947 1554Z" />
<glyph unicode="&#xd7;" horiz-adv-x="980" d="M184 100L36 250L368 529L365 467L85 747L247 881L527 601L459 603L794 880L944 730L609 453L613 515L893 235L731 101L451 381L519 379L184 100Z" />
<glyph unicode="&#xd8;" horiz-adv-x="1230" d="M610 -28Q454 -28 342 48T177 275T146 650Q167 878 248 1027T455 1250T738 1324Q895 1324 1007 1249T1173 1023T1206 650Q1184 423 1103 273T895 47T610 -28ZM630 186Q773 186 869 306T986 652Q1007 870 934 991T718
1112Q577 1112 482 991T366 650Q344 425 417 306T630 186Z" />
<glyph unicode="&#xd9;" horiz-adv-x="1242" d="M620 -28Q396 -28 284 108T194 490L272 1298H484L406 490Q391 330 457 260T638 190Q753 190 833 260T928 490L1006 1298H1218L1142 490Q1126 326 1059 210T880 33T620 -28ZM968 1409L487 1617L583 1821L1039 1557L968
1409Z" />
<glyph unicode="&#xda;" horiz-adv-x="1242" d="M620 -28Q396 -28 284 108T194 490L272 1298H484L406 490Q391 330 457 260T638 190Q753 190 833 260T928 490L1006 1298H1218L1142 490Q1126 326 1059 210T880 33T620 -28ZM609 1458L571 1605L1077 1870L1131 1666L609
1458Z" />
<glyph unicode="&#xdb;" horiz-adv-x="1242" d="M620 -28Q396 -28 284 108T194 490L272 1298H484L406 490Q391 330 457 260T638 190Q753 190 833 260T928 490L1006 1298H1218L1142 490Q1126 326 1059 210T880 33T620 -28ZM518 1452L396 1570L800 1892L1146 1570L998
1452L778 1654L518 1452Z" />
<glyph unicode="&#xdc;" horiz-adv-x="1242" d="M620 -28Q396 -28 284 108T194 490L272 1298H484L406 490Q391 330 457 260T638 190Q753 190 833 260T928 490L1006 1298H1218L1142 490Q1126 326 1059 210T880 33T620 -28ZM605 1552Q549 1552 517 1589T491 1682Q495
1738 533 1777T629 1816Q680 1816 714 1780T745 1685Q739 1625 697 1589T605 1552ZM953 1554Q898 1554 866 1590T839 1684Q843 1738 882 1778T977 1818Q1028 1818 1061 1783T1091 1687Q1084 1623 1044 1589T953 1554Z" />
<glyph unicode="&#xdd;" horiz-adv-x="1088" d="M430 0L480 536L152 1298H404L610 780L930 1298H1180L692 536L642 0H430ZM532 1458L494 1605L1000 1870L1054 1666L532 1458Z" />
<glyph unicode="&#xde;" horiz-adv-x="1046" d="M162 0L284 1298H497L473 1046L432 1091H688Q820 1091 909 1043T1039 903T1068 677Q1050 481 928 373T610 264H367L405 312L376 0H162ZM413 406L368 470H630Q728 470 784 528T848 677Q857 768 812 827T668 887H407L465
957L413 406Z" />
<glyph unicode="&#xdf;" horiz-adv-x="1192" d="M752 -25Q698 -25 639 -13T522 30L544 230Q590 207 636 193T734 178Q784 178 826 195T895 245T921 327Q921 376 895 411T831 476T755 535T691 598T665 678Q665 728 694 767T763 843T831 921T861 1018Q861 1079 817
1120T678 1162Q610 1162 561 1138T482 1057T442 905L353 0H143L237 952Q251 1084 313 1177T474 1321T695 1371Q800 1371 871 1343T987 1270T1051 1170T1071 1063Q1071 989 1042 936T974 843T905 769T875 699Q875 666 901 639T965 584T1042 518T1105 430T1131 304Q1131
210 1084 136T952 18T752 -25Z" />
<glyph unicode="&#xe0;" horiz-adv-x="1052" d="M436 -28Q326 -28 254 15T149 130T124 284Q132 377 182 440T316 535T509 568Q573 568 631 558T744 530L754 626Q765 728 732 777T611 826Q559 826 520 809T457 761T428 684H196Q206 797 264 866T412 966T611 998Q802
998 893 905T966 618L908 0H724Q722 33 722 66T720 132Q669 53 602 13T436 -28ZM496 152Q559 152 609 181T691 262T730 380Q687 393 635 402T535 412Q462 412 409 383T350 284Q346 227 386 190T496 152ZM826 1083L345 1291L441 1495L897 1231L826 1083Z" />
<glyph unicode="&#xe1;" horiz-adv-x="1052" d="M436 -28Q326 -28 254 15T149 130T124 284Q132 377 182 440T316 535T509 568Q573 568 631 558T744 530L754 626Q765 728 732 777T611 826Q559 826 520 809T457 761T428 684H196Q206 797 264 866T412 966T611 998Q802
998 893 905T966 618L908 0H724Q722 33 722 66T720 132Q669 53 602 13T436 -28ZM496 152Q559 152 609 181T691 262T730 380Q687 393 635 402T535 412Q462 412 409 383T350 284Q346 227 386 190T496 152ZM468 1132L430 1279L936 1544L990 1340L468 1132Z" />
<glyph unicode="&#xe2;" horiz-adv-x="1052" d="M436 -28Q326 -28 254 15T149 130T124 284Q132 377 182 440T316 535T509 568Q573 568 631 558T744 530L754 626Q765 728 732 777T611 826Q559 826 520 809T457 761T428 684H196Q206 797 264 866T412 966T611 998Q802
998 893 905T966 618L908 0H724Q722 33 722 66T720 132Q669 53 602 13T436 -28ZM496 152Q559 152 609 181T691 262T730 380Q687 393 635 402T535 412Q462 412 409 383T350 284Q346 227 386 190T496 152ZM376 1126L254 1244L658 1566L1004 1244L856 1126L636 1328L376
1126Z" />
<glyph unicode="&#xe3;" horiz-adv-x="1052" d="M436 -28Q326 -28 254 15T149 130T124 284Q132 377 182 440T316 535T509 568Q573 568 631 558T744 530L754 626Q765 728 732 777T611 826Q559 826 520 809T457 761T428 684H196Q206 797 264 866T412 966T611 998Q802
998 893 905T966 618L908 0H724Q722 33 722 66T720 132Q669 53 602 13T436 -28ZM496 152Q559 152 609 181T691 262T730 380Q687 393 635 402T535 412Q462 412 409 383T350 284Q346 227 386 190T496 152ZM406 1190L328 1246Q362 1370 419 1436T546 1502Q572 1502
599 1491T671 1454Q712 1430 734 1417T779 1404Q806 1404 833 1426T885 1502L967 1436Q948 1363 915 1308T841 1221T758 1190Q733 1190 702 1203T622 1246Q580 1272 562 1281T524 1290Q496 1290 467 1270T406 1190Z" />
<glyph unicode="&#xe4;" horiz-adv-x="1052" d="M436 -28Q326 -28 254 15T149 130T124 284Q132 377 182 440T316 535T509 568Q573 568 631 558T744 530L754 626Q765 728 732 777T611 826Q559 826 520 809T457 761T428 684H196Q206 797 264 866T412 966T611 998Q802
998 893 905T966 618L908 0H724Q722 33 722 66T720 132Q669 53 602 13T436 -28ZM496 152Q559 152 609 181T691 262T730 380Q687 393 635 402T535 412Q462 412 409 383T350 284Q346 227 386 190T496 152ZM464 1226Q408 1226 376 1263T350 1356Q354 1412 392 1451T488
1490Q539 1490 573 1454T604 1359Q598 1299 556 1263T464 1226ZM812 1228Q757 1228 725 1264T698 1358Q702 1412 741 1452T836 1492Q887 1492 920 1457T950 1361Q943 1297 903 1263T812 1228Z" />
<glyph unicode="&#xe5;" horiz-adv-x="1052" d="M436 -28Q326 -28 254 15T149 130T124 284Q132 377 182 440T316 535T509 568Q573 568 631 558T744 530L754 626Q765 728 732 777T611 826Q559 826 520 809T457 761T428 684H196Q206 797 264 866T412 966T611 998Q802
998 893 905T966 618L908 0H724Q722 33 722 66T720 132Q669 53 602 13T436 -28ZM496 152Q559 152 609 181T691 262T730 380Q687 393 635 402T535 412Q462 412 409 383T350 284Q346 227 386 190T496 152ZM630 1090Q565 1090 512 1122T427 1207T395 1324Q395 1389
426 1442T511 1528T630 1560Q695 1560 748 1528T833 1443T865 1324Q865 1261 833 1208T748 1122T630 1090ZM630 1244Q664 1244 687 1267T711 1325Q711 1359 688 1382T630 1406Q596 1406 573 1383T549 1324Q549 1291 572 1268T630 1244Z" />
<glyph unicode="&#xe6;" horiz-adv-x="1569" d="M124 284Q132 373 181 436T313 533T508 568Q578 568 641 555T767 521L734 485L749 626Q760 729 728 777T611 826Q561 826 522 809T460 761T431 684H198Q208 797 266 866T414 966T609 998Q733 998 805 951T895 798L869
802Q934 896 1025 947T1218 998Q1307 998 1372 960T1478 856T1532 707T1531 534Q1528 507 1524 481T1513 428H905L955 468Q943 380 956 311T1011 202T1123 162Q1185 162 1229 194T1291 290H1505Q1484 197 1427 125T1288 13T1114 -28Q1034 -28 969 3T856 88T782
211L810 212Q753 90 647 31T430 -28Q331 -28 260 13T153 125T124 284ZM353 284Q348 227 388 190T497 152Q546 152 587 172T660 227T710 310T731 411L749 372Q705 388 646 400T535 412Q490 412 450 400T383 359T353 284ZM961 537L921 573H1336Q1342 635 1332 689T1287
776T1187 810Q1122 810 1074 774T997 675T961 537Z" />
<glyph unicode="&#xe7;" horiz-adv-x="954" d="M496 -28Q387 -28 298 35T162 214T130 486Q145 651 213 765T382 938T593 998Q677 998 739 968T842 886T904 772T926 644L710 638Q701 701 667 743T571 786Q520 786 472 755T389 657T344 486Q335 386 355 320T417
220T514 186Q593 186 635 229T684 346H898Q889 243 838 158T701 23T496 -28ZM309 -366L336 -285Q406 -318 460 -322T544 -308T575 -259Q576 -230 552 -208T485 -169T385 -140L449 77L553 63L496 -135L460 -75Q558 -90 620 -120T711 -189T741 -272Q741 -330 699
-365T589 -413T448 -414T309 -366Z" />
<glyph unicode="&#xe8;" horiz-adv-x="954" d="M493 -28Q380 -28 292 36T160 215T130 486Q145 646 211 760T376 936T588 998Q683 998 750 960T857 856T912 707T918 534Q915 507 911 481T900 428H289L338 465Q326 378 340 310T396 202T511 162Q570 162 615 194T678
290H892Q870 196 814 125T675 13T493 -28ZM345 541L305 573H769L720 544Q730 611 722 671T679 771T573 810Q508 810 460 775T382 678T345 541ZM778 1083L297 1291L393 1495L849 1231L778 1083Z" />
<glyph unicode="&#xe9;" horiz-adv-x="954" d="M493 -28Q380 -28 292 36T160 215T130 486Q145 646 211 760T376 936T588 998Q683 998 750 960T857 856T912 707T918 534Q915 507 911 481T900 428H289L338 465Q326 378 340 310T396 202T511 162Q570 162 615 194T678
290H892Q870 196 814 125T675 13T493 -28ZM345 541L305 573H769L720 544Q730 611 722 671T679 771T573 810Q508 810 460 775T382 678T345 541ZM419 1132L381 1279L887 1544L941 1340L419 1132Z" />
<glyph unicode="&#xea;" horiz-adv-x="954" d="M493 -28Q380 -28 292 36T160 215T130 486Q145 646 211 760T376 936T588 998Q683 998 750 960T857 856T912 707T918 534Q915 507 911 481T900 428H289L338 465Q326 378 340 310T396 202T511 162Q570 162 615 194T678
290H892Q870 196 814 125T675 13T493 -28ZM345 541L305 573H769L720 544Q730 611 722 671T679 771T573 810Q508 810 460 775T382 678T345 541ZM584 1126L462 1244L866 1566L1212 1244L1064 1126L844 1328L584 1126Z" />
<glyph unicode="&#xeb;" horiz-adv-x="954" d="M493 -28Q380 -28 292 36T160 215T130 486Q145 646 211 760T376 936T588 998Q683 998 750 960T857 856T912 707T918 534Q915 507 911 481T900 428H289L338 465Q326 378 340 310T396 202T511 162Q570 162 615 194T678
290H892Q870 196 814 125T675 13T493 -28ZM345 541L305 573H769L720 544Q730 611 722 671T679 771T573 810Q508 810 460 775T382 678T345 541ZM415 1226Q359 1226 327 1263T301 1356Q305 1412 343 1451T439 1490Q490 1490 524 1454T555 1359Q549 1299 507 1263T415
1226ZM763 1228Q708 1228 676 1264T649 1358Q653 1412 692 1452T787 1492Q838 1492 871 1457T901 1361Q894 1297 854 1263T763 1228Z" />
<glyph unicode="&#xec;" horiz-adv-x="590" d="M186 0L278 974H490L398 0H186ZM851 1083L370 1291L466 1495L922 1231L851 1083Z" />
<glyph unicode="&#xed;" horiz-adv-x="590" d="M186 0L278 974H490L398 0H186ZM492 1132L454 1279L960 1544L1014 1340L492 1132Z" />
<glyph unicode="&#xee;" horiz-adv-x="590" d="M186 0L278 974H490L398 0H186ZM145 1126L23 1244L427 1566L773 1244L625 1126L405 1328L145 1126Z" />
<glyph unicode="&#xef;" horiz-adv-x="590" d="M186 0L278 974H490L398 0H186ZM232 1226Q176 1226 144 1263T118 1356Q122 1412 160 1451T256 1490Q307 1490 341 1454T372 1359Q366 1299 324 1263T232 1226ZM580 1228Q525 1228 493 1264T466 1358Q470 1412 509
1452T604 1492Q655 1492 688 1457T718 1361Q711 1297 671 1263T580 1228Z" />
<glyph unicode="&#xf0;" horiz-adv-x="1089" d="M502 -25Q403 -25 317 18T178 152T125 384Q125 510 167 610T279 781T432 889T598 926Q646 926 698 910T797 855T872 745T901 566L889 569Q900 798 854 970T716 1281T500 1542L694 1643Q831 1500 909 1353T1019 1055T1052
756Q1052 551 1005 404T878 161T701 21T502 -25ZM517 152Q598 152 655 205T741 340T771 509Q771 632 720 687T597 743Q527 743 470 696T380 569T346 385Q346 277 389 215T517 152ZM544 1069L473 1203L1072 1539L1146 1405L544 1069Z" />
<glyph unicode="&#xf1;" horiz-adv-x="1122" d="M168 0L260 972H444L450 806Q504 902 579 950T745 998Q853 998 921 945T1016 795T1032 568L980 0H766L818 568Q830 676 788 731T673 786Q576 786 507 698T420 434L380 0H168ZM441 1190L363 1246Q397 1370 454 1436T581
1502Q607 1502 634 1491T706 1454Q747 1430 769 1417T814 1404Q841 1404 868 1426T920 1502L1002 1436Q983 1363 950 1308T876 1221T793 1190Q768 1190 737 1203T657 1246Q615 1272 597 1281T559 1290Q531 1290 502 1270T441 1190Z" />
<glyph unicode="&#xf2;" horiz-adv-x="1018" d="M509 -28Q388 -28 297 29T160 200T130 484Q146 658 213 772T383 942T604 998Q722 998 813 942T950 771T980 484Q963 313 896 200T728 29T509 -28ZM520 178Q615 178 683 255T766 484Q781 639 734 716T592 794Q496
794 428 717T344 484Q334 384 352 316T414 213T520 178ZM854 1083L373 1291L469 1495L925 1231L854 1083Z" />
<glyph unicode="&#xf3;" horiz-adv-x="1018" d="M509 -28Q388 -28 297 29T160 200T130 484Q146 658 213 772T383 942T604 998Q722 998 813 942T950 771T980 484Q963 313 896 200T728 29T509 -28ZM520 178Q615 178 683 255T766 484Q781 639 734 716T592 794Q496
794 428 717T344 484Q334 384 352 316T414 213T520 178ZM495 1132L457 1279L963 1544L1017 1340L495 1132Z" />
<glyph unicode="&#xf4;" horiz-adv-x="1018" d="M509 -28Q388 -28 297 29T160 200T130 484Q146 658 213 772T383 942T604 998Q722 998 813 942T950 771T980 484Q963 313 896 200T728 29T509 -28ZM520 178Q615 178 683 255T766 484Q781 639 734 716T592 794Q496
794 428 717T344 484Q334 384 352 316T414 213T520 178ZM404 1126L282 1244L686 1566L1032 1244L884 1126L664 1328L404 1126Z" />
<glyph unicode="&#xf5;" horiz-adv-x="1018" d="M509 -28Q388 -28 297 29T160 200T130 484Q146 658 213 772T383 942T604 998Q722 998 813 942T950 771T980 484Q963 313 896 200T728 29T509 -28ZM520 178Q615 178 683 255T766 484Q781 639 734 716T592 794Q496
794 428 717T344 484Q334 384 352 316T414 213T520 178ZM434 1190L356 1246Q390 1370 447 1436T574 1502Q600 1502 627 1491T699 1454Q740 1430 762 1417T807 1404Q834 1404 861 1426T913 1502L995 1436Q976 1363 943 1308T869 1221T786 1190Q761 1190 730 1203T650
1246Q608 1272 590 1281T552 1290Q524 1290 495 1270T434 1190Z" />
<glyph unicode="&#xf6;" horiz-adv-x="1018" d="M509 -28Q388 -28 297 29T160 200T130 484Q146 658 213 772T383 942T604 998Q722 998 813 942T950 771T980 484Q963 313 896 200T728 29T509 -28ZM520 178Q615 178 683 255T766 484Q781 639 734 716T592 794Q496
794 428 717T344 484Q334 384 352 316T414 213T520 178ZM492 1226Q436 1226 404 1263T378 1356Q382 1412 420 1451T516 1490Q567 1490 601 1454T632 1359Q626 1299 584 1263T492 1226ZM840 1228Q785 1228 753 1264T726 1358Q730 1412 769 1452T864 1492Q915 1492
948 1457T978 1361Q971 1297 931 1263T840 1228Z" />
<glyph unicode="&#xf7;" horiz-adv-x="910" d="M320 640H1125L1099 434H295L320 640ZM502 759Q438 759 400 804T369 918Q376 984 422 1029T533 1075Q596 1075 635 1031T669 918Q663 847 615 803T502 759ZM388 15Q324 15 286 60T255 174Q262 240 308 285T419 331Q482
331 521 287T555 174Q549 103 501 59T388 15Z" />
<glyph unicode="&#xf8;" horiz-adv-x="1018" d="M509 -28Q388 -28 297 29T160 200T130 484Q146 658 213 772T383 942T604 998Q722 998 813 942T950 771T980 484Q963 313 896 200T728 29T509 -28ZM520 178Q615 178 683 255T766 484Q781 639 734 716T592 794Q496
794 428 717T344 484Q334 384 352 316T414 213T520 178Z" />
<glyph unicode="&#xf9;" horiz-adv-x="1128" d="M480 -18Q387 -18 315 19T206 138T182 354L242 974H454L396 378Q389 283 426 236T536 188Q599 188 654 224T748 332T796 510L840 974H1052L962 0H748L764 174Q713 77 640 30T480 -18ZM865 1083L384 1291L480 1495L936
1231L865 1083Z" />
<glyph unicode="&#xfa;" horiz-adv-x="1128" d="M480 -18Q387 -18 315 19T206 138T182 354L242 974H454L396 378Q389 283 426 236T536 188Q599 188 654 224T748 332T796 510L840 974H1052L962 0H748L764 174Q713 77 640 30T480 -18ZM506 1132L468 1279L974 1544L1028
1340L506 1132Z" />
<glyph unicode="&#xfb;" horiz-adv-x="1128" d="M480 -18Q387 -18 315 19T206 138T182 354L242 974H454L396 378Q389 283 426 236T536 188Q599 188 654 224T748 332T796 510L840 974H1052L962 0H748L764 174Q713 77 640 30T480 -18ZM415 1126L293 1244L697 1566L1043
1244L895 1126L675 1328L415 1126Z" />
<glyph unicode="&#xfc;" horiz-adv-x="1128" d="M480 -18Q387 -18 315 19T206 138T182 354L242 974H454L396 378Q389 283 426 236T536 188Q599 188 654 224T748 332T796 510L840 974H1052L962 0H748L764 174Q713 77 640 30T480 -18ZM502 1226Q446 1226 414 1263T388
1356Q392 1412 430 1451T526 1490Q577 1490 611 1454T642 1359Q636 1299 594 1263T502 1226ZM850 1228Q795 1228 763 1264T736 1358Q740 1412 779 1452T874 1492Q925 1492 958 1457T988 1361Q981 1297 941 1263T850 1228Z" />
<glyph unicode="&#xfd;" horiz-adv-x="908" d="M192 -502Q131 -502 73 -487T-42 -438L-22 -230Q23 -264 68 -280T160 -296Q202 -296 236 -271T299 -200T350 -94L386 0L126 972H368L512 272L762 972H978L532 -176Q487 -291 436 -363T324 -468T192 -502ZM396 1132L358
1279L864 1544L918 1340L396 1132Z" />
<glyph unicode="&#xfe;" horiz-adv-x="1098" d="M122 -474L292 1306H504L457 808H424Q474 906 548 952T707 998Q811 998 896 937T1027 762T1058 486Q1044 324 976 209T808 33T602 -28Q527 -28 473 -2T386 78L334 -474H122ZM591 186Q643 186 697 219T793 318T844
486Q853 580 831 647T763 750T652 786Q598 786 550 759T471 681T432 556L416 392Q410 329 429 283T490 211T591 186Z" />
<glyph unicode="&#xff;" horiz-adv-x="908" d="M192 -502Q131 -502 73 -487T-42 -438L-22 -230Q23 -264 68 -280T160 -296Q202 -296 236 -271T299 -200T350 -94L386 0L126 972H368L512 272L762 972H978L532 -176Q487 -291 436 -363T324 -468T192 -502ZM392 1226Q336
1226 304 1263T278 1356Q282 1412 320 1451T416 1490Q467 1490 501 1454T532 1359Q526 1299 484 1263T392 1226ZM740 1228Q685 1228 653 1264T626 1358Q630 1412 669 1452T764 1492Q815 1492 848 1457T878 1361Q871 1297 831 1263T740 1228Z" />
<glyph unicode="&#x2013;" horiz-adv-x="944" d="M146 500L166 706H912L892 500H146Z" />
<glyph unicode="&#x2014;" horiz-adv-x="1382" d="M146 500L166 706H1352L1332 500H146Z" />
<glyph unicode="&#x2018;" horiz-adv-x="488" d="M306 758Q228 758 188 821T156 974Q162 1037 195 1099T281 1215T402 1304L542 1212Q479 1180 429 1138T358 1038Q406 1029 439 995T466 904Q461 843 416 801T306 758Z" />
<glyph unicode="&#x2019;" horiz-adv-x="488" d="M270 758L132 848Q195 881 244 925T314 1024Q263 1033 232 1068T206 1160Q212 1221 257 1262T368 1304Q419 1304 454 1275T506 1197T516 1088Q510 1024 477 962T391 847T270 758Z" />
<glyph unicode="&#x201a;" horiz-adv-x="493" d="M397 -272L249 -184Q311 -151 360 -108T429 -10Q381 1 349 36T321 128Q327 188 373 230T483 272Q538 272 573 242T623 164T633 58Q627 -4 597 -66T516 -183T397 -272Z" />
<glyph unicode="&#x201c;" horiz-adv-x="893" d="M704 758Q626 758 586 821T554 974Q560 1037 593 1099T679 1215T800 1304L940 1212Q877 1180 827 1138T756 1038Q804 1029 837 995T864 904Q859 843 814 801T704 758ZM306 758Q228 758 188 821T156 974Q162 1037
195 1099T281 1215T402 1304L542 1212Q479 1180 429 1138T358 1038Q406 1029 439 995T466 904Q461 843 416 801T306 758Z" />
<glyph unicode="&#x201d;" horiz-adv-x="900" d="M683 758L545 848Q608 881 657 925T727 1024Q676 1033 645 1068T619 1160Q625 1221 670 1262T781 1304Q832 1304 867 1275T919 1197T929 1088Q923 1024 890 962T804 847T683 758ZM276 758L138 848Q201 881 250
925T320 1024Q269 1033 238 1068T212 1160Q218 1221 263 1262T374 1304Q425 1304 460 1275T512 1197T522 1088Q516 1024 483 962T397 847T276 758Z" />
<glyph unicode="&#x201e;" horiz-adv-x="895" d="M542 -272L394 -184Q456 -151 505 -108T574 -10Q526 1 494 36T466 128Q472 188 518 230T628 272Q683 272 718 242T768 164T778 58Q772 -4 742 -66T661 -183T542 -272ZM397 -272L249 -184Q311 -151 360 -108T429
-10Q381 1 349 36T321 128Q327 188 373 230T483 272Q538 272 573 242T623 164T633 58Q627 -4 597 -66T516 -183T397 -272Z" />
<glyph unicode="&#x2022;" horiz-adv-x="586" d="M375 377Q258 377 188 459T132 667Q145 787 229 870T431 953Q546 953 617 873T679 667Q669 537 581 457T375 377Z" />
<glyph unicode="&#x2039;" horiz-adv-x="735" d="M489 108L136 539L610 970L749 847L348 502L353 570L658 224L489 108Z" />
<glyph unicode="&#x203a;" horiz-adv-x="734" d="M232 108L92 224L494 570L489 508L184 854L352 970L705 539L232 108Z" />
</font>
</defs>
</svg>
