<?xml version="1.0" standalone="no"?>
<!DOCTYPE svg PUBLIC "-//W3C//DTD SVG 1.1//EN" "http://www.w3.org/Graphics/SVG/1.1/DTD/svg11.dtd">
<svg xmlns="http://www.w3.org/2000/svg">
<defs >
<font id="LibreFranklin" horiz-adv-x="567" ><font-face
    font-family="Libre Franklin Thin ExtraBold"
    units-per-em="1000"
    panose-1="0 0 0 0 0 0 0 0 0 0"
    ascent="966"
    descent="-246"
    alphabetic="0" />
<glyph unicode=" " horiz-adv-x="203" />
<glyph unicode="!" horiz-adv-x="271" d="M194 21Q192 7 187 4T164 0H30Q16 0 10 8T5 28L24 166Q26 176 29 178T40 181H196Q204 181 209 174T213 157L194 21ZM193 270Q189 256 184 253T164 250H102Q89 250 84 258T80 278L99 727Q99 737 102 739T114 742H282Q290
742 295 735T300 718L193 270Z" />
<glyph unicode="&quot;" horiz-adv-x="490" d="M404 451Q400 437 395 434T374 430H335Q322 430 317 438T312 458L313 728Q313 737 316 739T327 742H461Q469 742 474 735T478 719L404 451ZM421 451Q417 437 412 434T391 430H352Q339 430 334 438T329 458L330 728Q330
737 333 739T344 742H478Q486 742 491 735T495 719L421 451Z" />
<glyph unicode="#" horiz-adv-x="603" d="M153 22Q149 6 145 3T125 1L90 6Q76 8 69 13T63 32L262 725Q266 735 269 738T280 741L335 735Q342 734 348 728T352 712L153 22ZM374 22Q370 6 366 3T346 1L311 6Q297 8 290 13T284 32L484 725Q487 735 490 738T501 741L556
735Q563 734 569 728T573 712L374 22ZM557 246Q555 232 549 229T528 226H32Q19 226 14 234T9 254L15 298Q17 308 22 311T35 314H550Q557 314 560 307T563 290L557 246ZM620 456Q618 442 612 439T590 436H94Q81 436 76 444T72 464L78 508Q80 518 85 521T98 524H613Q620
524 623 517T625 500L620 456Z" />
<glyph unicode="$" horiz-adv-x="671" d="M631 215Q623 156 590 110T503 34T380 -3Q365 -4 359 -10T351 -26L347 -55Q345 -68 340 -72T320 -76H259Q245 -76 240 -68T235 -47L240 -14Q242 -4 241 -3T233 -2Q160 2 110 25T20 89Q6 97 1 105T4 122L84 199Q94 208
101 204T114 189Q138 166 168 148T237 122Q249 121 255 126T263 139L285 285Q286 294 286 296T280 302Q196 316 150 349T88 430T80 531Q87 581 116 622T197 694T319 738Q328 739 339 746T351 761L356 795Q358 803 360 804T367 805H444Q454 805 460 798T465 779L459
742Q458 738 460 737T466 734Q517 724 556 705T625 661Q635 659 638 651T634 635L563 558Q555 550 549 553T535 568Q521 579 502 591T460 612Q451 613 445 607T437 595L418 455Q417 449 418 449T426 447L485 431Q534 418 569 387T622 312T631 215V215ZM329 607Q331
615 330 615T323 611Q279 605 255 583T226 532Q224 516 229 504T247 483T283 467Q296 465 304 473T314 493L329 607ZM371 124Q370 120 373 122T380 126Q423 130 450 153T481 205Q485 232 470 250T412 279Q393 280 390 261L371 124V124Z" />
<glyph unicode="%" horiz-adv-x="954" d="M291 753Q347 753 387 722T447 641T458 531Q451 478 421 433T345 360T246 333Q189 333 148 363T86 443T75 551Q83 605 114 651T192 725T291 753V753ZM242 422Q268 422 285 437T314 481T331 550Q340 606 332 635T291 665Q267
665 249 649T220 603T202 530Q194 477 202 450T242 422V422ZM740 410Q796 410 836 379T897 298T909 188Q901 135 870 90T794 17T695 -10Q639 -10 598 20T537 100T525 208Q533 262 564 308T641 382T740 410V410ZM693 79Q718 79 735 94T764 138T781 207Q787 245 785
270T773 309T742 322Q717 322 700 306T670 259T652 187Q647 152 648 128T661 91T693 79V79ZM240 3Q235 -4 230 -4T213 -4L166 -3Q152 -3 149 9T152 32L725 743Q732 752 737 751T750 750H810Q817 750 823 744T822 727L240 3Z" />
<glyph unicode="&amp;" horiz-adv-x="859" d="M450 753Q521 753 573 731T650 671T669 582Q665 553 643 520T586 457T507 404Q484 401 492 388L568 294Q574 288 580 292T593 310Q605 320 616 332T638 357T657 385T674 416Q679 421 684 420T699 415L784 387Q794
384 799 373T799 349Q786 328 769 306T731 257T682 197Q673 191 670 188T671 178Q686 170 702 164T738 155T777 149Q792 149 798 142T803 125L788 22Q787 9 783 5T770 0Q719 0 676 9T599 34T537 73Q526 77 520 73T507 60Q449 26 390 11T260 -5Q138 -5 78 50T31
204Q39 260 84 308T224 407Q238 411 242 417T240 436Q214 465 202 503T195 579Q202 631 237 669T328 730T450 753V753ZM457 648Q434 648 415 638T385 611T370 576Q369 569 373 556T383 532L413 491Q417 487 423 492T434 500Q468 514 490 537T517 592Q521 619 504
633T457 648V648ZM329 309Q322 317 316 313T303 302Q271 289 249 263T222 206Q218 174 241 150T303 125Q330 125 360 137T409 166Q417 169 422 174T423 187L329 309V309Z" />
<glyph unicode="&apos;" horiz-adv-x="251" d="M202 451Q198 437 193 434T172 430H133Q120 430 115 438T110 458L111 728Q111 737 114 739T125 742H259Q267 742 272 735T276 719L202 451Z" />
<glyph unicode="(" horiz-adv-x="323" d="M142 -165Q127 -165 125 -144Q93 -76 71 -9T41 133T45 295Q62 416 114 528T241 737Q253 742 268 742H360Q368 742 371 735T372 719Q330 656 295 584T234 434T197 274Q182 165 194 61T242 -158Q251 -165 238 -165H142V-165Z" />
<glyph unicode=")" horiz-adv-x="323" d="M-30 -165Q-38 -165 -41 -158T-42 -142Q0 -79 35 -7T96 143T133 303Q148 413 136 516T88 735Q79 742 93 742H188Q203 742 206 721Q238 653 260 586T289 444T284 282Q267 161 215 49T89 -160Q78 -165 62 -165H-30V-165Z" />
<glyph unicode="*" horiz-adv-x="494" d="M281 446Q280 450 276 446T270 437L177 312Q173 306 167 309T154 317L98 361Q92 366 90 372T92 384L201 492Q204 496 206 498T202 502L78 538Q72 540 68 547T68 564L102 631Q106 638 109 638T119 634L235 579Q240 576
245 581T252 592L261 733Q261 737 262 739T272 742H353Q361 742 366 735T369 722L336 581Q334 575 334 577T341 580L475 637Q483 640 489 635T496 619L509 553Q511 545 509 541T499 535L367 499Q362 498 359 493T356 484L431 380Q435 374 435 367T425 353L365 316Q355
310 347 314T337 324L281 446Z" />
<glyph unicode="+" horiz-adv-x="592" d="M558 330Q557 316 551 313T529 310H77Q64 310 59 318T55 338L66 421Q68 431 71 434T82 437H553Q561 437 566 430T571 413L558 330ZM243 121Q229 121 223 131T218 156L282 608Q284 622 288 624T303 626H387Q397 626 403
619T408 604L342 132Q341 125 338 123T326 121H243Z" />
<glyph unicode="," horiz-adv-x="266" d="M-11 -161Q-24 -161 -15 -142L51 -33Q62 -15 58 -8T43 0H20Q7 0 4 3T1 19L22 157Q23 166 28 174T42 182H199Q216 182 213 164L194 35Q193 29 190 23T185 14L57 -136Q44 -151 35 -156T15 -161H-11V-161Z" />
<glyph unicode="-" horiz-adv-x="380" d="M329 220Q327 207 321 204T300 200H63Q50 200 45 208T40 228L51 311Q53 321 56 323T68 326L324 327Q331 327 336 319T341 303L329 220Z" />
<glyph unicode="." horiz-adv-x="266" d="M191 21Q189 7 184 4T162 0H27Q13 0 7 8T2 28L23 169Q25 179 28 181T38 184H194Q202 184 207 177T211 161L191 21Z" />
<glyph unicode="/" horiz-adv-x="373" d="M-17 -8Q-27 -8 -32 -2T-34 13L317 730Q321 737 326 739T339 742H415Q429 742 433 733T431 708L90 11Q84 -3 77 -5T59 -8H-17V-8Z" />
<glyph unicode="0" horiz-adv-x="716" d="M420 753Q504 753 566 713T662 602T696 436Q696 418 695 399T691 359Q676 248 625 166T497 38T328 -8Q242 -8 180 31T83 140T48 304Q48 322 49 340T53 378Q66 462 99 530T181 649T291 726T420 753V753ZM332 132Q375 132
405 156T456 235T489 378Q494 412 496 440T499 490Q499 557 478 585T414 614Q373 614 342 588T290 505T256 358Q252 327 250 301T247 253Q247 188 268 160T332 132V132Z" />
<glyph unicode="1" horiz-adv-x="523" d="M458 147Q477 147 474 131L457 15Q456 6 452 3T437 0H20Q8 0 6 4T4 17L20 135Q21 143 24 145T38 147H137Q149 147 150 161L203 536Q204 541 202 542T193 542L96 518Q71 512 74 536L87 621Q89 633 91 636T103 645L289 731Q305
738 314 740T337 742H419Q434 742 431 723L352 156Q351 147 359 147H458V147Z" />
<glyph unicode="2" horiz-adv-x="659" d="M268 328Q341 383 382 419T439 482T456 535Q456 558 447 574T421 598T375 607Q333 607 293 578T218 495Q213 485 203 491L77 562Q73 565 73 572T84 593Q139 670 219 711T392 752Q473 752 531 727T620 656T651 546Q651
493 632 452T576 376T486 305L300 178Q293 173 293 169T299 165H585Q607 165 604 148L586 15Q585 7 581 4T565 0H24Q-5 0 0 29L12 117Q13 123 16 128T31 145T70 176L268 328Z" />
<glyph unicode="3" horiz-adv-x="677" d="M109 630Q99 641 113 655Q144 683 189 705T286 739T391 752Q520 752 590 703T661 572Q661 531 641 495T588 433T516 394Q509 392 509 389T515 384Q571 368 603 327T636 232Q636 149 592 95T471 16T294 -10Q226 -10 171
8T76 57T14 128Q6 145 12 149L116 217Q123 222 127 221T135 216Q175 170 212 150T302 130Q340 130 371 143T421 180T439 235Q439 258 426 275T389 301T332 311L239 313Q226 313 227 325L242 443Q243 451 260 451L328 453Q365 454 395 468T444 505T463 557Q463 582
441 598T381 615Q348 615 322 607T269 582T211 542Q199 533 190 542L109 630V630Z" />
<glyph unicode="4" horiz-adv-x="703" d="M418 723Q430 736 438 739T463 742H613Q632 742 629 723L571 310Q570 303 577 303H659Q670 303 674 300T676 287L661 182Q660 172 657 170T641 167H562Q550 167 548 153L530 21Q528 7 523 4T501 0H350Q323 0 326 21L345
159Q346 167 336 167H38Q17 167 20 184L35 286Q36 297 43 308T68 340L418 723V723ZM355 303Q368 303 369 315L400 531Q402 549 387 530L198 314Q192 307 192 305T198 303H355Z" />
<glyph unicode="5" horiz-adv-x="683" d="M641 742Q654 742 657 736T658 717L635 596Q634 587 629 584T612 581H301Q291 581 287 578T280 565L257 463Q256 459 257 458T264 457Q307 470 337 475T402 481Q475 481 530 457T617 386T648 273Q648 183 604 120T483
23T310 -10Q240 -10 183 7T83 55T17 125Q9 137 10 143T20 154L125 222Q132 227 138 223T153 208Q179 177 209 154T294 130Q341 130 376 147T430 195T449 261Q449 283 438 301T405 329T347 339Q326 339 307 335T269 322T227 302Q220 298 214 299T200 305L95 366Q87
371 87 382T89 406L163 720Q167 736 173 739T203 742H641Z" />
<glyph unicode="6" horiz-adv-x="693" d="M433 750Q478 750 519 737T594 701T648 649T670 587Q670 579 661 575L533 537Q523 535 509 559Q495 583 479 597T429 612Q385 612 350 589T293 527T262 436Q261 431 261 429T261 425Q261 422 263 422T273 425Q303 439
340 448T421 458Q493 458 546 433T629 363T658 260Q658 200 631 151T558 66T453 11T330 -8Q240 -8 177 28T80 131T46 288Q46 306 47 324T52 363Q69 485 122 571T255 704T433 750V750ZM372 328Q352 328 330 323T288 310T259 295Q244 286 241 270T237 229Q237 205
242 186T259 152T288 130T327 122Q363 122 393 141T442 190T460 253Q460 290 435 309T372 328V328Z" />
<glyph unicode="7" horiz-adv-x="626" d="M636 742Q652 742 656 733T659 712L647 651Q644 633 635 616T613 584Q571 533 532 474T458 352T395 230T349 116T321 21Q318 9 314 5T298 0H112Q100 0 95 10T93 37Q117 90 145 145T210 263T298 400T420 568Q424 574 423
577T411 581H96Q82 581 78 587T77 605L107 727Q109 736 115 739T133 742H636Z" />
<glyph unicode="8" horiz-adv-x="688" d="M398 752Q476 752 536 727T629 658T663 558Q663 526 652 501T622 458T582 426T540 401Q533 397 533 395T539 387Q552 378 570 367T607 339T637 295T649 227Q649 169 622 125T545 51T433 6T300 -10Q217 -10 155 10T57 71T22
169Q22 210 39 243T87 304T165 353Q173 356 173 360T166 370Q149 383 131 399T102 440T90 503Q90 569 128 625T235 717T398 752V752ZM401 621Q364 621 337 608T295 574T280 528Q280 511 290 497T327 475L394 452Q412 446 430 453T462 477T485 513T494 553Q494 584
469 602T401 621V621ZM307 121Q354 121 385 133T432 166T448 214Q448 235 436 250T388 277L308 304Q292 310 273 302T235 277T206 237T195 191Q195 157 224 139T307 121V121Z" />
<glyph unicode="9" horiz-adv-x="693" d="M290 -8Q236 -8 193 7T120 46T73 98T51 150Q49 162 61 167L187 204Q204 209 213 187Q224 161 242 146T295 130Q338 130 373 152T430 213T461 306Q461 316 458 317T444 314Q410 300 378 292T303 284Q230 284 177 309T94
379T65 482Q65 543 92 592T166 676T271 731T393 750Q483 750 546 714T643 611T677 454Q677 362 650 278T573 130T451 29T290 -8V-8ZM350 414Q371 414 390 419T427 431T461 449Q478 457 482 474T486 514Q486 538 481 557T464 591T435 612T396 620Q360 620 330 601T282
552T264 489Q264 452 289 433T350 414V414Z" />
<glyph unicode=":" horiz-adv-x="266" d="M239 362Q237 348 232 345T210 341H75Q61 341 55 349T50 370L70 507Q71 517 75 519T86 522H242Q250 522 255 515T258 498L239 362ZM191 24Q190 10 184 7T162 3H27Q13 3 8 11T3 32L23 169Q25 179 28 181T38 184H194Q202
184 207 177T211 160L191 24Z" />
<glyph unicode=";" horiz-adv-x="270" d="M-2 -164Q-11 -164 -16 -155T-18 -137L48 -25Q56 -11 57 -6T48 0H28Q14 0 8 8T3 28L22 167Q24 177 28 179T39 182H195Q203 182 208 175T211 158L192 24Q191 15 188 11L60 -148Q52 -158 41 -161T18 -164H-2V-164ZM74 335Q60
335 54 343T49 363L70 504Q71 514 74 516T85 519H241Q249 519 254 512T257 495L238 356Q236 341 231 338T209 335H74V335Z" />
<glyph unicode="&lt;" horiz-adv-x="589" d="M511 120Q508 102 500 100T478 104L68 270Q58 275 50 284T44 305L58 405Q60 419 66 425T84 434L541 602Q556 608 566 597T574 572L563 486Q561 471 552 463T520 447L241 349L485 251Q506 243 515 233T523 206L511 120Z" />
<glyph unicode="=" horiz-adv-x="592" d="M572 427Q570 413 565 410T543 407L91 406Q78 406 73 414T68 434L79 518Q81 528 84 530T96 533H567Q575 533 580 526T584 510L572 427ZM539 188Q537 175 531 172T510 168H58Q44 168 39 176T34 196L46 280Q48 290 51 292T62
295H534Q541 295 546 288T550 272L539 188Z" />
<glyph unicode="&gt;" horiz-adv-x="589" d="M50 216Q52 232 61 239T93 254L372 349L127 451Q86 468 89 496L102 583Q106 611 134 599L544 431Q555 427 562 418T569 395L554 294Q553 282 547 277T529 267L73 100Q58 95 47 104T39 130L50 216V216Z" />
<glyph unicode="?" horiz-adv-x="541" d="M311 21Q310 7 304 4T282 0H146Q133 0 128 8T123 28L142 166Q144 176 146 178T158 181H313Q321 181 327 174T331 157L311 21ZM58 570Q49 572 47 582T48 603Q91 677 161 714T325 752Q403 752 457 727T539 660T559 569Q553
524 529 493T472 439T408 391T352 338T322 265Q320 253 302 253H207Q196 253 190 262T185 289Q192 338 213 374T262 437T316 486T362 530T385 579Q389 605 370 619T321 634Q296 634 272 623T227 593T191 545Q186 540 183 541T169 544L58 570Z" />
<glyph unicode="@" horiz-adv-x="834" d="M627 -53Q589 -76 525 -94T383 -113Q290 -113 220 -83T105 0T43 123T37 272Q48 351 86 421T184 545T324 630T499 661Q569 661 632 642T743 582T813 478T823 329Q813 255 781 199T702 112T597 81Q565 81 545 90T515 111T500
134Q497 137 493 131T486 116Q460 95 425 81T350 67Q304 67 271 90T222 156T214 254Q223 312 254 362T334 444T445 475Q489 475 510 459T544 422Q549 422 553 427T560 437L564 447Q565 451 566 450T572 449H651Q655 449 658 445T661 436L596 228Q586 196 591 187T608
177Q631 177 655 195T698 250T724 342Q734 408 719 451T671 520T594 557T499 568Q416 568 352 543T244 475T174 375T138 254Q128 185 141 133T189 45T276 -9T397 -28Q443 -28 474 -20T531 1T579 29Q590 32 595 28T601 18L631 -30Q635 -36 634 -41T627 -53V-53ZM333
246Q330 215 340 192T382 169Q412 169 438 187T481 232T504 290Q509 314 505 332T487 362T453 373Q427 373 401 356T357 311T333 246V246Z" />
<glyph unicode="A" horiz-adv-x="785" d="M0 0Q-10 0 -11 9T-2 38L341 725Q346 736 355 739T376 742H550Q563 742 567 733T574 713L721 26Q723 17 721 9T707 0H535Q521 0 517 20L490 148Q489 157 478 157H252Q241 157 235 145L167 9Q164 4 161 2T146 0H0V0ZM453
309Q469 309 464 328L421 525Q420 535 415 535T405 526L306 324Q303 315 304 312T314 309H453Z" />
<glyph unicode="B" horiz-adv-x="731" d="M39 0Q30 0 28 5T27 25L125 723Q128 742 147 742H432Q571 742 644 697T718 567Q718 493 675 450T563 383Q557 381 557 378T561 372Q627 351 657 315T688 224Q688 155 660 112T583 44T475 10T353 0H39V0ZM356 135Q379 135
401 142T442 163T471 197T482 243Q482 264 472 277T441 298T394 306H285Q276 306 272 302T266 287L246 150Q245 141 247 138T257 135H356ZM405 444Q434 444 459 456T500 492T517 545Q517 576 493 591T427 607H331Q319 607 314 603T307 588L290 459Q289 450 291
447T300 444H405Z" />
<glyph unicode="C" horiz-adv-x="731" d="M445 752Q528 752 590 721T687 637T725 517Q726 495 709 494L558 485Q544 484 542 513Q538 557 517 585T445 613Q400 613 368 591T313 531T279 449T261 359T255 276Q255 201 282 169T364 137Q420 137 466 165T544 259Q551
274 572 268L693 239Q704 236 692 204Q686 188 669 161T624 105T557 49T466 7T351 -10Q256 -10 188 31T85 144T49 311Q49 381 65 445T113 565T192 663T303 728T445 752V752Z" />
<glyph unicode="D" horiz-adv-x="762" d="M53 0Q40 0 33 9T28 33L125 725Q127 736 131 739T148 742H379Q500 742 580 703T702 595T744 434Q744 303 689 205T534 54T295 0H53V0ZM318 141Q393 141 441 181T511 290T534 445Q534 498 517 532T466 584T386 601H327Q310
601 307 582L249 159Q248 150 251 146T262 141H318Z" />
<glyph unicode="E" horiz-adv-x="663" d="M126 726Q128 736 130 739T142 742H668Q685 742 681 718L666 614Q665 603 661 599T643 595H325Q316 595 313 592T307 578L290 459Q289 450 291 448T301 445H504Q514 445 516 442T516 429L500 313Q499 301 485 301H279Q268
301 265 285L247 159Q246 147 254 147H594Q604 147 606 144T607 129L592 15Q591 6 588 3T572 0H49Q24 0 27 28L126 726V726Z" />
<glyph unicode="F" horiz-adv-x="641" d="M126 726Q128 736 131 739T142 742H664Q677 742 674 725L658 614Q657 603 653 599T636 595H321Q314 595 311 592T306 575L288 450Q287 441 289 439T299 436H508Q515 436 517 434T519 424L503 307Q502 299 498 297T484
294H279Q272 294 269 291T264 274L228 21Q226 7 222 4T205 0H44Q30 0 27 5T27 28L126 726V726Z" />
<glyph unicode="G" horiz-adv-x="757" d="M347 -10Q253 -10 186 29T83 138T47 304Q47 397 76 478T158 621T286 717T451 752Q539 752 601 719T697 635T734 527Q734 505 725 504L567 482Q563 481 560 487T554 510Q549 537 537 560T502 598T442 613Q390 613 355 582T297
500T266 390T256 274Q256 192 285 161T367 130Q395 130 417 138T456 158T487 188T511 225L517 243Q524 256 507 256H398Q387 256 388 271L399 365Q400 377 410 377L706 375Q720 375 723 372T725 356L677 13Q675 0 660 0H627Q611 0 604 16L580 82Q577 88 572 88T559
79Q541 59 513 39T445 4T347 -10V-10Z" />
<glyph unicode="H" horiz-adv-x="757" d="M283 306Q276 306 272 303T266 287L228 21Q226 7 221 4T199 0H45Q30 0 28 4T26 20L126 726Q128 736 131 739T142 742H317Q325 742 327 739T327 726L292 476Q291 467 293 464T304 460H509Q516 460 520 467T525 484L559
728Q561 737 565 739T576 742H750Q758 742 760 737T760 715L661 18Q660 6 657 3T638 0H484Q468 0 464 5T461 26L499 298Q500 306 485 306H283Z" />
<glyph unicode="I" horiz-adv-x="323" d="M313 742Q329 742 326 717L228 21Q226 7 221 4T199 0H46Q31 0 29 8T27 28L126 726Q128 736 131 739T142 742H313Z" />
<glyph unicode="J" horiz-adv-x="458" d="M393 197Q382 120 352 75T270 10T147 -10Q112 -10 81 -6T22 6Q5 11 0 15T-4 30L22 147Q24 157 28 161T40 163Q54 160 68 158T98 156Q140 156 165 180T199 258L265 726Q267 736 270 739T282 742H454Q470 742 465 717L393 197V197Z" />
<glyph unicode="K" horiz-adv-x="759" d="M692 24Q701 0 677 0H503Q483 0 478 22L378 318Q375 325 370 320T357 305L264 207Q260 203 257 197T251 184L228 21Q227 9 221 5T199 0H44Q32 0 29 8T27 28L126 726Q128 736 131 739T141 742H309Q318 742 323 735T326
717L288 443Q286 432 289 436T299 448L551 728Q560 737 567 739T590 742H744Q759 742 761 736T754 720L539 499Q533 492 530 487T528 471L692 24V24Z" />
<glyph unicode="L" horiz-adv-x="635" d="M125 724Q128 742 142 742H315Q330 742 326 717L248 163Q245 147 258 147H571Q587 147 585 124L570 15Q569 5 565 3T549 0H49Q24 0 27 28L125 724V724Z" />
<glyph unicode="M" horiz-adv-x="964" d="M42 0Q31 0 28 5T28 31L126 726Q128 737 130 739T143 742H389Q401 742 406 737T413 721L489 356Q490 350 493 350T500 357L672 720Q680 742 696 742H956Q971 742 968 727L869 21Q867 7 862 4T841 0H691Q678 0 672 5T667
28L733 491Q735 498 732 498T724 489L497 13Q494 5 489 3T475 0H380Q372 0 367 4T359 21L267 486Q265 496 261 496T255 488L188 15Q187 6 183 3T169 0H42V0Z" />
<glyph unicode="N" horiz-adv-x="760" d="M753 742Q767 742 765 727L664 12Q663 0 645 0H525Q518 0 513 4T502 18L261 427Q258 432 254 431T248 420L191 17Q190 7 186 4T169 0H41Q31 0 28 7T26 24L126 726Q128 736 131 739T144 742H287Q298 742 304 737T316 721L531
348Q536 339 542 340T549 353L602 728Q604 737 607 739T620 742H753Z" />
<glyph unicode="O" horiz-adv-x="777" d="M358 -10Q260 -10 191 27T85 135T48 301Q48 319 49 339T53 378Q70 494 124 577T262 706T450 752Q546 752 615 714T721 604T758 435Q758 418 757 399T753 359Q737 246 683 163T546 35T358 -10V-10ZM363 130Q439 130 482
188T544 376Q548 405 549 429T551 475Q551 548 526 580T446 613Q370 613 326 552T262 357Q258 329 257 306T255 262Q255 192 281 161T363 130V130Z" />
<glyph unicode="P" horiz-adv-x="723" d="M279 274Q270 274 267 270T262 258L228 21Q226 7 221 4T200 0H43Q22 0 27 28L126 726Q128 736 130 739T142 742H458Q533 742 593 719T690 650T726 533Q726 452 686 394T578 305T422 274H279ZM520 532Q520 566 497 582T433
599H328Q317 599 313 594T306 578L286 433Q285 423 287 421T297 418H406Q440 418 465 434T505 476T520 532V532Z" />
<glyph unicode="Q" horiz-adv-x="779" d="M53 379Q70 494 124 578T262 707T450 752Q547 752 616 714T722 604T759 436Q759 418 758 399T754 359Q741 267 703 195T604 71Q593 63 596 56Q602 46 615 38T647 23T687 12Q696 11 699 8T701 -3L687 -105Q685 -119 679
-123T650 -127Q611 -127 574 -115T505 -75T448 -6Q443 3 428 -1Q409 -6 392 -8T358 -10Q260 -10 191 27T85 135T48 302Q48 319 49 339T53 379V379ZM262 357Q258 330 257 306T255 261Q255 191 281 161T363 130Q440 130 483 188T544 377Q548 406 550 430T552 475Q552
547 527 580T446 613Q370 613 326 552T262 357V357Z" />
<glyph unicode="R" horiz-adv-x="731" d="M653 25Q661 0 637 0H466Q456 0 451 5T442 24L379 293Q378 298 375 300T363 303H281Q269 303 267 291L228 21Q226 7 219 4T196 0H47Q34 0 30 8T27 28L126 726Q128 736 130 739T142 742H465Q594 742 664 693T735 556Q735
506 715 462T660 384T578 332Q566 328 564 324T563 314L653 25V25ZM410 437Q445 437 471 451T511 489T525 543Q525 577 502 593T440 609H324Q312 609 309 590L289 451Q288 442 290 440T299 437H410V437Z" />
<glyph unicode="S" horiz-adv-x="690" d="M541 563Q522 581 488 597T399 613Q362 613 335 604T292 578T276 536Q276 520 285 509T310 489T342 474L498 422Q577 397 615 356T653 252Q653 167 608 109T486 20T314 -10Q202 -10 127 27T16 129Q11 139 11 145T20 156L113
213Q126 220 135 217T152 204Q175 177 196 159T249 132T332 123Q365 123 393 130T438 156T456 204Q456 226 439 241T387 267L241 314Q166 337 127 385T87 496Q87 554 112 601T182 682T284 734T406 752Q470 752 521 737T610 696T671 641Q678 632 678 626T672 614L569
548Q563 544 556 549T541 563V563Z" />
<glyph unicode="T" horiz-adv-x="693" d="M96 727Q98 736 101 739T117 742H712Q724 742 726 739T727 726L710 610Q709 603 705 601T692 598H510Q501 598 498 595T493 582L413 18Q412 7 408 4T396 0H230Q218 0 214 5T212 24L292 586Q293 598 282 598H95Q77 598
80 613L96 727Z" />
<glyph unicode="U" horiz-adv-x="724" d="M674 279Q659 169 613 106T495 16T330 -10Q181 -10 117 51T52 227Q52 246 54 267T59 309L117 726Q119 736 122 739T133 742H301Q309 742 314 735T318 717L256 275Q255 263 254 253T252 232Q252 178 278 156T352 133Q390
133 422 148T478 197T509 289L571 726Q572 736 575 739T586 742H719Q727 742 732 735T736 717L674 279V279Z" />
<glyph unicode="V" horiz-adv-x="743" d="M769 742Q793 742 782 719L444 19Q439 7 432 4T410 0H266Q252 0 245 3T235 19L95 720Q90 742 111 742H284Q298 742 302 718L384 254Q387 236 394 252L605 727Q609 737 614 739T628 742H769V742Z" />
<glyph unicode="W" horiz-adv-x="1097" d="M1118 742Q1136 742 1137 734T1130 702L829 19Q823 7 817 4T796 0H673Q659 0 652 4T642 20L580 418Q579 426 576 426T569 418L396 19Q390 7 384 4T362 0H233Q207 0 203 22L94 711Q92 726 97 734T120 742H267Q282 742
288 736T295 718L354 311Q356 301 359 301T366 310L543 727Q546 737 551 739T572 742H700Q714 742 718 736T723 718L785 304Q786 297 789 297T797 306L971 727Q975 737 980 739T999 742H1118V742Z" />
<glyph unicode="X" horiz-adv-x="743" d="M670 41Q683 15 680 8T658 0H497Q484 0 476 3T464 17L366 229Q361 239 356 239T343 227L185 13Q179 4 170 2T147 0H13Q-6 0 -9 11T8 50L256 362Q265 373 267 379T266 396L102 719Q97 729 100 735T116 742H284Q299 742
305 739T316 723L399 541Q406 525 418 541L555 728Q562 738 569 740T590 742H737Q753 742 752 730T743 708L504 410Q494 398 493 392T496 377L670 41V41Z" />
<glyph unicode="Y" horiz-adv-x="755" d="M782 742Q794 742 796 735T794 720L502 334Q495 325 491 314T483 274L447 21Q445 7 439 4T417 0H263Q250 0 247 5T245 22L283 294Q285 309 284 316T279 334L97 721Q92 732 94 737T111 742H288Q301 742 306 736T316 718L418
478Q423 466 431 478L605 727Q612 737 617 739T636 742H782V742Z" />
<glyph unicode="Z" horiz-adv-x="698" d="M20 0Q7 0 2 5T-3 24L2 69Q4 81 8 90T24 114L415 584Q422 591 423 592T414 594H130Q107 594 110 621L125 728Q127 737 129 739T140 742H715Q731 742 728 722L721 672Q720 662 717 656T705 636L301 157Q292 149 302 149H627Q637
149 639 146T641 133L624 15Q623 6 619 3T604 0H20V0Z" />
<glyph unicode="[" horiz-adv-x="327" d="M24 -165Q12 -165 5 -156T-2 -136L119 728Q121 737 125 739T141 742H361Q369 742 373 737T376 725L366 652Q365 646 363 646T355 645H277Q265 645 257 637T246 615L153 -54Q151 -66 153 -67T166 -68H245Q253 -68 258 -74T262
-88L253 -154Q252 -163 250 -164T238 -165H24V-165Z" />
<glyph unicode="\" horiz-adv-x="373" d="M244 -8Q219 -8 214 20L69 717Q66 732 68 737T84 742H159Q167 742 174 736T182 721L331 4Q333 -4 332 -6T320 -8H244V-8Z" />
<glyph unicode="]" horiz-adv-x="327" d="M-28 -165Q-35 -165 -39 -160T-42 -148L-32 -75Q-31 -69 -30 -69T-21 -68H57Q68 -68 77 -60T87 -38L181 631Q183 644 181 644T167 645H89Q80 645 75 651T71 665L81 731Q83 740 84 741T95 742H309Q322 742 330 733T336
713L214 -151Q213 -160 209 -162T192 -165H-28V-165Z" />
<glyph unicode="^" horiz-adv-x="475" d="M260 343Q257 353 250 349T238 334L123 127Q119 120 115 121T101 123H25Q17 123 13 131T12 149L217 508Q231 531 252 537T293 535T319 500L424 137Q427 127 425 125T413 122H340Q332 122 324 125T316 136L260 343Z" />
<glyph unicode="_" horiz-adv-x="554" d="M453 -132Q452 -145 446 -148T424 -152H12Q-1 -152 -6 -144T-10 -124L1 -41Q3 -31 6 -29T17 -26H449Q456 -26 461 -33T465 -49L453 -132Z" />
<glyph unicode="`" horiz-adv-x="313" d="M102 740Q105 748 111 750T123 749L344 649Q352 646 354 641T354 628L334 585Q331 578 326 577T309 579L85 637Q70 641 67 646T68 662L102 740V740Z" />
<glyph unicode="a" horiz-adv-x="568" d="M308 44Q280 15 239 3T152 -10Q81 -10 42 27T3 122Q3 180 33 219T112 282T217 317T326 329L346 330Q365 330 368 349L371 368Q372 373 372 376T373 384Q373 408 359 420T316 432Q288 432 260 422T212 377Q209 371 205
370T189 370L76 394Q69 396 65 404T69 432Q102 489 168 514T325 540Q406 540 453 522T522 472T543 398Q543 391 543 384T541 369L492 19Q490 6 487 3T471 0H351Q339 0 336 8T331 29V48Q330 68 308 44V44ZM352 235Q354 244 353 246T343 247L319 245Q301 244 277
239T231 223T194 194T179 150Q179 130 192 117T233 104Q258 104 278 111T310 128Q323 138 333 151T344 176L352 235Z" />
<glyph unicode="b" horiz-adv-x="613" d="M39 0Q25 0 20 8T15 29L113 726Q115 736 118 739T129 742H280Q288 742 289 735T289 717L258 497Q257 489 260 488T273 493Q294 509 316 519T361 535T409 540Q468 540 507 514T568 441T589 327Q589 268 574 209T528 100T446
20T326 -10Q294 -10 267 1T218 30T180 73Q177 78 172 78T162 65L146 20Q143 8 138 4T122 0H39ZM214 179Q210 152 217 134T241 106T280 96Q319 96 344 121T384 186T405 266T411 339Q411 388 395 409T345 430Q315 430 290 416T244 380L214 179Z" />
<glyph unicode="c" horiz-adv-x="553" d="M330 540Q400 540 445 514T515 449T542 369Q543 361 540 358T525 354L408 346Q401 345 398 351T393 369Q389 383 384 396T367 417T333 426Q295 426 270 404T230 346T207 273T200 204Q200 150 222 126T282 102Q327 102
354 123T407 185Q411 190 424 188L506 170Q513 169 516 162T514 140Q506 122 487 97T438 47T364 6T266 -10Q193 -10 139 19T54 102T24 227Q24 289 45 346T107 446T204 515T330 540V540Z" />
<glyph unicode="d" horiz-adv-x="613" d="M379 0Q370 0 363 4T357 20L361 43Q363 51 359 52T346 47Q327 31 305 18T258 -3T200 -10Q120 -10 72 44T24 202Q24 268 42 328T93 437T172 512T275 540Q315 540 343 526T394 481Q401 472 409 473T421 501L453 725Q455
735 460 738T474 742H617Q632 742 628 716L530 20Q529 8 523 4T502 0H379ZM407 388Q391 410 375 419T334 428Q295 428 270 404T229 342T208 265T201 193Q201 159 209 138T234 108T273 99Q298 99 320 110T357 141T375 180L407 388Z" />
<glyph unicode="e" horiz-adv-x="588" d="M271 -10Q197 -10 142 19T55 101T23 224Q23 286 46 342T111 443T209 514T331 540Q401 540 454 512T537 430T567 303Q567 289 566 275T563 247Q562 238 557 235T539 232H217Q206 232 203 219T200 190Q200 149 227 129T297
109Q330 109 360 123T421 169Q427 174 433 174T447 170L523 136Q546 126 530 107Q488 60 449 35T367 0T271 -10V-10ZM380 322Q390 322 397 330T404 359Q404 386 388 410T333 434Q307 434 283 420T242 381T220 322H380Z" />
<glyph unicode="f" horiz-adv-x="411" d="M410 530Q422 530 425 526T427 514L414 425Q411 409 395 409H317Q310 409 307 392L253 15Q252 5 249 3T238 0H94Q86 0 81 7T76 24L130 401Q132 409 123 409H55Q46 409 44 415T43 431L54 516Q56 524 59 527T74 530H131Q138
530 144 536T151 552L159 609Q168 673 211 707T326 742H433Q446 742 453 737T459 720L449 638Q448 625 432 625H386Q366 625 348 611T327 573L322 542Q321 530 335 530H410V530Z" />
<glyph unicode="g" horiz-adv-x="643" d="M222 -174Q99 -174 28 -144T-44 -59Q-44 -20 -12 3T61 40Q72 44 73 49T65 58Q41 67 29 82T16 125Q16 153 33 173T77 207T127 229Q139 234 141 238T134 246Q98 260 77 289T55 359Q55 406 77 440T136 496T219 528T312 538Q387
538 428 523T491 487Q498 480 508 487T525 504Q541 522 562 533T604 551T638 558Q649 558 655 555T660 538L650 458Q648 443 643 439T629 435Q615 435 599 435T576 434Q541 432 551 409Q553 405 554 397T555 379Q555 332 530 300T465 248T379 219T290 209Q283 209
265 208T227 203T193 192T178 172Q178 163 189 161T224 156L371 147Q469 141 514 104T560 6Q560 -38 539 -69T483 -121T404 -153T313 -169T222 -174V-174ZM233 -93Q274 -93 305 -88T358 -74T390 -52T401 -23Q401 -6 387 2T337 12L190 20Q174 18 154 12T119 -7T103
-40Q103 -65 133 -79T233 -93V-93ZM294 293Q322 293 345 305T382 339T396 391Q396 419 375 436T313 453Q286 453 263 440T226 403T212 351Q212 326 234 310T294 293V293Z" />
<glyph unicode="h" horiz-adv-x="601" d="M39 0Q26 0 20 8T15 28L114 726Q116 736 121 739T134 742H275Q291 742 288 722L254 482Q252 467 262 475Q296 500 325 514T381 534T433 540Q501 540 538 504T576 405Q576 397 576 389T573 372L523 22Q521 8 517 4T497
0H367Q342 0 346 28L393 360Q394 364 394 367T394 373Q394 393 382 403T346 413Q326 413 308 406T274 386T241 353L192 21Q191 7 186 4T164 0H39Z" />
<glyph unicode="i" horiz-adv-x="274" d="M192 21Q190 7 184 4T162 0H38Q25 0 19 8T14 28L83 514Q85 524 88 527T100 530H249Q256 530 258 523T260 506L192 21ZM275 606Q273 592 267 588T244 584H110Q100 584 97 592T96 613L112 721Q115 742 131 742H280Q287 742
289 734T290 717L275 606Z" />
<glyph unicode="j" horiz-adv-x="275" d="M191 13Q178 -81 127 -125T-24 -170Q-69 -170 -83 -164T-95 -142L-82 -51Q-81 -44 -78 -39T-65 -31L-26 -25Q-12 -22 0 -10T16 30L84 514Q86 524 89 527T101 530H244Q252 530 257 523T261 506L191 13V13ZM275 606Q273
592 267 588T244 584H110Q100 584 97 592T96 613L112 721Q115 742 131 742H280Q287 742 289 734T290 717L275 606Z" />
<glyph unicode="k" horiz-adv-x="618" d="M564 21Q567 14 565 7T549 0H398Q386 0 380 8T370 28L309 213Q304 230 289 216L222 156Q218 152 214 146T207 128L192 21Q191 7 186 4T164 0H40Q25 0 20 8T15 28L114 726Q116 736 119 739T130 742H279Q288 742 290 735T290
717L236 325Q235 321 236 323T245 332L439 518Q448 525 455 527T469 530H592Q608 530 613 520T608 499L452 364Q445 357 441 351T441 332L564 21V21Z" />
<glyph unicode="l" horiz-adv-x="275" d="M192 21Q191 7 185 4T163 0H38Q25 0 19 8T14 28L116 726Q118 736 121 739T132 742H279Q294 742 291 722L192 21Z" />
<glyph unicode="m" horiz-adv-x="924" d="M38 0Q26 0 20 8T14 28L83 514Q85 524 88 527T99 530H248Q257 530 258 526T257 512L252 473Q250 460 260 468Q288 490 315 506T372 532T430 541Q482 541 515 516T559 449Q561 444 565 445T580 456Q605 480 635 499T698
529T759 540Q823 540 860 503T898 402Q898 395 898 387T896 370L847 22Q845 8 840 4T820 0H691Q665 0 670 28L716 352Q717 358 717 363T718 372Q718 393 706 403T671 413Q654 413 637 407T605 389T579 365Q574 358 569 351T563 336L519 22Q517 8 512 4T493 0H364Q353
0 347 7T343 28L389 360Q393 388 382 400T344 413Q324 413 307 406T273 386T240 353L192 21Q190 7 185 4T163 0H38V0Z" />
<glyph unicode="n" horiz-adv-x="600" d="M30 0Q19 0 16 8T14 28L83 514Q85 524 87 527T99 530H249Q255 530 258 528T259 516L252 468Q251 456 263 467Q300 499 343 519T432 540Q498 540 536 502T575 403Q575 396 575 390T573 375L523 22Q521 8 516 4T495 0H360Q349
0 347 7T346 28L392 355Q393 360 393 364T394 372Q394 393 382 403T345 413Q325 413 307 406T273 386T240 353L192 21Q190 7 184 4T161 0H30V0Z" />
<glyph unicode="o" horiz-adv-x="600" d="M267 -10Q193 -10 138 19T54 102T24 226Q24 296 48 353T115 452T214 517T332 540Q407 540 462 510T546 425T575 300Q575 211 535 141T425 30T267 -10V-10ZM270 106Q306 106 335 131T382 208T400 336Q400 383 383 405T330
428Q295 428 266 402T218 325T200 196Q200 150 217 128T270 106V106Z" />
<glyph unicode="p" horiz-adv-x="613" d="M1 -165Q-6 -165 -8 -158T-9 -139L82 511Q84 523 87 526T106 530H236Q249 530 254 527T258 512L254 487Q253 481 259 482T273 488Q294 503 314 514T359 533T416 540Q492 540 540 488T589 329Q589 274 576 214T535 104T459
22T345 -10Q306 -10 274 5T216 50Q206 61 201 53T193 30L168 -152Q167 -161 164 -163T153 -165H1V-165ZM278 100Q317 100 343 125T384 189T405 269T412 342Q412 376 403 395T378 422T340 430Q315 430 293 420T256 393T239 358L206 140Q220 120 236 110T278 100V100Z"
/>
<glyph unicode="q" horiz-adv-x="613" d="M340 -165Q326 -165 330 -141L353 26Q355 35 353 37T341 32Q311 14 277 2T209 -10Q122 -10 73 46T24 207Q24 261 38 319T83 428T164 509T283 541Q324 541 354 529T404 498T437 455Q440 449 445 451T456 467L478 512Q483
523 488 526T502 530H582Q594 530 597 525T598 500L507 -150Q506 -160 499 -162T484 -165H340V-165ZM270 99Q299 99 323 111T367 141L399 351Q403 377 397 396T375 425T336 436Q297 436 272 411T231 348T208 268T201 194Q201 143 220 121T270 99V99Z" />
<glyph unicode="r" horiz-adv-x="441" d="M38 0Q25 0 19 8T14 28L83 514Q85 524 87 527T99 530H239Q246 530 251 525T254 506L247 466Q246 455 250 454T260 460Q282 483 309 501T364 530T414 540Q434 540 445 537T455 524L437 394Q435 381 432 378T423 376Q400
379 379 380T346 382Q328 382 308 375T271 355T244 329T230 299L192 21Q190 7 184 4T163 0H38V0Z" />
<glyph unicode="s" horiz-adv-x="535" d="M244 -10Q142 -10 83 25T1 106Q-7 124 9 132L83 167Q95 173 103 172T118 159Q132 137 157 119T238 100Q249 100 266 101T300 108T327 123T339 151Q339 164 328 172T286 189L187 213Q121 229 86 260T50 347Q50 411 85 454T178
518T303 540Q385 540 435 509T511 437Q515 431 515 424T505 413L430 379Q421 376 416 378T399 393Q386 410 362 422T300 435Q279 435 259 430T225 415T211 389Q211 376 219 369T251 355L357 330Q433 313 466 273T499 182Q499 133 477 97T418 37T337 2T244 -10V-10Z"
/>
<glyph unicode="t" horiz-adv-x="448" d="M236 0Q170 0 130 30T89 115Q89 120 89 125T90 136L128 396Q129 403 124 406T110 409H54Q39 409 43 434L54 518Q56 527 59 528T72 530H136Q142 530 147 535T153 547L190 697Q194 710 210 710H339Q347 710 350 705T351
684L330 543Q329 538 332 535T341 531H436Q445 531 451 528T456 515L443 423Q442 414 438 412T422 409H322Q308 409 305 391L274 176Q273 172 273 168T273 161Q273 140 287 132T332 123H380Q387 123 392 115T397 99L386 28Q383 6 364 5Q345 3 323 2T278 1T236 0V0Z"
/>
<glyph unicode="u" horiz-adv-x="597" d="M162 -10Q101 -10 64 27T26 128Q26 136 26 144T28 160L77 508Q79 522 84 526T104 530H233Q245 530 250 522T254 501L207 174Q206 169 206 165T206 159Q206 136 218 126T252 116Q281 116 307 132T355 169L405 509Q407 523
413 526T434 530H560Q573 530 579 522T584 501L512 15Q511 6 508 3T496 0H357Q350 0 345 3T341 15L348 61Q349 67 345 67T333 61Q291 23 249 7T162 -10V-10Z" />
<glyph unicode="v" horiz-adv-x="583" d="M581 530Q592 530 597 520T598 499L333 19Q327 7 320 4T299 0H216Q202 0 194 7T184 27L54 508Q50 530 70 530H219Q227 530 234 523T242 507L307 246Q311 231 323 255L458 516Q467 530 482 530H581V530Z" />
<glyph unicode="w" horiz-adv-x="825" d="M823 530Q834 530 839 520T840 499L604 13Q601 3 598 2T583 0H490Q466 0 464 25L422 266Q420 276 416 272T407 257L293 13Q290 3 286 2T271 0H175Q152 0 150 25L55 508Q50 530 71 530H207Q216 530 223 523T231 507L276
260Q277 251 281 255T290 270L401 516Q407 530 424 530H521Q529 530 535 523T543 507L584 260Q585 251 590 255T599 270L710 516Q720 530 735 530H823V530Z" />
<glyph unicode="x" horiz-adv-x="607" d="M544 34Q556 13 555 7T533 0H389Q375 0 366 6T353 22L281 149Q274 162 269 159T252 143L144 13Q137 5 124 3T97 0H-5Q-24 0 -24 12T-1 50L186 253Q195 263 197 270T195 287L66 503Q60 513 63 521T81 530H223Q238 530 246
524T258 508L321 394Q324 387 328 390T338 402L429 517Q436 526 443 528T466 530H578Q595 530 594 520T585 499L414 306Q405 296 403 290T405 272L544 34V34Z" />
<glyph unicode="y" horiz-adv-x="578" d="M36 -165Q8 -165 -3 -160T-12 -142L0 -52Q1 -46 10 -42T35 -37H104Q122 -37 137 -31T161 -16T175 5T176 27L48 499Q40 530 64 530H225Q242 530 245 516L305 248Q308 236 313 236T326 250L457 507Q463 520 470 525T485
530H585Q605 530 592 508L323 21Q291 -36 262 -72T200 -129T128 -157T36 -165V-165Z" />
<glyph unicode="z" horiz-adv-x="532" d="M6 0Q-7 0 -11 4T-13 22L-7 59Q-5 74 0 82T20 108L291 401Q297 408 295 414T278 420H81Q70 420 68 425T67 443L78 514Q79 522 86 526T100 530H527Q542 530 540 514L533 470Q532 460 526 452T510 431L235 134Q229 125 232
119T245 112H467Q486 112 483 94L473 19Q472 11 468 6T451 0H6V0Z" />
<glyph unicode="{" horiz-adv-x="387" d="M232 -165Q202 -165 172 -156T119 -131T83 -89T75 -30L103 172Q107 196 100 214T72 241T16 251Q9 251 5 257T1 274L8 324Q10 334 11 335T14 336Q73 337 103 360T139 429L166 618Q172 662 201 689T270 729T350 742H421Q429
742 433 737T436 725L426 652Q425 646 423 646T415 645H380Q349 645 334 636T313 614T305 586L277 390Q271 356 251 336T207 307T159 295Q150 294 145 292T144 288Q169 287 194 277T236 244T247 178L219 -20Q215 -48 225 -58T273 -68H305Q314 -68 319 -74T323 -88L313
-154Q312 -163 310 -164T299 -165H232V-165Z" />
<glyph unicode="|" horiz-adv-x="248" d="M29 -165Q16 -165 10 -155T5 -131L140 829Q142 842 146 844T161 847H245Q255 847 261 840T266 824L128 -154Q127 -161 124 -163T113 -165H29Z" />
<glyph unicode="}" horiz-adv-x="387" d="M-28 -165Q-35 -165 -39 -160T-42 -148L-32 -75Q-31 -69 -30 -69T-21 -68H14Q44 -68 59 -59T81 -37T89 -9L117 187Q124 222 143 241T187 270T235 282Q243 283 248 285T250 289Q225 290 200 300T159 333T147 399L175 597Q179
626 169 635T121 645H89Q80 645 75 651T71 665L81 731Q83 740 84 741T95 742H161Q192 742 222 733T275 708T311 666T319 607L291 405Q288 381 295 363T321 336T376 326Q384 326 389 320T392 303L384 253Q383 243 382 242T379 241Q320 240 291 217T255 148L228 -41Q222
-84 193 -111T124 -152T44 -165H-28V-165Z" />
<glyph unicode="~" horiz-adv-x="623" d="M582 364Q549 323 507 304T426 284Q393 284 369 294T325 318T284 342T240 352Q202 352 172 329T116 276Q110 275 105 279T97 290L68 351Q65 358 66 364T73 380Q119 415 158 438T243 461Q277 461 300 451T343 427T382 403T423
393Q458 393 486 414T535 463Q544 469 550 463T561 447L584 398Q591 384 582 364V364Z" />
<glyph unicode="&#xa0;" horiz-adv-x="203" />
<glyph unicode="&#xa1;" horiz-adv-x="271" d="M245 362Q244 353 241 351T230 349H74Q67 349 61 357T56 375L76 512Q78 524 81 527T99 530H234Q250 530 257 522T263 498L245 362V362ZM179 -151Q179 -160 176 -162T165 -165H-4Q-12 -165 -18 -157T-22 -139L79 263Q83
275 86 277T102 280H164Q179 280 186 272T192 250L179 -151V-151Z" />
<glyph unicode="&#xa2;" horiz-adv-x="558" d="M326 21Q324 8 319 4T298 0H238Q224 0 218 8T213 29L233 165Q234 178 239 182T260 186H321Q334 186 340 178T345 157L326 21V21ZM404 578Q403 564 397 560T376 556H316Q302 556 297 565T292 586L311 721Q313 735
318 738T338 742H399Q413 742 419 734T424 713L404 578V578ZM308 651Q378 651 423 625T493 560T520 480Q521 472 518 469T503 465L386 457Q379 456 376 462T371 480Q367 494 362 507T345 528T311 537Q273 537 248 515T208 457T185 384T178 315Q178 261 200 237T260
213Q305 213 332 234T385 296Q389 301 402 299L484 281Q491 280 494 273T492 251Q484 233 465 208T416 158T342 117T244 101Q171 101 117 130T32 213T2 338Q2 400 23 457T85 557T182 626T308 651V651Z" />
<glyph unicode="&#xa3;" horiz-adv-x="655" d="M-5 0Q-13 0 -18 7T-22 24L-6 137Q-4 145 -3 145T6 146H25Q64 146 92 169T128 244Q129 254 130 276T135 345Q134 347 132 346T126 345H42Q37 345 33 351T29 363L39 433Q40 439 41 439T48 439H110Q117 439 122 445T129
457L132 541Q134 594 157 634T217 700T301 739T396 752Q446 752 494 736T578 684T629 595Q632 591 631 589T623 585L496 549Q490 548 484 553T476 567Q468 586 456 599T419 613Q398 613 381 603T352 575T336 531Q335 516 335 493T334 441Q335 439 344 439H464Q469
439 473 434T477 424L467 351Q466 345 465 345T459 345H355Q347 345 342 339T335 325Q331 300 327 278T315 232Q309 215 301 202T283 176T263 154Q254 150 253 149T258 147H356Q398 147 426 165T471 223Q476 227 479 226T492 223L599 201Q608 199 613 191T616 169Q582
86 515 43T357 0H-5V0Z" />
<glyph unicode="&#xa4;" horiz-adv-x="588" d="M285 137Q250 137 221 146T170 175Q161 175 156 171T148 164L86 110Q81 106 77 109T68 119L22 171Q18 176 17 180T19 189L82 244Q91 253 90 268Q80 291 75 318T74 382Q79 411 89 439T118 498Q129 504 125 510L78
564Q75 568 73 573T74 584L135 636Q140 641 144 638T153 630L201 575Q204 571 208 575T215 584Q245 595 276 602T333 609Q369 609 399 599T452 570Q459 572 462 575T468 581L528 633Q532 635 534 631T537 625L589 564Q591 561 593 558T594 552L532 500Q526 494
525 484Q539 460 544 430T544 363Q540 335 528 304T495 242Q493 244 492 243T490 240L535 187Q538 184 540 181T541 174L473 115Q470 112 467 115T462 122L417 175Q414 177 411 173T405 164Q375 152 345 145T285 137V137ZM285 250Q322 250 354 268T407 317T434
383Q438 413 427 439T391 480T333 496Q297 496 265 478T211 429T185 363Q181 333 192 307T227 266T285 250V250Z" />
<glyph unicode="&#xa5;" horiz-adv-x="675" d="M739 742Q751 742 756 734T755 716L466 336Q459 326 455 315T447 275L411 21Q409 7 403 4T381 0H234Q220 0 215 8T210 28L247 295Q249 310 248 317T243 335L61 721Q56 732 58 737T75 742H252Q266 742 271 736T281
718L383 477Q386 468 390 472T400 485L569 727Q577 739 582 740T601 742H739V742ZM600 290Q598 276 592 273T571 270H120Q106 270 101 278T96 297L103 346Q105 356 108 359T119 362H590Q597 362 602 355T607 339L600 290ZM577 124Q575 110 569 107T548 104H96Q83
104 78 112T73 132L80 181Q82 191 84 193T95 196H567Q574 196 579 189T584 173L577 124Z" />
<glyph unicode="&#xa6;" horiz-adv-x="248" d="M112 426Q98 426 92 435T88 460L140 829Q142 842 146 844T161 847H245Q255 847 261 840T266 824L212 437Q211 430 208 428T195 426H112ZM29 -165Q16 -165 10 -155T5 -131L57 238Q58 252 62 254T78 256H162Q172 256
178 249T183 233L128 -154Q127 -161 124 -163T113 -165H29Z" />
<glyph unicode="&#xa7;" horiz-adv-x="511" d="M398 217Q439 193 456 161T466 83Q459 34 429 -3T345 -62T217 -83Q124 -83 68 -50T-4 24Q-12 35 -12 39T-8 45L81 84Q90 89 94 83T103 67Q120 51 144 37T213 22Q252 22 279 36T309 79Q312 93 301 105T250 132L180
160Q98 193 62 233T36 339Q42 383 68 415T139 469Q115 486 101 505T82 547T81 596Q87 640 116 675T195 731T309 752Q390 752 443 720T511 648Q518 637 518 633T514 627L426 588Q417 584 412 590T404 605Q386 620 366 633T314 647Q282 647 261 632T237 595Q235 585
242 577T279 556L347 529Q431 495 467 454T494 347Q488 304 464 273T398 217V217ZM285 275Q303 273 317 281T340 304T351 334Q352 343 350 352T335 373T290 396L251 410Q230 409 215 399T190 375T178 345Q176 329 187 319T240 291L285 275V275Z" />
<glyph unicode="&#xa8;" horiz-adv-x="397" d="M215 622Q214 610 209 608T189 605H82Q70 605 66 613T62 631L76 729Q77 738 79 740T89 742H213Q221 742 225 735T229 720L215 622ZM437 622Q436 610 431 608T412 605H305Q292 605 288 613T284 631L298 729Q300 738
302 740T311 742H435Q443 742 447 735T451 720L437 622Z" />
<glyph unicode="&#xa9;" horiz-adv-x="830" d="M383 -10Q302 -10 237 20T125 104T59 228T50 381Q61 458 99 525T195 643T326 723T476 752Q556 752 622 722T734 638T800 513T809 361Q798 283 760 216T663 98T532 19T383 -10V-10ZM383 83Q446 83 501 104T599 164T671
258T709 381Q718 445 706 496T662 583T585 640T477 660Q413 660 358 639T259 577T188 483T150 361Q141 297 153 246T196 158T274 103T383 83V83ZM456 585Q510 585 545 565T599 513T621 450Q624 445 623 444T614 441L518 434Q513 433 509 439T506 454Q502 469 495
482T461 496Q438 496 418 482T384 438T363 364Q354 300 370 275T420 249Q456 249 477 269T518 320Q520 320 522 318T530 314L593 300Q606 298 600 276Q594 262 580 242T542 204T485 173T410 161Q348 161 304 189T238 267T225 381Q234 442 266 488T348 559T456 585V585Z"
/>
<glyph unicode="&#xaa;" horiz-adv-x="387" d="M250 752Q308 752 340 738T383 699T390 642L366 469Q364 456 364 446T365 420Q368 414 361 414T341 414H274Q265 414 262 420T259 433L258 442Q258 447 255 443T245 431Q218 419 199 414T157 408Q102 408 76 437T56
513Q63 560 109 587T245 619L265 620Q272 621 277 626T283 637L284 646Q287 666 280 674T252 682Q234 682 216 673T186 641Q182 640 181 642T172 645L100 661Q97 663 95 671T94 687Q117 719 150 735T250 752V752ZM164 500Q162 488 170 482T197 476Q212 476 225
482T246 498Q253 500 259 506T267 520L272 557Q273 563 273 563T264 563L245 561Q228 560 211 552T180 531T164 500V500Z" />
<glyph unicode="&#xab;" horiz-adv-x="500" d="M421 70Q423 63 422 63T410 62H345Q340 62 336 67T331 76L255 242Q251 252 251 261T256 280L380 456Q385 462 387 462T395 461H461Q468 461 473 455T475 441L385 265Q382 258 380 253T378 241L421 70ZM218 70Q220
63 219 63T207 62H143Q138 62 134 67T129 76L53 242Q49 252 49 261T53 280L178 456Q182 462 184 462T192 461H259Q266 461 271 455T273 441L182 265Q179 258 177 253T176 241L218 70Z" />
<glyph unicode="&#xac;" horiz-adv-x="592" d="M558 330Q557 316 551 313T529 310H77Q64 310 59 318T55 338L66 421Q68 431 71 434T82 437H553Q561 437 566 430T571 413L558 330ZM536 169Q535 157 531 154T511 151H416Q404 151 399 158T394 177L422 379Q424 389
427 390T436 392H549Q556 392 560 385T564 370L536 169Z" />
<glyph unicode="&#xad;" horiz-adv-x="380" d="M548 220Q546 207 540 204T519 200H282Q269 200 264 208T259 228L270 311Q272 321 275 323T287 326L543 327Q550 327 555 319T560 303L548 220Z" />
<glyph unicode="&#xae;" horiz-adv-x="545" d="M281 275Q213 275 162 308T86 398T70 523Q79 587 117 639T212 721T334 752Q402 752 452 718T528 628T544 503Q535 440 497 388T402 306T281 275V275ZM276 341Q328 341 370 363T440 427T475 523Q482 573 468 609T421
665T339 686Q287 686 244 663T175 599T139 503Q129 428 166 385T276 341V341ZM396 399Q397 395 397 395T394 394H337Q335 394 332 397T329 405L311 494Q310 496 309 495T303 494H280Q278 494 275 490T270 485L259 397Q258 393 258 393T252 394H203Q199 394 196
398T194 406L225 629Q226 632 225 631T227 630H335Q379 630 403 610T422 555Q420 536 407 522T378 500Q375 501 373 499T369 494L396 399V399ZM319 538Q333 538 344 548T356 572Q357 580 351 583T331 586H295Q292 586 289 583T284 575L279 540Q278 536 278 537T280
538H319V538Z" />
<glyph unicode="&#xaf;" horiz-adv-x="409" d="M452 644Q451 633 446 631T427 628H85Q73 628 69 635T65 653L75 726Q76 735 78 737T87 739H448Q455 739 459 732T463 718L452 644Z" />
<glyph unicode="&#xb0;" horiz-adv-x="464" d="M466 670Q460 620 433 582T363 523T272 502Q220 502 181 526T124 592T114 689Q121 739 148 777T217 836T308 857Q360 857 398 833T455 767T466 670V670ZM367 688Q371 720 355 739T307 758Q269 758 243 733T211 669Q206
637 222 618T271 598Q308 598 334 623T367 688V688Z" />
<glyph unicode="&#xb1;" horiz-adv-x="592" d="M519 44Q517 31 511 28T490 24H37Q24 24 19 32T14 52L26 136Q28 146 31 148T42 151H514Q521 151 526 144T530 128L519 44ZM572 422Q570 408 564 405T543 402L91 401Q77 401 72 409T67 429L79 513Q81 523 84 525T95
528H567Q574 528 579 521T583 505L572 422ZM255 213Q242 213 236 222T231 248L295 700Q297 713 300 715T316 718H400Q410 718 416 711T421 696L355 224Q354 217 351 215T339 213H255Z" />
<glyph unicode="&#xb2;" horiz-adv-x="452" d="M167 591Q213 626 238 648T274 687T285 720Q285 742 272 753T234 765Q208 765 182 748T136 695Q132 689 126 693L46 738Q39 742 51 757Q85 805 135 831T244 857Q295 857 331 841T388 797T408 728Q408 694 396 669T360
621T303 576L187 496Q182 493 182 491T186 488H366Q379 488 378 477L367 393Q366 389 364 387T354 384H13Q-5 384 -3 401L5 458Q7 463 12 469T42 494L167 591Z" />
<glyph unicode="&#xb3;" horiz-adv-x="467" d="M76 781Q73 783 74 787T79 796Q109 822 156 839T253 857Q334 857 379 826T424 744Q424 705 397 675T332 632Q329 631 329 629T332 625Q367 616 387 590T408 530Q408 478 381 444T305 394T193 378Q150 378 115 389T56
420T17 465Q12 475 16 478L81 521Q89 526 93 520Q118 492 141 479T198 466Q235 466 259 484T284 532Q284 546 276 557T252 574T217 580L158 581Q150 581 151 588L160 662Q161 668 171 668L214 669Q238 670 257 678T287 702T299 734Q299 751 285 761T247 771Q217
771 194 759T140 725Q134 719 128 725L76 781V781Z" />
<glyph unicode="&#xb4;" horiz-adv-x="313" d="M356 662Q358 651 356 646T340 636L99 577Q88 574 82 579T73 594L65 633Q61 649 69 653L320 750Q326 753 331 751T339 736L356 662Z" />
<glyph unicode="&#xb5;" horiz-adv-x="597" d="M252 116Q281 116 307 132T355 169L405 509Q407 523 413 526T434 530H560Q573 530 579 522T584 501L512 15Q511 6 508 3T496 0H357Q350 0 345 7T340 24L347 71Q348 76 343 75T331 63Q312 42 294 29T257 8T221 -5Q205
-7 196 -11T181 -19L163 -144Q161 -158 156 -161T134 -165H11Q-3 -165 -9 -157T-14 -137L77 508Q79 522 84 526T104 530H233Q245 530 250 522T254 501L207 168Q204 151 209 140T225 122T252 116V116Z" />
<glyph unicode="&#xb6;" horiz-adv-x="618" d="M579 644Q573 644 568 638T561 626L462 -74Q461 -80 460 -82T451 -85H375Q366 -85 361 -78T357 -63L456 638Q457 643 456 643T448 644H409Q404 644 398 638T391 626L292 -75Q291 -81 290 -83T281 -85H203Q197 -85
192 -79T188 -64L240 305Q240 309 240 309T237 311Q184 315 141 341T76 415T63 533Q72 592 105 639T195 714T330 742H625Q632 742 636 737T639 725L629 650Q628 644 627 644T619 644H579Z" />
<glyph unicode="&#xb7;" horiz-adv-x="264" d="M222 310Q221 297 216 294T197 291H74Q62 291 56 298T52 317L69 443Q71 453 74 454T83 456H225Q232 456 236 450T239 434L222 310Z" />
<glyph unicode="&#xb8;" horiz-adv-x="274" d="M206 -146Q201 -183 162 -202T74 -222Q40 -222 10 -215T-42 -192Q-49 -191 -52 -187T-53 -179L-32 -140Q-30 -136 -28 -140T-25 -147Q-8 -153 10 -158T46 -163Q71 -163 88 -152T107 -124Q109 -109 93 -101T30 -93Q20
-93 15 -89T13 -78L64 5H140L114 -50Q111 -54 110 -54T110 -54Q149 -54 171 -68T201 -103T206 -146V-146Z" />
<glyph unicode="&#xb9;" horiz-adv-x="367" d="M273 472Q284 472 283 462L273 389Q272 380 260 380H-2Q-15 380 -12 391L-3 465Q-2 472 9 472H71Q79 472 80 482L112 717Q114 722 106 721L45 706Q30 701 31 717L39 771Q41 778 42 780T51 785L166 840Q177 844 183
845T197 847H248Q259 847 256 835L206 478Q205 472 211 472H273V472Z" />
<glyph unicode="&#xba;" horiz-adv-x="395" d="M258 752Q312 752 348 728T402 663T411 568Q405 521 379 485T314 428T224 408Q172 408 135 431T81 495T72 588Q79 638 105 674T171 731T258 752V752ZM262 680Q230 680 211 653T183 571Q176 524 184 503T220 481Q253
481 273 509T301 591Q307 638 298 659T262 680V680Z" />
<glyph unicode="&#xbb;" horiz-adv-x="500" d="M114 249Q117 256 118 261T119 273L78 450Q77 458 78 459T87 461H153Q163 461 168 447L243 271Q247 262 248 253T242 233L119 67Q116 64 113 63T105 62H41Q31 62 26 67T23 79L114 249V249ZM316 249Q319 256 321 261T322
273L281 450Q280 458 281 459T289 461H356Q366 461 370 447L446 271Q450 262 450 253T444 233L321 67Q319 64 316 63T308 62H243Q234 62 229 67T225 79L316 249V249Z" />
<glyph unicode="&#xbc;" horiz-adv-x="957" d="M322 368Q333 368 332 358L322 285Q321 276 309 276H47Q34 276 37 287L46 361Q47 368 58 368H120Q128 368 129 378L161 613Q163 618 155 617L94 602Q79 597 80 613L88 667Q90 674 91 676T100 681L215 736Q226 740
232 741T246 743H297Q308 743 305 731L255 374Q254 368 260 368H322V368ZM261 3Q256 -4 251 -4T235 -4L188 -3Q173 -3 170 9T173 32L746 743Q754 752 759 751T771 750H831Q838 750 844 744T844 727L261 3ZM737 455Q744 463 749 465T766 467H860Q872 467 869 455L832
194Q832 190 837 190H889Q900 190 900 180L890 114Q889 109 887 107T877 105H827Q819 105 819 96L808 13Q807 5 804 3T790 0H694Q678 0 679 13L691 100Q692 105 686 105H499Q486 105 487 116L496 180Q497 187 501 194T516 214L737 455V455ZM697 190Q706 190 706
198L725 334Q727 340 725 340T717 333L598 197Q592 190 599 190H697Z" />
<glyph unicode="&#xbd;" horiz-adv-x="1007" d="M332 368Q343 368 342 358L332 285Q331 276 319 276H57Q44 276 47 287L56 361Q57 368 68 368H130Q138 368 139 378L171 613Q173 618 165 617L104 602Q89 597 90 613L98 667Q100 674 101 676T110 681L225 736Q236
740 242 741T256 743H307Q318 743 315 731L265 374Q264 368 270 368H332V368ZM238 3Q233 -4 228 -4T212 -4L165 -3Q150 -3 147 9T150 32L723 743Q731 752 736 751T748 750H808Q815 750 821 744T821 727L238 3ZM709 207Q755 242 780 264T816 303T827 336Q827 358
814 369T776 381Q750 381 724 364T678 311Q674 305 668 309L588 354Q581 358 593 373Q627 421 677 447T786 473Q837 473 873 457T930 413T950 344Q950 310 938 285T902 237T845 192L729 112Q724 109 724 107T728 104H908Q921 104 920 93L909 9Q908 5 906 3T896
0H555Q537 0 539 17L547 74Q549 79 554 85T584 110L709 207Z" />
<glyph unicode="&#xbe;" horiz-adv-x="1038" d="M98 676Q95 678 96 682T101 691Q131 717 178 734T275 752Q356 752 401 721T446 639Q446 600 419 570T354 527Q351 526 351 524T354 520Q389 511 409 485T430 425Q430 373 403 339T327 289T215 273Q172 273 137 284T78
315T39 360Q34 370 38 373L103 416Q111 421 115 415Q140 387 163 374T220 361Q257 361 281 379T306 427Q306 441 298 452T274 469T239 475L180 476Q172 476 173 483L182 557Q183 563 193 563L236 564Q260 565 279 573T309 597T321 629Q321 646 307 656T269 666Q239
666 216 654T162 620Q156 614 150 620L98 676V676ZM320 3Q315 -4 310 -4T294 -4L247 -3Q232 -3 229 9T232 32L805 743Q813 752 818 751T830 750H890Q897 750 903 744T903 727L320 3ZM822 455Q829 463 834 465T851 467H945Q957 467 954 455L917 194Q917 190 922
190H974Q985 190 985 180L975 114Q974 109 972 107T962 105H912Q904 105 904 96L893 13Q892 5 889 3T875 0H779Q763 0 764 13L776 100Q777 105 771 105H584Q571 105 572 116L581 180Q582 187 586 194T601 214L822 455V455ZM782 190Q791 190 791 198L810 334Q812
340 810 340T802 333L683 197Q677 190 684 190H782Z" />
<glyph unicode="&#xbf;" horiz-adv-x="539" d="M227 509Q229 523 235 526T257 530H392Q406 530 412 522T416 502L397 364Q396 354 393 352T381 349H225Q218 349 213 356T208 373L227 509ZM488 7Q496 5 498 -5T498 -26Q454 -100 384 -137T220 -175Q134 -175 80
-150T3 -83T-13 8Q-8 45 10 71T52 116T104 152T155 185T197 223T218 274Q220 286 239 286H333Q344 286 351 276T355 250Q349 208 329 178T282 126T228 84T182 45T160 -2Q157 -25 175 -39T224 -53Q250 -53 274 -43T320 -13T354 32Q360 37 359 36T368 32L488 7Z"
/>
<glyph unicode="&#xc0;" horiz-adv-x="785" d="M0 0Q-10 0 -11 9T-2 38L341 725Q346 736 355 739T376 742H550Q563 742 567 733T574 713L721 26Q723 17 721 9T707 0H535Q521 0 517 20L490 148Q489 157 478 157H252Q241 157 235 145L167 9Q164 4 161 2T146 0H0V0ZM453
309Q469 309 464 328L421 525Q420 535 415 535T405 526L306 324Q303 315 304 312T314 309H453ZM362 952Q365 960 371 962T383 961L604 861Q612 858 614 853T614 840L594 797Q591 790 586 789T569 791L345 849Q330 853 327 858T328 874L362 952V952Z" />
<glyph unicode="&#xc1;" horiz-adv-x="785" d="M0 0Q-10 0 -11 9T-2 38L341 725Q346 736 355 739T376 742H550Q563 742 567 733T574 713L721 26Q723 17 721 9T707 0H535Q521 0 517 20L490 148Q489 157 478 157H252Q241 157 235 145L167 9Q164 4 161 2T146 0H0V0ZM453
309Q469 309 464 328L421 525Q420 535 415 535T405 526L306 324Q303 315 304 312T314 309H453ZM619 874Q621 863 619 858T603 848L362 789Q351 786 345 791T336 806L328 845Q324 861 332 865L583 962Q589 965 594 963T602 948L619 874Z" />
<glyph unicode="&#xc2;" horiz-adv-x="785" d="M0 0Q-10 0 -11 9T-2 38L341 725Q346 736 355 739T376 742H550Q563 742 567 733T574 713L721 26Q723 17 721 9T707 0H535Q521 0 517 20L490 148Q489 157 478 157H252Q241 157 235 145L167 9Q164 4 161 2T146 0H0V0ZM453
309Q469 309 464 328L421 525Q420 535 415 535T405 526L306 324Q303 315 304 312T314 309H453ZM491 880Q484 890 480 890T464 881L405 824Q398 817 393 816T379 814H285Q276 814 276 820T281 831L409 952Q417 959 424 961T445 963H529Q539 963 544 957T553 947L646
827Q653 818 650 816T637 814H549Q540 814 536 817T528 827L491 880Z" />
<glyph unicode="&#xc3;" horiz-adv-x="785" d="M0 0Q-10 0 -11 9T-2 38L341 725Q346 736 355 739T376 742H550Q563 742 567 733T574 713L721 26Q723 17 721 9T707 0H535Q521 0 517 20L490 148Q489 157 478 157H252Q241 157 235 145L167 9Q164 4 161 2T146 0H0V0ZM453
309Q469 309 464 328L421 525Q420 535 415 535T405 526L306 324Q303 315 304 312T314 309H453ZM652 849Q634 842 609 835T555 827Q525 827 500 835T453 850T405 857Q381 857 367 848T329 827Q320 822 315 828T307 845L298 894Q297 901 294 909T304 925Q324 938
346 947T399 956Q431 956 458 948T509 932T554 923Q571 923 584 930T610 945T633 956Q644 958 650 952T658 936L663 878Q664 870 664 862T652 849V849Z" />
<glyph unicode="&#xc4;" horiz-adv-x="785" d="M0 0Q-10 0 -11 9T-2 38L341 725Q346 736 355 739T376 742H550Q563 742 567 733T574 713L721 26Q723 17 721 9T707 0H535Q521 0 517 20L490 148Q489 157 478 157H252Q241 157 235 145L167 9Q164 4 161 2T146 0H0V0ZM453
309Q469 309 464 328L421 525Q420 535 415 535T405 526L306 324Q303 315 304 312T314 309H453ZM435 834Q434 822 429 820T409 817H302Q290 817 286 825T282 843L296 941Q297 950 299 952T309 954H433Q441 954 445 947T449 932L435 834ZM657 834Q656 822 651 820T632
817H525Q512 817 508 825T504 843L518 941Q520 950 522 952T531 954H655Q663 954 667 947T671 932L657 834Z" />
<glyph unicode="&#xc5;" horiz-adv-x="785" d="M0 0Q-10 0 -11 9T-2 38L341 725Q346 736 355 739T376 742H550Q563 742 567 733T574 713L721 26Q723 17 721 9T707 0H535Q521 0 517 20L490 148Q489 157 478 157H252Q241 157 235 145L167 9Q164 4 161 2T146 0H0V0ZM453
309Q469 309 464 328L421 525Q420 535 415 535T405 526L306 324Q303 315 304 312T314 309H453ZM584 836Q577 791 542 761T461 731Q428 731 403 748T365 794T357 858Q363 901 398 930T478 959Q512 959 537 943T575 898T584 836V836ZM520 855Q522 873 512 883T483
894Q461 894 441 877T417 835Q415 818 426 807T454 795Q478 795 497 813T520 855V855Z" />
<glyph unicode="&#xc6;" horiz-adv-x="1101" d="M1025 147Q1036 147 1041 141T1045 124L1030 15Q1029 6 1026 3T1010 0H494Q480 0 474 8T469 28L487 149Q488 156 488 156T479 157H271Q265 157 259 152T251 142L164 9Q158 0 140 0H6Q-4 0 -8 11T-4 38L456 725Q464
736 469 739T487 742H1103Q1111 742 1116 735T1119 718L1104 614Q1103 603 1099 599T1081 595H776Q766 595 758 589T748 572L733 459Q732 450 734 448T743 445H935Q945 445 951 438T955 421L939 311Q938 304 937 303T925 301H729Q722 301 715 295T707 282L690 155Q689
147 689 147T697 147H1025V147ZM488 309Q497 309 504 316T513 333L545 560Q547 581 535 577T510 552L357 324Q350 314 349 312T355 309H488V309Z" />
<glyph unicode="&#xc7;" horiz-adv-x="731" d="M445 752Q528 752 590 721T687 637T725 517Q726 495 709 494L558 485Q544 484 542 513Q538 557 517 585T445 613Q400 613 368 591T313 531T279 449T261 359T255 276Q255 201 282 169T364 137Q420 137 466 165T544
259Q551 274 572 268L693 239Q704 236 692 204Q686 188 669 161T624 105T557 49T466 7T351 -10Q256 -10 188 31T85 144T49 311Q49 381 65 445T113 565T192 663T303 728T445 752V752ZM454 -146Q449 -183 410 -202T322 -222Q288 -222 258 -215T206 -192Q199 -191
196 -187T195 -179L216 -140Q218 -136 220 -140T223 -147Q240 -153 258 -158T294 -163Q319 -163 336 -152T355 -124Q357 -109 341 -101T278 -93Q268 -93 263 -89T261 -78L312 5H388L362 -50Q359 -54 358 -54T358 -54Q397 -54 419 -68T449 -103T454 -146V-146Z"
/>
<glyph unicode="&#xc8;" horiz-adv-x="663" d="M126 726Q128 736 130 739T142 742H668Q685 742 681 718L666 614Q665 603 661 599T643 595H325Q316 595 313 592T307 578L290 459Q289 450 291 448T301 445H504Q514 445 516 442T516 429L500 313Q499 301 485 301H279Q268
301 265 285L247 159Q246 147 254 147H594Q604 147 606 144T607 129L592 15Q591 6 588 3T572 0H49Q24 0 27 28L126 726V726ZM310 952Q313 960 319 962T331 961L552 861Q560 858 562 853T562 840L542 797Q539 790 534 789T517 791L293 849Q278 853 275 858T276 874L310
952V952Z" />
<glyph unicode="&#xc9;" horiz-adv-x="663" d="M126 726Q128 736 130 739T142 742H668Q685 742 681 718L666 614Q665 603 661 599T643 595H325Q316 595 313 592T307 578L290 459Q289 450 291 448T301 445H504Q514 445 516 442T516 429L500 313Q499 301 485 301H279Q268
301 265 285L247 159Q246 147 254 147H594Q604 147 606 144T607 129L592 15Q591 6 588 3T572 0H49Q24 0 27 28L126 726V726ZM567 874Q569 863 567 858T551 848L310 789Q299 786 293 791T284 806L276 845Q272 861 280 865L531 962Q537 965 542 963T550 948L567 874Z"
/>
<glyph unicode="&#xca;" horiz-adv-x="663" d="M126 726Q128 736 130 739T142 742H668Q685 742 681 718L666 614Q665 603 661 599T643 595H325Q316 595 313 592T307 578L290 459Q289 450 291 448T301 445H504Q514 445 516 442T516 429L500 313Q499 301 485 301H279Q268
301 265 285L247 159Q246 147 254 147H594Q604 147 606 144T607 129L592 15Q591 6 588 3T572 0H49Q24 0 27 28L126 726V726ZM439 880Q432 890 428 890T412 881L353 824Q346 817 341 816T327 814H233Q224 814 224 820T229 831L357 952Q365 959 372 961T393 963H477Q487
963 492 957T501 947L594 827Q601 818 598 816T585 814H497Q488 814 484 817T476 827L439 880Z" />
<glyph unicode="&#xcb;" horiz-adv-x="663" d="M126 726Q128 736 130 739T142 742H668Q685 742 681 718L666 614Q665 603 661 599T643 595H325Q316 595 313 592T307 578L290 459Q289 450 291 448T301 445H504Q514 445 516 442T516 429L500 313Q499 301 485 301H279Q268
301 265 285L247 159Q246 147 254 147H594Q604 147 606 144T607 129L592 15Q591 6 588 3T572 0H49Q24 0 27 28L126 726V726ZM383 834Q382 822 377 820T357 817H250Q238 817 234 825T230 843L244 941Q245 950 247 952T257 954H381Q389 954 393 947T397 932L383 834ZM605
834Q604 822 599 820T580 817H473Q460 817 456 825T452 843L466 941Q468 950 470 952T479 954H603Q611 954 615 947T619 932L605 834Z" />
<glyph unicode="&#xcc;" horiz-adv-x="323" d="M313 742Q329 742 326 717L228 21Q226 7 221 4T199 0H46Q31 0 29 8T27 28L126 726Q128 736 131 739T142 742H313ZM136 952Q139 960 145 962T157 961L378 861Q386 858 388 853T388 840L368 797Q365 790 360 789T343
791L119 849Q104 853 101 858T102 874L136 952V952Z" />
<glyph unicode="&#xcd;" horiz-adv-x="323" d="M313 742Q329 742 326 717L228 21Q226 7 221 4T199 0H46Q31 0 29 8T27 28L126 726Q128 736 131 739T142 742H313ZM392 874Q394 863 392 858T376 848L135 789Q124 786 118 791T109 806L101 845Q97 861 105 865L356
962Q362 965 367 963T375 948L392 874Z" />
<glyph unicode="&#xce;" horiz-adv-x="323" d="M313 742Q329 742 326 717L228 21Q226 7 221 4T199 0H46Q31 0 29 8T27 28L126 726Q128 736 131 739T142 742H313ZM264 880Q257 890 253 890T237 881L178 824Q171 817 166 816T152 814H58Q49 814 49 820T54 831L182
952Q190 959 197 961T218 963H302Q312 963 317 957T326 947L419 827Q426 818 423 816T410 814H322Q313 814 309 817T301 827L264 880Z" />
<glyph unicode="&#xcf;" horiz-adv-x="323" d="M313 742Q329 742 326 717L228 21Q226 7 221 4T199 0H46Q31 0 29 8T27 28L126 726Q128 736 131 739T142 742H313ZM208 834Q207 822 202 820T182 817H75Q63 817 59 825T55 843L69 941Q70 950 72 952T82 954H206Q214
954 218 947T222 932L208 834ZM430 834Q429 822 424 820T405 817H298Q285 817 281 825T277 843L291 941Q293 950 295 952T304 954H428Q436 954 440 947T444 932L430 834Z" />
<glyph unicode="&#xd0;" horiz-adv-x="742" d="M408 322Q406 308 400 305T378 301H38Q24 301 19 309T14 330L26 413Q28 423 31 426T42 429H403Q410 429 415 421T419 405L408 322ZM34 0Q20 0 13 9T8 33L105 725Q107 736 111 739T128 742H359Q480 742 561 703T683
595T724 434Q724 303 669 205T514 54T275 0H34V0ZM298 141Q374 141 421 181T491 290T514 445Q514 498 497 532T446 584T366 601H307Q290 601 287 582L229 159Q228 150 231 146T242 141H298Z" />
<glyph unicode="&#xd1;" horiz-adv-x="760" d="M753 742Q767 742 765 727L664 12Q663 0 645 0H525Q518 0 513 4T502 18L261 427Q258 432 254 431T248 420L191 17Q190 7 186 4T169 0H41Q31 0 28 7T26 24L126 726Q128 736 131 739T144 742H287Q298 742 304 737T316
721L531 348Q536 339 542 340T549 353L602 728Q604 737 607 739T620 742H753ZM646 849Q628 842 603 835T549 827Q519 827 494 835T447 850T399 857Q375 857 361 848T323 827Q314 822 309 828T301 845L292 894Q291 901 288 909T298 925Q318 938 340 947T393 956Q425
956 452 948T503 932T548 923Q565 923 578 930T604 945T627 956Q638 958 644 952T652 936L657 878Q658 870 658 862T646 849V849Z" />
<glyph unicode="&#xd2;" horiz-adv-x="777" d="M358 -10Q260 -10 191 27T85 135T48 301Q48 319 49 339T53 378Q70 494 124 577T262 706T450 752Q546 752 615 714T721 604T758 435Q758 418 757 399T753 359Q737 246 683 163T546 35T358 -10V-10ZM363 130Q439 130
482 188T544 376Q548 405 549 429T551 475Q551 548 526 580T446 613Q370 613 326 552T262 357Q258 329 257 306T255 262Q255 192 281 161T363 130V130ZM362 952Q365 960 371 962T383 961L604 861Q612 858 614 853T614 840L594 797Q591 790 586 789T569 791L345
849Q330 853 327 858T328 874L362 952V952Z" />
<glyph unicode="&#xd3;" horiz-adv-x="777" d="M358 -10Q260 -10 191 27T85 135T48 301Q48 319 49 339T53 378Q70 494 124 577T262 706T450 752Q546 752 615 714T721 604T758 435Q758 418 757 399T753 359Q737 246 683 163T546 35T358 -10V-10ZM363 130Q439 130
482 188T544 376Q548 405 549 429T551 475Q551 548 526 580T446 613Q370 613 326 552T262 357Q258 329 257 306T255 262Q255 192 281 161T363 130V130ZM618 874Q620 863 618 858T602 848L361 789Q350 786 344 791T335 806L327 845Q323 861 331 865L582 962Q588
965 593 963T601 948L618 874Z" />
<glyph unicode="&#xd4;" horiz-adv-x="777" d="M358 -10Q260 -10 191 27T85 135T48 301Q48 319 49 339T53 378Q70 494 124 577T262 706T450 752Q546 752 615 714T721 604T758 435Q758 418 757 399T753 359Q737 246 683 163T546 35T358 -10V-10ZM363 130Q439 130
482 188T544 376Q548 405 549 429T551 475Q551 548 526 580T446 613Q370 613 326 552T262 357Q258 329 257 306T255 262Q255 192 281 161T363 130V130ZM490 880Q483 890 479 890T463 881L404 824Q397 817 392 816T378 814H284Q275 814 275 820T280 831L408 952Q416
959 423 961T444 963H528Q538 963 543 957T552 947L645 827Q652 818 649 816T636 814H548Q539 814 535 817T527 827L490 880Z" />
<glyph unicode="&#xd5;" horiz-adv-x="777" d="M358 -10Q260 -10 191 27T85 135T48 301Q48 319 49 339T53 378Q70 494 124 577T262 706T450 752Q546 752 615 714T721 604T758 435Q758 418 757 399T753 359Q737 246 683 163T546 35T358 -10V-10ZM363 130Q439 130
482 188T544 376Q548 405 549 429T551 475Q551 548 526 580T446 613Q370 613 326 552T262 357Q258 329 257 306T255 262Q255 192 281 161T363 130V130ZM652 849Q634 842 609 835T555 827Q525 827 500 835T453 850T405 857Q381 857 367 848T329 827Q320 822 315
828T307 845L298 894Q297 901 294 909T304 925Q324 938 346 947T399 956Q431 956 458 948T509 932T554 923Q571 923 584 930T610 945T633 956Q644 958 650 952T658 936L663 878Q664 870 664 862T652 849V849Z" />
<glyph unicode="&#xd6;" horiz-adv-x="777" d="M358 -10Q260 -10 191 27T85 135T48 301Q48 319 49 339T53 378Q70 494 124 577T262 706T450 752Q546 752 615 714T721 604T758 435Q758 418 757 399T753 359Q737 246 683 163T546 35T358 -10V-10ZM363 130Q439 130
482 188T544 376Q548 405 549 429T551 475Q551 548 526 580T446 613Q370 613 326 552T262 357Q258 329 257 306T255 262Q255 192 281 161T363 130V130ZM434 834Q433 822 428 820T408 817H301Q289 817 285 825T281 843L295 941Q296 950 298 952T308 954H432Q440
954 444 947T448 932L434 834ZM656 834Q655 822 650 820T631 817H524Q511 817 507 825T503 843L517 941Q519 950 521 952T530 954H654Q662 954 666 947T670 932L656 834Z" />
<glyph unicode="&#xd7;" horiz-adv-x="589" d="M455 141Q444 132 436 136T418 151L102 517Q94 527 93 534T101 550L168 609Q177 616 183 613T194 605L522 224Q527 220 528 213T523 201L455 141ZM61 202Q52 212 52 221T63 241L481 607Q492 617 499 613T512 601L564
542Q569 535 571 528T569 515L135 135Q128 130 123 134T112 143L61 202Z" />
<glyph unicode="&#xd8;" horiz-adv-x="775" d="M820 688Q825 683 827 677T822 663L729 585Q748 541 755 485T752 359Q736 246 683 163T546 35T357 -10Q285 -10 230 11T137 68L67 2Q55 -8 47 -5T29 9L-3 46Q-12 56 -14 63T-8 80L76 150Q57 195 50 252T52 378Q69
494 123 577T261 706T449 752Q522 752 578 730T672 668L749 742Q757 749 764 747T776 739L820 688V688ZM262 357Q260 344 260 330T259 301L538 555Q526 588 503 600T445 613Q369 613 325 552T262 357V357ZM542 376Q544 390 545 404T545 433L267 180Q281 152 304
141T362 130Q438 130 481 188T542 376V376Z" />
<glyph unicode="&#xd9;" horiz-adv-x="724" d="M674 279Q659 169 613 106T495 16T330 -10Q181 -10 117 51T52 227Q52 246 54 267T59 309L117 726Q119 736 122 739T133 742H301Q309 742 314 735T318 717L256 275Q255 263 254 253T252 232Q252 178 278 156T352 133Q390
133 422 148T478 197T509 289L571 726Q572 736 575 739T586 742H719Q727 742 732 735T736 717L674 279V279ZM351 952Q354 960 360 962T372 961L593 861Q601 858 603 853T603 840L583 797Q580 790 575 789T558 791L334 849Q319 853 316 858T317 874L351 952V952Z"
/>
<glyph unicode="&#xda;" horiz-adv-x="724" d="M674 279Q659 169 613 106T495 16T330 -10Q181 -10 117 51T52 227Q52 246 54 267T59 309L117 726Q119 736 122 739T133 742H301Q309 742 314 735T318 717L256 275Q255 263 254 253T252 232Q252 178 278 156T352 133Q390
133 422 148T478 197T509 289L571 726Q572 736 575 739T586 742H719Q727 742 732 735T736 717L674 279V279ZM607 874Q609 863 607 858T591 848L350 789Q339 786 333 791T324 806L316 845Q312 861 320 865L571 962Q577 965 582 963T590 948L607 874Z" />
<glyph unicode="&#xdb;" horiz-adv-x="724" d="M674 279Q659 169 613 106T495 16T330 -10Q181 -10 117 51T52 227Q52 246 54 267T59 309L117 726Q119 736 122 739T133 742H301Q309 742 314 735T318 717L256 275Q255 263 254 253T252 232Q252 178 278 156T352 133Q390
133 422 148T478 197T509 289L571 726Q572 736 575 739T586 742H719Q727 742 732 735T736 717L674 279V279ZM479 880Q472 890 468 890T452 881L393 824Q386 817 381 816T367 814H273Q264 814 264 820T269 831L397 952Q405 959 412 961T433 963H517Q527 963 532
957T541 947L634 827Q641 818 638 816T625 814H537Q528 814 524 817T516 827L479 880Z" />
<glyph unicode="&#xdc;" horiz-adv-x="724" d="M674 279Q659 169 613 106T495 16T330 -10Q181 -10 117 51T52 227Q52 246 54 267T59 309L117 726Q119 736 122 739T133 742H301Q309 742 314 735T318 717L256 275Q255 263 254 253T252 232Q252 178 278 156T352 133Q390
133 422 148T478 197T509 289L571 726Q572 736 575 739T586 742H719Q727 742 732 735T736 717L674 279V279ZM423 834Q422 822 417 820T397 817H290Q278 817 274 825T270 843L284 941Q285 950 287 952T297 954H421Q429 954 433 947T437 932L423 834ZM645 834Q644
822 639 820T620 817H513Q500 817 496 825T492 843L506 941Q508 950 510 952T519 954H643Q651 954 655 947T659 932L645 834Z" />
<glyph unicode="&#xdd;" horiz-adv-x="755" d="M782 742Q794 742 796 735T794 720L502 334Q495 325 491 314T483 274L447 21Q445 7 439 4T417 0H263Q250 0 247 5T245 22L283 294Q285 309 284 316T279 334L97 721Q92 732 94 737T111 742H288Q301 742 306 736T316
718L418 478Q423 466 431 478L605 727Q612 737 617 739T636 742H782V742ZM620 874Q622 863 620 858T604 848L363 789Q352 786 346 791T337 806L329 845Q325 861 333 865L584 962Q590 965 595 963T603 948L620 874Z" />
<glyph unicode="&#xde;" horiz-adv-x="733" d="M715 365Q706 295 666 247T561 173T416 148H261Q255 148 250 142T244 131L228 21Q226 7 221 4T200 0H51Q37 0 32 8T27 28L126 726Q128 736 131 739T142 742H309Q318 742 323 735T326 717L311 610Q310 604 310 604T316
604H449Q531 604 595 577T693 498T715 365V365ZM512 387Q518 424 494 442T425 461H315Q303 461 296 454T287 436L268 306Q267 296 268 294T278 291H399Q443 291 475 318T512 387V387Z" />
<glyph unicode="&#xdf;" horiz-adv-x="663" d="M402 742Q475 742 523 722T594 665T609 575Q605 542 588 517T539 471T456 429Q446 426 439 420T431 405Q430 404 432 401T441 393Q479 378 515 360T578 316T620 254T626 166Q618 108 585 69T501 10T383 -10Q340 -10
311 -1T264 22Q255 24 252 30T251 42L301 122Q305 128 309 125T316 115Q329 112 344 107T381 101Q413 101 438 118T468 167Q471 184 463 194T439 214T397 236Q367 248 343 267T307 314T300 382Q305 418 324 443T370 494Q388 506 405 519T435 547T450 584Q453 604
439 616T393 629Q346 629 317 601T282 530L209 16Q211 6 209 3T198 0H54Q46 0 41 7T36 24L86 375Q87 380 87 380T82 379H51Q42 379 36 386T31 402L43 486Q45 494 48 497T63 501H87Q96 501 101 509T108 527Q115 568 134 606T187 675T274 724T402 742V742Z" />
<glyph unicode="&#xe0;" horiz-adv-x="568" d="M308 44Q280 15 239 3T152 -10Q81 -10 42 27T3 122Q3 180 33 219T112 282T217 317T326 329L346 330Q365 330 368 349L371 368Q372 373 372 376T373 384Q373 408 359 420T316 432Q288 432 260 422T212 377Q209 371
205 370T189 370L76 394Q69 396 65 404T69 432Q102 489 168 514T325 540Q406 540 453 522T522 472T543 398Q543 391 543 384T541 369L492 19Q490 6 487 3T471 0H351Q339 0 336 8T331 29V48Q330 68 308 44V44ZM352 235Q354 244 353 246T343 247L319 245Q301 244
277 239T231 223T194 194T179 150Q179 130 192 117T233 104Q258 104 278 111T310 128Q323 138 333 151T344 176L352 235ZM236 740Q239 748 245 750T257 749L478 649Q486 646 488 641T488 628L468 585Q465 578 460 577T443 579L219 637Q204 641 201 646T202 662L236
740V740Z" />
<glyph unicode="&#xe1;" horiz-adv-x="568" d="M308 44Q280 15 239 3T152 -10Q81 -10 42 27T3 122Q3 180 33 219T112 282T217 317T326 329L346 330Q365 330 368 349L371 368Q372 373 372 376T373 384Q373 408 359 420T316 432Q288 432 260 422T212 377Q209 371
205 370T189 370L76 394Q69 396 65 404T69 432Q102 489 168 514T325 540Q406 540 453 522T522 472T543 398Q543 391 543 384T541 369L492 19Q490 6 487 3T471 0H351Q339 0 336 8T331 29V48Q330 68 308 44V44ZM352 235Q354 244 353 246T343 247L319 245Q301 244
277 239T231 223T194 194T179 150Q179 130 192 117T233 104Q258 104 278 111T310 128Q323 138 333 151T344 176L352 235ZM492 662Q494 651 492 646T476 636L235 577Q224 574 218 579T209 594L201 633Q197 649 205 653L456 750Q462 753 467 751T475 736L492 662Z"
/>
<glyph unicode="&#xe2;" horiz-adv-x="568" d="M308 44Q280 15 239 3T152 -10Q81 -10 42 27T3 122Q3 180 33 219T112 282T217 317T326 329L346 330Q365 330 368 349L371 368Q372 373 372 376T373 384Q373 408 359 420T316 432Q288 432 260 422T212 377Q209 371
205 370T189 370L76 394Q69 396 65 404T69 432Q102 489 168 514T325 540Q406 540 453 522T522 472T543 398Q543 391 543 384T541 369L492 19Q490 6 487 3T471 0H351Q339 0 336 8T331 29V48Q330 68 308 44V44ZM352 235Q354 244 353 246T343 247L319 245Q301 244
277 239T231 223T194 194T179 150Q179 130 192 117T233 104Q258 104 278 111T310 128Q323 138 333 151T344 176L352 235ZM365 668Q358 678 354 678T338 669L279 612Q272 605 267 604T253 602H159Q150 602 150 608T155 619L283 740Q291 747 298 749T319 751H403Q413
751 418 745T427 735L520 615Q527 606 524 604T511 602H423Q414 602 410 605T402 615L365 668Z" />
<glyph unicode="&#xe3;" horiz-adv-x="568" d="M308 44Q280 15 239 3T152 -10Q81 -10 42 27T3 122Q3 180 33 219T112 282T217 317T326 329L346 330Q365 330 368 349L371 368Q372 373 372 376T373 384Q373 408 359 420T316 432Q288 432 260 422T212 377Q209 371
205 370T189 370L76 394Q69 396 65 404T69 432Q102 489 168 514T325 540Q406 540 453 522T522 472T543 398Q543 391 543 384T541 369L492 19Q490 6 487 3T471 0H351Q339 0 336 8T331 29V48Q330 68 308 44V44ZM352 235Q354 244 353 246T343 247L319 245Q301 244
277 239T231 223T194 194T179 150Q179 130 192 117T233 104Q258 104 278 111T310 128Q323 138 333 151T344 176L352 235ZM526 637Q508 630 483 623T429 615Q399 615 374 623T327 638T279 645Q255 645 241 636T203 615Q194 610 189 616T181 633L172 682Q171 689
168 697T178 713Q198 726 220 735T273 744Q305 744 332 736T383 720T428 711Q445 711 458 718T484 733T507 744Q518 746 524 740T532 724L537 666Q538 658 538 650T526 637V637Z" />
<glyph unicode="&#xe4;" horiz-adv-x="568" d="M308 44Q280 15 239 3T152 -10Q81 -10 42 27T3 122Q3 180 33 219T112 282T217 317T326 329L346 330Q365 330 368 349L371 368Q372 373 372 376T373 384Q373 408 359 420T316 432Q288 432 260 422T212 377Q209 371
205 370T189 370L76 394Q69 396 65 404T69 432Q102 489 168 514T325 540Q406 540 453 522T522 472T543 398Q543 391 543 384T541 369L492 19Q490 6 487 3T471 0H351Q339 0 336 8T331 29V48Q330 68 308 44V44ZM352 235Q354 244 353 246T343 247L319 245Q301 244
277 239T231 223T194 194T179 150Q179 130 192 117T233 104Q258 104 278 111T310 128Q323 138 333 151T344 176L352 235ZM309 622Q308 610 303 608T283 605H176Q164 605 160 613T156 631L170 729Q171 738 173 740T183 742H307Q315 742 319 735T323 720L309 622ZM531
622Q530 610 525 608T506 605H399Q386 605 382 613T378 631L392 729Q394 738 396 740T405 742H529Q537 742 541 735T545 720L531 622Z" />
<glyph unicode="&#xe5;" horiz-adv-x="568" d="M308 44Q280 15 239 3T152 -10Q81 -10 42 27T3 122Q3 180 33 219T112 282T217 317T326 329L346 330Q365 330 368 349L371 368Q372 373 372 376T373 384Q373 408 359 420T316 432Q288 432 260 422T212 377Q209 371
205 370T189 370L76 394Q69 396 65 404T69 432Q102 489 168 514T325 540Q406 540 453 522T522 472T543 398Q543 391 543 384T541 369L492 19Q490 6 487 3T471 0H351Q339 0 336 8T331 29V48Q330 68 308 44V44ZM352 235Q354 244 353 246T343 247L319 245Q301 244
277 239T231 223T194 194T179 150Q179 130 192 117T233 104Q258 104 278 111T310 128Q323 138 333 151T344 176L352 235ZM466 681Q459 636 424 606T343 576Q310 576 285 593T247 639T239 703Q245 746 280 775T360 804Q394 804 419 788T457 743T466 681V681ZM402
700Q404 718 394 728T365 739Q343 739 323 722T299 680Q297 663 308 652T336 640Q360 640 379 658T402 700V700Z" />
<glyph unicode="&#xe6;" horiz-adv-x="916" d="M552 232Q544 232 538 225T529 204Q524 174 535 153T570 120T624 109Q648 109 669 116T711 139T755 177Q760 179 763 176T775 170L851 136Q858 133 861 126T858 107Q817 61 778 36T695 0T598 -10Q552 -10 515 2T449
36T401 83Q398 84 394 79T387 68Q355 42 321 25T247 -1T161 -10Q75 -10 35 35T5 152Q16 228 90 274T307 328L343 330Q349 330 357 335T367 349L370 368Q375 401 362 416T314 432Q287 432 259 418T211 370Q206 364 203 366T187 370L75 394Q69 396 67 408T68 432Q93
468 124 492T203 528T321 540Q391 539 434 526T499 489Q537 516 577 528T659 540Q738 540 794 505T877 405T890 247Q889 238 888 236T874 232H552V232ZM665 434Q638 434 613 421T571 383T548 322L707 326Q718 326 724 332T732 350Q735 367 729 386T708 420T665
434V434ZM350 228Q352 237 350 238T338 240L313 238Q286 237 256 225T204 193T177 144Q175 121 189 109T234 97Q259 98 283 107T323 132T342 168L350 228V228Z" />
<glyph unicode="&#xe7;" horiz-adv-x="553" d="M330 540Q400 540 445 514T515 449T542 369Q543 361 540 358T525 354L408 346Q401 345 398 351T393 369Q389 383 384 396T367 417T333 426Q295 426 270 404T230 346T207 273T200 204Q200 150 222 126T282 102Q327
102 354 123T407 185Q411 190 424 188L506 170Q513 169 516 162T514 140Q506 122 487 97T438 47T364 6T266 -10Q193 -10 139 19T54 102T24 227Q24 289 45 346T107 446T204 515T330 540V540ZM368 -146Q363 -183 324 -202T236 -222Q202 -222 172 -215T120 -192Q113
-191 110 -187T109 -179L130 -140Q132 -136 134 -140T137 -147Q154 -153 172 -158T208 -163Q233 -163 250 -152T269 -124Q271 -109 255 -101T192 -93Q182 -93 177 -89T175 -78L226 5H302L276 -50Q273 -54 272 -54T272 -54Q311 -54 333 -68T363 -103T368 -146V-146Z"
/>
<glyph unicode="&#xe8;" horiz-adv-x="588" d="M271 -10Q197 -10 142 19T55 101T23 224Q23 286 46 342T111 443T209 514T331 540Q401 540 454 512T537 430T567 303Q567 289 566 275T563 247Q562 238 557 235T539 232H217Q206 232 203 219T200 190Q200 149 227
129T297 109Q330 109 360 123T421 169Q427 174 433 174T447 170L523 136Q546 126 530 107Q488 60 449 35T367 0T271 -10V-10ZM380 322Q390 322 397 330T404 359Q404 386 388 410T333 434Q307 434 283 420T242 381T220 322H380ZM244 740Q247 748 253 750T265 749L486
649Q494 646 496 641T496 628L476 585Q473 578 468 577T451 579L227 637Q212 641 209 646T210 662L244 740V740Z" />
<glyph unicode="&#xe9;" horiz-adv-x="588" d="M271 -10Q197 -10 142 19T55 101T23 224Q23 286 46 342T111 443T209 514T331 540Q401 540 454 512T537 430T567 303Q567 289 566 275T563 247Q562 238 557 235T539 232H217Q206 232 203 219T200 190Q200 149 227
129T297 109Q330 109 360 123T421 169Q427 174 433 174T447 170L523 136Q546 126 530 107Q488 60 449 35T367 0T271 -10V-10ZM380 322Q390 322 397 330T404 359Q404 386 388 410T333 434Q307 434 283 420T242 381T220 322H380ZM500 662Q502 651 500 646T484 636L243
577Q232 574 226 579T217 594L209 633Q205 649 213 653L464 750Q470 753 475 751T483 736L500 662Z" />
<glyph unicode="&#xea;" horiz-adv-x="588" d="M271 -10Q197 -10 142 19T55 101T23 224Q23 286 46 342T111 443T209 514T331 540Q401 540 454 512T537 430T567 303Q567 289 566 275T563 247Q562 238 557 235T539 232H217Q206 232 203 219T200 190Q200 149 227
129T297 109Q330 109 360 123T421 169Q427 174 433 174T447 170L523 136Q546 126 530 107Q488 60 449 35T367 0T271 -10V-10ZM380 322Q390 322 397 330T404 359Q404 386 388 410T333 434Q307 434 283 420T242 381T220 322H380ZM372 668Q365 678 361 678T345 669L286
612Q279 605 274 604T260 602H166Q157 602 157 608T162 619L290 740Q298 747 305 749T326 751H410Q420 751 425 745T434 735L527 615Q534 606 531 604T518 602H430Q421 602 417 605T409 615L372 668Z" />
<glyph unicode="&#xeb;" horiz-adv-x="588" d="M271 -10Q197 -10 142 19T55 101T23 224Q23 286 46 342T111 443T209 514T331 540Q401 540 454 512T537 430T567 303Q567 289 566 275T563 247Q562 238 557 235T539 232H217Q206 232 203 219T200 190Q200 149 227
129T297 109Q330 109 360 123T421 169Q427 174 433 174T447 170L523 136Q546 126 530 107Q488 60 449 35T367 0T271 -10V-10ZM380 322Q390 322 397 330T404 359Q404 386 388 410T333 434Q307 434 283 420T242 381T220 322H380ZM316 622Q315 610 310 608T290 605H183Q171
605 167 613T163 631L177 729Q178 738 180 740T190 742H314Q322 742 326 735T330 720L316 622ZM538 622Q537 610 532 608T513 605H406Q393 605 389 613T385 631L399 729Q401 738 403 740T412 742H536Q544 742 548 735T552 720L538 622Z" />
<glyph unicode="&#xec;" horiz-adv-x="274" d="M192 21Q190 7 184 4T162 0H38Q25 0 19 8T14 28L83 514Q85 524 87 527T99 530H243Q250 530 255 523T260 506L192 21ZM80 740Q83 748 89 750T101 749L322 649Q330 646 332 641T332 628L312 585Q309 578 304 577T287
579L63 637Q48 641 45 646T46 662L80 740V740Z" />
<glyph unicode="&#xed;" horiz-adv-x="274" d="M192 21Q190 7 184 4T162 0H38Q25 0 19 8T14 28L83 514Q85 524 87 527T99 530H243Q250 530 255 523T260 506L192 21ZM337 662Q339 651 337 646T321 636L80 577Q69 574 63 579T54 594L46 633Q42 649 50 653L301 750Q307
753 312 751T320 736L337 662Z" />
<glyph unicode="&#xee;" horiz-adv-x="274" d="M192 21Q190 7 184 4T162 0H38Q25 0 19 8T14 28L83 514Q85 524 87 527T99 530H243Q250 530 255 523T260 506L192 21ZM209 668Q202 678 198 678T182 669L123 612Q116 605 111 604T97 602H3Q-6 602 -6 608T-1 619L127
740Q135 747 142 749T163 751H247Q257 751 262 745T271 735L364 615Q371 606 368 604T355 602H267Q258 602 254 605T246 615L209 668Z" />
<glyph unicode="&#xef;" horiz-adv-x="274" d="M192 21Q190 7 184 4T162 0H38Q25 0 19 8T14 28L83 514Q85 524 87 527T99 530H243Q250 530 255 523T260 506L192 21ZM153 622Q152 610 147 608T127 605H20Q8 605 4 613T0 631L14 729Q15 738 17 740T27 742H151Q159
742 163 735T167 720L153 622ZM375 622Q374 610 369 608T350 605H243Q230 605 226 613T222 631L236 729Q238 738 240 740T249 742H373Q381 742 385 735T389 720L375 622Z" />
<glyph unicode="&#xf0;" horiz-adv-x="600" d="M574 269Q563 183 521 121T413 24T267 -10Q185 -10 127 25T42 123T26 262Q37 338 79 396T187 487T327 520Q340 520 349 522T362 523Q350 545 334 563T295 601L179 536Q171 532 166 537T158 550L146 572Q138 587 145
590L240 637Q222 647 203 656T163 675Q156 675 153 680T153 689L238 750Q244 754 246 752T255 746Q288 740 317 728T372 702L458 752Q463 756 468 752T474 743L489 707Q491 703 492 701T489 696L427 666Q514 599 553 495T574 269V269ZM270 106Q303 106 328 124T370
178T394 265Q401 313 396 344T374 392T327 408Q295 408 270 389T227 334T203 246Q197 199 202 168T224 121T270 106V106Z" />
<glyph unicode="&#xf1;" horiz-adv-x="600" d="M30 0Q19 0 16 8T14 28L83 514Q85 524 87 527T99 530H249Q255 530 258 528T259 516L252 468Q251 456 263 467Q300 499 343 519T432 540Q498 540 536 502T575 403Q575 396 575 390T573 375L523 22Q521 8 516 4T495
0H360Q349 0 347 7T346 28L392 355Q393 360 393 364T394 372Q394 393 382 403T345 413Q325 413 307 406T273 386T240 353L192 21Q190 7 184 4T161 0H30V0ZM537 637Q519 630 494 623T440 615Q410 615 385 623T338 638T290 645Q266 645 252 636T214 615Q205 610 200
616T192 633L183 682Q182 689 179 697T189 713Q209 726 231 735T284 744Q316 744 343 736T394 720T439 711Q456 711 469 718T495 733T518 744Q529 746 535 740T543 724L548 666Q549 658 549 650T537 637V637Z" />
<glyph unicode="&#xf2;" horiz-adv-x="600" d="M267 -10Q193 -10 138 19T54 102T24 226Q24 296 48 353T115 452T214 517T332 540Q407 540 462 510T546 425T575 300Q575 211 535 141T425 30T267 -10V-10ZM270 106Q306 106 335 131T382 208T400 336Q400 383 383
405T330 428Q295 428 266 402T218 325T200 196Q200 150 217 128T270 106V106ZM243 740Q246 748 252 750T264 749L485 649Q493 646 495 641T495 628L475 585Q472 578 467 577T450 579L226 637Q211 641 208 646T209 662L243 740V740Z" />
<glyph unicode="&#xf3;" horiz-adv-x="600" d="M267 -10Q193 -10 138 19T54 102T24 226Q24 296 48 353T115 452T214 517T332 540Q407 540 462 510T546 425T575 300Q575 211 535 141T425 30T267 -10V-10ZM270 106Q306 106 335 131T382 208T400 336Q400 383 383
405T330 428Q295 428 266 402T218 325T200 196Q200 150 217 128T270 106V106ZM500 662Q502 651 500 646T484 636L243 577Q232 574 226 579T217 594L209 633Q205 649 213 653L464 750Q470 753 475 751T483 736L500 662Z" />
<glyph unicode="&#xf4;" horiz-adv-x="600" d="M267 -10Q193 -10 138 19T54 102T24 226Q24 296 48 353T115 452T214 517T332 540Q407 540 462 510T546 425T575 300Q575 211 535 141T425 30T267 -10V-10ZM270 106Q306 106 335 131T382 208T400 336Q400 383 383
405T330 428Q295 428 266 402T218 325T200 196Q200 150 217 128T270 106V106ZM372 668Q365 678 361 678T345 669L286 612Q279 605 274 604T260 602H166Q157 602 157 608T162 619L290 740Q298 747 305 749T326 751H410Q420 751 425 745T434 735L527 615Q534 606
531 604T518 602H430Q421 602 417 605T409 615L372 668Z" />
<glyph unicode="&#xf5;" horiz-adv-x="600" d="M267 -10Q193 -10 138 19T54 102T24 226Q24 296 48 353T115 452T214 517T332 540Q407 540 462 510T546 425T575 300Q575 211 535 141T425 30T267 -10V-10ZM270 106Q306 106 335 131T382 208T400 336Q400 383 383
405T330 428Q295 428 266 402T218 325T200 196Q200 150 217 128T270 106V106ZM534 637Q516 630 491 623T437 615Q407 615 382 623T335 638T287 645Q263 645 249 636T211 615Q202 610 197 616T189 633L180 682Q179 689 176 697T186 713Q206 726 228 735T281 744Q313
744 340 736T391 720T436 711Q453 711 466 718T492 733T515 744Q526 746 532 740T540 724L545 666Q546 658 546 650T534 637V637Z" />
<glyph unicode="&#xf6;" horiz-adv-x="600" d="M267 -10Q193 -10 138 19T54 102T24 226Q24 296 48 353T115 452T214 517T332 540Q407 540 462 510T546 425T575 300Q575 211 535 141T425 30T267 -10V-10ZM270 106Q306 106 335 131T382 208T400 336Q400 383 383
405T330 428Q295 428 266 402T218 325T200 196Q200 150 217 128T270 106V106ZM316 622Q315 610 310 608T290 605H183Q171 605 167 613T163 631L177 729Q178 738 180 740T190 742H314Q322 742 326 735T330 720L316 622ZM538 622Q537 610 532 608T513 605H406Q393
605 389 613T385 631L399 729Q401 738 403 740T412 742H536Q544 742 548 735T552 720L538 622Z" />
<glyph unicode="&#xf7;" horiz-adv-x="594" d="M361 95Q360 82 355 80T334 77H209Q197 77 192 84T187 102L205 231Q207 241 210 242T219 244H364Q372 244 376 238T380 222L361 95ZM558 330Q557 316 551 313T529 310H77Q64 310 59 318T55 338L66 421Q68 431 71
434T82 437H553Q561 437 566 430T571 413L558 330ZM421 521Q420 508 416 505T395 502H270Q258 502 252 510T247 529L265 657Q267 667 270 668T279 670H424Q431 670 435 664T439 648L421 521Z" />
<glyph unicode="&#xf8;" horiz-adv-x="600" d="M55 7Q43 -3 34 0T17 14L1 33Q-7 44 -10 52T-4 68L548 524Q558 532 565 530T576 521L603 488Q608 483 610 477T605 463L55 7ZM260 -10Q185 -10 130 19T46 102T16 226Q16 296 40 353T108 452T207 517T324 540Q400
540 454 510T538 425T568 300Q568 211 527 141T417 30T260 -10V-10ZM263 106Q299 106 328 131T375 208T393 336Q393 383 376 405T322 428Q287 428 258 402T211 325T193 196Q193 150 210 128T263 106V106Z" />
<glyph unicode="&#xf9;" horiz-adv-x="597" d="M162 -10Q101 -10 64 27T26 128Q26 136 26 144T28 160L77 508Q79 522 84 526T104 530H233Q245 530 250 522T254 501L207 174Q206 169 206 165T206 159Q206 136 218 126T252 116Q281 116 307 132T355 169L405 509Q407
523 413 526T434 530H560Q573 530 579 522T584 501L512 15Q511 6 508 3T496 0H357Q350 0 345 3T341 15L348 61Q349 67 345 67T333 61Q291 23 249 7T162 -10V-10ZM238 740Q241 748 247 750T259 749L480 649Q488 646 490 641T490 628L470 585Q467 578 462 577T445
579L221 637Q206 641 203 646T204 662L238 740V740Z" />
<glyph unicode="&#xfa;" horiz-adv-x="597" d="M162 -10Q101 -10 64 27T26 128Q26 136 26 144T28 160L77 508Q79 522 84 526T104 530H233Q245 530 250 522T254 501L207 174Q206 169 206 165T206 159Q206 136 218 126T252 116Q281 116 307 132T355 169L405 509Q407
523 413 526T434 530H560Q573 530 579 522T584 501L512 15Q511 6 508 3T496 0H357Q350 0 345 3T341 15L348 61Q349 67 345 67T333 61Q291 23 249 7T162 -10V-10ZM494 662Q496 651 494 646T478 636L237 577Q226 574 220 579T211 594L203 633Q199 649 207 653L458
750Q464 753 469 751T477 736L494 662Z" />
<glyph unicode="&#xfb;" horiz-adv-x="597" d="M162 -10Q101 -10 64 27T26 128Q26 136 26 144T28 160L77 508Q79 522 84 526T104 530H233Q245 530 250 522T254 501L207 174Q206 169 206 165T206 159Q206 136 218 126T252 116Q281 116 307 132T355 169L405 509Q407
523 413 526T434 530H560Q573 530 579 522T584 501L512 15Q511 6 508 3T496 0H357Q350 0 345 3T341 15L348 61Q349 67 345 67T333 61Q291 23 249 7T162 -10V-10ZM367 668Q360 678 356 678T340 669L281 612Q274 605 269 604T255 602H161Q152 602 152 608T157 619L285
740Q293 747 300 749T321 751H405Q415 751 420 745T429 735L522 615Q529 606 526 604T513 602H425Q416 602 412 605T404 615L367 668Z" />
<glyph unicode="&#xfc;" horiz-adv-x="597" d="M162 -10Q101 -10 64 27T26 128Q26 136 26 144T28 160L77 508Q79 522 84 526T104 530H233Q245 530 250 522T254 501L207 174Q206 169 206 165T206 159Q206 136 218 126T252 116Q281 116 307 132T355 169L405 509Q407
523 413 526T434 530H560Q573 530 579 522T584 501L512 15Q511 6 508 3T496 0H357Q350 0 345 3T341 15L348 61Q349 67 345 67T333 61Q291 23 249 7T162 -10V-10ZM311 622Q310 610 305 608T285 605H178Q166 605 162 613T158 631L172 729Q173 738 175 740T185 742H309Q317
742 321 735T325 720L311 622ZM533 622Q532 610 527 608T508 605H401Q388 605 384 613T380 631L394 729Q396 738 398 740T407 742H531Q539 742 543 735T547 720L533 622Z" />
<glyph unicode="&#xfd;" horiz-adv-x="578" d="M36 -165Q8 -165 -3 -160T-12 -142L0 -52Q1 -46 10 -42T35 -37H104Q122 -37 137 -31T161 -16T175 5T176 27L48 499Q40 530 64 530H225Q242 530 245 516L305 248Q308 236 313 236T326 250L457 507Q463 520 470 525T485
530H585Q605 530 592 508L323 21Q291 -36 262 -72T200 -129T128 -157T36 -165V-165ZM516 662Q518 651 516 646T500 636L259 577Q248 574 242 579T233 594L225 633Q221 649 229 653L480 750Q486 753 491 751T499 736L516 662Z" />
<glyph unicode="&#xfe;" horiz-adv-x="610" d="M266 742Q279 742 285 734T290 714L256 477Q255 471 259 476T269 488Q289 503 311 514T358 533T416 540Q475 540 517 509T579 416T584 258Q570 162 535 103T451 17T345 -10Q306 -10 275 3T221 48Q198 62 193 30L168
-152Q167 -161 164 -163T153 -165H9Q2 -165 -4 -158T-9 -139L112 723Q114 735 117 738T136 742H266V742ZM206 140Q220 120 236 110T278 100Q309 100 334 117T379 174T407 282Q416 342 410 374T386 418T340 430Q315 430 293 420T256 393T239 358L206 140V140Z" />
<glyph unicode="&#xff;" horiz-adv-x="578" d="M36 -165Q8 -165 -3 -160T-12 -142L0 -52Q1 -46 10 -42T35 -37H104Q122 -37 137 -31T161 -16T175 5T176 27L48 499Q40 530 64 530H225Q242 530 245 516L305 248Q308 236 313 236T326 250L457 507Q463 520 470 525T485
530H585Q605 530 592 508L323 21Q291 -36 262 -72T200 -129T128 -157T36 -165V-165ZM332 622Q331 610 326 608T306 605H199Q187 605 183 613T179 631L193 729Q194 738 196 740T206 742H330Q338 742 342 735T346 720L332 622ZM554 622Q553 610 548 608T529 605H422Q409
605 405 613T401 631L415 729Q417 738 419 740T428 742H552Q560 742 564 735T568 720L554 622Z" />
<glyph unicode="&#x2013;" horiz-adv-x="594" d="M542 211Q540 197 534 194T512 191H60Q47 191 42 199T38 219L49 301Q51 311 54 314T65 317H537Q544 317 549 310T553 294L542 211Z" />
<glyph unicode="&#x2014;" horiz-adv-x="919" d="M867 211Q866 197 860 194T838 191H60Q47 191 42 199T38 219L49 301Q51 311 54 314T65 317H862Q869 317 874 310T878 294L867 211Z" />
<glyph unicode="&#x2018;" horiz-adv-x="247" d="M296 742Q310 742 302 727L245 626Q232 600 254 595L270 594Q283 593 285 591T286 577L269 454Q268 445 260 438T245 430H108Q101 430 99 431T98 441L114 559Q115 563 117 567T122 572L239 719Q246 729 258 735T279
742H296V742Z" />
<glyph unicode="&#x2019;" horiz-adv-x="247" d="M79 430Q65 430 73 445L130 546Q143 572 121 576L105 578Q93 580 90 582T89 594L106 718Q108 728 115 735T130 742H266Q274 742 276 740T276 731L261 613Q260 609 257 605T252 599L136 453Q129 444 117 437T95
430H79V430Z" />
<glyph unicode="&#x201a;" horiz-adv-x="247" d="M-3 -149Q-16 -149 -9 -134L49 -33Q61 -7 39 -3L24 -1Q12 1 9 3T7 15L25 139Q27 149 33 156T48 163H185Q192 163 194 161T196 152L179 34Q178 30 176 26T172 20L55 -126Q49 -135 37 -142T14 -149H-3V-149Z" />
<glyph unicode="&#x201c;" horiz-adv-x="488" d="M312 430Q305 430 303 431T301 441L318 559Q319 563 321 567T325 572L442 719Q449 729 461 735T483 742H499Q514 742 506 727L448 626Q436 600 458 595L473 594Q486 593 488 591T489 577L472 454Q471 445 464 438T449
430H312V430ZM71 430Q64 430 62 431T60 441L77 559Q78 563 80 567T84 572L201 719Q208 729 220 735T242 742H258Q273 742 265 727L207 626Q195 600 217 595L232 594Q245 593 247 591T248 577L231 454Q230 445 223 438T208 430H71V430Z" />
<glyph unicode="&#x201d;" horiz-adv-x="491" d="M320 430Q306 430 313 445L371 546Q384 572 362 576L346 578Q334 580 331 582T330 594L347 718Q349 728 356 735T370 742H507Q515 742 517 740T517 731L501 613Q500 609 498 605T493 599L377 453Q370 444 358 437T336
430H320V430ZM79 430Q65 430 73 445L130 546Q143 572 121 576L105 578Q93 580 90 582T89 594L106 718Q108 728 115 735T130 742H266Q274 742 276 740T276 731L261 613Q260 609 257 605T252 599L136 453Q129 444 117 437T95 430H79V430Z" />
<glyph unicode="&#x201e;" horiz-adv-x="454" d="M201 -149Q188 -149 195 -134L253 -33Q265 -7 243 -3L228 -1Q216 1 213 3T211 15L229 139Q231 149 237 156T252 163H389Q396 163 398 161T400 152L383 34Q382 30 380 26T376 20L259 -126Q253 -135 241 -142T218
-149H201V-149ZM216 -149Q203 -149 210 -134L268 -33Q280 -7 258 -3L243 -1Q231 1 228 3T226 15L244 139Q246 149 252 156T267 163H404Q411 163 413 161T415 152L398 34Q397 30 395 26T391 20L274 -126Q268 -135 256 -142T233 -149H216V-149Z" />
<glyph unicode="&#x2022;" horiz-adv-x="348" d="M175 234Q134 234 103 255T56 310T46 387Q52 424 74 454T129 502T200 520Q242 520 273 499T319 444T329 367Q324 330 302 300T246 252T175 234V234Z" />
<glyph unicode="&#x2039;" horiz-adv-x="298" d="M218 70Q220 63 219 63T207 62H143Q138 62 134 67T129 76L53 242Q49 252 49 261T53 280L178 456Q182 462 184 462T192 461H259Q266 461 271 455T273 441L182 265Q179 258 177 253T176 241L218 70Z" />
<glyph unicode="&#x203a;" horiz-adv-x="298" d="M114 249Q117 256 119 261T119 273L79 450Q78 458 79 459T87 461H154Q163 461 168 447L244 271Q247 262 248 253T242 233L119 67Q117 64 114 63T105 62H41Q32 62 27 67T23 79L114 249V249Z" />
</font>
</defs>
</svg>
