<?xml version="1.0" standalone="no"?>
<!DOCTYPE svg PUBLIC "-//W3C//DTD SVG 1.1//EN" "http://www.w3.org/Graphics/SVG/1.1/DTD/svg11.dtd">
<svg xmlns="http://www.w3.org/2000/svg">
  <defs>
    <font id="Manrope" horiz-adv-x="1066">
      <font-face font-family="Manrope ExtraLight ExtraLight" units-per-em="2000" panose-1="0 0 0 0 0 0 0 0 0 0" ascent="2132" descent="-600" alphabetic="0" />
      <glyph unicode=" " glyph-name="gid231" horiz-adv-x="400" />
      <glyph unicode="!" glyph-name="gid180" horiz-adv-x="564" d="M240,0V128h84V0H240Zm0,360V1440h84V360H240Z" />
      <glyph unicode="&quot;" glyph-name="gid224" horiz-adv-x="684" d="M120,1080v360h84V1080H120Zm280,0v360h84V1080H400Z" />
      <glyph unicode="#" glyph-name="gid187" horiz-adv-x="1826" d="M434,0L556,462H120l22,84H580L680,924H244l22,84H704l114,432h88L790,1008h394l114,432h88l-116-432h436l-22-84H1248L1146,546h436l-22-84H1124L1000,0H914l122,462H644L520,0H434ZM666,546h394l100,378H768L666,546Z" />
      <glyph unicode="$" glyph-name="gid237" horiz-adv-x="1126" d="M522-196V26h84V-196H522Zm0,1612v224h84V1416H522ZM590-30Q452-30 341.5,17.5T158,152T60,358l80,16q36-148 157-234T590,54q180,0 288,88.5T986,378q0,111-65,176.5T698,668L396,762q-282,89-282,328q0,112 56.5,197.5t156.5,134T558,1470q135,0 242-52t175-146.5t85-221.5l-80-16q-14,105-71,184.5T762,1342t-202,44q-105,0-186-37.5t-127.5-104T200,1092q0-94 64.5-158T468,826l286-88q165-51 238.5-136T1066,374q0-123-58.5-213.5T842,20T590-30Z" />
      <glyph unicode="%" glyph-name="gid254" horiz-adv-x="1804" d="M240,0L180,60L1564,1440l60-58L240,0ZM1324-30q-99,0-180.5,48.5T1013,148.5T964,330q0,98 50,180t132,131t178,49q99,0 181-48.5t130.5-130T1684,330t-48.5-181.5T1505,18.5T1324-30Zm0,84q75,0 138,37.5T1562.5,192T1600,330t-37.5,138T1462,568.5T1324,606t-137.5-37.5T1086,468t-38-138t38-138T1186.5,91.5T1324,54ZM480,750q-99,0-181,48.5t-130.5,130T120,1110q0,98 50,180t132,131t178,49q99,0 180.5-48.5t130.5-130T840,1110T791,928.5t-130.5-130T480,750Zm0,84q75,0 138,37.5T718.5,972T756,1110t-37.5,138T618,1348.5T480,1386t-137.5-37.5T242,1248t-38-138t38-138T342.5,871.5T480,834Z" />
      <glyph unicode="&amp;" glyph-name="gid260" horiz-adv-x="1280" d="M594-30Q473-30 373.5,4T206,110q-51,54-77,124T100,380q-1,71 20.5,144T190,654q35,44 80.5,72T364,772q-85,86-130.5,155.5T188,1102q0,102 49,188.5T374,1422q51,26 105.5,37T588,1470q72,0 144-18t124-56q36-24 65-58.5t47-73.5l-78-36q-26,60-84,100q-43,30-98,44t-112,14q-99,0-182-40q-67-34-101.5-96.5T278,1106q0-69 21-114.5T366,890q24-27 52-51.5T474,788L992,306q6,33 8,61.5t2,58.5l-2,234h90V466q0-96-7.5-146T1064,238L1254,62L1196,0L1024,162q-22-40-65-76.5T874,26Q813-7 740.5-18.5T594-30Zm-4,84q74,0 133,9.5T834,104q63,39 89,70t39,52L436,706q-52-15-98.5-42T258,598q-36-43-52.5-99.5T190,382q2-60 20.5-114.5T268,172q54-61 141.5-89.5T590,54Z" />
      <glyph unicode="&apos;" glyph-name="gid225" horiz-adv-x="364" d="M120,1080v360h84V1080H120Z" />
      <glyph unicode="(" glyph-name="gid194" horiz-adv-x="816" d="M664-344Q546-210 460-47T327,296T280,660t47,364t133,343t204,297l62-52q-114-134-196-289.5T404,999T360,660q0-168 45-338T532-5T726-290l-62-54Z" />
      <glyph unicode=")" glyph-name="gid195" horiz-adv-x="816" d="M152-344L90-290Q202-162 284-5T411,322t45,338q0,171-44,339T286,1322.5T90,1612l62,52q118-134 204-297t133-343t47-364T489,296T356-47T152-344Z" />
      <glyph unicode="*" glyph-name="gid186" horiz-adv-x="836" d="M226,814l-68,50l162,222L60,1170l26,80l260-84v274h84V1166l260,84l26-80l-260-84L616,864l-68-50L388,1036L226,814Z" />
      <glyph unicode="+" glyph-name="gid242" horiz-adv-x="1160" d="M538,260V678H120v84H538v418h84V762h418V678H622V260H538Z" />
      <glyph unicode="," glyph-name="gid176" horiz-adv-x="480" d="M120-178l6,52q35-2 47,16.5t12.5,48T186,0H120V180H240V-60q0-66-36-98t-84-20Z" />
      <glyph unicode="-" glyph-name="gid206" horiz-adv-x="840" d="M120,588v84H720V588H120Z" />
      <glyph unicode="." glyph-name="gid175" horiz-adv-x="440" d="M160,0V120H280V0H160Z" />
      <glyph unicode="/" glyph-name="gid188" horiz-adv-x="714" d="M504,1440h90L210,0H120L504,1440Z" />
      <glyph unicode="0" glyph-name="gid131" horiz-adv-x="1156" d="M578-30Q458-30 358.5,29.5t-159,159T140,408v624q0,120 59.5,219.5t159,159T578,1470t219.5-59.5t159-159T1016,1032V408q0-120-59.5-219.5t-159-159T578-30Zm0,84q97,0 177.5,48T884,230.5T932,408v624q0,97-48,177.5T755.5,1338T578,1386t-177.5-48T272,1209.5T224,1032V408q0-97 48-177.5T400.5,102T578,54Z" />
      <glyph unicode="1" glyph-name="gid132" horiz-adv-x="716" d="M392,0V1342L120,1180v98l272,162h84V0H392Z" />
      <glyph unicode="2" glyph-name="gid133" horiz-adv-x="1106" d="M100,0l2,84L776,698q92,83 119,159.5T922,1024q0,100-49,182T742,1337t-182,49q-103,0-185-50T245.5,1203.5T198,1024H114q0,123 60.5,224.5T336,1410t224,60q126,0 227-61.5t160-163t59-221.5q0-82-17.5-149t-56-125T832,636L160,24L136,84h870V0H100Z" />
      <glyph unicode="3" glyph-name="gid134" horiz-adv-x="1068" d="M510-30Q404-30 318,5T171,106.5T80,266l78,28q44-121 137-182T508,54q113,3 191,50T817.5,234.5T858,432q0,174-96.5,275T504,808q-43,0-93.5-12T318,764l-50,68l610,586l26-62H138v84H936v-86L382,826l-2,50q162,38 290.5-8t203-159.5T948,432q0-140-55-244T739.5,27T510-30Z" />
      <glyph unicode="4" glyph-name="gid135" horiz-adv-x="1154" d="M798,0V306H100v84L596,1440h92L192,390H798V840h84V390h172V306H882V0H798Z" />
      <glyph unicode="5" glyph-name="gid136" horiz-adv-x="1144" d="M564-30Q450-30 355,16.5t-161,128T100,330l80,22q23-91 81-157.5T398,92T564,56q113,0 202.5,54.5T908,255t52,197q0,112-55,201.5t-145,142T564,848q-114,0-201-54T222,650l-86,50l44,740H940v-84H202l62,58L220,702l-32,46q65,84 163,134t213,50q131,0 240-65T978.5,693T1044,452q0-130-65-239.5T805,36.5T564-30Z" />
      <glyph unicode="6" glyph-name="gid137" horiz-adv-x="1240" d="M620-30Q488-30 379,35T205,209T140,450V990q0,132 64.5,241T378,1405t242,65q132,0 242.5-66T1034,1230l-72-42q-51,89-141.5,143.5T620,1386q-113,0-202.5-55T276,1186T224,990V626l-32,38q63,117 176,191.5T620,930q132,0 241-65t174-174t65-241t-65-241T861,35T620-30Zm0,84q110,0 200,53T963,250t53,200T963,650T820,793T620,846T420,793T277,650T224,450t53-200T420,107T620,54Z" />
      <glyph unicode="7" glyph-name="gid138" horiz-adv-x="962" d="M220,0L772,1354H80v86H862v-86L310,0H220Z" />
      <glyph unicode="8" glyph-name="gid139" horiz-adv-x="1118" d="M558-30Q428-30 329.5,21t-154,145T120,390q0,144 71.5,250.5T414,796V750Q284,777 218,876.5T152,1096q0,118 52.5,201.5t144,128T558,1470t209.5-44.5t144-128T964,1096q0-120-63.5-218.5T706,752l-8,44q152-49 226-155.5T998,390q0-130-56-224T787,21T558-30Zm0,84q156,0 253,87t97,249q0,165-95.5,250.5T558,726T303.5,640.5T208,390q0-162 97-249T558,54Zm0,756q141,0 228.5,72.5T874,1096t-87.5,212.5T558,1380t-228.5-71.5T242,1096t87.5-213.5T558,810Z" />
      <glyph unicode="9" glyph-name="gid140" horiz-adv-x="1240" d="M620,1470q132,0 241-65t174-174t65-241V450q0-132-64.5-241T862,35T620-30Q488-30 378,36T206,210l72,42q51-88 142-143T620,54q113,0 202.5,55T964,254t52,196V814l32-38Q985,659 872.5,584.5T620,510q-132,0-241,65T205,749T140,990t65,241t174,174t241,65Zm0-84q-110,0-200-53T277,1190T224,990t53-200T420,647t200-53t200,53T963,790t53,200t-53,200T820,1333t-200,53Z" />
      <glyph unicode=":" glyph-name="gid177" horiz-adv-x="540" d="M220,180V300H340V180H220Zm0,600V900H340V780H220Z" />
      <glyph unicode=";" glyph-name="gid178" horiz-adv-x="560" d="M220-178l6,52q35-2 47,16.5t12.5,48T286,0H220V180H340V-60q0-66-36-98t-84-20Zm0,1138v120H340V960H220Z" />
      <glyph unicode="&lt;" glyph-name="gid248" horiz-adv-x="1198" d="M742,168L280,630l462,462l56-54L390,630L798,222l-56-54Z" />
      <glyph unicode="=" glyph-name="gid246" horiz-adv-x="1500" d="M240,836v84H1260V836H240Zm0-316v84H1260V520H240Z" />
      <glyph unicode="&gt;" glyph-name="gid247" horiz-adv-x="1198" d="M456,168l-56,54L808,630L400,1038l56,54L918,630L456,168Z" />
      <glyph unicode="?" glyph-name="gid182" horiz-adv-x="1008" d="M436,394q0,84 3.5,140.5T476,654q32,60 83,101.5T663,832t91,76q38,44 51,91.5t13,98.5q0,62-16,110t-48,82q-48,56-115.5,76T500,1386q-76,0-140.5-22.5T254,1296q-37-37-53.5-88.5T184,1100H100q0,66 21.5,134.5T192,1354q60,62 143.5,89T504,1470q90,0 171.5-27T814,1354q50-52 72-116.5T908,1096q0-69-22.5-134T816,850q-36-39-88.5-74.5T626,701t-74-87t-25.5-98.5T526,394H436ZM436,0V150h90V0H436Z" />
      <glyph unicode="@" glyph-name="gid259" horiz-adv-x="1794" d="M904-210q-155,0-290,56.5T377,4.5T217.5,243T160,540q0,152 52.5,287.5t151,239.5t239,163.5T918,1290q188,0 327.5-62.5t229-167.5t129-234.5T1632,562q-15-184-98-272t-206-88q-99,0-163.5,46T1080,376l38-8q-30-66-98-98T878,238q-81,0-141,34.5t-93.5,96T610,510q0,84 34.5,145.5t95.5,95T880,784q65,0 133.5-27.5T1118,658l-38-38V756h78V466q0-73 40-126.5T1338,286q55,0 100,31t73,89t33,140q9,149-31.5,270t-124,208.5T1186,1159t-268,47q-160,0-284-56T424.5,999t-130-214.5T250,538q0-137 51.5-257.5t142-212T654-74.5T910-126q101,0 202.5,28.5T1290-18l36-68q-97-63-204.5-93.5T904-210ZM882,324q84,0 135,49t51,139q0,95-52.5,142.5T882,702q-90,0-139-49T694,512q0-94 51.5-141T882,324Z" />
      <glyph unicode="A" glyph-name="gid1" horiz-adv-x="1218" d="M40,0L564,1440h90L1178,0h-90L578,1402h60L130,0H40ZM240,374v80H976V374H240Z" />
      <glyph unicode="B" glyph-name="gid10" horiz-adv-x="1202" d="M140,0V1440H686q104,0 192-44.5T1019,1271t53-185q0-114-66-209.5T832,742l-4,48q143-46 229.5-147.5T1144,388q0-123-56-209.5T936.5,46T724,0H140Zm84,84H684q104,0 187.5,35t132,101T1052,380t-44.5,170.5t-119,122T724,718H224V84Zm0,716H686q81,0 148.5,39T942,944t40,148q0,120-85.5,193T686,1358H224V800Z" />
      <glyph unicode="C" glyph-name="gid11" horiz-adv-x="1400" d="M706-30Q491-30 347.5,66T132,331T60,720t72,389t215.5,265T706,1470q252,0 406-131.5T1320,988l-88-20q-48,191-179.5,304.5T706,1386q-185,0-307.5-85T214,1065.5T150,720t60-345T396.5,139.5T706,54q215,0 346.5,114T1232,472l88-20q-54-219-208-350.5T706-30Z" />
      <glyph unicode="D" glyph-name="gid13" horiz-adv-x="1304" d="M140,0V1440H562q26,0 83-1t109-9q159-23 263.5-122T1173,1056.5T1224,720q0-185-51-337.5t-155.5-251T754,10Q703,3 644.5,1.5T562,0H140Zm90,84H562q48,0 96.5,3T740,96q142,24 228.5,109.5t126,218T1134,720t-39.5,296.5t-126,218T740,1344q-33,6-83,9t-95,3H230V84Z" />
      <glyph unicode="E" glyph-name="gid15" horiz-adv-x="1120" d="M140,0V1440h880v-84H224V762H900V678H224V84h796V0H140Z" />
      <glyph unicode="F" glyph-name="gid20" horiz-adv-x="980" d="M140,0V1440H940v-84H224V762H820V678H224V0H140Z" />
      <glyph unicode="G" glyph-name="gid21" horiz-adv-x="1374" d="M706-30Q545-30 424,25T222,180T100.5,417.5T60,720q0,220 72,388.5t215.5,264T706,1468q206,0 343-96.5T1244,1122l-82-34q-52,135-169,215.5T706,1384q-185,0-307.5-84.5T214,1065T150,720t60-345T396.5,139.5T706,54t299,73.5T1171.5,332T1224,636H840v84h470q3-28 3.5-50t0.5-36q0-188-63-338.5t-197.5-238T706-30Z" />
      <glyph unicode="H" glyph-name="gid22" horiz-adv-x="1320" d="M140,0V1440h84V762h872v678h84V0h-84V678H224V0H140Z" />
      <glyph unicode="I" glyph-name="gid23" horiz-adv-x="404" d="M160,0V1440h84V0H160Z" />
      <glyph unicode="J" glyph-name="gid28" horiz-adv-x="878" d="M358-28Q228-28 129,48T0,250l86,20q23-91 97-152.5T362,56q65,0 130,30T596,186q27,50 31.5,105T632,424V1440h84V424q0-55-1-102.5T704.5,230T670,142Q622,58 539.5,15T358-28Z" />
      <glyph unicode="K" glyph-name="gid29" horiz-adv-x="1116" d="M140,0V1440h84V752l712,688h116L346,752L1116,0H1000L224,752V0H140Z" />
      <glyph unicode="L" glyph-name="gid30" horiz-adv-x="990" d="M160,0V1440h84V84H960V0H160Z" />
      <glyph unicode="M" glyph-name="gid31" horiz-adv-x="1662" d="M140,0V1440h80L832,102l606,1338h84V2h-84V1238L878,0H784L224,1238V0H140Z" />
      <glyph unicode="N" glyph-name="gid32" horiz-adv-x="1324" d="M140,0V1440h84L1100,150V1440h84V0h-84L224,1292V0H140Z" />
      <glyph unicode="O" glyph-name="gid34" horiz-adv-x="1412" d="M706-30Q491-30 347.5,66T132,331T60,720t72,389t215.5,265T706,1470t358.5-96T1280,1109t72-389t-72-389T1064.5,66T706-30Zm0,84q185,0 308.5,85.5T1200,375t62,345t-62,345.5T1014.5,1301T706,1386t-307.5-85T214,1065.5T150,720t60-345T396.5,139.5T706,54Z" />
      <glyph unicode="P" glyph-name="gid42" horiz-adv-x="1162" d="M140,0V1440H670q21,0 43-1.5t49-6.5q104-16 180.5-75.5t118-150T1102,1008t-41.5-198.5t-118-150T762,584q-27-4-49-6t-43-2H224V0H140Zm84,660H670q17,0 40.5,2t47.5,6q83,16 139.5,66T983,855.5t29,152.5t-29,152.5T897.5,1282T758,1348q-24,5-47.5,6.5T670,1356H224V660Z" />
      <glyph unicode="Q" glyph-name="gid44" horiz-adv-x="1412" d="M1274-28L908,336l66,66L1338,38l-64-66ZM706-30Q491-30 347.5,66T132,331T60,720t72,389t215.5,265T706,1470t358.5-96T1280,1109t72-389t-72-389T1064.5,66T706-30Zm0,84q185,0 308.5,85.5T1200,375t62,345t-62,345.5T1014.5,1301T706,1386t-307.5-85T214,1065.5T150,720t60-345T396.5,139.5T706,54Z" />
      <glyph unicode="R" glyph-name="gid45" horiz-adv-x="1222" d="M140,0V1440H670q21,0 43-1.5t49-6.5q104-16 180.5-75.5t118-150T1102,1008q0-154-84-270T790,590l-16-14H224V0H140Zm902,0L758,586l72,54L1142,0H1042ZM224,660H670q17,0 40.5,2t47.5,6q83,16 139.5,66T983,855.5t29,152.5t-29,152.5T897.5,1282T758,1348q-24,5-47.5,6.5T670,1356H224V660Z" />
      <glyph unicode="S" glyph-name="gid46" horiz-adv-x="1178" d="M618-30Q472-30 355.5,17.5T162.5,152T60,358l84,16q39-148 166-234T618,54q126,0 220,40T984,206.5T1036,376q0,73-27,122t-68.5,79.5T854,626t-80,28L414,762q-78,23-134.5,56T187,893t-53.5,92T116,1092q0,110 59.5,195.5t165.5,134T586,1470q141,0 253-52t183.5-146.5T1112,1050l-84-16q-14,105-74,184.5T799,1342t-213,44q-113,0-198.5-39T254,1242t-48-148q0-86 46.5-137.5t113.5-80T494,830l298-90q38-11 93-32.5T993.5,646t89-105.5T1118,376q0-93-35-168T982,80T824-1.5T618-30Z" />
      <glyph unicode="T" glyph-name="gid47" horiz-adv-x="1180" d="M548,0V1356H20v84H1160v-84H632V0H548Z" />
      <glyph unicode="U" glyph-name="gid48" horiz-adv-x="1380" d="M690-30Q530-30 406,37T211,225.5T140,510v930h84V538q0-133 45-226.5t116-151t152-84T690,50T843,76.5t152,84t116,151T1156,538v902h84V510q0-162-71-283.5T974,37.5T690-30Z" />
      <glyph unicode="V" glyph-name="gid53" horiz-adv-x="1158" d="M534,0L10,1440h90L578,122l480,1318h90L624,0H534Z" />
      <glyph unicode="W" glyph-name="gid54" horiz-adv-x="1818" d="M452,0L40,1440h86L496,152L864,1440h88L1322,152l368,1288h88L1366,0h-88L908,1286L540,0H452Z" />
      <glyph unicode="X" glyph-name="gid55" horiz-adv-x="1146" d="M20,0L526,730L32,1440H132L572,798l442,642h100L620,730L1126,0H1026L572,660L120,0H20Z" />
      <glyph unicode="Y" glyph-name="gid56" horiz-adv-x="1038" d="M478,0V612L0,1440H96L520,708l422,732h96L562,612V0H478Z" />
      <glyph unicode="Z" glyph-name="gid58" horiz-adv-x="1162" d="M100,0V30L938,1356H100v84h962v-34L228,82h834V0H100Z" />
      <glyph unicode="[" glyph-name="gid198" horiz-adv-x="792" d="M280-444V1764H612v-84H364V-360H612v-84H280Z" />
      <glyph unicode="\" glyph-name="gid189" horiz-adv-x="714" d="M210,1440L594,0H504L120,1440h90Z" />
      <glyph unicode="]" glyph-name="gid199" horiz-adv-x="792" d="M512-444H180v84H428V1680H180v84H512V-444Z" />
      <glyph unicode="^" glyph-name="gid252" horiz-adv-x="1324" d="M211,1010l461,463l463-462l-54-56L672,1363L265,954l-54,56Z" />
      <glyph unicode="_" glyph-name="gid210" horiz-adv-x="1320" d="M0-192v84H1320v-84H0Z" />
      <glyph unicode="`" glyph-name="gid272" horiz-adv-x="914" d="M451,1620l-96,270h88l96-270H451Z" />
      <glyph unicode="a" glyph-name="gid59" horiz-adv-x="1084" d="M454-30Q328-30 245,14T121,130T80,286q0,95 41.5,157.5T230,542t144,52q94,19 201.5,33.5T774,652t136,16l-30-20q5,191-69.5,284.5T548,1026q-136,0-218.5-60.5T214,780l-92,24q36,150 147.5,228T552,1110q150,0 250-61T938,884q14-40 20-97t6-111V0H886V296l40-2Q883,140 755,55T454-30Zm-4,84q117,0 206.5,42t145,121.5T872,408q8,56 8,120t0,92l44-34q-53-5-146.5-13.5T580,550.5T392,516q-49-12-101-38t-87.5-73T168,284q0-52 26-105t87.5-89T450,54Z" />
      <glyph unicode="b" glyph-name="gid67" horiz-adv-x="1152" d="M602-30Q459-30 359,46T206.5,251.5T154,542q0,164 53,292.5t156.5,202T618,1110q145,0 246.5-75.5T1019,830t53-288q0-162-54-291.5T859.5,45.5T602-30ZM140,0V1440h84V850h-6V0H140ZM602,54q125,0 209.5,64T939,292.5T982,542q0,138-41.5,247.5T815,962.5T602,1026q-126,0-211.5-62t-129-171.5T218,542q0-139 43-249.5T389.5,118T602,54Z" />
      <glyph unicode="c" glyph-name="gid68" horiz-adv-x="1078" d="M574-30Q413-30 304,42T139,242.5T80,540q3,173 59.5,301T305,1039.5T574,1110q150,0 267.5-71.5T1008,842l-80-34Q883,912 789.5,969T574,1026q-136,0-225-61.5t-133-171T170,540q3-220 104-353T574,54q119,0 211,55T926,270l82-36Q941,104 831,37T574-30Z" />
      <glyph unicode="d" glyph-name="gid70" horiz-adv-x="1152" d="M550-30Q397-30 292.5,45.5T134,250.5T80,542q0,159 53,288t154.5,204.5T534,1110q151,0 254.5-73.5T945,834.5T998,542q0-161-52.5-290.5T793,46T550-30Zm0,84q127,0 212.5,64T891,292.5T934,542q0,141-43.5,250.5T761.5,964T550,1026q-129,0-213.5-63.5T211,789.5T170,542q0-139 43-249.5T340.5,118T550,54ZM934,0V850h-6v590h84V0H934Z" />
      <glyph unicode="e" glyph-name="gid72" horiz-adv-x="1146" d="M574-30Q421-30 310.5,39T140,236T80,540q0,177 59.5,305t170,196.5T574,1110q155,0 265-70t168.5-203T1066,516H976v28q-6,233-109.5,357.5T574,1026q-192,0-298-127.5T170,540T276,181.5T574,54q134,0 235,63T970,298l70-40Q974,120 853,45T574-30ZM134,516v84h880V516H134Z" />
      <glyph unicode="f" glyph-name="gid77" horiz-adv-x="678" d="M256,0V1202q0,42 5.5,77.5T281,1345t39,57q24,25 53.5,40t65.5,21.5t79,6.5H658v-76H528q-94,0-141-45t-47-155V0H256ZM60,996v84H658V996H60Z" />
      <glyph unicode="g" glyph-name="gid78" horiz-adv-x="1152" d="M552-510q-78,0-157,22T246.5-413.5T128-270l74,50q54-111 152-157.5T552-424q145,0 226.5,54.5T893-207.5T926,60V336h8v744h78V60q0-49-2-95t-8-91q-16-131-69.5-216T785-468.5T552-510ZM550-30Q397-30 292.5,45.5T134,250.5T80,542q0,159 53,288t154.5,204.5T534,1110q151,0 254.5-73.5T945,834.5T998,542q0-161-52.5-290.5T793,46T550-30Zm0,84q127,0 212.5,64T891,292.5T934,542q0,141-43.5,250.5T761.5,964T550,1026q-129,0-213.5-63.5T211,789.5T170,542q0-139 43-249.5T340.5,118T550,54Z" />
      <glyph unicode="h" glyph-name="gid79" horiz-adv-x="1146" d="M942,0V572q0,116-23.5,200.5T849,912.5T737.5,995T588,1022q-99,0-168.5-34.5T307,893T244,755T224,590l-78-2q0,185 61,298.5T368.5,1052T588,1104q82,0 150.5-23t122-66.5T951,908t56-143.5T1026,588V0H942ZM140,0V1440h78V590h6V0H140Z" />
      <glyph unicode="i" glyph-name="gid80" horiz-adv-x="404" d="M160,1312v128h84V1312H160ZM160,0V1080h84V0H160Z" />
      <glyph unicode="j" glyph-name="gid87" horiz-adv-x="450" d="M-20-480v86H48q63,0 110.5,35.5T206-230V1080h84V-220q0-138-56.5-199T46-480H-20ZM206,1312v128h84V1312H206Z" />
      <glyph unicode="k" glyph-name="gid88" horiz-adv-x="936" d="M140,0V1440h84V560l540,520H890L326,540L976,0H832L224,520V0H140Z" />
      <glyph unicode="l" glyph-name="gid89" horiz-adv-x="404" d="M160,0V1470h84V0H160Z" />
      <glyph unicode="m" glyph-name="gid90" horiz-adv-x="1628" d="M1422,0l2,744q0,135-79,212.5T1150,1034q-64,0-129.5-29t-110-98T866,718H792q-5,119 41.5,207T964,1061.5t192,48.5q153,0 252.5-96T1508,750L1506,0h-84ZM140,0V1080h78V860h6V0H140ZM782,0l2,730q0,140-77.5,222T506,1034q-126,0-204-86T224,718l-74,32q0,104 47,185.5t129.5,128T516,1110q91,0 171-38.5T816.5,952T866,744L864,0H782Z" />
      <glyph unicode="n" glyph-name="gid91" horiz-adv-x="1146" d="M942,0V572q0,116-23.5,200.5T849,912.5T737.5,995T588,1022q-99,0-168.5-34.5T307,893T244,755T224,590l-78-2q0,185 61,298.5T368.5,1052T588,1104q82,0 150.5-23t122-66.5T951,908t56-143.5T1026,588V0H942ZM140,0V1080h78V860h6V0H140Z" />
      <glyph unicode="o" glyph-name="gid93" horiz-adv-x="1148" d="M574-30Q414-30 304,43T137,245T80,542q0,170 58,298t168.5,199T574,1110q161,0 271-72.5T1011.5,837T1068,542q0-171-57-299.5T843.5,42T574-30Zm0,84q204,0 304,135.5T978,542q0,221-100.5,352.5T574,1026q-137,0-226.5-62T214,793T170,542q0-220 102.5-354T574,54Z" />
      <glyph unicode="p" glyph-name="gid101" horiz-adv-x="1152" d="M602-30Q459-30 359,46T206.5,251.5T154,542q0,164 53,292.5t156.5,202T618,1110q145,0 246.5-75.5T1019,830t53-288q0-162-54-291.5T859.5,45.5T602-30ZM140-480V1080h78V230h6V-480H140ZM602,54q125,0 209.5,64T939,292.5T982,542q0,138-41.5,247.5T815,962.5T602,1026q-126,0-211.5-62t-129-171.5T218,542q0-139 43-249.5T389.5,118T602,54Z" />
      <glyph unicode="q" glyph-name="gid103" horiz-adv-x="1152" d="M550-30Q397-30 292.5,45.5T134,250.5T80,542q0,159 53,288t154.5,204.5T534,1110q151,0 254.5-73.5T945,834.5T998,542q0-161-52.5-290.5T793,46T550-30Zm0,84q127,0 212.5,64T891,292.5T934,542q0,141-43.5,250.5T761.5,964T550,1026q-129,0-213.5-63.5T211,789.5T170,542q0-139 43-249.5T340.5,118T550,54ZM928-480V230h6v850h78V-480H928Z" />
      <glyph unicode="r" glyph-name="gid104" horiz-adv-x="670" d="M140,0V1080h78V822l-26,34q17,44 43,82t51,62q44,43 104.5,65.5t121.5,26T620,1080v-80q-67,15-142,5.5T338,936q-57-53-80.5-122T229,671.5T224,532V0H140Z" />
      <glyph unicode="s" glyph-name="gid105" horiz-adv-x="1028" d="M534-28Q351-28 230,48.5T80,260l86,16q27-100 126.5-160T536,56q147,0 233.5,63T856,290q0,59-26,96.5T728.5,455T506,526q-154,42-239.5,81.5t-120,89T112,818q0,86 51,152t141,103t208,37q119,0 214.5-39.5t154-110T948,798l-86-16Q843,895 746.5,960.5T506,1026q-135,2-220.5-55T200,822q0-51 29-87.5T330,668t200-62q162-41 252.5-83t127-98T946,286q0-147-110-230.5T534-28Z" />
      <glyph unicode="t" glyph-name="gid107" horiz-adv-x="758" d="M698,0Q617-18 538-13.5t-141,38T304,126q-24,53-27,107.5T274,358V1380h84V358q0-70 1.5-113T380,164q36-72 114-88.5T698,80V0ZM20,996v84H698V996H20Z" />
      <glyph unicode="u" glyph-name="gid108" horiz-adv-x="1146" d="M558-24Q476-24 407.5-1t-122,66.5T195,172T139,315.5T120,492v588h84V508q0-115 23.5-200T297,167.5T408.5,85T558,58q99,0 168.5,34.5T839,187t63,138t20,165l78,2q0-185-61-298.5T777.5,28T558-24ZM928,0V220h-6v860h84V0H928Z" />
      <glyph unicode="v" glyph-name="gid113" horiz-adv-x="956" d="M432,0L40,1080h88L478,122l348,958h90L524,0H432Z" />
      <glyph unicode="w" glyph-name="gid114" horiz-adv-x="1488" d="M370,0L40,1080h88L414,144l286,936h88l286-936l288,936h86L1118,0h-88L744,938L458,0H370Z" />
      <glyph unicode="x" glyph-name="gid115" horiz-adv-x="1018" d="M20,0L460,546L30,1080H134L510,608l374,472H988L558,546L998,0H892L510,484L126,0H20Z" />
      <glyph unicode="y" glyph-name="gid116" horiz-adv-x="1012" d="M302-480L512,84l2-168L40,1080h92L556,32H492L872,1080h90L396-480H302Z" />
      <glyph unicode="z" glyph-name="gid119" horiz-adv-x="1054" d="M40,0V30L820,992H88v88H974v-34L194,88H926V0H40Z" />
      <glyph unicode="{" glyph-name="gid196" horiz-adv-x="799" d="M601-444q-87,0-148.5,61.5T391-236V450q0,37-22,72L287,636q-7,11-7,24.5t7,23.5l82,114q22,35 22,72v684q0,87 61.5,148.5T601,1764H709v-84H601q-52,0-89-36.5T475,1554V870q0-67-38-120l-64-90l64-90q38-53 38-120V-236q0-51 37-87.5T601-360H709v-84H601Z" />
      <glyph unicode="|" glyph-name="gid267" horiz-adv-x="444" d="M180,0V1440h84V0H180Z" />
      <glyph unicode="}" glyph-name="gid197" horiz-adv-x="799" d="M198-444H90v84H198q53,0 89.5,36.5T324-236V450q0,67 38,120l64,90l-64,90q-38,53-38,120v684q0,53-36.5,89.5T198,1680H90v84H198q87,0 148.5-61.5T408,1554V870q0-37 22-72l82-114q8-10 8-23.5T512,636L430,522q-22-35-22-72V-236q0-85-61.5-146.5T198-444Z" />
      <glyph unicode="~" glyph-name="gid250" horiz-adv-x="1252" d="M822,504q-55,0-108,20.5t-103.5,47t-97,47T424,639q-61,0-76-41.5t0-79.5H247q-17,65 2.5,118t66,84.5T427,752q56,0 110-20.5T641.5,684t97-47.5T828,616q52,0 72.5,39.5T904,743h101q17-63-2-117.5t-66-88T822,504Z" />
      <glyph unicode="&#xa0;" glyph-name="gid232" horiz-adv-x="400" />
      <glyph unicode="&#xa1;" glyph-name="gid181" horiz-adv-x="564" d="M240,1080h84V952H240v128Zm0-360h84V-360H240V720Z" />
      <glyph unicode="&#xa2;" glyph-name="gid235" horiz-adv-x="1078" d="M534-60V122q-148,9-248,83T134.5,403.5T80,690q3,166 55,290.5T287,1177t247,81v182h84V1258q135-10 239.5-80T1008,992l-80-34q-45,104-138.5,161T574,1176q-136,0-225-61.5t-133-171T170,690q3-220 104-353T574,204q119,0 211,55T926,420l82-36Q945,264 847,197.5T618,122V-60H534Z" />
      <glyph unicode="&#xa3;" glyph-name="gid239" horiz-adv-x="1142" d="M60,0V84H212q57,0 97.5,40.5T350,222v878q0,110 46.5,193.5t127.5,130T708,1470q87,0 157-38t124-115.5t93-194.5l-80-26q-49,150-120.5,220T706,1386q-123,0-197.5-77.5T434,1100V84h622V0H60Zm0,694v84H838V694H60Z" />
      <glyph unicode="&#xa4;" glyph-name="gid236" horiz-adv-x="1244" d="M622,196q-108,0-203,41T252,350.5T139,518T98,722q0,108 41,203t113,167t167,113t203,41q109,0 204-41t167.5-113T1107,925t41-203q0-109-41-204T993.5,350.5T826,237T622,196ZM120,160L60,220L252,412l60-60L120,160Zm134,868L60,1222l60,58l192-192l-58-60Zm870-868L932,352l60,60l192-192l-60-60ZM622,280q122,0 222.5,60.5t160,160.5T1064,720q0,122-61,222.5t-161.5,160T622,1162q-122,0-222-59.5t-159-160T182,720q0-119 59-219T400,340.5T622,280Zm368,748l-58,60l192,192l60-58L990,1028Z" />
      <glyph unicode="&#xa5;" glyph-name="gid240" horiz-adv-x="1038" d="M160,512v84H880V512H160Zm0-268v84H880V244H160ZM478,0V612L0,1440H96L520,708l422,732h96L562,612V0H478Z" />
      <glyph unicode="&#xa6;" glyph-name="gid268" horiz-adv-x="444" d="M180,752v688h84V752H180Zm0-1000V440h84V-248H180Z" />
      <glyph unicode="&#xa7;" glyph-name="gid262" horiz-adv-x="1028" d="M542-328q-90,0-178.5,28.5T209-207.5T120-40l86,16q22-81 78.5-129T411-222.5T544-244q77,0 143.5,27T795-138T836-10q0,72-40.5,112T677,168.5T486,226T284,289.5t-140.5,85T92,518q0,97 56,161t143,90.5T472,782l-6-16q-120-28-203-90T180,522q0-66 44.5-105T344,353.5T510,306q118-30 212-63.5t149-92T926-14q0-103-52-173T735-292.5T542-328Zm72,560l2,24q62,0 122,27t99,79t39,128q0,72-40.5,112T717,668.5T526,726T324,789.5t-140.5,85T132,1018q0,97 56,162t142,97.5T506,1310q105,0 192.5-40T842,1159.5T908,998l-86-16q-17,93-71.5,146t-124,75.5T496,1226q-74,0-137-25.5T258,1129t-38-107q0-66 44.5-105T384,853.5T550,806q118-30 212-63.5t149-92T966,486q0-103-50-170.5T785.5,225T614,232Z" />
      <glyph unicode="&#xa8;" glyph-name="gid271" horiz-adv-x="960" d="M600,1680v120H720V1680H600Zm-360,0v120H360V1680H240Z" />
      <glyph unicode="&#xa9;" glyph-name="gid263" horiz-adv-x="1496" d="M748-10Q606-10 481,43.5t-219.5,148T113.5,411T60,678q0,143 53.5,267.5t148,219t219.5,148T748,1366q143,0 267.5-53.5t219-148t148-219T1436,678q0-142-53.5-267t-148-219.5t-219-148T748-10Zm4,270q-85,0-157,31T470,388q-52,66-69,143.5T384,682q2,75 19.5,151T470,972q53,66 125.5,97T756,1100q53,0 101-11.5t93-38.5q44-27 79-68t51-92l-82-28q-15,33-40.5,64T900,978q-31,21-69,30.5t-77,9.5q-64,0-119-26t-93-74q-37-48-51.5-111T476,684q0-69 16.5-133T542,442q36-49 91-74.5T752,342q82,0 150,40q32,20 55,49t39,65l84-30q-25-57-59.5-93.5T956,316q-45-28-95-42T752,260ZM748,78q124,0 232,46.5t190.5,129t129,192T1346,680q0,124-46.5,232t-129,190.5T980,1231.5T748,1278q-125,0-234.5-46.5t-192-129T192.5,912T146,680q0-125 46.5-234.5t129-192t192-129T748,78Z" />
      <glyph unicode="&#xaa;" glyph-name="gid125" horiz-adv-x="623" d="M264,540q-91,0-137.5,48T80,701q0,64 36,102.5T213,860q56,15 131.5,25T484,904l-30-43q6,85-23,125.5T322,1027q-49,0-86-22t-51-72l-85,25q20,71 76,111.5T323,1110q74,0 126.5-26t75.5-79q11-25 14.5-54.5T543,889V555H464V684l15-18q-31-63-84.5-94.5T264,540Zm13,75q72,0 115,37t53,87q8,26 8.5,59t0.5,46l34-15q-66-10-128-17.5T253,791q-34-10-59-30.5T169,702q0-34 25-60.5T277,615Z" />
      <glyph unicode="&#xab;" glyph-name="gid220" horiz-adv-x="1004" d="M802,112L460,542L802,970l62-48L560,542L864,160l-62-48Zm-300,0L160,542L502,970l62-48L260,542L564,160l-62-48Z" />
      <glyph unicode="&#xac;" glyph-name="gid251" horiz-adv-x="1200" d="M996,402V658H120v84h960V402H996Z" />
      <glyph unicode="&#xad;" glyph-name="gid207" horiz-adv-x="840" d="M120,588v84H720V588H120Z" />
      <glyph unicode="&#xae;" glyph-name="gid264" horiz-adv-x="1210" d="M606,594q-97,0-181.5,36T276,730T176,878.5T140,1060q0,96 36,180t100,148t148.5,100T606,1524q96,0 180-36t148-100t100-148t36-180q0-97-36-181.5T934,730T786,630T606,594Zm0,84q105,0 191.5,51.5T935,867.5T986,1060q0,105-51,191T797.5,1388.5T606,1440q-106,0-192.5-51.5T275.5,1251T224,1060q0-106 51.5-192.5t138-138T606,678ZM444,834v460H648q59,0 104.5-44T798,1146q0-39-23.5-77.5T710,1012l88-178H716L636,998H516V834H444Zm72,232H646q30,0 54,23.5t24,56.5q0,36-26,58t-52,22H516V1066Z" />
      <glyph unicode="&#xaf;" glyph-name="gid277" horiz-adv-x="960" d="M240,1680v84H720v-84H240Z" />
      <glyph unicode="&#xb0;" glyph-name="gid266" horiz-adv-x="900" d="M420,750q-99,0-181,48.5t-130.5,130T60,1110q0,98 50,180t132,131t178,49q99,0 180.5-48.5t130.5-130T780,1110T731,928.5t-130.5-130T420,750Zm0,84q75,0 138,37.5T658.5,972T696,1110t-37.5,138T558,1348.5T420,1386t-137.5-37.5T182,1248t-38-138t38-138T282.5,871.5T420,834Z" />
      <glyph unicode="&#xb1;" glyph-name="gid249" horiz-adv-x="1200" d="M558,440V718H120v84H558v278h84V802h438V718H642V440H558ZM120,176v84h960V176H120Z" />
      <glyph unicode="&#xb2;" glyph-name="gid163" horiz-adv-x="784" d="M100,540l2,76L512,990q54,48 71,92t17,92q0,87-59,147.5T396,1382q-59,0-106-29t-74-76t-26-101H106q0,81 38.5,145.5t104,101.5T396,1460t147-38.5T646,1318t38-144q0-55-13.5-97t-41-78.5T560,924L160,560l-24,60H684V540H100Z" />
      <glyph unicode="&#xb3;" glyph-name="gid164" horiz-adv-x="760" d="M356,520q-99,0-173,52.5T80,716l78,24q24-70 77.5-105.5T356,600q95,2 147.5,60T556,812q0,96-55,154t-147,58q-25,0-52.5-6.5T248,1000l-42,64l384,360l24-62H116v78H632v-80L290,1036l-4,54q104,22 184-8.5t125-101T640,812q0-87-36-152.5T504,557T356,520Z" />
      <glyph unicode="&#xb4;" glyph-name="gid273" horiz-adv-x="914" d="M463,1620H375l96,270h88l-96-270Z" />
      <glyph unicode="&#xb5;" glyph-name="gid253" horiz-adv-x="1166" d="M140-480V1080h84V508q0-115 23.5-200T317,167.5T428.5,85T578,58q99,0 168.5,34.5T859,187t63,138t20,165v590h84V0H948V174Q888,71 790,23.5T578-24Q457-24 365.5,25.5T218,168V-480H140Z" />
      <glyph unicode="&#xb6;" glyph-name="gid261" horiz-adv-x="1162" d="M698-282V576H612q-21,0-43,2t-49,6q-104,17-180.5,76.5T221.5,810T180,1008t41.5,198t118,149.5T520,1432q27,5 49,6.5t43,1.5H782V-282H698Zm200,0V1440h84V-282H898Z" />
      <glyph unicode="&#xb7;" glyph-name="gid184" horiz-adv-x="400" d="M202,550q-34,0-58,23t-24,57q0,35 24,57.5T202,710q32,0 55-22.5T280,630q0-34-23-57t-55-23Z" />
      <glyph unicode="&#xb8;" glyph-name="gid278" horiz-adv-x="772" d="M360-478q-33,0-63,8t-57,20l28,74q50-20 86-20q45,0 69.5,29T448-302q0,51-42,72.5T314-192L390,14h84L416-142q51-21 85.5-60T536-306q0-72-52-122T360-478Z" />
      <glyph unicode="&#xb9;" glyph-name="gid162" horiz-adv-x="612" d="M290,540v808L120,1246v92l170,102h82V540H290Z" />
      <glyph unicode="&#xba;" glyph-name="gid126" horiz-adv-x="681" d="M340,540q-121,0-190.5,80T80,826q0,127 71,205.5T340,1110q122,0 191.5-79.5T601,826q0-127-70-206.5T340,540Zm0,85q84,0 125,56t41,145q0,91-41.5,145.5T340,1026q-85,0-125-55.5T175,826q0-91 41.5-146T340,625Z" />
      <glyph unicode="&#xbb;" glyph-name="gid221" horiz-adv-x="1004" d="M202,112l-62,48L444,542L140,922l62,48L544,542L202,112Zm300,0l-62,48L744,542L440,922l62,48L844,542L502,112Z" />
      <glyph unicode="&#xbc;" glyph-name="gid173" horiz-adv-x="1864" d="M290,540v808L120,1246v92l170,102h82V540H290ZM1442,0V178H1016v80l304,642h92L1108,258h334V526h82V258h100V178H1524V0h-82ZM286,0L212,60L1306,1440l72-58L286,0Z" />
      <glyph unicode="&#xbd;" glyph-name="gid172" horiz-adv-x="1762" d="M290,540v808L120,1246v92l170,102h82V540H290ZM1078,0l2,76l410,374q54,48 71,92t17,92q0,87-59,147.5T1374,842q-59,0-106-29t-74-76t-26-101h-84q0,81 38.5,145.5t104,101.5T1374,920t147-38.5T1624,778t38-144q0-55-13.5-97t-41-78.5T1538,384L1138,20l-24,60h548V0H1078ZM286,0L212,60L1306,1440l72-58L286,0Z" />
      <glyph unicode="&#xbe;" glyph-name="gid174" horiz-adv-x="1894" d="M356,520q-99,0-173,52.5T80,716l78,24q24-70 77.5-105.5T356,600q95,2 147.5,60T556,812q0,96-55,154t-147,58q-25,0-52.5-6.5T248,1000l-42,64l384,360l24-62H116v78H632v-80L290,1036l-4,54q104,22 184-8.5t125-101T640,812q0-87-36-152.5T504,557T356,520ZM1592,0V178H1166v80l304,642h92L1258,258h334V526h82V258h100V178H1674V0h-82ZM434,0L360,60L1454,1440l72-58L434,0Z" />
      <glyph unicode="&#xbf;" glyph-name="gid183" horiz-adv-x="1008" d="M572,686q0-84-3.5-140.5T532,426q-32-60-83-101.5T345,248t-91-76q-37-43-50.5-91T190-18q0-61 16.5-109T254-210q48-55 116-75.5T508-306q77,0 141.5,22.5T754-216q38,38 54,89.5T824-20h84q0-66-21-134.5T816-274q-60-61-143-88.5T504-390q-90,0-171.5,27.5T194-274q-49,53-71.5,117.5T100-16q0,69 23,134.5T192,230q36,39 88.5,75T382,379.5T456,466q26,48 26,99t0,121h90Zm0,394V930H482v150h90Z" />
      <glyph unicode="&#xc0;" glyph-name="gid6" horiz-adv-x="1218" d="M558,1620l-96,270h88l96-270H558ZM1178,0h-90L580,1402h60L130,0H40L564,1440h90L1178,0ZM978,374H242v80H978V374Z" />
      <glyph unicode="&#xc1;" glyph-name="gid2" horiz-adv-x="1218" d="M660,1620H572l96,270h88l-96-270ZM40,0L564,1440h90L1178,0h-90L578,1402h60L130,0H40ZM240,374v80H976V374H240Z" />
      <glyph unicode="&#xc2;" glyph-name="gid4" horiz-adv-x="1218" d="M364,1620l200,240h92l200-240H756L610,1790L464,1620H364ZM40,0L564,1440h90L1178,0h-90L578,1402h60L130,0H40ZM240,374v80H976V374H240Z" />
      <glyph unicode="&#xc3;" glyph-name="gid8" horiz-adv-x="1218" d="M748,1670q-39,0-76.5,14.5T598,1718t-69,33.5T466,1766q-43,0-53.5-29.5T412,1680H340q-18,69 20.5,117.5T468,1846q40,0 78-14.5t74-33.5t69-33.5t63-14.5q38,0 52,28t2,62h72q18-67-20-118.5T748,1670ZM40,0L564,1440h90L1178,0h-90L578,1402h60L130,0H40ZM240,374v80H976V374H240Z" />
      <glyph unicode="&#xc4;" glyph-name="gid5" horiz-adv-x="1218" d="M730,1680v120H850V1680H730Zm-360,0v120H490V1680H370ZM40,0L564,1440h90L1178,0h-90L578,1402h60L130,0H40ZM240,374v80H976V374H240Z" />
      <glyph unicode="&#xc5;" glyph-name="gid7" horiz-adv-x="1218" d="M610,1560q-53,0-97,26t-70.5,70T416,1754q0,53 26.5,97t70.5,70.5t97,26.5q54,0 98-26.5t70-70.5t26-97q0-54-26-98t-70-70t-98-26Zm0,84q47,0 78.5,32.5T720,1754q0,46-31.5,78T610,1864q-45,0-77.5-32T500,1754q0-45 32.5-77.5T610,1644ZM40,0L564,1440h90L1178,0h-90L578,1402h60L130,0H40ZM240,374v80H976V374H240Z" />
      <glyph unicode="&#xc6;" glyph-name="gid9" horiz-adv-x="1810" d="M40,0L564,1440H870v-84H572l64,42L130,0H40ZM240,374v80H876V374H240ZM830,0V1440h880v-84H914V762h676V678H914V84h796V0H830Z" />
      <glyph unicode="&#xc7;" glyph-name="gid12" horiz-adv-x="1400" d="M696-478q-33,0-63,8t-57,20l28,74q50-20 86-20q45,0 69.5,29T784-302q0,51-42,72.5T650-192L726,14h84L752-142q51-21 85.5-60T872-306q0-72-52-122T696-478ZM706-30Q491-30 347.5,66T132,331T60,720t72,389t215.5,265T706,1470q252,0 406-131.5T1320,988l-88-20q-48,191-179.5,304.5T706,1386q-185,0-307.5-85T214,1065.5T150,720t60-345T396.5,139.5T706,54q215,0 346.5,114T1232,472l88-20q-54-219-208-350.5T706-30Z" />
      <glyph unicode="&#xc8;" glyph-name="gid19" horiz-adv-x="1120" d="M574,1620l-96,270h88l96-270H574ZM140,0V1440h880v-84H224V762H900V678H224V84h796V0H140Z" />
      <glyph unicode="&#xc9;" glyph-name="gid16" horiz-adv-x="1120" d="M646,1620H558l96,270h88l-96-270ZM140,0V1440h880v-84H224V762H900V678H224V84h796V0H140Z" />
      <glyph unicode="&#xca;" glyph-name="gid17" horiz-adv-x="1120" d="M324,1620l200,240h92l200-240H716L570,1790L424,1620H324ZM140,0V1440h880v-84H224V762H900V678H224V84h796V0H140Z" />
      <glyph unicode="&#xcb;" glyph-name="gid18" horiz-adv-x="1120" d="M670,1680v120H790V1680H670Zm-360,0v120H430V1680H310ZM140,0V1440h880v-84H224V762H900V678H224V84h796V0H140Z" />
      <glyph unicode="&#xcc;" glyph-name="gid27" horiz-adv-x="404" d="M156,1620L60,1890h88l96-270H156ZM160,0V1440h84V0H160Z" />
      <glyph unicode="&#xcd;" glyph-name="gid24" horiz-adv-x="404" d="M248,1620H160l96,270h88l-96-270ZM160,0V1440h84V0H160Z" />
      <glyph unicode="&#xce;" glyph-name="gid25" horiz-adv-x="404" d="M-44,1620l200,240h92l200-240H348L202,1790L56,1620H-44ZM160,0V1440h84V0H160Z" />
      <glyph unicode="&#xcf;" glyph-name="gid26" horiz-adv-x="404" d="M322,1680v120H442V1680H322Zm-360,0v120H82V1680H-38ZM160,0V1440h84V0H160Z" />
      <glyph unicode="&#xd0;" glyph-name="gid14" horiz-adv-x="1282" d="M20,678v84H620V678H20ZM118,0V1440H540q26,0 83-1t109-9q159-23 263.5-122T1151,1056.5T1202,720q0-185-51-337.5t-155.5-251T732,10Q681,3 622.5,1.5T540,0H118Zm90,84H540q48,0 96.5,3T718,96q142,24 228.5,109.5t126,218T1112,720t-39.5,296.5t-126,218T718,1344q-33,6-83,9t-95,3H208V84Z" />
      <glyph unicode="&#xd1;" glyph-name="gid33" horiz-adv-x="1324" d="M830,1620q-39,0-76.5,14.5T680,1668t-69,33.5T548,1716q-43,0-53.5-29.5T494,1630H422q-18,69 20.5,117.5T550,1796q40,0 78-14.5t74-33.5t69-33.5t63-14.5q38,0 52,28t2,62h72q18-67-20-118.5T830,1620ZM140,0V1440h84L1100,150V1440h84V0h-84L224,1292V0H140Z" />
      <glyph unicode="&#xd2;" glyph-name="gid38" horiz-adv-x="1412" d="M670,1620l-96,270h88l96-270H670ZM706-30Q491-30 347.5,66T132,331T60,720t72,389t215.5,265T706,1470t358.5-96T1280,1109t72-389t-72-389T1064.5,66T706-30Zm0,84q185,0 308.5,85.5T1200,375t62,345t-62,345.5T1014.5,1301T706,1386t-307.5-85T214,1065.5T150,720t60-345T396.5,139.5T706,54Z" />
      <glyph unicode="&#xd3;" glyph-name="gid35" horiz-adv-x="1412" d="M772,1620H684l96,270h88l-96-270ZM706-30Q491-30 347.5,66T132,331T60,720t72,389t215.5,265T706,1470t358.5-96T1280,1109t72-389t-72-389T1064.5,66T706-30Zm0,84q185,0 308.5,85.5T1200,375t62,345t-62,345.5T1014.5,1301T706,1386t-307.5-85T214,1065.5T150,720t60-345T396.5,139.5T706,54Z" />
      <glyph unicode="&#xd4;" glyph-name="gid36" horiz-adv-x="1412" d="M460,1620l200,240h92l200-240H852L706,1790L560,1620H460ZM706-30Q491-30 347.5,66T132,331T60,720t72,389t215.5,265T706,1470t358.5-96T1280,1109t72-389t-72-389T1064.5,66T706-30Zm0,84q185,0 308.5,85.5T1200,375t62,345t-62,345.5T1014.5,1301T706,1386t-307.5-85T214,1065.5T150,720t60-345T396.5,139.5T706,54Z" />
      <glyph unicode="&#xd5;" glyph-name="gid40" horiz-adv-x="1412" d="M706-30Q491-30 347.5,66T132,331T60,720t72,389t215.5,265T706,1470t358.5-96T1280,1109t72-389t-72-389T1064.5,66T706-30Zm0,84q185,0 308.5,85.5T1200,375t62,345t-62,345.5T1014.5,1301T706,1386t-307.5-85T214,1065.5T150,720t60-345T396.5,139.5T706,54ZM861,1620q-39,0-76.5,14.5T711,1668t-69,33.5T579,1716q-43,0-53.5-29.5T525,1630H453q-18,69 20.5,117.5T581,1796q40,0 78-14.5t74-33.5t69-33.5t63-14.5q38,0 52,28t2,62h72q18-67-20-118.5T861,1620Z" />
      <glyph unicode="&#xd6;" glyph-name="gid37" horiz-adv-x="1412" d="M826,1680v120H946V1680H826Zm-360,0v120H586V1680H466ZM706-30Q491-30 347.5,66T132,331T60,720t72,389t215.5,265T706,1470t358.5-96T1280,1109t72-389t-72-389T1064.5,66T706-30Zm0,84q185,0 308.5,85.5T1200,375t62,345t-62,345.5T1014.5,1301T706,1386t-307.5-85T214,1065.5T150,720t60-345T396.5,139.5T706,54Z" />
      <glyph unicode="&#xd7;" glyph-name="gid244" horiz-adv-x="950" d="M771,364L475,660L179,364l-59,60L416,719L120,1015l59,59L475,779l296,295l59-59L534,719L830,424l-59-60Z" />
      <glyph unicode="&#xd8;" glyph-name="gid39" horiz-adv-x="1412" d="M72-26L10,32L210,246l22,24l910,972l20,20l183,197l62-55l-197-214l-16-16L286,202l-26-28L72-26Zm634-4Q491-30 347.5,66T132,331T60,720t72,389t215.5,265T706,1470t358.5-96T1280,1109t72-389t-72-389T1064.5,66T706-30Zm0,84q185,0 308.5,85.5T1200,375t62,345t-62,345.5T1014.5,1301T706,1386t-307.5-85T214,1065.5T150,720t60-345T396.5,139.5T706,54Z" />
      <glyph unicode="&#xd9;" glyph-name="gid52" horiz-adv-x="1380" d="M669,1620l-96,270h88l96-270H669ZM690-30Q530-30 406,37T211,225.5T140,510v930h84V538q0-133 45-226.5t116-151t152-84T690,50T843,76.5t152,84t116,151T1156,538v902h84V510q0-162-71-283.5T974,37.5T690-30Z" />
      <glyph unicode="&#xda;" glyph-name="gid49" horiz-adv-x="1380" d="M711,1620H623l96,270h88l-96-270ZM690-30Q530-30 406,37T211,225.5T140,510v930h84V538q0-133 45-226.5t116-151t152-84T690,50T843,76.5t152,84t116,151T1156,538v902h84V510q0-162-71-283.5T974,37.5T690-30Z" />
      <glyph unicode="&#xdb;" glyph-name="gid50" horiz-adv-x="1380" d="M444,1620l200,240h92l200-240H836L690,1790L544,1620H444ZM690-30Q530-30 406,37T211,225.5T140,510v930h84V538q0-133 45-226.5t116-151t152-84T690,50T843,76.5t152,84t116,151T1156,538v902h84V510q0-162-71-283.5T974,37.5T690-30Z" />
      <glyph unicode="&#xdc;" glyph-name="gid51" horiz-adv-x="1380" d="M810,1680v120H930V1680H810Zm-360,0v120H570V1680H450ZM690-30Q530-30 406,37T211,225.5T140,510v930h84V538q0-133 45-226.5t116-151t152-84T690,50T843,76.5t152,84t116,151T1156,538v902h84V510q0-162-71-283.5T974,37.5T690-30Z" />
      <glyph unicode="&#xdd;" glyph-name="gid57" horiz-adv-x="1038" d="M535,1620H447l96,270h88l-96-270ZM478,0V612L0,1440H96L520,708l422,732h96L562,612V0H478Z" />
      <glyph unicode="&#xde;" glyph-name="gid43" horiz-adv-x="1142" d="M140,0V1440h84V1152H650q79,0 154-30q39-15 75.5-38t66.5-52q65-60 100.5-142.5T1082,720q0-81-30.5-156T968,430q-58-66-143.5-104T650,288H224V0H140Zm84,372H650q74,0 143,33.5T910,496q39,47 61.5,105T992,720q-1,71-28.5,136T886,970q-45,45-108,71.5T650,1068H224V372Z" />
      <glyph unicode="&#xdf;" glyph-name="gid106" horiz-adv-x="1150" d="M582-28q-45,0-91.5,5T400,0V84q48-16 89.5-21T582,58q159,0 258.5,90.5T940,402q0,146-115.5,234T520,728v84q73,9 139,41.5t107.5,93T808,1100q0,135-76,210.5T522,1386q-93,0-168-42.5T252,1212q-12-39-16-82.5t-4-87.5V0H140V1064q0,56 7.5,105.5T170,1256q28,69 75.5,117t116,72.5T520,1470q114,0 199-42t132-125t47-205q0-115-53.5-201.5T690,784q45-2 103-26.5t112-72t89.5-118T1030,402q0-193-114.5-311.5T582-28Z" />
      <glyph unicode="&#xe0;" glyph-name="gid63" horiz-adv-x="1084" d="M516,1260l-96,270h88l96-270H516ZM454-30Q328-30 245,14T121,130T80,286q0,95 41.5,157.5T230,542t144,52q94,19 201.5,33.5T774,652t136,16l-30-20q5,191-69.5,284.5T548,1026q-136,0-218.5-60.5T214,780l-92,24q36,150 147.5,228T552,1110q150,0 250-61T938,884q14-40 20-97t6-111V0H886V296l40-2Q883,140 755,55T454-30Zm-4,84q117,0 206.5,42t145,121.5T872,408q8,56 8,120t0,92l44-34q-53-5-146.5-13.5T580,550.5T392,516q-49-12-101-38t-87.5-73T168,284q0-52 26-105t87.5-89T450,54Z" />
      <glyph unicode="&#xe1;" glyph-name="gid60" horiz-adv-x="1084" d="M593,1260H505l96,270h88l-96-270ZM454-30Q328-30 245,14T121,130T80,286q0,95 41.5,157.5T230,542t144,52q94,19 201.5,33.5T774,652t136,16l-30-20q5,191-69.5,284.5T548,1026q-136,0-218.5-60.5T214,780l-92,24q36,150 147.5,228T552,1110q150,0 250-61T938,884q14-40 20-97t6-111V0H886V296l40-2Q883,140 755,55T454-30Zm-4,84q117,0 206.5,42t145,121.5T872,408q8,56 8,120t0,92l44-34q-53-5-146.5-13.5T580,550.5T392,516q-49-12-101-38t-87.5-73T168,284q0-52 26-105t87.5-89T450,54Z" />
      <glyph unicode="&#xe2;" glyph-name="gid61" horiz-adv-x="1084" d="M312,1260l200,240h92l200-240H704L558,1430L412,1260H312ZM454-30Q328-30 245,14T121,130T80,286q0,95 41.5,157.5T230,542t144,52q94,19 201.5,33.5T774,652t136,16l-30-20q5,191-69.5,284.5T548,1026q-136,0-218.5-60.5T214,780l-92,24q36,150 147.5,228T552,1110q150,0 250-61T938,884q14-40 20-97t6-111V0H886V296l40-2Q883,140 755,55T454-30Zm-4,84q117,0 206.5,42t145,121.5T872,408q8,56 8,120t0,92l44-34q-53-5-146.5-13.5T580,550.5T392,516q-49-12-101-38t-87.5-73T168,284q0-52 26-105t87.5-89T450,54Z" />
      <glyph unicode="&#xe3;" glyph-name="gid65" horiz-adv-x="1084" d="M702,1260q-39,0-76.5,14.5T552,1308t-69,33.5T420,1356q-43,0-53.5-29.5T366,1270H294q-18,69 20.5,117.5T422,1436q40,0 78-14.5t74-33.5t69-33.5t63-14.5q38,0 52,28t2,62h72q18-67-20-118.5T702,1260ZM454-30Q328-30 245,14T121,130T80,286q0,95 41.5,157.5T230,542t144,52q94,19 201.5,33.5T774,652t136,16l-30-20q5,191-69.5,284.5T548,1026q-136,0-218.5-60.5T214,780l-92,24q36,150 147.5,228T552,1110q150,0 250-61T938,884q14-40 20-97t6-111V0H886V296l40-2Q883,140 755,55T454-30Zm-4,84q117,0 206.5,42t145,121.5T872,408q8,56 8,120t0,92l44-34q-53-5-146.5-13.5T580,550.5T392,516q-49-12-101-38t-87.5-73T168,284q0-52 26-105t87.5-89T450,54Z" />
      <glyph unicode="&#xe4;" glyph-name="gid62" horiz-adv-x="1084" d="M688,1320v120H808V1320H688Zm-360,0v120H448V1320H328ZM454-30Q328-30 245,14T121,130T80,286q0,95 41.5,157.5T230,542t144,52q94,19 201.5,33.5T774,652t136,16l-30-20q5,191-69.5,284.5T548,1026q-136,0-218.5-60.5T214,780l-92,24q36,150 147.5,228T552,1110q150,0 250-61T938,884q14-40 20-97t6-111V0H886V296l40-2Q883,140 755,55T454-30Zm-4,84q117,0 206.5,42t145,121.5T872,408q8,56 8,120t0,92l44-34q-53-5-146.5-13.5T580,550.5T392,516q-49-12-101-38t-87.5-73T168,284q0-52 26-105t87.5-89T450,54Z" />
      <glyph unicode="&#xe5;" glyph-name="gid64" horiz-adv-x="1084" d="M557,1200q-53,0-97,26t-70.5,70T363,1394q0,53 26.5,97t70.5,70.5t97,26.5q54,0 98-26.5t70-70.5t26-97q0-54-26-98t-70-70t-98-26Zm0,84q47,0 78.5,32.5T667,1394q0,46-31.5,78T557,1504q-45,0-77.5-32T447,1394q0-45 32.5-77.5T557,1284ZM454-30Q328-30 245,14T121,130T80,286q0,95 41.5,157.5T230,542t144,52q94,19 201.5,33.5T774,652t136,16l-30-20q5,191-69.5,284.5T548,1026q-136,0-218.5-60.5T214,780l-92,24q36,150 147.5,228T552,1110q150,0 250-61T938,884q14-40 20-97t6-111V0H886V296l40-2Q883,140 755,55T454-30Zm-4,84q117,0 206.5,42t145,121.5T872,408q8,56 8,120t0,92l44-34q-53-5-146.5-13.5T580,550.5T392,516q-49-12-101-38t-87.5-73T168,284q0-52 26-105t87.5-89T450,54Z" />
      <glyph unicode="&#xe6;" glyph-name="gid66" horiz-adv-x="1892" d="M1348-30q-152,0-256.5,73.5T933.5,246T880,542q0,169 54.5,297t160,199.5T1352,1110q154,0 256-74.5t153-208T1812,516h-86v28q-6,222-98,352t-280,130q-128,0-213.5-61.5t-128-171T964,540q0-219 97-352.5T1348,54q122,0 218.5,60T1720,298l66-40q-41-94-106-158T1531,3T1348-30ZM450,54q132,0 234.5,58.5T832,268q27,57 37,122.5t10.5,114T880,560l4-40H534q-47,0-109.5-4t-121-24.5t-97-68T168,290q0-115 76-175.5T450,54Zm12-84Q284-30 182,55.5T80,292q0,92 34.5,150.5t89.5,91T321.5,580t119,17t93.5,3H882l-2-12q6,141-24,239T752.5,975.5T554,1026q-123,0-217.5-52T210,794l-88,28q21,99 84,162.5T359,1079t193,31q164,0 262-72.5T946,834q11-39 14.5-77.5T964,676L938,300Q899,172 822.5,100T651-1T462-30ZM930,516v84h832V516H930Z" />
      <glyph unicode="&#xe7;" glyph-name="gid69" horiz-adv-x="1078" d="M516-478q-33,0-63,8t-57,20l28,74q50-20 86-20q45,0 69.5,29T604-302q0,51-42,72.5T470-192L546,14h84L572-142q51-21 85.5-60T692-306q0-72-52-122T516-478ZM574-30Q413-30 304,42T139,242.5T80,540q3,173 59.5,301T305,1039.5T574,1110q150,0 267.5-71.5T1008,842l-80-34Q883,912 789.5,969T574,1026q-136,0-225-61.5t-133-171T170,540q3-220 104-353T574,54q119,0 211,55T926,270l82-36Q941,104 831,37T574-30Z" />
      <glyph unicode="&#xe8;" glyph-name="gid76" horiz-adv-x="1146" d="M552,1260l-96,270h88l96-270H552ZM574-30Q421-30 310.5,39T140,236T80,540q0,177 59.5,305t170,196.5T574,1110q155,0 265-70t168.5-203T1066,516H976v28q-6,233-109.5,357.5T574,1026q-192,0-298-127.5T170,540T276,181.5T574,54q134,0 235,63T970,298l70-40Q974,120 853,45T574-30ZM134,516v84h880V516H134Z" />
      <glyph unicode="&#xe9;" glyph-name="gid73" horiz-adv-x="1146" d="M639,1260H551l96,270h88l-96-270ZM574-30Q421-30 310.5,39T140,236T80,540q0,177 59.5,305t170,196.5T574,1110q155,0 265-70t168.5-203T1066,516H976v28q-6,233-109.5,357.5T574,1026q-192,0-298-127.5T170,540T276,181.5T574,54q134,0 235,63T970,298l70-40Q974,120 853,45T574-30ZM134,516v84h880V516H134Z" />
      <glyph unicode="&#xea;" glyph-name="gid74" horiz-adv-x="1146" d="M328,1260l200,240h92l200-240H720L574,1430L428,1260H328ZM574-30Q421-30 310.5,39T140,236T80,540q0,177 59.5,305t170,196.5T574,1110q155,0 265-70t168.5-203T1066,516H976v28q-6,233-109.5,357.5T574,1026q-192,0-298-127.5T170,540T276,181.5T574,54q134,0 235,63T970,298l70-40Q974,120 853,45T574-30ZM134,516v84h880V516H134Z" />
      <glyph unicode="&#xeb;" glyph-name="gid75" horiz-adv-x="1146" d="M694,1320v120H814V1320H694Zm-360,0v120H454V1320H334ZM574-30Q421-30 310.5,39T140,236T80,540q0,177 59.5,305t170,196.5T574,1110q155,0 265-70t168.5-203T1066,516H976v28q-6,233-109.5,357.5T574,1026q-192,0-298-127.5T170,540T276,181.5T574,54q134,0 235,63T970,298l70-40Q974,120 853,45T574-30ZM134,516v84h880V516H134Z" />
      <glyph unicode="&#xec;" glyph-name="gid86" horiz-adv-x="404" d="M156,1260L60,1530h88l96-270H156ZM160,0V1080h84V0H160Z" />
      <glyph unicode="&#xed;" glyph-name="gid82" horiz-adv-x="404" d="M248,1260H160l96,270h88l-96-270ZM160,0V1080h84V0H160Z" />
      <glyph unicode="&#xee;" glyph-name="gid83" horiz-adv-x="404" d="M-44,1260l200,240h92l200-240H348L202,1430L56,1260H-44ZM160,0V1080h84V0H160Z" />
      <glyph unicode="&#xef;" glyph-name="gid84" horiz-adv-x="404" d="M322,1320v120H442V1320H322Zm-360,0v120H82V1320H-38ZM160,0V1080h84V0H160Z" />
      <glyph unicode="&#xf0;" glyph-name="gid71" horiz-adv-x="1146" d="M574-30Q418-32 308.5,34t-168,187T80,504q2,164 61,284.5t169,186T574,1038q117,2 225-45.5T970,850q-18,160-81,275.5T718.5,1307T460,1384l10,82q176-10 305-92.5T976,1144q39-75 58.5-158T1060,788.5t6-282.5q0-163-59.5-284.5T836.5,34T574-30Zm0,84q198,0 300,122.5T976,506q0,209-105.5,330T574,954q-196,3-300-120.5T170,504q0-211 104.5-330.5T574,54Zm32,1104l-66,52l278,354l66-52L606,1158Z" />
      <glyph unicode="&#xf1;" glyph-name="gid92" horiz-adv-x="1146" d="M712,1260q-39,0-76.5,14.5T562,1308t-69,33.5T430,1356q-43,0-53.5-29.5T376,1270H304q-18,69 20.5,117.5T432,1436q40,0 78-14.5t74-33.5t69-33.5t63-14.5q38,0 52,28t2,62h72q18-67-20-118.5T712,1260ZM942,0V572q0,116-23.5,200.5T849,912.5T737.5,995T588,1022q-99,0-168.5-34.5T307,893T244,755T224,590l-78-2q0,185 61,298.5T368.5,1052T588,1104q82,0 150.5-23t122-66.5T951,908t56-143.5T1026,588V0H942ZM140,0V1080h78V860h6V0H140Z" />
      <glyph unicode="&#xf2;" glyph-name="gid97" horiz-adv-x="1148" d="M523,1260l-96,270h88l96-270H523ZM574-30Q414-30 304,43T137,245T80,542q0,170 58,298t168.5,199T574,1110q161,0 271-72.5T1011.5,837T1068,542q0-171-57-299.5T843.5,42T574-30Zm0,84q204,0 304,135.5T978,542q0,221-100.5,352.5T574,1026q-137,0-226.5-62T214,793T170,542q0-220 102.5-354T574,54Z" />
      <glyph unicode="&#xf3;" glyph-name="gid94" horiz-adv-x="1148" d="M615,1260H527l96,270h88l-96-270ZM574-30Q414-30 304,43T137,245T80,542q0,170 58,298t168.5,199T574,1110q161,0 271-72.5T1011.5,837T1068,542q0-171-57-299.5T843.5,42T574-30Zm0,84q204,0 304,135.5T978,542q0,221-100.5,352.5T574,1026q-137,0-226.5-62T214,793T170,542q0-220 102.5-354T574,54Z" />
      <glyph unicode="&#xf4;" glyph-name="gid95" horiz-adv-x="1148" d="M328,1260l200,240h92l200-240H720L574,1430L428,1260H328ZM574-30Q414-30 304,43T137,245T80,542q0,170 58,298t168.5,199T574,1110q161,0 271-72.5T1011.5,837T1068,542q0-171-57-299.5T843.5,42T574-30Zm0,84q204,0 304,135.5T978,542q0,221-100.5,352.5T574,1026q-137,0-226.5-62T214,793T170,542q0-220 102.5-354T574,54Z" />
      <glyph unicode="&#xf5;" glyph-name="gid99" horiz-adv-x="1148" d="M714,1260q-39,0-76.5,14.5T564,1308t-69,33.5T432,1356q-43,0-53.5-29.5T378,1270H306q-18,69 20.5,117.5T434,1436q40,0 78-14.5t74-33.5t69-33.5t63-14.5q38,0 52,28t2,62h72q18-67-20-118.5T714,1260ZM574-30Q414-30 304,43T137,245T80,542q0,170 58,298t168.5,199T574,1110q161,0 271-72.5T1011.5,837T1068,542q0-171-57-299.5T843.5,42T574-30Zm0,84q204,0 304,135.5T978,542q0,221-100.5,352.5T574,1026q-137,0-226.5-62T214,793T170,542q0-220 102.5-354T574,54Z" />
      <glyph unicode="&#xf6;" glyph-name="gid96" horiz-adv-x="1148" d="M694,1320v120H814V1320H694Zm-360,0v120H454V1320H334ZM574-30Q414-30 304,43T137,245T80,542q0,170 58,298t168.5,199T574,1110q161,0 271-72.5T1011.5,837T1068,542q0-171-57-299.5T843.5,42T574-30Zm0,84q204,0 304,135.5T978,542q0,221-100.5,352.5T574,1026q-137,0-226.5-62T214,793T170,542q0-220 102.5-354T574,54Z" />
      <glyph unicode="&#xf7;" glyph-name="gid245" horiz-adv-x="1080" d="M120,678v84H960V678H120ZM480,902v120H600V902H480Zm0-484V538H600V418H480Z" />
      <glyph unicode="&#xf8;" glyph-name="gid98" horiz-adv-x="1148" d="M92,0L32,60L196,224l22,22L894,920l26,26l136,134l60-58L956,864l-22-22L272,180l-22-22L92,0ZM574-30Q414-30 304,43T137,245T80,542q0,170 58,298t168.5,199T574,1110q161,0 271-72.5T1011.5,837T1068,542q0-171-57-299.5T843.5,42T574-30Zm0,84q204,0 304,135.5T978,542q0,221-100.5,352.5T574,1026q-137,0-226.5-62T214,793T170,542q0-220 102.5-354T574,54Z" />
      <glyph unicode="&#xf9;" glyph-name="gid112" horiz-adv-x="1146" d="M547,1260l-96,270h88l96-270H547ZM558-24Q476-24 407.5-1t-122,66.5T195,172T139,315.5T120,492v588h84V508q0-115 23.5-200T297,167.5T408.5,85T558,58q99,0 168.5,34.5T839,187t63,138t20,165l78,2q0-185-61-298.5T777.5,28T558-24ZM928,0V220h-6v860h84V0H928Z" />
      <glyph unicode="&#xfa;" glyph-name="gid109" horiz-adv-x="1146" d="M604,1260H516l96,270h88l-96-270ZM558-24Q476-24 407.5-1t-122,66.5T195,172T139,315.5T120,492v588h84V508q0-115 23.5-200T297,167.5T408.5,85T558,58q99,0 168.5,34.5T839,187t63,138t20,165l78,2q0-185-61-298.5T777.5,28T558-24ZM928,0V220h-6v860h84V0H928Z" />
      <glyph unicode="&#xfb;" glyph-name="gid110" horiz-adv-x="1146" d="M316,1260l200,240h92l200-240H708L562,1430L416,1260H316ZM558-24Q476-24 407.5-1t-122,66.5T195,172T139,315.5T120,492v588h84V508q0-115 23.5-200T297,167.5T408.5,85T558,58q99,0 168.5,34.5T839,187t63,138t20,165l78,2q0-185-61-298.5T777.5,28T558-24ZM928,0V220h-6v860h84V0H928Z" />
      <glyph unicode="&#xfc;" glyph-name="gid111" horiz-adv-x="1146" d="M682,1320v120H802V1320H682Zm-360,0v120H442V1320H322ZM558-24Q476-24 407.5-1t-122,66.5T195,172T139,315.5T120,492v588h84V508q0-115 23.5-200T297,167.5T408.5,85T558,58q99,0 168.5,34.5T839,187t63,138t20,165l78,2q0-185-61-298.5T777.5,28T558-24ZM928,0V220h-6v860h84V0H928Z" />
      <glyph unicode="&#xfd;" glyph-name="gid117" horiz-adv-x="1012" d="M541,1260H453l96,270h88l-96-270ZM302-480L512,84l2-168L40,1080h92L556,32H492L872,1080h90L396-480H302Z" />
      <glyph unicode="&#xfe;" glyph-name="gid102" horiz-adv-x="1152" d="M140,782v658h84V782H140ZM602-30Q459-30 359,46T206.5,251.5T154,542q0,164 53,292.5t156.5,202T618,1110q145,0 246.5-75.5T1019,830t53-288q0-162-54-291.5T859.5,45.5T602-30ZM140-480V1080h78V230h6V-480H140ZM602,54q125,0 209.5,64T939,292.5T982,542q0,138-41.5,247.5T815,962.5T602,1026q-126,0-211.5-62t-129-171.5T218,542q0-139 43-249.5T389.5,118T602,54Z" />
      <glyph unicode="&#xff;" glyph-name="gid118" horiz-adv-x="1012" d="M634,1320v120H754V1320H634Zm-360,0v120H394V1320H274ZM302-480L512,84l2-168L40,1080h92L556,32H492L872,1080h90L396-480H302Z" />
      <glyph unicode="&#x2013;" glyph-name="gid208" horiz-adv-x="1080" d="M120,588v84H960V588H120Z" />
      <glyph unicode="&#x2014;" glyph-name="gid209" horiz-adv-x="1560" d="M120,588v84H1440V588H120Z" />
      <glyph unicode="&#x2018;" glyph-name="gid218" horiz-adv-x="360" d="M240,1082q-48-12-84,20t-36,98v240H240V1260H174q0-32 0.5-61.5t12.5-48t47-16.5l6-52Z" />
      <glyph unicode="&#x2019;" glyph-name="gid219" horiz-adv-x="360" d="M120,1082l6,52q35-2 47,16.5t12.5,48T186,1260H120v180H240V1200q0-66-36-98t-84-20Z" />
      <glyph unicode="&#x201a;" glyph-name="gid214" horiz-adv-x="480" d="M120-178l6,52q35-2 47,16.5t12.5,48T186,0H120V180H240V-60q0-66-36-98t-84-20Z" />
      <glyph unicode="&#x201c;" glyph-name="gid216" horiz-adv-x="640" d="M480,1456l-6-52q-35,2-47-16.5t-12.5-48T414,1278h66V1098H360v240q0,66 36,98t84,20Zm-200,0l-6-52q-35,2-47-16.5t-12.5-48T214,1278h66V1098H160v240q0,66 36,98t84,20Z" />
      <glyph unicode="&#x201d;" glyph-name="gid217" horiz-adv-x="640" d="M160,1102l6,52q35-2 47,16.5t12.5,48T226,1280H160v180H280V1220q0-66-36-98t-84-20Zm200,0l6,52q35-2 47,16.5t12.5,48T426,1280H360v180H480V1220q0-66-36-98t-84-20Z" />
      <glyph unicode="&#x201e;" glyph-name="gid215" horiz-adv-x="640" d="M160-178l6,52q35-2 47,16.5t12.5,48T226,0H160V180H280V-60q0-66-36-98t-84-20Zm200,0l6,52q35-2 47,16.5t12.5,48T426,0H360V180H480V-60q0-66-36-98t-84-20Z" />
      <glyph unicode="&#x2022;" glyph-name="gid185" horiz-adv-x="1240" d="M624,430q-57,0-103,26t-73.5,71.5T420,630t27.5,102.5T521,804t103,26q53,0 97.5-26T793,732.5T820,630T793,527.5T721.5,456T624,430Z" />
      <glyph unicode="&#x2039;" glyph-name="gid222" horiz-adv-x="1198" d="M742,168L280,630l462,462l56-54L390,630L798,222l-56-54Z" />
      <glyph unicode="&#x203a;" glyph-name="gid223" horiz-adv-x="1198" d="M456,168l-56,54L808,630L400,1038l56,54L918,630L456,168Z" />
    </font>
</defs>
</svg>
