<?xml version="1.0" standalone="no"?>
<!DOCTYPE svg PUBLIC "-//W3C//DTD SVG 1.1//EN" "http://www.w3.org/Graphics/SVG/1.1/DTD/svg11.dtd">
<svg xmlns="http://www.w3.org/2000/svg">
  <defs>
    <font id="Manrope" horiz-adv-x="1084">
      <font-face font-family="Manrope ExtraLight Light" units-per-em="2000" panose-1="0 0 0 0 0 0 0 0 0 0" ascent="2132" descent="-600" alphabetic="0" />
      <glyph unicode=" " glyph-name="gid231" horiz-adv-x="400" />
      <glyph unicode="!" glyph-name="gid180" horiz-adv-x="595" d="M240,0V147H355V0H240Zm0,360V1440H355V360H240Z" />
      <glyph unicode="&quot;" glyph-name="gid224" horiz-adv-x="734" d="M120,1080v360H235V1080H120Zm299,0v360H534V1080H419Z" />
      <glyph unicode="#" glyph-name="gid187" horiz-adv-x="1833" d="M423,0L541,448H120l30,113H573l92,349H244l30,112H696l111,418H924L812,1022h364l111,418h117l-112-418h421l-29-112H1262l-94-349h421l-29-113H1138L1018,0H903l118,448H658L538,0H423ZM688,561h364l93,349H782L688,561Z" />
      <glyph unicode="$" glyph-name="gid237" horiz-adv-x="1152" d="M521-197V28H636V-197H521Zm0,1610v227H636V1413H521ZM601-30Q460-30 347.5,19t-186,139.5T63,372l112,20q35-143 150-226.5T603,82q169,0 271.5,83T977,383q0,101-59.5,161.5T715,649L404,745q-287,90-287,336q0,116 57.5,203t160,136.5T572,1470q137-1 244.5-52.5T993,1272t89-223l-113-21q-14,98-68,172T762.5,1315.5T573,1357q-98,1-174.5-34T278,1226.5T234,1085q0-87 61-146.5T488,838l281-85q169-52 244.5-138.5T1089,383q0-125-60.5-217.5t-170-144T601-30Z" />
      <glyph unicode="%" glyph-name="gid254" horiz-adv-x="1803" d="M260,0L180,80L1543,1440l80-79L260,0ZM1323-30q-99,0-180.5,48.5T1012,148.5T963,330q0,98 50,180t132,131t178,49q99,0 181-48.5t130.5-130T1683,330t-48.5-181.5T1504,18.5T1323-30Zm0,108q69,0 126,34.5t91.5,92T1575,330t-34.5,125.5t-91.5,92T1323,582q-68,0-125-34.5t-91.5-92T1072,330t34.5-125.5t91.5-92T1323,78ZM480,750q-99,0-181,48.5t-130.5,130T120,1110q0,98 50,180t132,131t178,49q99,0 180.5-48.5t130.5-130T840,1110T791,928.5t-130.5-130T480,750Zm0,108q68,0 125.5,34.5t92,92T732,1110t-34.5,125.5t-92,92T480,1362t-125-34.5t-92-92T228,1110t35-125.5t92-92T480,858Z" />
      <glyph unicode="&amp;" glyph-name="gid260" horiz-adv-x="1291" d="M599-30Q478-30 377,4.5T207,112q-52,56-78,126.5T100,387q-1,74 21,147.5T192,666q32,40 73,66t84,44q-80,82-122,150t-42,168q0,107 52.5,196.5T384,1424q51,25 105,35t107,10q77,0 152-20t129-63q36-27 64.5-64t45.5-77l-110-39q-24,57-77,95q-41,30-93,43t-105,13q-92,0-169-37q-63-32-95.5-89.5T305,1097q0-65 20.5-107.5T389,896q23-25 50.5-49.5T495,796L981,343q5,30 7,58t2,56l-2,222h114V472q0-88-6.5-138T1079,252L1266,78L1189-5L1024,151q-28-41-74.5-76.5T857,18Q799-10 732.5-20T599-30ZM597,83q66,0 118.5,8.5T815,126q58,34 84,61.5T939,235L442,689q-46-14-87.5-38.5T283,591q-33-40-48-92T221,391q1-57 19-107.5T293,194q51-57 134.5-84T597,83Z" />
      <glyph unicode="&apos;" glyph-name="gid225" horiz-adv-x="395" d="M120,1080v360H235V1080H120Z" />
      <glyph unicode="(" glyph-name="gid194" horiz-adv-x="834" d="M660-351Q543-217 457.5-52.5t-132,346T280,660q-1,185 45.5,366.5t132,346T660,1671l86-68q-116-136-195.5-290t-121-319T388,660q0-166 42-333T552,5T746-282l-86-69Z" />
      <glyph unicode=")" glyph-name="gid195" horiz-adv-x="834" d="M174-351L88-282Q202-150 282,5T404,327t42,333q0,169-41.5,334t-121,319T88,1603l86,68q117-134 202.5-298.5t132-346T554,660q1-185-45.5-366.5t-132-346T174-351Z" />
      <glyph unicode="*" glyph-name="gid186" horiz-adv-x="855" d="M243,797l-89,65l159,213L60,1154l34,105l251-85l-3,266H452l-3-266l252,85l34-105l-254-79L639,862l-89-65L397,1013L243,797Z" />
      <glyph unicode="+" glyph-name="gid242" horiz-adv-x="1157" d="M526,262V668H120V773H526v405H631V773h406V668H631V262H526Z" />
      <glyph unicode="," glyph-name="gid176" horiz-adv-x="505" d="M120-193l8,62q37-2 52,16.5t17.5,49T198,0H120V195H265V-50q0-79-41-118T120-193Z" />
      <glyph unicode="-" glyph-name="gid206" horiz-adv-x="840" d="M120,578V683H720V578H120Z" />
      <glyph unicode="." glyph-name="gid175" horiz-adv-x="473" d="M164,0V145H309V0H164Z" />
      <glyph unicode="/" glyph-name="gid188" horiz-adv-x="744" d="M504,1440H624L240,0H120L504,1440Z" />
      <glyph unicode="0" glyph-name="gid131" horiz-adv-x="1188" d="M594-30Q467-30 364.5,31T201,194.5T140,424v592q0,127 61,229.5T364.5,1409T594,1470t230-61t163.5-163.5T1048,1016V424q0-127-60.5-229.5T824,31T594-30Zm0,113q93,0 169.5,45.5T886,251t46,170v599q0,92-46,169T763.5,1311.5T594,1357t-169.5-45.5T302,1189t-46-169V421q0-93 46-170T424.5,128.5T594,83Z" />
      <glyph unicode="1" glyph-name="gid132" horiz-adv-x="748" d="M392,0V1309L120,1146v132l272,162H508V0H392Z" />
      <glyph unicode="2" glyph-name="gid133" horiz-adv-x="1123" d="M100,0l2,110L764,711q88,79 115,151.5T906,1018q0,94-45,171T739.5,1311.5T568,1357q-97,0-174-47T272.5,1186T228,1018H112q0,127 61,229.5T337.5,1410T569,1470q129,0 231.5-61.5T963,1244t60-227q0-86-19.5-153.5T942,737.5T834,620L209,53l-24,60h838V0H100Z" />
      <glyph unicode="3" glyph-name="gid134" horiz-adv-x="1087" d="M518-29Q412-29 324,7.5t-151,105T80,276l109,35q40-114 128-172T517,83q104,3 177.5,47T807,252t39,184q0,160-91,255.5T513,787q-40,0-87-11.5T340,745l-62,92l584,552l25-62H138v113H953V1326L432,828l-2,55q155,28 276.5-21.5T897.5,701T967,436q0-140-57.5-244.5T751,29T518-29Z" />
      <glyph unicode="4" glyph-name="gid135" horiz-adv-x="1167" d="M786,0V292H100V405L589,1440H718L229,405H786V840H902V405h165V292H902V0H786Z" />
      <glyph unicode="5" glyph-name="gid136" horiz-adv-x="1150" d="M565-30Q452-30 356.5,16t-162,127.5T100,329l110,30q22-84 76-145.5t127-95T566,85q105,0 188,50.5t131.5,134T934,452q0,104-51,187T748.5,771T566,820q-107,0-187.5-49.5T249,642L139,696l44,744H947V1328H226l68,63L252,715l-34,48q63,77 156,122t199,45q132,0 240-64T985.5,693.5T1050,452q0-131-66-240.5T807.5,36T565-30Z" />
      <glyph unicode="6" glyph-name="gid137" horiz-adv-x="1241" d="M624-30Q490-30 380,35.5t-175,176T140,458V978q0,138 65,249.5t175.5,177T629,1470q128,0 235.5-60.5T1036,1247l-92-67q-49,80-132,128.5T629,1357q-107,0-191-52T305,1168.5T256,985V646l-34,40q63,108 170.5,175.5T631,929q132,0 240.5-64.5t172-173T1107,451q0-133-65.5-242T866,35T624-30Zm0,113q102,0 185.5,49.5T942,265.5T991,451T942,636.5T809.5,769T624,818T438.5,769t-133-132.5T256,451t49.5-185.5t133-133T624,83Z" />
      <glyph unicode="7" glyph-name="gid138" horiz-adv-x="983" d="M219,0L759,1326H80v114H883V1326L343,0H219Z" />
      <glyph unicode="8" glyph-name="gid139" horiz-adv-x="1139" d="M569-30Q436-30 335,22.5t-158,148T120,397q0,139 68,244.5T398,799l-1-53Q277,781 215,877t-62,212q0,119 53.5,204.5t147.5,131T569,1470t214.5-45.5t147-131T984,1089q0-116-59-211T743,748l-7,50q143-50 213-156t70-245q0-131-57.5-226.5t-159-148T569-30Zm0,113q146,0 236.5,81T896,397q0,154-89.5,234.5T569,712q-149,0-238.5-80.5T241,397q0-152 91-233T569,83Zm0,742q130,0 211,66.5T861,1089t-81,197.5T569,1353q-131,0-212-66.5T276,1089t81-197.5T569,825Z" />
      <glyph unicode="9" glyph-name="gid140" horiz-adv-x="1241" d="M617,1470q134,0 243.5-65.5t175-176.5T1101,981V462q0-139-65-250T860,35.5T612-30Q484-30 376.5,30T204,193l93,67q48-79 132-128.5T612,82q107,0 191,52T935.5,271T984,455V794l35-40Q956,646 848.5,578.5T610,511q-133,0-241,64T197,747.5T133,989t66,242t175.5,174T617,1470Zm0-114q-102,0-185.5-49t-133-132.5T249,989t49.5-185.5t133-133T617,621t185.5,49.5T935,803.5T984,989t-49,185.5T802.5,1307T617,1356Z" />
      <glyph unicode=":" glyph-name="gid177" horiz-adv-x="569" d="M220,170V315H365V170H220Zm0,595V910H365V765H220Z" />
      <glyph unicode=";" glyph-name="gid178" horiz-adv-x="585" d="M220-193l8,62q37-2 52,16.5t17.5,49T298,0H220V195H365V-50q0-79-41-118T220-193Zm0,1128v145H365V935H220Z" />
      <glyph unicode="&lt;" glyph-name="gid248" horiz-adv-x="1213" d="M746,164L280,630l466,466l74-73L426,630L820,237l-74-73Z" />
      <glyph unicode="=" glyph-name="gid246" horiz-adv-x="1500" d="M240,832V937H1260V832H240Zm0-329V608H1260V503H240Z" />
      <glyph unicode="&gt;" glyph-name="gid247" horiz-adv-x="1213" d="M468,164l-75,73L788,630L393,1023l75,73L933,630L468,164Z" />
      <glyph unicode="?" glyph-name="gid182" horiz-adv-x="1028" d="M429,393q0,81 5.5,139T473,652q30,58 77.5,97.5t98,74T740,902q38,44 51.5,90.5T805,1091q0,56-14.5,100T747,1267q-44,52-107,71t-129,19q-69,0-128.5-20T285,1276q-35-34-51-82.5T218,1092H100q2,73 28,145t80,123q60,58 141,84t163,26q94,0 179-28.5T834,1348q49-52 71.5-117T928,1090q0-75-27-144T823,825q-35-38-83-72t-92-70t-68-80q-25-47-26.5-94T552,393H429ZM429,0V173H552V0H429Z" />
      <glyph unicode="@" glyph-name="gid259" horiz-adv-x="1801" d="M905-210q-157,0-292.5,56T375.5,2.5T217,239T160,534q0,161 54,298.5t153.5,240t238.5,160T915,1290q188,0 328.5-61.5T1475,1063t132-233.5T1639,564q-12-187-93.5-278.5T1332,194q-96,0-162,44t-88,125l43-7q-33-69-101.5-100.5T881,224q-86,0-150.5,36.5T630,363T594,515q0,90 37.5,155.5T734,772t149,36q65,0 134-27.5T1123,688l-39-42V780h92l-1-307q0-74 37.5-124T1340,299q54,0 95,30.5t65,87T1528,551q7,150-35.5,267.5t-126,199.5T1169,1142.5T918,1185q-155,0-275-53T440,987.5T314.5,779T272,534q1-135 50.5-251.5T459,79T662.5-56.5T912-105q93,0 186.5,25.5T1264-9l41-90q-92-57-194-84T905-210ZM887,331q81,0 131,47t50,139q0,93-50,140T888,704q-90,0-138-48.5T702,517q0-92 50-139t135-47Z" />
      <glyph unicode="A" glyph-name="gid1" horiz-adv-x="1243" d="M40,0L550,1440H693L1203,0H1081L591,1380h58L162,0H40ZM251,362V471H991V362H251Z" />
      <glyph unicode="B" glyph-name="gid10" horiz-adv-x="1214" d="M140,0V1440H691q112,0 201.5-47.5t141-129.5t51.5-185q0-116-64-208.5T851,740l-4,48q142-43 225.5-143.5T1156,396q0-124-54.5-212.5T951,47.5T733,0H140ZM256,113H695q96,0 172.5,33t121,95T1033,391q0,87-40.5,157.5T883,660.5T728,702H256V113Zm0,700H690q75,0 137.5,35T927,943.5T964,1082q0,111-78.5,179T690,1329H256V813Z" />
      <glyph unicode="C" glyph-name="gid11" horiz-adv-x="1415" d="M715-30Q500-30 354,65.5T134,330T60,720t74,390t220,264.5T715,1470q251,0 407.5-130T1335,992l-119-29q-46,181-171.5,287.5T715,1357q-177,0-294.5-81t-177-225T183,720q-2-187 57.5-330.5T419,164.5T715,83q204,0 329.5,107T1216,477l119-29q-56-218-212.5-348T715-30Z" />
      <glyph unicode="D" glyph-name="gid13" horiz-adv-x="1323" d="M140,0V1440H569q25,0 81.5-1t107.5-9q162-22 269-121.5t160-252T1240,720q0-185-53-337.5T1027,131T758,10Q707,3 649.5,1.5T569,0H140ZM261,113H569q45,0 93,2.5t82,8.5q134,24 216,106.5t119.5,209T1117,720q0,155-38,281.5t-120,209T744,1316q-34,6-83.5,8.5T569,1327H261V113Z" />
      <glyph unicode="E" glyph-name="gid15" horiz-adv-x="1130" d="M140,0V1440h890V1328H255V781H910V669H255V112h775V0H140Z" />
      <glyph unicode="F" glyph-name="gid20" horiz-adv-x="993" d="M140,0V1440H953V1325H255V778H833V662H255V0H140Z" />
      <glyph unicode="G" glyph-name="gid21" horiz-adv-x="1392" d="M712-30Q555-30 433.5,24T229,177T103,414T60,720q0,223 75.5,391.5T356,1374t356,94q218,0 358.5-102T1268,1098l-114-35q-50,133-162.5,212.5T715,1356q-177,0-294.5-80.5T244,1051T183,720t57.5-330.5T419,164.5T715,83q169-1 276.5,66t160,188.5T1208,622H850V727h478q3-25 3.5-49t0.5-37q0-191-66.5-343t-204-240T712-30Z" />
      <glyph unicode="H" glyph-name="gid22" horiz-adv-x="1345" d="M140,0V1440H255V776h834v664h116V0H1089V664H255V0H140Z" />
      <glyph unicode="I" glyph-name="gid23" horiz-adv-x="435" d="M160,0V1440H275V0H160Z" />
      <glyph unicode="J" glyph-name="gid28" horiz-adv-x="903" d="M372-28Q235-28 134,50T0,258l116,27q21-85 91-143T373,84q61,0 122.5,28.5T592,207q25,47 29,99.5T625,433V1440H741V433q0-57-1-105t-10.5-92T695,147Q645,59 559.5,15.5T372-28Z" />
      <glyph unicode="K" glyph-name="gid29" horiz-adv-x="1152" d="M140,0V1440H255V756l685,684h152L403,748L1152,0H998L255,736V0H140Z" />
      <glyph unicode="L" glyph-name="gid30" horiz-adv-x="1005" d="M160,0V1440H275V112H975V0H160Z" />
      <glyph unicode="M" glyph-name="gid31" horiz-adv-x="1672" d="M140,0V1440H247L837,166l584,1274h111V2H1419V1175L883,0H789L252,1175V0H140Z" />
      <glyph unicode="N" glyph-name="gid32" horiz-adv-x="1346" d="M140,0V1440H256L1090,205V1440h116V0H1090L256,1237V0H140Z" />
      <glyph unicode="O" glyph-name="gid34" horiz-adv-x="1429" d="M715-30Q500-30 354,65.5T134,330T60,720t74,390t220,264.5T715,1470t360.5-95.5T1295,1110t74-390t-74-390T1075.5,65.5T715-30Zm0,113q177-1 295,80.5T1187,389t59,331t-59,331t-177,225t-295,81q-177,1-294.5-80T244,1051.5T183,720t57.5-330.5T419,164.5T715,83Z" />
      <glyph unicode="P" glyph-name="gid42" horiz-adv-x="1185" d="M140,0V1440H683q21,0 45.5-1.5T780,1432q108-17 185.5-77.5t118.5-152t41-201.5q0-111-41-202.5t-118.5-152T780,569q-27-4-51.5-6T683,561H255V0H140ZM255,674H681q18,0 41.5,2t47.5,6q78,16 130,63.5T978,860t26,141t-26,140.5t-78,114T770,1319q-24,5-47.5,7t-41.5,2H255V674Z" />
      <glyph unicode="Q" glyph-name="gid44" horiz-adv-x="1429" d="M1273-28L898,345l83,83L1354,55l-81-83ZM715-30Q500-30 354,65.5T134,330T60,720t74,390t220,264.5T715,1470t360.5-95.5T1295,1110t74-390t-74-390T1075.5,65.5T715-30Zm0,113q177-1 295,80.5T1187,389t59,331t-59,331t-177,225t-295,81q-177,1-294.5-80T244,1051.5T183,720t57.5-330.5T419,164.5T715,83Z" />
      <glyph unicode="R" glyph-name="gid45" horiz-adv-x="1242" d="M140,0V1440H683q21,0 45.5-1.5T780,1432q108-17 185.5-77.5t118.5-152t41-201.5q0-159-85-277T803,574l-33-13H255V0H140Zm887,0L743,586l107,54L1162,0H1027ZM255,674H681q18,0 41.5,2t47.5,6q78,16 130,63.5T978,860t26,141t-26,140.5t-78,114T770,1319q-24,5-47.5,7t-41.5,2H255V674Z" />
      <glyph unicode="S" glyph-name="gid46" horiz-adv-x="1205" d="M629-30Q481-30 362.5,19t-196,139T63,372l118,20q37-144 158.5-227T632,82q116,0 205,37T976,223.5T1026,381q0,65-23.5,109T942,562.5t-79,46T784,637L422,745q-72,21-128.5,52.5t-95,73t-59,94.5T119,1083q0,116 62,203t170.5,135.5T601,1470q142-1 255-52.5T1041.5,1272t93.5-223l-119-21q-14,99-71.5,173T798,1316t-198,41q-105,1-185.5-35T288,1225t-46-138q0-80 43.5-127.5t107-74.5T514,841l290-86q41-12 98-34t112-62.5t91.5-107T1142,385q0-97-37-174T999,80.5T836-1.5T629-30Z" />
      <glyph unicode="T" glyph-name="gid47" horiz-adv-x="1187" d="M536,0V1328H20v112H1167V1328H651V0H536Z" />
      <glyph unicode="U" glyph-name="gid48" horiz-adv-x="1392" d="M696-30Q534-30 408.5,37.5t-197,190T140,515v925H256V539q0-123 41.5-210.5T405.5,186t143-81T696,79t148,26t143,81t107.5,142.5T1136,539v901h116V515q0-164-71.5-286.5T983.5,38T696-30Z" />
      <glyph unicode="V" glyph-name="gid53" horiz-adv-x="1183" d="M520,0L10,1440H132L590,144l461,1296h122L663,0H520Z" />
      <glyph unicode="W" glyph-name="gid54" horiz-adv-x="1845" d="M450,0L37,1440H156L509,202L861,1440H982L1335,202l352,1238h121L1394,0H1276L922,1234L568,0H450Z" />
      <glyph unicode="X" glyph-name="gid55" horiz-adv-x="1179" d="M20,0L522,730L32,1440H171L589,825l419,615h139L657,730L1159,0H1020L589,633L159,0H20Z" />
      <glyph unicode="Y" glyph-name="gid56" horiz-adv-x="1075" d="M480,0V608L0,1440H133L538,740l404,700h133L596,608V0H480Z" />
      <glyph unicode="Z" glyph-name="gid58" horiz-adv-x="1195" d="M100,0V31L912,1328H110v112h985v-34L287,111h805V0H100Z" />
      <glyph unicode="[" glyph-name="gid198" horiz-adv-x="803" d="M280-440V1770H633V1660H390V-330H633V-440H280Z" />
      <glyph unicode="\" glyph-name="gid189" horiz-adv-x="744" d="M240,1440L624,0H504L120,1440H240Z" />
      <glyph unicode="]" glyph-name="gid199" horiz-adv-x="803" d="M523-440H170v110H413V1660H170v110H523V-440Z" />
      <glyph unicode="^" glyph-name="gid252" horiz-adv-x="1331" d="M211,1006l465,467l466-466l-73-75L676,1327L284,931l-73,75Z" />
      <glyph unicode="_" glyph-name="gid210" horiz-adv-x="1320" d="M0-202V-97H1320V-202H0Z" />
      <glyph unicode="`" glyph-name="gid272" horiz-adv-x="947" d="M457,1615L349,1905H456l108-290H457Z" />
      <glyph unicode="a" glyph-name="gid59" horiz-adv-x="1098" d="M452-30Q327-30 244.5,14T121,130.5T80,288q0,92 38.5,154t103,100T364,599q89,20 192,34.5T752.5,659T905,678l-42-25q4,175-65.5,260.5T553,999q-123,0-202.5-55.5T239,772L121,805q37,147 149,226t287,79q149,0 250.5-58T949,889q17-43 23-100.5T978,673V0H873V284l39-10Q863,128 741,49T452-30Zm6,106q110,0 193,39.5t134.5,111T851,395q10,54 11,117t1,93l50-32q-65-8-155.5-17T573,534T403,501q-47-13-94.5-37.5t-79-67.5T198,287q0-49 24.5-98T304,108T458,76Z" />
      <glyph unicode="b" glyph-name="gid67" horiz-adv-x="1168" d="M613-30Q467-30 366,46T212,251T159,542q0,163 53,291.5T369,1036t255,74q147,0 251-75t158.5-204T1088,542q0-162-55.5-291.5t-161-205T613-30ZM140,0V1440H255V832H245V0H140ZM606,80q119,0 198.5,61t120,165.5T965,542q0,130-39.5,233.5t-119,164T604,1000q-119,0-199-58.5T285,779T245,542q0-132 39.5-236.5t120-165T606,80Z" />
      <glyph unicode="c" glyph-name="gid68" horiz-adv-x="1093" d="M581-30Q419-30 308,42.5t-168.5,201T80,540q2,171 60.5,299.5T310,1039t272,71q157,0 276.5-75.5T1024,827L912,786Q871,887 783,942.5T581,998q-128,0-211-58.5T246,778T203,540q3-207 97.5-332.5T581,82q115,0 199.5,53T910,289l114-39Q961,113 848,41.5T581-30Z" />
      <glyph unicode="d" glyph-name="gid70" horiz-adv-x="1168" d="M555-30Q402-30 296.5,45.5t-161,205T80,542q0,160 55,289t158.5,204T544,1110q151,0 255-74T956,833.5T1009,542q0-162-53-291T802,46T555-30Zm7,110q121,0 201.5,60.5t120,165T923,542q0,133-40,237T763,941.5T564,1000q-123,0-203-60.5t-119-164T203,542q0-131 40.5-235.5T363.5,141T562,80ZM923,0V832H913v608h115V0H923Z" />
      <glyph unicode="e" glyph-name="gid72" horiz-adv-x="1158" d="M585-30Q430-30 317,39.5t-175,197T80,538q0,177 61.5,305.5t174,197.5T583,1110q157,0 268.5-71.5t170-206.5T1077,507H957v40q-5,222-100,338T585,1001q-183,0-282.5-120.5T203,540q0-218 99.5-338T583,82q125,0 218.5,58.5T950,308l104-46Q989,122 866,46T585-30ZM159,507V611h853V507H159Z" />
      <glyph unicode="f" glyph-name="gid77" horiz-adv-x="694" d="M252,0V1181q0,42 4.5,80t19,72t41.5,64q28,30 62.5,46t73.5,21.5t82,5.5H674V1370H545q-89,0-133.5-43T367,1185V0H252ZM60,975v105H674V975H60Z" />
      <glyph unicode="g" glyph-name="gid78" horiz-adv-x="1168" d="M560-510q-80,0-159.5,23.5T252-410.5T135-271l104,62q49-100 139-143t183-43q131,0 207.5,48.5T878-201.5T911,38V321h12v759h105V38q0-48-2-92t-9-88q-18-125-74-206.5T791.5-470T560-510ZM555-30Q402-30 296.5,45.5t-161,205T80,542q0,160 55,289t158.5,204T544,1110q151,0 255-74T956,833.5T1009,542q0-162-53-291T802,46T555-30Zm7,110q121,0 201.5,60.5t120,165T923,542q0,133-40,237T763,941.5T564,1000q-123,0-203-60.5t-119-164T203,542q0-131 40.5-235.5T363.5,141T562,80Z" />
      <glyph unicode="h" glyph-name="gid79" horiz-adv-x="1167" d="M931,0V562q0,102-20.5,182t-62,136t-104,85T597,994q-88,0-152.5-30.5T338.5,878t-62-130.5T256,583l-91,11q0,175 59.5,288.5t160.5,168T612,1105q89,0 159.5-26T894,1005.5t86-112T1030.5,752T1047,591V0H931ZM140,0V1440H245V608h11V0H140Z" />
      <glyph unicode="i" glyph-name="gid80" horiz-adv-x="435" d="M160,1298v147H275V1298H160ZM160,0V1080H275V0H160Z" />
      <glyph unicode="j" glyph-name="gid87" horiz-adv-x="475" d="M-20-480v114H45q68,0 113,36.5T203-202V1080H319V-216q0-136-60.5-200T66-480H-20ZM203,1298v147H319V1298H203Z" />
      <glyph unicode="k" glyph-name="gid88" horiz-adv-x="964" d="M140,0V1440H256V560l511,520H928L393,540L1004,0H825L256,520V0H140Z" />
      <glyph unicode="l" glyph-name="gid89" horiz-adv-x="435" d="M160,0V1470H275V0H160Z" />
      <glyph unicode="m" glyph-name="gid90" horiz-adv-x="1662" d="M1425,0l2,726q0,131-74.5,205.5T1167,1006q-63,0-124.5-29T940,883T899,707l-81,13q-4,118 43.5,205.5t132,135.5t192.5,48q159,0 257.5-98T1542,743L1540,0H1425ZM140,0V1080H245V837h10V0H140ZM783,0l2,715q0,134-73,212.5T522,1006q-119,0-193-81.5T255,707l-80,40q0,105 48,186.5T354.5,1062T546,1109q97,0 177-41T851,944.5T899,738L897,0H783Z" />
      <glyph unicode="n" glyph-name="gid91" horiz-adv-x="1167" d="M931,0V562q0,102-20.5,182t-62,136t-104,85T597,994q-88,0-152.5-30.5T338.5,878t-62-130.5T256,583l-91,11q0,175 59.5,288.5t160.5,168T612,1105q89,0 159.5-26T894,1005.5t86-112T1030.5,752T1047,591V0H931ZM140,0V1080H245V837h11V0H140Z" />
      <glyph unicode="o" glyph-name="gid93" horiz-adv-x="1166" d="M583-30Q422-30 310,43T139,245T80,542q0,169 60,297.5T312.5,1039T583,1110q161,0 273.5-72.5t171-200.5T1086,542q0-171-59-299.5T855,42T583-30Zm0,112q191,0 285.5,128T963,542q0,208-95,332T583,998q-129,0-213-58.5t-125.5-161T203,542q0-208 96.5-334T583,82Z" />
      <glyph unicode="p" glyph-name="gid101" horiz-adv-x="1168" d="M613-30Q467-30 366,46T212,251T159,542q0,163 53,291.5T369,1036t255,74q147,0 251-75t158.5-204T1088,542q0-162-55.5-291.5t-161-205T613-30ZM140-480V1080H245V248h10V-480H140ZM606,80q119,0 198.5,61t120,165.5T965,542q0,130-39.5,233.5t-119,164T604,1000q-119,0-199-58.5T285,779T245,542q0-132 39.5-236.5t120-165T606,80Z" />
      <glyph unicode="q" glyph-name="gid103" horiz-adv-x="1168" d="M555-30Q402-30 296.5,45.5t-161,205T80,542q0,160 55,289t158.5,204T544,1110q151,0 255-74T956,833.5T1009,542q0-162-53-291T802,46T555-30Zm7,110q121,0 201.5,60.5t120,165T923,542q0,133-40,237T763,941.5T564,1000q-123,0-203-60.5t-119-164T203,542q0-131 40.5-235.5T363.5,141T562,80ZM913-480V248h10v832h105V-480H913Z" />
      <glyph unicode="r" glyph-name="gid104" horiz-adv-x="696" d="M140,0V1080H245V821l-26,34q18,46 45.5,85.5T321,1005q43,40 101,60.5t117,24t107-9.5V971q-64,15-136,6T375,915q-55-48-80-111.5t-32-133T256,535V0H140Z" />
      <glyph unicode="s" glyph-name="gid105" horiz-adv-x="1039" d="M539-28Q352-28 230.5,51T80,271l118,20q25-96 118-153T544,81q134,0 213,57t79,156q0,54-24.5,88.5T715,446T501,514q-150,40-234.5,80t-119,91T113,810q0,89 51,156.5T306.5,1072T518,1110t216-39.5t155-110T957,797L839,775Q822,879 734,939.5T514,1001q-125,2-204-49.5T231,816q0-48 27.5-81.5T356,673t198-60q156-40 243.5-82T921,432.5T957,293q0-150-111.5-235.5T539-28Z" />
      <glyph unicode="t" glyph-name="gid107" horiz-adv-x="780" d="M713,0Q627-19 543-14.5t-149.5,38T295,127q-27,57-30,115t-3,133V1380H378V377q0-68 1.5-112.5T400,183q36-69 114-83.5T713,104V0ZM20,975v105H713V975H20Z" />
      <glyph unicode="u" glyph-name="gid108" horiz-adv-x="1167" d="M555-25Q466-25 395.5,1T273,74.5t-86,112T136.5,328T120,489v591H236V518q0-102 20.5-182t62-136t104-85T570,86q88,0 152.5,30.5t106,85.5t62,130.5T911,497l91-11q0-175-59.5-288.5T782,29.5T555-25ZM922,0V243H911v837h116V0H922Z" />
      <glyph unicode="v" glyph-name="gid113" horiz-adv-x="986" d="M432,0L40,1080H159L493,157l333,923H946L554,0H432Z" />
      <glyph unicode="w" glyph-name="gid114" horiz-adv-x="1511" d="M370,0L40,1080H158L429,193l271,887H811l272-887l272,887h116L1141,0H1033L756,899L478,0H370Z" />
      <glyph unicode="x" glyph-name="gid115" horiz-adv-x="1036" d="M20,0L451,546L30,1080H170L519,633l347,447h140L585,546L1016,0H874L519,459L162,0H20Z" />
      <glyph unicode="y" glyph-name="gid116" horiz-adv-x="1033" d="M298-480L508,85l2-168L37,1080H160L566,70H502L871,1080H992L418-480H298Z" />
      <glyph unicode="z" glyph-name="gid119" horiz-adv-x="1057" d="M40,0V31L778,967H90v113H977v-34L239,113H933V0H40Z" />
      <glyph unicode="{" glyph-name="gid196" horiz-adv-x="819" d="M617-440q-96,0-160,64.5T393-218V451q0,34-20,66L290,633q-10,15-10,32.5T290,697l83,116q20,32 20,66v667q0,95 64,159.5T617,1770H731V1657H620q-47,0-80.5-33T506,1543V879q0-72-42-130l-59-84l59-84q42-57 42-130V-214q0-47 33.5-80.5T620-328H731V-440H617Z" />
      <glyph unicode="|" glyph-name="gid267" horiz-adv-x="475" d="M180,0V1440H295V0H180Z" />
      <glyph unicode="}" glyph-name="gid197" horiz-adv-x="819" d="M202-440H88v112H199q48,0 81,33.5T313-214V451q0,73 42,130l59,84l-59,84q-42,58-42,130v664q0,48-33,81t-81,33H88v113H202q96,0 160-64.5T426,1546V879q0-34 20-66l83-116q11-14 11-31.5T529,633L446,517q-20-32-20-66V-218q0-93-64-157.5T202-440Z" />
      <glyph unicode="~" glyph-name="gid250" horiz-adv-x="1288" d="M848,485q-58,0-112.5,22.5t-106,51t-98.5,51T441,632q-57,0-72.5-42.5T369,504H245q-19,74 0,135t69,97t124,36q58,0 113.5-22.5t107-51.5T757,646.5T847,624q50,0 70,41t2,93h124q19-73 0.5-135.5t-69-100T848,485Z" />
      <glyph unicode="&#xa0;" glyph-name="gid232" horiz-adv-x="400" />
      <glyph unicode="&#xa1;" glyph-name="gid181" horiz-adv-x="595" d="M240,1080H355V933H240v147Zm0-360H355V-360H240V720Z" />
      <glyph unicode="&#xa2;" glyph-name="gid235" horiz-adv-x="1093" d="M532-60V123q-146,11-246,85.5T134,407T80,690q2,163 54.5,286.5T287,1173t245,84v183H637V1257q137-13 240.5-86.5T1024,977L912,936q-41,101-129,156.5T581,1148q-128,0-211-58.5T246,928T203,690q3-207 97.5-332.5T581,232q115,0 199.5,53T910,439l114-39Q965,276 867.5,205.5T637,123V-60H532Z" />
      <glyph unicode="&#xa3;" glyph-name="gid239" horiz-adv-x="1142" d="M63,0V112H190q58,0 99,41.5T330,253v844q0,110 48,194t131.5,131.5T698,1470q91,0 162.5-40T986,1311.5t93-192.5l-108-35q-45,139-111,206t-163,67q-113,0-181.5-71.5T447,1095l-1-983h593V0H63Zm0,677V790H830V677H63Z" />
      <glyph unicode="&#xa4;" glyph-name="gid236" horiz-adv-x="1263" d="M632,196q-108,0-203,41T262,350.5T149,518T108,722q0,108 41,203t113,167t167,113t203,41q109,0 204-41t167.5-113T1117,925t41-203q0-109-41-204T1003.5,350.5T836,237T632,196ZM140,150L60,230L262,432l81-80L140,150Zm124,857L60,1211l80,79l202-202l-78-81Zm859-857L921,352l80,80l202-202l-80-80ZM632,304q115,0 210,57T993,512.5T1049,720q0,115-57.5,210T839,1081.5T632,1138q-116,0-210.5-56.5T271.5,930T216,720q0-113 55.5-207.5T421.5,361T632,304Zm368,704l-79,80l202,202l80-79l-203-203Z" />
      <glyph unicode="&#xa5;" glyph-name="gid240" horiz-adv-x="1075" d="M168,514V619H908V514H168Zm0-279V340H908V235H168ZM480,0V608L0,1440H133L538,740l404,700h133L596,608V0H480Z" />
      <glyph unicode="&#xa6;" glyph-name="gid268" horiz-adv-x="475" d="M180,727v713H295V727H180Zm0-1007V433H295V-280H180Z" />
      <glyph unicode="&#xa7;" glyph-name="gid262" horiz-adv-x="1039" d="M545-318q-95,0-185,30T204.5-192T117-19L235,1q20-76 72-122t117-67t126-21q70,0 130.5,24t98,71.5T816,4q0,66-37.5,103t-112,62T481,224q-114,31-201.5,64.5T142.5,375T93,517q0,97 56.5,160.5t144,90.5T474,783V751q-112-28-187.5-84T211,527q0-62 43-98.5T370,369t164-46q118-31 208.5-65T885,165.5T937,3q0-105-52.5-176.5T743-281.5T545-318Zm68,557l1,38q57,2 112,28t91,74t36,118q0,66-38,103T702.5,662T518,717q-115,31-202.5,64.5t-137,87T129,1013q0,101 57,167.5T330,1280t178,33q105,0 193-39t145-109.5T914,1000L796,978q-16,85-64.5,134.5t-111.5,71T499,1205q-68,0-125-23t-91.5-64.5T248,1020q0-62 43-98.5T407.5,862T571,816q117-30 208-64.5T922,659t52-161q0-102-49.5-169.5T792.5,237T613,239Z" />
      <glyph unicode="&#xa8;" glyph-name="gid271" horiz-adv-x="991" d="M611,1665v140H751V1665H611Zm-371,0v140H380V1665H240Z" />
      <glyph unicode="&#xa9;" glyph-name="gid263" horiz-adv-x="1551" d="M776-32Q628-32 498,24T269.5,178t-154,228T60,684q0,149 55.5,278.5t154,227.5T498,1344t278,56t278-56t228-154t153.5-227.5T1491,684q0-148-55.5-278T1282,178T1054,24T776-32Zm6,296q-88,0-160,31.5T496,393q-52,66-70,143T408,687q2,77 20.5,152.5T496,978q54,66 127,97.5T787,1107q54,0 101.5-11.5T982,1056q47-28 82.5-71t51.5-98l-102-32q-14,32-37.5,61.5T922,967q-29,21-65,30.5t-74,9.5q-60,0-112-24.5T583,912q-35-45-48.5-105T521,689q0-65 15.5-125.5T583,459q34-46 86-70t113-24q80,0 143,39q30,20 51,47.5t36,61.5l104-32q-23-57-57.5-96T991,323q-45-29-95.5-44T782,264ZM776,84q124,0 232,46.5t190.5,129t129,192T1374,686q0,124-46.5,232t-129,190.5t-190.5,129T776,1284q-125,0-234.5-46.5t-192-129T220.5,918T174,686q0-125 46.5-234.5t129-192t192-129T776,84Z" />
      <glyph unicode="&#xaa;" glyph-name="gid125" horiz-adv-x="626" d="M263,540q-90,0-136.5,48T80,702q0,62 34.5,101T210,861q55,16 129.5,26T483,907l-33-41q5,79-23,116.5T323,1020q-45,0-81.5-20.5T191,931l-91,27q20,71 76,111.5T324,1110q74,0 127-25.5t77-78.5q12-26 15-55.5t3-62.5V555H461V681l15-19q-33-62-85-92T263,540Zm16,80q69,0 110,35.5T440,736q8,25 9,57.5t1,46.5l35-14q-71-11-129.5-18.5T256,787q-34-10-57-29.5T176,703q0-33 24.5-58T279,620Z" />
      <glyph unicode="&#xab;" glyph-name="gid220" horiz-adv-x="1038" d="M826,109L482,542L826,973l75-59L603,542L901,168l-75-59Zm-322,0L160,542L504,973l75-59L282,542L579,168l-75-59Z" />
      <glyph unicode="&#xac;" glyph-name="gid251" horiz-adv-x="1200" d="M975,396V648H120V753h960V396H975Z" />
      <glyph unicode="&#xad;" glyph-name="gid207" horiz-adv-x="840" d="M120,578V683H720V578H120Z" />
      <glyph unicode="&#xae;" glyph-name="gid264" horiz-adv-x="1230" d="M616,584q-99,0-185.5,37T279,723.5T177,875t-37,185q0,98 37,184t102,151.5t151.5,102T616,1534q98,0 184-36.5t151-102T1053,1244t37-184q0-99-37-185T951,723.5T800,621T616,584Zm0,100q103,0 188.5,51t136,136T991,1060t-50.5,189t-136,135.5T616,1435q-104,0-189.5-50.5T290,1249t-51-189t51-189T426.5,735T616,684ZM453,832v463H656q62,0 107-44t46-106q0-39-23-77.5T722,1010l88-178H724L645,996H528V832H453Zm75,235H655q30,0 53.5,23t23.5,55q0,36-24.5,57.5T655,1224H528V1067Z" />
      <glyph unicode="&#xaf;" glyph-name="gid277" horiz-adv-x="971" d="M240,1680v105H731V1680H240Z" />
      <glyph unicode="&#xb0;" glyph-name="gid266" horiz-adv-x="900" d="M420,750q-99,0-181,48.5t-130.5,130T60,1110q0,98 50,180t132,131t178,49q99,0 180.5-48.5t130.5-130T780,1110T731,928.5t-130.5-130T420,750Zm0,108q68,0 125.5,34.5t92,92T672,1110t-34.5,125.5t-92,92T420,1362t-125-34.5t-92-92T168,1110t35-125.5t92-92T420,858Z" />
      <glyph unicode="&#xb1;" glyph-name="gid249" horiz-adv-x="1200" d="M548,440V708H120V813H548v267H653V813h427V708H653V440H548ZM120,167V272h960V167H120Z" />
      <glyph unicode="&#xb2;" glyph-name="gid163" horiz-adv-x="792" d="M100,540l2,88L506,996q52,46 69.5,88t17.5,87q0,83-55.5,140T400,1368q-56,0-101-27.5t-70.5-72T204,1173H105q0,83 39,148t105.5,102T401,1460q83,0 148.5-38.5t104-104T692,1171q0-57-14.5-99.5t-43.5-79T561,916L187,577l-22,56H692V540H100Z" />
      <glyph unicode="&#xb3;" glyph-name="gid164" horiz-adv-x="770" d="M360,520q-99,0-175,53.5T80,720l93,27q22-66 73-100t114-34q89,2 140,57t51,143q0,90-52.5,145.5T359,1014q-24,0-50-6.5T259,990l-48,76l368,340l22-58H116v92H640v-94L318,1040l-4,53q100,17 175.5-15.5T607.5,976T650,813q0-86-37.5-152T510,557.5T360,520Z" />
      <glyph unicode="&#xb4;" glyph-name="gid273" horiz-adv-x="947" d="M490,1615H383l108,290H598L490,1615Z" />
      <glyph unicode="&#xb5;" glyph-name="gid253" horiz-adv-x="1187" d="M140-480V1080H256V518q0-102 20-182t62-136t104.5-85T589,86q89,0 153.5,30.5t106,85.5t62,130.5T931,497v583h116V0H942V164Q882,67 785.5,21T575-25Q465-25 381.5,17.5T245,140V-480H140Z" />
      <glyph unicode="&#xb6;" glyph-name="gid261" horiz-adv-x="1216" d="M693-282V561H605q-18,0-42.5,2T509,569q-108,17-185.5,77.5t-119,152T163,1001q0,109 41.5,201T323,1354.5T509,1432q29,5 53.5,6.5T605,1440H808V-282H693Zm244,0V1440h115V-282H937Z" />
      <glyph unicode="&#xb7;" glyph-name="gid184" horiz-adv-x="427" d="M216,537q-40,0-68,26.5T120,630q0,41 28,67t68,26q37,0 64-26t27-67q0-40-27-66.5T216,537Z" />
      <glyph unicode="&#xb8;" glyph-name="gid278" horiz-adv-x="783" d="M364-479q-35,0-65.5,8.5T240-449l33,87q48-18 82-18q42,0 64.5,26.5T442-294q0,48-41.5,69T309-188L384,17l96,1L426-130q52-23 86-63.5T546-299q0-76-54-128T364-479Z" />
      <glyph unicode="&#xb9;" glyph-name="gid162" horiz-adv-x="627" d="M290,540v792L120,1230v108l170,102h97V540H290Z" />
      <glyph unicode="&#xba;" glyph-name="gid126" horiz-adv-x="685" d="M342,540q-121,0-191.5,80T80,826q0,127 72,205.5T342,1110q122,0 192.5-79.5T605,826q0-127-71-206.5T342,540Zm0,92q81,0 120.5,54T502,826q0,88-40,140.5T342,1019q-82,0-120.5-53.5T183,826q0-88 40-141t119-53Z" />
      <glyph unicode="&#xbb;" glyph-name="gid221" horiz-adv-x="1038" d="M212,109l-75,59L434,542L137,914l75,59L556,542L212,109Zm322,0l-76,59L756,542L458,914l76,59L878,542L534,109Z" />
      <glyph unicode="&#xbc;" glyph-name="gid173" horiz-adv-x="1905" d="M290,540v792L120,1230v108l170,102h97V540H290ZM1472,0V172H1051v93l301,635h109L1161,265h311V526h97V265h96V172h-96V0h-97ZM334,0L246,69L1319,1442l85-67L334,0Z" />
      <glyph unicode="&#xbd;" glyph-name="gid172" horiz-adv-x="1815" d="M290,540v792L120,1230v108l170,102h97V540H290ZM1123,0l2,88l405,368q52,46 69,88t17,87q0,83-55.5,140T1423,828q-56,0-100.5-27.5t-70.5-72T1228,633H1128q0,83 39,148t105.5,102T1424,920q83,0 148.5-38.5t104-104T1715,631q0-57-14.5-99.5t-43.5-79T1584,376L1210,37l-22,56h527V0H1123ZM334,0L246,69L1319,1442l85-67L334,0Z" />
      <glyph unicode="&#xbe;" glyph-name="gid174" horiz-adv-x="1926" d="M360,520q-99,0-175,53.5T80,720l93,27q22-66 73-100t114-34q89,2 140,57t51,143q0,90-52.5,145.5T359,1014q-24,0-50-6.5T259,990l-48,76l368,340l22-58H116v92H640v-94L318,1040l-4,53q100,17 175.5-15.5T607.5,976T650,813q0-86-37.5-152T510,557.5T360,520ZM1613,0V172H1192v93l301,635h109L1302,265h311V526h97V265h96V172h-96V0h-97ZM476,0L389,69L1461,1442l86-67L476,0Z" />
      <glyph unicode="&#xbf;" glyph-name="gid183" horiz-adv-x="1028" d="M599,687q0-81-5.5-139T555,428q-31-58-78.5-97.5t-98-74T288,178q-38-43-51.5-90T223-11q0-55 14.5-99T281-187q44-51 107-70.5T517-277q70,0 129,20t96,61q37,35 52.5,83T810-12H928q-2-73-28-145T820-280q-60-57-140.5-83.5T516-390q-94,0-179,29T194-268q-48,53-71,118T100-10q0,76 27.5,145T205,255q35,38 83,72.5t92,70T447,477q27,48 28,95t1,115H599Zm-1,393V907H476v173H598Z" />
      <glyph unicode="&#xc0;" glyph-name="gid6" horiz-adv-x="1243" d="M557,1615L450,1905H557l107-290H557ZM1203,0H1081L593,1380h59L162,0H40L550,1440H693L1203,0ZM992,362H252V471H992V362Z" />
      <glyph unicode="&#xc1;" glyph-name="gid2" horiz-adv-x="1243" d="M685,1615H578l108,290H793L685,1615ZM40,0L550,1440H693L1203,0H1081L591,1380h58L162,0H40ZM251,362V471H991V362H251Z" />
      <glyph unicode="&#xc2;" glyph-name="gid4" horiz-adv-x="1243" d="M350,1615l215,255H679l214-255H768L622,1787L475,1615H350ZM40,0L550,1440H693L1203,0H1081L591,1380h58L162,0H40ZM251,362V471H991V362H251Z" />
      <glyph unicode="&#xc3;" glyph-name="gid8" horiz-adv-x="1243" d="M766,1666q-41,0-79.5,16t-75,36.5t-70,36.5T478,1771q-41,0-51.5-30.5T426,1679H338q-20,80 19.5,135.5T475,1870q42,0 81-16t76-36.5t70-36.5t63-16q37,0 50.5,29t1.5,66h88q20-78-19-136t-120-58ZM40,0L550,1440H693L1203,0H1081L591,1380h58L162,0H40ZM251,362V471H991V362H251Z" />
      <glyph unicode="&#xc4;" glyph-name="gid5" horiz-adv-x="1243" d="M738,1665v140H878V1665H738Zm-371,0v140H507V1665H367ZM40,0L550,1440H693L1203,0H1081L591,1380h58L162,0H40ZM251,362V471H991V362H251Z" />
      <glyph unicode="&#xc5;" glyph-name="gid7" horiz-adv-x="1243" d="M622,1558q-56,0-103,28t-75,75t-28,104t28,103.5t75,75T622,1972q58,0 105-28.5t74.5-75T829,1765t-27.5-104T727,1586t-105-28Zm0,97q47,0 78.5,32.5T732,1765q0,46-31.5,78T622,1875q-45,0-77.5-32T512,1765q0-45 32.5-77.5T622,1655ZM40,0L550,1440H693L1203,0H1081L591,1380h58L162,0H40ZM251,362V471H991V362H251Z" />
      <glyph unicode="&#xc6;" glyph-name="gid9" horiz-adv-x="1823" d="M40,0L550,1440H882V1328H575l73,49L162,0H40ZM251,362V471H907V362H251ZM833,0V1440h890V1328H949V781h654V669H949V112h774V0H833Z" />
      <glyph unicode="&#xc7;" glyph-name="gid12" horiz-adv-x="1415" d="M702-479q-34,0-65,8.5T579-449l33,87q48-18 81-18q42,0 65,26.5T781-294q0,48-41.5,69T648-188L723,17l96,1L765-130q52-23 86-63.5T885-299q0-76-54-128T702-479ZM715-30Q500-30 354,65.5T134,330T60,720t74,390t220,264.5T715,1470q251,0 407.5-130T1335,992l-119-29q-46,181-171.5,287.5T715,1357q-177,0-294.5-81t-177-225T183,720q-2-187 57.5-330.5T419,164.5T715,83q204,0 329.5,107T1216,477l119-29q-56-218-212.5-348T715-30Z" />
      <glyph unicode="&#xc8;" glyph-name="gid19" horiz-adv-x="1130" d="M566,1615L458,1905H565l108-290H566ZM140,0V1440h890V1328H255V781H910V669H255V112h775V0H140Z" />
      <glyph unicode="&#xc9;" glyph-name="gid16" horiz-adv-x="1130" d="M662,1615H554l108,290H769L662,1615ZM140,0V1440h890V1328H255V781H910V669H255V112h775V0H140Z" />
      <glyph unicode="&#xca;" glyph-name="gid17" horiz-adv-x="1130" d="M303,1615l214,255H631l215-255H721L574,1787L428,1615H303ZM140,0V1440h890V1328H255V781H910V669H255V112h775V0H140Z" />
      <glyph unicode="&#xcb;" glyph-name="gid18" horiz-adv-x="1130" d="M675,1665v140H815V1665H675Zm-371,0v140H444V1665H304ZM140,0V1440h890V1328H255V781H910V669H255V112h775V0H140Z" />
      <glyph unicode="&#xcc;" glyph-name="gid27" horiz-adv-x="435" d="M162,1615L54,1905H161l108-290H162ZM160,0V1440H275V0H160Z" />
      <glyph unicode="&#xcd;" glyph-name="gid24" horiz-adv-x="435" d="M274,1615H167l107,290H381L274,1615ZM160,0V1440H275V0H160Z" />
      <glyph unicode="&#xce;" glyph-name="gid25" horiz-adv-x="435" d="M-55,1615l215,255H274l215-255H364L217,1787L70,1615H-55ZM160,0V1440H275V0H160Z" />
      <glyph unicode="&#xcf;" glyph-name="gid26" horiz-adv-x="435" d="M333,1665v140H473V1665H333Zm-371,0v140H102V1665H-38ZM160,0V1440H275V0H160Z" />
      <glyph unicode="&#xd0;" glyph-name="gid14" horiz-adv-x="1306" d="M20,668V773H635V668H20ZM123,0V1440H552q25,0 81.5-1t107.5-9q162-22 269-121.5t160-252T1223,720q0-185-53-337.5T1010,131T741,10Q690,3 632.5,1.5T552,0H123ZM244,113H552q45,0 93,2.5t82,8.5q134,24 216,106.5t119.5,209T1100,720q0,155-38,281.5t-120,209T727,1316q-34,6-83.5,8.5T552,1327H244V113Z" />
      <glyph unicode="&#xd1;" glyph-name="gid33" horiz-adv-x="1346" d="M845,1616q-40,0-79,16t-75.5,36.5t-70,36.5T557,1721q-40,0-51-30.5t0-61.5H418q-21,80 18.5,135.5T555,1820q41,0 80-16t76-36.5t70.5-36.5t62.5-16q37,0 50.5,29t1.5,66h88q20-78-19-136t-120-58ZM140,0V1440H256L1090,205V1440h116V0H1090L256,1237V0H140Z" />
      <glyph unicode="&#xd2;" glyph-name="gid38" horiz-adv-x="1429" d="M663,1615L555,1905H663l107-290H663ZM715-30Q500-30 354,65.5T134,330T60,720t74,390t220,264.5T715,1470t360.5-95.5T1295,1110t74-390t-74-390T1075.5,65.5T715-30Zm0,113q177-1 295,80.5T1187,389t59,331t-59,331t-177,225t-295,81q-177,1-294.5-80T244,1051.5T183,720t57.5-330.5T419,164.5T715,83Z" />
      <glyph unicode="&#xd3;" glyph-name="gid35" horiz-adv-x="1429" d="M788,1615H681l108,290H896L788,1615ZM715-30Q500-30 354,65.5T134,330T60,720t74,390t220,264.5T715,1470t360.5-95.5T1295,1110t74-390t-74-390T1075.5,65.5T715-30Zm0,113q177-1 295,80.5T1187,389t59,331t-59,331t-177,225t-295,81q-177,1-294.5-80T244,1051.5T183,720t57.5-330.5T419,164.5T715,83Z" />
      <glyph unicode="&#xd4;" glyph-name="gid36" horiz-adv-x="1429" d="M442,1615l215,255H771l215-255H861L714,1787L567,1615H442ZM715-30Q500-30 354,65.5T134,330T60,720t74,390t220,264.5T715,1470t360.5-95.5T1295,1110t74-390t-74-390T1075.5,65.5T715-30Zm0,113q177-1 295,80.5T1187,389t59,331t-59,331t-177,225t-295,81q-177,1-294.5-80T244,1051.5T183,720t57.5-330.5T419,164.5T715,83Z" />
      <glyph unicode="&#xd5;" glyph-name="gid40" horiz-adv-x="1429" d="M715-30Q500-30 354,65.5T134,330T60,720t74,390t220,264.5T715,1470t360.5-95.5T1295,1110t74-390t-74-390T1075.5,65.5T715-30Zm0,113q177-1 295,80.5T1187,389t59,331t-59,331t-177,225t-295,81q-177,1-294.5-80T244,1051.5T183,720t57.5-330.5T419,164.5T715,83ZM874,1616q-41,0-79.5,16t-75,36.5t-70,36.5T586,1721q-41,0-51.5-30.5T534,1629H446q-20,80 19.5,135.5T583,1820q42,0 81-16t76-36.5t70-36.5t63-16q37,0 50.5,29t1.5,66h88q20-78-19-136t-120-58Z" />
      <glyph unicode="&#xd6;" glyph-name="gid37" horiz-adv-x="1429" d="M830,1665v140H970V1665H830Zm-371,0v140H599V1665H459ZM715-30Q500-30 354,65.5T134,330T60,720t74,390t220,264.5T715,1470t360.5-95.5T1295,1110t74-390t-74-390T1075.5,65.5T715-30Zm0,113q177-1 295,80.5T1187,389t59,331t-59,331t-177,225t-295,81q-177,1-294.5-80T244,1051.5T183,720t57.5-330.5T419,164.5T715,83Z" />
      <glyph unicode="&#xd7;" glyph-name="gid244" horiz-adv-x="963" d="M769,358L481,645L194,358l-74,75L407,720L120,1007l74,74L481,794l287,287l75-74L555,720L843,433l-74-75Z" />
      <glyph unicode="&#xd8;" glyph-name="gid39" horiz-adv-x="1429" d="M108-26L24,51L217,259l24,25l888,956l19,21l183,199l84-74l-198-217l-18-17L312,195l-24-27L108-26Zm607-4Q500-30 354,65.5T134,330T60,720t74,390t220,264.5T715,1470t360.5-95.5T1295,1110t74-390t-74-390T1075.5,65.5T715-30Zm0,113q177-1 295,80.5T1187,389t59,331t-59,331t-177,225t-295,81q-177,1-294.5-80T244,1051.5T183,720t57.5-330.5T419,164.5T715,83Z" />
      <glyph unicode="&#xd9;" glyph-name="gid52" horiz-adv-x="1392" d="M664,1615L557,1905H664l108-290H664ZM696-30Q534-30 408.5,37.5t-197,190T140,515v925H256V539q0-123 41.5-210.5T405.5,186t143-81T696,79t148,26t143,81t107.5,142.5T1136,539v901h116V515q0-164-71.5-286.5T983.5,38T696-30Z" />
      <glyph unicode="&#xda;" glyph-name="gid49" horiz-adv-x="1392" d="M730,1615H623l108,290H838L730,1615ZM696-30Q534-30 408.5,37.5t-197,190T140,515v925H256V539q0-123 41.5-210.5T405.5,186t143-81T696,79t148,26t143,81t107.5,142.5T1136,539v901h116V515q0-164-71.5-286.5T983.5,38T696-30Z" />
      <glyph unicode="&#xdb;" glyph-name="gid50" horiz-adv-x="1392" d="M424,1615l214,255H752l215-255H842L695,1787L549,1615H424ZM696-30Q534-30 408.5,37.5t-197,190T140,515v925H256V539q0-123 41.5-210.5T405.5,186t143-81T696,79t148,26t143,81t107.5,142.5T1136,539v901h116V515q0-164-71.5-286.5T983.5,38T696-30Z" />
      <glyph unicode="&#xdc;" glyph-name="gid51" horiz-adv-x="1392" d="M811,1665v140H951V1665H811Zm-370,0v140H581V1665H441ZM696-30Q534-30 408.5,37.5t-197,190T140,515v925H256V539q0-123 41.5-210.5T405.5,186t143-81T696,79t148,26t143,81t107.5,142.5T1136,539v901h116V515q0-164-71.5-286.5T983.5,38T696-30Z" />
      <glyph unicode="&#xdd;" glyph-name="gid57" horiz-adv-x="1075" d="M568,1615H461l107,290H675L568,1615ZM480,0V608L0,1440H133L538,740l404,700h133L596,608V0H480Z" />
      <glyph unicode="&#xde;" glyph-name="gid43" horiz-adv-x="1166" d="M140,0V1440H256V1159H665q79,0 153-28q45-16 85.5-42.5T976,1027q62-60 96-141t34-166q0-80-30-154.5T995,431q-59-69-147.5-109.5T665,281H256V0H140ZM256,393H665q69,0 134,32t110,86q36,44 57,98t19,111q-1,66-26,126T888,952q-42,43-102,69t-121,26H256V393Z" />
      <glyph unicode="&#xdf;" glyph-name="gid106" horiz-adv-x="1174" d="M603-28q-48,0-94,5.5T421,0V114q44-15 85-20.5T597,88q150,0 243,83.5T933,407q0,141-110,222.5T533,714V823q71,9 133,39.5t100,87T804,1092q0,125-73,195.5T534,1358q-85,0-154.5-38.5T283,1199q-12-37-16.5-79.5T262,1033V0H140V1063q0,53 6.5,99.5T167,1245q29,74 80,124.5T370,1445t163,25q116,0 204.5-44t138-129T925,1091q0-108-49-191T734,786q46-5 101.5-31.5t105-74t81.5-116T1054,406q0-196-115.5-315T603-28Z" />
      <glyph unicode="&#xe0;" glyph-name="gid63" horiz-adv-x="1098" d="M512,1255L405,1545H512l107-290H512ZM452-30Q327-30 244.5,14T121,130.5T80,288q0,92 38.5,154t103,100T364,599q89,20 192,34.5T752.5,659T905,678l-42-25q4,175-65.5,260.5T553,999q-123,0-202.5-55.5T239,772L121,805q37,147 149,226t287,79q149,0 250.5-58T949,889q17-43 23-100.5T978,673V0H873V284l39-10Q863,128 741,49T452-30Zm6,106q110,0 193,39.5t134.5,111T851,395q10,54 11,117t1,93l50-32q-65-8-155.5-17T573,534T403,501q-47-13-94.5-37.5t-79-67.5T198,287q0-49 24.5-98T304,108T458,76Z" />
      <glyph unicode="&#xe1;" glyph-name="gid60" horiz-adv-x="1098" d="M612,1255H505l107,290H719L612,1255ZM452-30Q327-30 244.5,14T121,130.5T80,288q0,92 38.5,154t103,100T364,599q89,20 192,34.5T752.5,659T905,678l-42-25q4,175-65.5,260.5T553,999q-123,0-202.5-55.5T239,772L121,805q37,147 149,226t287,79q149,0 250.5-58T949,889q17-43 23-100.5T978,673V0H873V284l39-10Q863,128 741,49T452-30Zm6,106q110,0 193,39.5t134.5,111T851,395q10,54 11,117t1,93l50-32q-65-8-155.5-17T573,534T403,501q-47-13-94.5-37.5t-79-67.5T198,287q0-49 24.5-98T304,108T458,76Z" />
      <glyph unicode="&#xe2;" glyph-name="gid61" horiz-adv-x="1098" d="M293,1255l214,255H621l215-255H711L564,1427L418,1255H293ZM452-30Q327-30 244.5,14T121,130.5T80,288q0,92 38.5,154t103,100T364,599q89,20 192,34.5T752.5,659T905,678l-42-25q4,175-65.5,260.5T553,999q-123,0-202.5-55.5T239,772L121,805q37,147 149,226t287,79q149,0 250.5-58T949,889q17-43 23-100.5T978,673V0H873V284l39-10Q863,128 741,49T452-30Zm6,106q110,0 193,39.5t134.5,111T851,395q10,54 11,117t1,93l50-32q-65-8-155.5-17T573,534T403,501q-47-13-94.5-37.5t-79-67.5T198,287q0-49 24.5-98T304,108T458,76Z" />
      <glyph unicode="&#xe3;" glyph-name="gid65" horiz-adv-x="1098" d="M717,1256q-41,0-79.5,16T562,1308.5T492,1345t-63,16q-41,0-51.5-30.5T377,1269H289q-20,80 19,135.5T426,1460q42,0 81-16t75.5-36.5t70-36.5t63.5-16q36,0 50,29t1,66h88q21-78-18-136t-120-58ZM452-30Q327-30 244.5,14T121,130.5T80,288q0,92 38.5,154t103,100T364,599q89,20 192,34.5T752.5,659T905,678l-42-25q4,175-65.5,260.5T553,999q-123,0-202.5-55.5T239,772L121,805q37,147 149,226t287,79q149,0 250.5-58T949,889q17-43 23-100.5T978,673V0H873V284l39-10Q863,128 741,49T452-30Zm6,106q110,0 193,39.5t134.5,111T851,395q10,54 11,117t1,93l50-32q-65-8-155.5-17T573,534T403,501q-47-13-94.5-37.5t-79-67.5T198,287q0-49 24.5-98T304,108T458,76Z" />
      <glyph unicode="&#xe4;" glyph-name="gid62" horiz-adv-x="1098" d="M689,1305v140H829V1305H689Zm-371,0v140H458V1305H318ZM452-30Q327-30 244.5,14T121,130.5T80,288q0,92 38.5,154t103,100T364,599q89,20 192,34.5T752.5,659T905,678l-42-25q4,175-65.5,260.5T553,999q-123,0-202.5-55.5T239,772L121,805q37,147 149,226t287,79q149,0 250.5-58T949,889q17-43 23-100.5T978,673V0H873V284l39-10Q863,128 741,49T452-30Zm6,106q110,0 193,39.5t134.5,111T851,395q10,54 11,117t1,93l50-32q-65-8-155.5-17T573,534T403,501q-47-13-94.5-37.5t-79-67.5T198,287q0-49 24.5-98T304,108T458,76Z" />
      <glyph unicode="&#xe5;" glyph-name="gid64" horiz-adv-x="1098" d="M564,1198q-57,0-104,28t-75,75t-28,104t28,103.5t75,75T564,1612t104-28.5t74.5-75T770,1405t-27.5-104T668,1226t-104-28Zm0,97q46,0 78,32.5t32,77.5q0,46-32,78t-78,32q-45,0-77.5-32T454,1405q0-45 32.5-77.5T564,1295ZM452-30Q327-30 244.5,14T121,130.5T80,288q0,92 38.5,154t103,100T364,599q89,20 192,34.5T752.5,659T905,678l-42-25q4,175-65.5,260.5T553,999q-123,0-202.5-55.5T239,772L121,805q37,147 149,226t287,79q149,0 250.5-58T949,889q17-43 23-100.5T978,673V0H873V284l39-10Q863,128 741,49T452-30Zm6,106q110,0 193,39.5t134.5,111T851,395q10,54 11,117t1,93l50-32q-65-8-155.5-17T573,534T403,501q-47-13-94.5-37.5t-79-67.5T198,287q0-49 24.5-98T304,108T458,76Z" />
      <glyph unicode="&#xe6;" glyph-name="gid66" horiz-adv-x="1888" d="M1343-30q-153,0-260,73T920.5,244.5T865,539q0,170 56,298.5T1084.5,1038t259.5,72q156,0 260-76t155-211.5T1807,507H1693v40q-5,210-89,332t-263,122q-122,0-202-58.5T1019.5,780T980,540q0-207 91.5-332.5T1341,82q113,0 203,56t142,170l98-46q-40-95-106-160T1527,3.5T1343-30ZM458,75q124,0 220,56T817,275q25,53 34.5,113T862,495t1,60l20-39l-330-4q-46-1-106.5-6t-117-25t-94-65T198,292q0-105 70-161T458,75Zm3-105Q282-30 181,56.5T80,292q0,91 34.5,149.5t90,92t118.5,49t121.5,20T544,608l331,6l-13-19q7,132-22,222T741.5,953T558,999T355.5,950T235,783L121,819q24,96 87,160.5T361.5,1077T558,1110q166,0 266-72.5T959,835q12-42 15.5-83.5T978,671L933,285Q892,164 816.5,95T648-2T461-30ZM939,507V612h806V507H939Z" />
      <glyph unicode="&#xe7;" glyph-name="gid69" horiz-adv-x="1093" d="M528-479q-35,0-65.5,8.5T404-449l33,87q48-18 82-18q42,0 64.5,26.5T606-294q0,48-41,69t-92,37L548,17l96,1L590-130q52-23 86-63.5T710-299q0-76-54-128T528-479ZM581-30Q419-30 308,42.5t-168.5,201T80,540q2,171 60.5,299.5T310,1039t272,71q157,0 276.5-75.5T1024,827L912,786Q871,887 783,942.5T581,998q-128,0-211-58.5T246,778T203,540q3-207 97.5-332.5T581,82q115,0 199.5,53T910,289l114-39Q961,113 848,41.5T581-30Z" />
      <glyph unicode="&#xe8;" glyph-name="gid76" horiz-adv-x="1158" d="M547,1255L439,1545H547l107-290H547ZM585-30Q430-30 317,39.5t-175,197T80,538q0,177 61.5,305.5t174,197.5T583,1110q157,0 268.5-71.5t170-206.5T1077,507H957v40q-5,222-100,338T585,1001q-183,0-282.5-120.5T203,540q0-218 99.5-338T583,82q125,0 218.5,58.5T950,308l104-46Q989,122 866,46T585-30ZM159,507V611h853V507H159Z" />
      <glyph unicode="&#xe9;" glyph-name="gid73" horiz-adv-x="1158" d="M657,1255H550l108,290H765L657,1255ZM585-30Q430-30 317,39.5t-175,197T80,538q0,177 61.5,305.5t174,197.5T583,1110q157,0 268.5-71.5t170-206.5T1077,507H957v40q-5,222-100,338T585,1001q-183,0-282.5-120.5T203,540q0-218 99.5-338T583,82q125,0 218.5,58.5T950,308l104-46Q989,122 866,46T585-30ZM159,507V611h853V507H159Z" />
      <glyph unicode="&#xea;" glyph-name="gid74" horiz-adv-x="1158" d="M310,1255l215,255H639l215-255H729L582,1427L435,1255H310ZM585-30Q430-30 317,39.5t-175,197T80,538q0,177 61.5,305.5t174,197.5T583,1110q157,0 268.5-71.5t170-206.5T1077,507H957v40q-5,222-100,338T585,1001q-183,0-282.5-120.5T203,540q0-218 99.5-338T583,82q125,0 218.5,58.5T950,308l104-46Q989,122 866,46T585-30ZM159,507V611h853V507H159Z" />
      <glyph unicode="&#xeb;" glyph-name="gid75" horiz-adv-x="1158" d="M698,1305v140H838V1305H698Zm-371,0v140H467V1305H327ZM585-30Q430-30 317,39.5t-175,197T80,538q0,177 61.5,305.5t174,197.5T583,1110q157,0 268.5-71.5t170-206.5T1077,507H957v40q-5,222-100,338T585,1001q-183,0-282.5-120.5T203,540q0-218 99.5-338T583,82q125,0 218.5,58.5T950,308l104-46Q989,122 866,46T585-30ZM159,507V611h853V507H159Z" />
      <glyph unicode="&#xec;" glyph-name="gid86" horiz-adv-x="435" d="M162,1255L54,1545H161l108-290H162ZM160,0V1080H275V0H160Z" />
      <glyph unicode="&#xed;" glyph-name="gid82" horiz-adv-x="435" d="M274,1255H167l107,290H381L274,1255ZM160,0V1080H275V0H160Z" />
      <glyph unicode="&#xee;" glyph-name="gid83" horiz-adv-x="435" d="M-51,1255l214,255H277l215-255H367L220,1427L74,1255H-51ZM160,0V1080H275V0H160Z" />
      <glyph unicode="&#xef;" glyph-name="gid84" horiz-adv-x="435" d="M333,1305v140H473V1305H333Zm-371,0v140H102V1305H-38ZM160,0V1080H275V0H160Z" />
      <glyph unicode="&#xf0;" glyph-name="gid71" horiz-adv-x="1155" d="M579-30Q423-32 312,34.5T141.5,222T80,504q2,163 62,283.5t171.5,186T579,1038q108,1 208-41T953,869q-18,148-82,257T700.5,1298.5T450,1372l16,103q172-9 299.5-87T967,1171q44-77 68-165t32-207.5t8-291.5q0-164-60-285.5T843.5,34T579-30Zm0,110q184,0 280,115t96,311q0,197-99,310.5T579,928q-184,2-281.5-113.5T200,504q0-199 98-311.5T579,80Zm33,1061l-80,66l287,357l79-65L612,1141Z" />
      <glyph unicode="&#xf1;" glyph-name="gid92" horiz-adv-x="1167" d="M728,1256q-40,0-79,16t-75.5,36.5t-70,36.5T440,1361q-40,0-51-30.5t0-61.5H301q-21,80 18.5,135.5T438,1460q41,0 80-16t76-36.5t70.5-36.5t62.5-16q37,0 50.5,29t1.5,66h88q20-78-19-136t-120-58ZM931,0V562q0,102-20.5,182t-62,136t-104,85T597,994q-88,0-152.5-30.5T338.5,878t-62-130.5T256,583l-91,11q0,175 59.5,288.5t160.5,168T612,1105q89,0 159.5-26T894,1005.5t86-112T1030.5,752T1047,591V0H931ZM140,0V1080H245V837h11V0H140Z" />
      <glyph unicode="&#xf2;" glyph-name="gid97" horiz-adv-x="1166" d="M521,1255L414,1545H521l107-290H521ZM583-30Q422-30 310,43T139,245T80,542q0,169 60,297.5T312.5,1039T583,1110q161,0 273.5-72.5t171-200.5T1086,542q0-171-59-299.5T855,42T583-30Zm0,112q191,0 285.5,128T963,542q0,208-95,332T583,998q-129,0-213-58.5t-125.5-161T203,542q0-208 96.5-334T583,82Z" />
      <glyph unicode="&#xf3;" glyph-name="gid94" horiz-adv-x="1166" d="M634,1255H527l108,290H742L634,1255ZM583-30Q422-30 310,43T139,245T80,542q0,169 60,297.5T312.5,1039T583,1110q161,0 273.5-72.5t171-200.5T1086,542q0-171-59-299.5T855,42T583-30Zm0,112q191,0 285.5,128T963,542q0,208-95,332T583,998q-129,0-213-58.5t-125.5-161T203,542q0-208 96.5-334T583,82Z" />
      <glyph unicode="&#xf4;" glyph-name="gid95" horiz-adv-x="1166" d="M311,1255l214,255H639l215-255H729L582,1427L436,1255H311ZM583-30Q422-30 310,43T139,245T80,542q0,169 60,297.5T312.5,1039T583,1110q161,0 273.5-72.5t171-200.5T1086,542q0-171-59-299.5T855,42T583-30Zm0,112q191,0 285.5,128T963,542q0,208-95,332T583,998q-129,0-213-58.5t-125.5-161T203,542q0-208 96.5-334T583,82Z" />
      <glyph unicode="&#xf5;" glyph-name="gid99" horiz-adv-x="1166" d="M728,1256q-40,0-79,16t-75.5,36.5t-70,36.5T440,1361q-40,0-51-30.5t0-61.5H301q-21,80 18.5,135.5T438,1460q41,0 80-16t76-36.5t70.5-36.5t62.5-16q37,0 50.5,29t1.5,66h88q20-78-19-136t-120-58ZM583-30Q422-30 310,43T139,245T80,542q0,169 60,297.5T312.5,1039T583,1110q161,0 273.5-72.5t171-200.5T1086,542q0-171-59-299.5T855,42T583-30Zm0,112q191,0 285.5,128T963,542q0,208-95,332T583,998q-129,0-213-58.5t-125.5-161T203,542q0-208 96.5-334T583,82Z" />
      <glyph unicode="&#xf6;" glyph-name="gid96" horiz-adv-x="1166" d="M698,1305v140H838V1305H698Zm-370,0v140H468V1305H328ZM583-30Q422-30 310,43T139,245T80,542q0,169 60,297.5T312.5,1039T583,1110q161,0 273.5-72.5t171-200.5T1086,542q0-171-59-299.5T855,42T583-30Zm0,112q191,0 285.5,128T963,542q0,208-95,332T583,998q-129,0-213-58.5t-125.5-161T203,542q0-208 96.5-334T583,82Z" />
      <glyph unicode="&#xf7;" glyph-name="gid245" horiz-adv-x="1080" d="M120,668V773H960V668H120ZM484,902v145H629V902H484Zm0-484V563H629V418H484Z" />
      <glyph unicode="&#xf8;" glyph-name="gid98" horiz-adv-x="1166" d="M116-5L36,75L203,242l32,25L884,914l25,32l141,139l80-79L967,846l-29-23L303,188l-27-33L116-5ZM583-30Q422-30 310,43T139,245T80,542q0,169 60,297.5T312.5,1039T583,1110q161,0 273.5-72.5t171-200.5T1086,542q0-171-59-299.5T855,42T583-30Zm0,112q191,0 285.5,128T963,542q0,208-95,332T583,998q-129,0-213-58.5t-125.5-161T203,542q0-208 96.5-334T583,82Z" />
      <glyph unicode="&#xf9;" glyph-name="gid112" horiz-adv-x="1167" d="M543,1255L435,1545H542l108-290H543ZM555-25Q466-25 395.5,1T273,74.5t-86,112T136.5,328T120,489v591H236V518q0-102 20.5-182t62-136t104-85T570,86q88,0 152.5,30.5t106,85.5t62,130.5T911,497l91-11q0-175-59.5-288.5T782,29.5T555-25ZM922,0V243H911v837h116V0H922Z" />
      <glyph unicode="&#xfa;" glyph-name="gid109" horiz-adv-x="1167" d="M623,1255H515l108,290H730L623,1255ZM555-25Q466-25 395.5,1T273,74.5t-86,112T136.5,328T120,489v591H236V518q0-102 20.5-182t62-136t104-85T570,86q88,0 152.5,30.5t106,85.5t62,130.5T911,497l91-11q0-175-59.5-288.5T782,29.5T555-25ZM922,0V243H911v837h116V0H922Z" />
      <glyph unicode="&#xfb;" glyph-name="gid110" horiz-adv-x="1167" d="M300,1255l215,255H629l215-255H719L572,1427L425,1255H300ZM555-25Q466-25 395.5,1T273,74.5t-86,112T136.5,328T120,489v591H236V518q0-102 20.5-182t62-136t104-85T570,86q88,0 152.5,30.5t106,85.5t62,130.5T911,497l91-11q0-175-59.5-288.5T782,29.5T555-25ZM922,0V243H911v837h116V0H922Z" />
      <glyph unicode="&#xfc;" glyph-name="gid111" horiz-adv-x="1167" d="M688,1305v140H828V1305H688Zm-371,0v140H457V1305H317ZM555-25Q466-25 395.5,1T273,74.5t-86,112T136.5,328T120,489v591H236V518q0-102 20.5-182t62-136t104-85T570,86q88,0 152.5,30.5t106,85.5t62,130.5T911,497l91-11q0-175-59.5-288.5T782,29.5T555-25ZM922,0V243H911v837h116V0H922Z" />
      <glyph unicode="&#xfd;" glyph-name="gid117" horiz-adv-x="1033" d="M566,1255H459l107,290H673L566,1255ZM298-480L508,85l2-168L37,1080H160L566,70H502L871,1080H992L418-480H298Z" />
      <glyph unicode="&#xfe;" glyph-name="gid102" horiz-adv-x="1168" d="M140,796v644H256V796H140ZM613-30Q467-30 366,46T212,251T159,542q0,163 53,291.5T369,1036t255,74q147,0 251-75t158.5-204T1088,542q0-162-55.5-291.5t-161-205T613-30ZM140-480V1080H245V248h10V-480H140ZM606,80q119,0 198.5,61t120,165.5T965,542q0,130-39.5,233.5t-119,164T604,1000q-119,0-199-58.5T285,779T245,542q0-132 39.5-236.5t120-165T606,80Z" />
      <glyph unicode="&#xff;" glyph-name="gid118" horiz-adv-x="1033" d="M641,1305v140H781V1305H641Zm-371,0v140H410V1305H270ZM298-480L508,85l2-168L37,1080H160L566,70H502L871,1080H992L418-480H298Z" />
      <glyph unicode="&#x2013;" glyph-name="gid208" horiz-adv-x="1080" d="M120,578V683H960V578H120Z" />
      <glyph unicode="&#x2014;" glyph-name="gid209" horiz-adv-x="1560" d="M120,578V683H1440V578H120Z" />
      <glyph unicode="&#x2018;" glyph-name="gid218" horiz-adv-x="402" d="M272,1051q-63-13-104.5,26T126,1195v245H272V1245H193q-1-35 1.5-65.5T212,1130t52-16l8-63Z" />
      <glyph unicode="&#x2019;" glyph-name="gid219" horiz-adv-x="402" d="M130,1052l8,62q37-2 52,16.5t17.5,49T208,1245H130v195H275V1195q0-79-41-118t-104-25Z" />
      <glyph unicode="&#x201a;" glyph-name="gid214" horiz-adv-x="505" d="M120-193l8,62q37-2 52,16.5t17.5,49T198,0H120V195H265V-50q0-79-41-118T120-193Z" />
      <glyph unicode="&#x201c;" glyph-name="gid216" horiz-adv-x="692" d="M532,1453l-7-62q-37,2-52-16.5t-17.5-49T454,1260h78V1065H387v245q0,79 41,118t104,25Zm-227,0l-7-62q-37,2-52-16.5t-17.5-49T227,1260h78V1065H160v245q0,79 41,118t104,25Z" />
      <glyph unicode="&#x201d;" glyph-name="gid217" horiz-adv-x="692" d="M160,1068l8,62q37-2 52,16.5t17.5,49T238,1261H160v195H305V1211q0-79-41-118t-104-25Zm227,0l8,62q37-2 52,16.5t17.5,49T465,1261H387v195H532V1211q0-79-41-118t-104-25Z" />
      <glyph unicode="&#x201e;" glyph-name="gid215" horiz-adv-x="692" d="M160-193l8,62q37-2 52,16.5t17.5,49T238,0H160V195H305V-50q0-79-41-118T160-193Zm227,0l8,62q37-2 52,16.5t17.5,49T465,0H387V195H532V-50q0-79-41-118T387-193Z" />
      <glyph unicode="&#x2022;" glyph-name="gid185" horiz-adv-x="1273" d="M641,413q-62,0-111.5,28.5T450,519T420,630t30,111t79.5,77.5T641,847q57,0 105.5-28.5T824,741t29-111T824,519t-77.5-77.5T641,413Z" />
      <glyph unicode="&#x2039;" glyph-name="gid222" horiz-adv-x="1213" d="M746,164L280,630l466,466l74-73L426,630L820,237l-74-73Z" />
      <glyph unicode="&#x203a;" glyph-name="gid223" horiz-adv-x="1213" d="M468,164l-75,73L788,630L393,1023l75,73L933,630L468,164Z" />
    </font>
</defs>
</svg>
