<?xml version="1.0" standalone="no"?>
<!DOCTYPE svg PUBLIC "-//W3C//DTD SVG 1.1//EN" "http://www.w3.org/Graphics/SVG/1.1/DTD/svg11.dtd">
<svg xmlns="http://www.w3.org/2000/svg">
  <defs>
    <font id="Manrope" horiz-adv-x="1139">
      <font-face font-family="Manrope ExtraLight SemiBold" units-per-em="2000" panose-1="0 0 0 0 0 0 0 0 0 0" ascent="2132" descent="-600" alphabetic="0" />
      <glyph unicode=" " glyph-name="gid231" horiz-adv-x="400" />
      <glyph unicode="!" glyph-name="gid180" horiz-adv-x="689" d="M240,0V203H449V0H240Zm0,360V1440H449V360H240Z" />
      <glyph unicode="&quot;" glyph-name="gid224" horiz-adv-x="884" d="M120,1080v360H329V1080H120Zm355,0v360H684V1080H475Z" />
      <glyph unicode="#" glyph-name="gid187" horiz-adv-x="1855" d="M389,1L497,406H120l53,199H551l69,263H243l54,197H673l101,375H979L878,1065h275l101,375h205l-101-375h377l-52-197H1305l-71-263h377l-52-199H1181L1073,1H869L976,406H701L593,1H389ZM755,605h274l71,263H825L755,605Z" />
      <glyph unicode="$" glyph-name="gid237" horiz-adv-x="1230" d="M518-199V35H727V-199H518Zm0,1603v235H727V1404H518ZM633-30Q483-30 365,24T171.5,177.5T73,413l207,33q30-128 128-203.5T643,167q136,0 221.5,65T950,398q0,72-43.5,117T765,591L427,695q-300,93-300,360q0,126 60.5,219T358,1418t257,51q141-2 250.5-52t182-144T1148,1047l-213-38q-14,77-58.5,136t-112,92T613,1271q-79,2-141.5-24.5t-99-74T336,1065q0-66 51-112t161-79l265-77q182-54 263-145t81-242q0-132-65.5-230.5T908,25.5T633-30Z" />
      <glyph unicode="%" glyph-name="gid254" horiz-adv-x="1801" d="M320,0L180,140L1481,1440l140-141L320,0ZM1321-30q-99,0-180.5,48.5T1010,148.5T961,330q0,98 50,180t132,131t178,49q99,0 181-48.5t130.5-130T1681,330t-48.5-181.5T1502,18.5T1321-30Zm0,181q49,0 89.5,24.5t65,65.5t24.5,89t-24.5,89t-65,65.5T1321,509q-48,0-88.5-24.5t-65-65.5T1143,330t24.5-89t65-65.5T1321,151ZM480,750q-99,0-181,48.5t-130.5,130T120,1110q0,98 50,180t132,131t178,49q99,0 180.5-48.5t130.5-130T840,1110T791,928.5t-130.5-130T480,750Zm0,181q48,0 89,24.5t65.5,65.5t24.5,89t-24.5,89T569,1264.5T480,1289t-88.5-24.5T326,1199t-25-89t25-89t65-65.5T480,931Z" />
      <glyph unicode="&amp;" glyph-name="gid260" horiz-adv-x="1325" d="M613-30Q492-30 387,5.5T211,117q-55,61-81.5,134.5T100,408q0,81 23.5,157.5T198,702q23,28 51,48.5T305,787q-64,70-97,133.5T175,1071q0,122 64,219.5T414,1431q51,21 104,28.5t103,7.5q90,0 174-26t144-85q38-35 64.5-79t40.5-90l-206-48q-17,48-56,81q-33,29-76.5,39.5T619,1270q-71,0-128-27q-52-25-78-68.5T387,1070q0-54 19-87t51-69q19-21 45.5-45T557,819L949,454q2,22 3,47t1,48l-1,187h187V489q0-63-3.5-113.5T1123,293l180-167L1168-19L1023,119Q977,73 920,41.5T805-5q-49-15-96.5-20T613-30Zm6,200q40,0 74,4.5T758,192q42,17 68.5,35T871,262L461,638q-31-11-57.5-28.5T358,569q-23-29-34.5-67.5T313,419q0-48 15.5-87.5T369,261q40-48 111.5-69.5T619,170Z" />
      <glyph unicode="&apos;" glyph-name="gid225" horiz-adv-x="489" d="M120,1080v360H329V1080H120Z" />
      <glyph unicode="(" glyph-name="gid194" horiz-adv-x="888" d="M649-373Q533-238 449-68.5t-128,356T280,660q-3,186 41,372.5t128,356T649,1693l156-116q-120-142-193-291.5t-107-306T471,660q0-162 34-319T612.5,34T805-257L649-373Z" />
      <glyph unicode=")" glyph-name="gid195" horiz-adv-x="888" d="M239-373L83-257Q202-116 275.5,34T383,341t34,319q0,163-34,319.5t-107,306T83,1577l156,116q116-135 200-304.5t128-356T608,660q3-186-41-372.5T439-68.5T239-373Z" />
      <glyph unicode="*" glyph-name="gid186" horiz-adv-x="911" d="M293,745L141,855l152,186L60,1106l58,179l225-88l-12,243H519l-12-243l226,88l58-179l-234-65L709,855L557,745L425,945L293,745Z" />
      <glyph unicode="+" glyph-name="gid242" horiz-adv-x="1147" d="M490,267V637H120V805H490v368H658V805h369V637H658V267H490Z" />
      <glyph unicode="," glyph-name="gid176" horiz-adv-x="581" d="M120-239l13,93q43-3 67,16t32,53t3,77H120V241H341V-20q0-118-56.5-178T120-239Z" />
      <glyph unicode="-" glyph-name="gid206" horiz-adv-x="840" d="M120,547V715H720V547H120Z" />
      <glyph unicode="." glyph-name="gid175" horiz-adv-x="573" d="M176,0V221H397V0H176Z" />
      <glyph unicode="/" glyph-name="gid188" horiz-adv-x="835" d="M504,1440H715L331,0H120L504,1440Z" />
      <glyph unicode="0" glyph-name="gid131" horiz-adv-x="1284" d="M642-30Q495-30 382,34.5T204.5,212T140,472V968q0,147 64.5,260T382,1405.5T642,1470t260-64.5T1079.5,1228T1144,968V472q0-147-64.5-260T902,34.5T642-30Zm0,200q80,0 145.5,38.5T892,312.5T931,459V983q0,80-39,145.5t-104.5,104T642,1271t-145.5-38.5T392,1128.5T353,983V459q0-81 39-146.5t104.5-104T642,170Z" />
      <glyph unicode="1" glyph-name="gid132" horiz-adv-x="844" d="M391,0V1210L120,1045v233l271,162H604V0H391Z" />
      <glyph unicode="2" glyph-name="gid133" horiz-adv-x="1174" d="M100,1l1,186L728,749q76,67 103.5,128T859,999q0,77-34,138.5T731,1235t-138,36q-80,0-142.5-37.5T353,1134t-34-134H105q0,140 63.5,245.5t174.5,165T597,1470q136,0 244-61.5T1011.5,1240T1074,996q0-99-26-168T970,700T840,572L356,140l-23,60h741V1H100Z" />
      <glyph unicode="3" glyph-name="gid134" horiz-adv-x="1144" d="M543-27Q436-27 342,13.5T179.5,129T80,306l202,56q29-93 101-142.5T543,171q79,1 139,37t94,97.5T810,447q0,120-74.5,198T541,723q-34,0-69.5-10T405,687L307,852l508,449l22-60H137v199h866V1241L581,835l-2,68q136,0 236-60.5t154.5-164T1024,447q0-138-64.5-245T786.5,34T543-27Z" />
      <glyph unicode="4" glyph-name="gid135" horiz-adv-x="1205" d="M750,0V251H100V449l468,991H807L339,449H750V839H962V449h143V251H962V0H750Z" />
      <glyph unicode="5" glyph-name="gid136" horiz-adv-x="1167" d="M567-30Q456-30 360.5,15.5T197,141.5T100,327l201,54q17-64 58.5-111T457,197.5T573,172q79,0 143.5,38t102,102T856,453q0,79-38.5,143t-103,101.5T573,735q-88,0-149-35t-95-81L147,683l44,757H968V1243H298l85,79L348,755l-41,53q57,57 136,87t157,30q134,0 239.5-62T1006,694.5T1067,453q0-134-69-243.5T815,35T567-30Z" />
      <glyph unicode="6" glyph-name="gid137" horiz-adv-x="1243" d="M635-30Q495-30 383,36.5T205.5,219T140,483V942q0,157 65.5,276t182,185T656,1469q114,0 214-43t173-128L890,1155q-41,53-102.5,84.5T656,1271q-90,0-158-42.5T391.5,1117T353,969V705l-41,46q62,81 154,128t197,47q134,0 239.5-62.5t166-169.5T1129,453q0-135-67.5-244.5t-180-174T635-30Zm0,201q78,0 142,38T879,311t38,142T879.5,595T778,697T636,735T493.5,697T391,595T353,453q0-77 38-141T493,209.5T635,171Z" />
      <glyph unicode="7" glyph-name="gid138" horiz-adv-x="1046" d="M215,0L721,1241H80v199H946V1241L441,0H215Z" />
      <glyph unicode="8" glyph-name="gid139" horiz-adv-x="1203" d="M601-30Q460-30 351.5,26.5T181.5,184T120,418q0,124 58,227T351,807l-4-72q-92,57-141.5,142.5T156,1069q0,123 57,213t157.5,139T601,1470t230-49t157-139t57-213q0-106-47-191T854,735l-3,70q114-56 173-159.5T1083,418q0-133-62-234T850,26.5T601-30Zm0,199q116,0 188,63.5T861,418T789.5,604.5T601,669T412.5,604.5T341,418t72-185.5T601,169Zm0,700q99,0 160.5,49.5T823,1069t-61.5,151.5T601,1271t-161-50.5T378,1069t62-150.5T601,869Z" />
      <glyph unicode="9" glyph-name="gid140" horiz-adv-x="1243" d="M608,1469q139,0 251-66.5T1037,1220t66-265V497q0-158-65.5-276.5T855.5,36T587-30Q473-30 373,13T199,141L353,284q41-53 103-85t131-32q89,0 157.5,43T851,322t38,148V734l42-46q-62-81-154-128T580,513q-135,0-240,62T174,744T113,986t68,244t180,174t247,65Zm0-202q-78,0-142.5-37.5T363,1128T325,986t38-142.5T465,741t142-38t142,38T851,843.5T889,986q0,77-37.5,141T750,1229t-142,38Z" />
      <glyph unicode=":" glyph-name="gid177" horiz-adv-x="656" d="M220,140V361H441V140H220Zm1,579V940H442V719H221Z" />
      <glyph unicode=";" glyph-name="gid178" horiz-adv-x="661" d="M220-239l13,93q43-3 67,16t32,53t3,77H220V241H441V-20q0-118-56.5-178T220-239Zm0,1098v221H441V859H220Z" />
      <glyph unicode="&lt;" glyph-name="gid248" horiz-adv-x="1259" d="M757,153L280,630l477,477L887,977L533,630L887,283L757,153Z" />
      <glyph unicode="=" glyph-name="gid246" horiz-adv-x="1500" d="M240,819V987H1260V819H240Zm0-366V621H1260V453H240Z" />
      <glyph unicode="&gt;" glyph-name="gid247" horiz-adv-x="1259" d="M503,153L372,283L727,630L372,977l131,130L979,630L503,153Z" />
      <glyph unicode="?" glyph-name="gid182" horiz-adv-x="1087" d="M408,391q0,72 11.5,135T463,646q27,54 63.5,87.5t80,66T698,883q40,44 53.5,89t13.5,97q0,38-9,71t-30,57q-32,40-81,56.5T543,1270q-48,0-91.5-13T379,1217q-31-26-45.5-64.5T320,1069H100q8,94 48,176t108,133q58,46 132,68.5T536,1469q106,0 200.5-33T894,1329q46-52 69.5-118.5T987,1073q0-95-40.5-176T843,749q-33-35-67-63.5T713,630t-48-59q-27-46-31-82.5T630,391H408ZM409,0V242H630V0H409Z" />
      <glyph unicode="@" glyph-name="gid259" horiz-adv-x="1821" d="M909-210q-163,0-300,54T371-3.5T215,228T160,517q0,186 57.5,330t160,242.5t238,149.5T906,1290q190,0 333-59t238-160t141-230.5T1660,570q-5-194-81-297.5T1343,169q-85,0-156.5,39T1088,323l58-3q-41-77-112-108T889,181q-101,0-178,43.5T590,347T546,530q0,107 46,185.5T716,837t176,43q65,0 135.5-27T1137,777l-41-52V852h134l-3-359q0-77 30-116t89-39q52,0 80.5,29.5t40,80.5T1480,565q3,155-46,261T1301.5,997.5t-183.5,95T919,1122q-140,0-249-44.5t-183.5-125t-112-190T339,522q4-130 47-234T506,110T688-3T918-42q70,0 139.5,15.5T1185,17l57-156q-77-36-161.5-53.5T909-210Zm-8,561q71,0 119,41t48,139q0,89-42.5,134.5T906,711q-91,0-136-48T725,531q0-86 46.5-133T901,351Z" />
      <glyph unicode="A" glyph-name="gid1" horiz-adv-x="1317" d="M40,0L508,1440H809L1277,0H1060L629,1314h54L257,0H40ZM283,325V521h752V325H283Z" />
      <glyph unicode="B" glyph-name="gid10" horiz-adv-x="1250" d="M140,0V1440H706q137,0 230-56t140-144.5t47-186.5q0-119-58.5-204T907,733l-2,49q138-34 212-132.5T1191,420q0-127-50.5-221T993.5,52.5T760,0H140ZM352,199H728q71,0 127.5,27t89,77.5T977,424q0,65-28.5,117.5t-82,83T741,655H352V199Zm0,653H703q58,0 104.5,23.5t74,68T909,1051q0,84-56,138t-150,54H352V852Z" />
      <glyph unicode="C" glyph-name="gid11" horiz-adv-x="1461" d="M741-30Q525-30 373,64.5T140.5,328T60,720t80.5,392T373,1375.5T741,1470q249,0 412.5-126T1381,1005l-212-57q-42,151-149.5,237T741,1271q-153,0-255-69T332.5,1009T281,720q-1-165 50.5-289t154-193T741,169q171,0 278.5,86.5T1169,492l212-57q-64-213-227.5-339T741-30Z" />
      <glyph unicode="D" glyph-name="gid13" horiz-adv-x="1381" d="M140,0V1440H591q20,0 74.5-1t104.5-8q169-21 284.5-121T1229,1056.5T1288,720q0-184-59-337.5t-174.5-253T770,9Q720,2 665.5,1T591,0H140ZM354,199H591q34,0 81,2t83,8q110,21 178.5,95.5T1034,488t32,232q0,127-33,235.5t-101.5,182T755,1231q-36,7-83.5,8.5T591,1241H354V199Z" />
      <glyph unicode="E" glyph-name="gid15" horiz-adv-x="1160" d="M140,0V1440h920V1243H349V839H940V642H349V197h711V0H140Z" />
      <glyph unicode="F" glyph-name="gid20" horiz-adv-x="1033" d="M140,0V1440H993V1231H349V825H873V615H349V0H140Z" />
      <glyph unicode="G" glyph-name="gid21" horiz-adv-x="1446" d="M729-30Q584-30 462,20.5T250,168T110,404T60,720q0,233 85,400.5t236,258T729,1469q254,0 405.5-118T1341,1025l-212-38q-44,129-142,206t-246,78q-153,1-254.5-68T334,1009.5T282,720t50-288.5T485.5,239T741,169q123-2 211.5,45.5T1093,354t67,226H880V748h502q2-18 3-47.5t1-37.5q0-200-77-357T1085,59.5T729-30Z" />
      <glyph unicode="H" glyph-name="gid22" horiz-adv-x="1419" d="M140,0V1440H349V819h720v621h210V0H1069V622H349V0H140Z" />
      <glyph unicode="I" glyph-name="gid23" horiz-adv-x="529" d="M160,0V1440H369V0H160Z" />
      <glyph unicode="J" glyph-name="gid28" horiz-adv-x="977" d="M414-29Q256-29 148.5,55T0,281l207,49q14-67 71.5-114.5T407,168q47,0 98,24t76,78q17,36 20,82.5T604,461v979H816V461q0-64-0.5-114t-10-94T769,162Q712,63 619,17T414-29Z" />
      <glyph unicode="K" glyph-name="gid29" horiz-adv-x="1259" d="M140,0V1440H349V768l603,672h260L575,737L1259,0H991L349,688V0H140Z" />
      <glyph unicode="L" glyph-name="gid30" horiz-adv-x="1051" d="M160,0V1440H369V197h652V0H160Z" />
      <glyph unicode="M" glyph-name="gid31" horiz-adv-x="1701" d="M140,0V1440H329L851,357l519,1083h191V1H1363V986L898,0H803L337,986V0H140Z" />
      <glyph unicode="N" glyph-name="gid32" horiz-adv-x="1413" d="M140,0V1440H352L1061,370V1440h212V0H1061L352,1071V0H140Z" />
      <glyph unicode="O" glyph-name="gid34" horiz-adv-x="1481" d="M741-30Q525-30 373,64.5T140.5,328T60,720t80.5,392T373,1375.5T741,1470q215,0 367.5-94.5T1341,1112t80-392t-80-392T1108.5,64.5T741-30Zm0,199q153-2 254.5,67.5t152.5,194T1199,720t-51,288.5T995.5,1201T741,1271q-153,2-254.5-67T334,1010T282,720t50-288.5T485.5,239T741,169Z" />
      <glyph unicode="P" glyph-name="gid42" horiz-adv-x="1254" d="M140,0V1440H722q21,0 52-1.5t59-6.5q120-19 200.5-82T1154,1191t40-212q0-117-40-213T1033.5,607T833,525q-28-4-59.5-6T722,517H349V0H140ZM349,715H714q20,0 44.5,2t46.5,7q64,15 103,55.5T964,873t17,106t-17,105.5t-56,93T805,1233q-22,6-46.5,8t-44.5,2H349V715Z" />
      <glyph unicode="Q" glyph-name="gid44" horiz-adv-x="1481" d="M1269-29L867,371l134,134l400-400L1269-29ZM741-30Q525-30 373,64.5T140.5,328T60,720t80.5,392T373,1375.5T741,1470q215,0 367.5-94.5T1341,1112t80-392t-80-392T1108.5,64.5T741-30Zm0,199q153-2 254.5,67.5t152.5,194T1199,720t-51,288.5T995.5,1201T741,1271q-153,2-254.5-67T334,1010T282,720t50-288.5T485.5,239T741,169Z" />
      <glyph unicode="R" glyph-name="gid45" horiz-adv-x="1301" d="M140,0V1440H722q21,0 52-1.5t59-6.5q120-19 200.5-82T1154,1191t40-212q0-172-88-296.5T842,527l-85-10H349V0H140ZM982,0L698,586l211,54L1221,0H982ZM349,715H714q20,0 44.5,2t46.5,7q64,15 103,55.5T964,873t17,106t-17,105.5t-56,93T805,1233q-22,6-46.5,8t-44.5,2H349V715Z" />
      <glyph unicode="S" glyph-name="gid46" horiz-adv-x="1287" d="M662-30Q507-30 382.5,23.5t-205,153T73,413l218,33q33-132 138-205.5T674,167q87,0 160,27.5t117.5,79T996,397q0,39-13.5,69t-37,52.5t-57,39T815,586L446,695q-54,16-110,41.5t-102.5,67T158,906.5T129,1056q0,133 68.5,225.5t185.5,140T645,1469q146-2 261.5-52t192-143.5T1204,1047l-224-38q-15,81-64,139.5t-120,90T642,1271q-80,2-146.5-24t-106-73T350,1066q0-60 35-97t86.5-58.5T574,875l266-75q50-14 113.5-37.5t123-65.5T1175,585.5T1214,411q0-109-44-191.5t-120.5-138T873-2T662-30Z" />
      <glyph unicode="T" glyph-name="gid47" horiz-adv-x="1207" d="M499,0V1243H20v197H1187V1243H708V0H499Z" />
      <glyph unicode="U" glyph-name="gid48" horiz-adv-x="1428" d="M714-30Q545-30 415.5,39.5T213,234.5T140,530v909l212,1V541q0-92 31-162t83-117t116.5-71T714,167q68,0 132.5,24.5T963,263t82.5,117T1076,541v899h212V530q0-169-73-295T1012.5,39.5T714-30Z" />
      <glyph unicode="V" glyph-name="gid53" horiz-adv-x="1257" d="M478,0L10,1440H227L626,211l404,1229h217L779,0H478Z" />
      <glyph unicode="W" glyph-name="gid54" horiz-adv-x="1925" d="M445,0L27,1440H246L549,351L852,1439l220,1L1375,351l303,1089h220L1479,0H1271L962,1077L653,0H445Z" />
      <glyph unicode="X" glyph-name="gid55" horiz-adv-x="1278" d="M20,0L511,729L33,1440H289L640,906l349,534h257L768,729L1258,0H1002L640,551L277,0H20Z" />
      <glyph unicode="Y" glyph-name="gid56" horiz-adv-x="1186" d="M487,0V595L0,1440H244L593,835l349,605h244L699,595V0H487Z" />
      <glyph unicode="Z" glyph-name="gid58" horiz-adv-x="1294" d="M100,0V33L835,1243H140v197H1194v-34L463,198h718V0H100Z" />
      <glyph unicode="[" glyph-name="gid198" horiz-adv-x="836" d="M280-428V1788H696V1600H468V-240H696V-428H280Z" />
      <glyph unicode="\" glyph-name="gid189" horiz-adv-x="835" d="M331,1440L715,0H504L120,1440H331Z" />
      <glyph unicode="]" glyph-name="gid199" horiz-adv-x="836" d="M556-428H140v188H368V1600H140v188H556V-428Z" />
      <glyph unicode="^" glyph-name="gid252" horiz-adv-x="1353" d="M211,994l476,478l477-477L1034,864L687,1219L341,863L211,994Z" />
      <glyph unicode="_" glyph-name="gid210" horiz-adv-x="1320" d="M0-233V-65H1320V-233H0Z" />
      <glyph unicode="`" glyph-name="gid272" horiz-adv-x="1045" d="M474,1600L332,1950H496l142-350H474Z" />
      <glyph unicode="a" glyph-name="gid59" horiz-adv-x="1139" d="M445-30Q325-30 244,14.5t-122.5,118T80,294q0,82 29,144t86,105.5T335,614q72,21 163,37t191.5,30T889,709l-76-42q2,127-53.5,188.5T569,917q-85,0-156-39.5T314,747L119,807q40,139 152.5,221T571,1110q145,0 252.5-49.5T981,904q26-53 32-112t6-127V0H834V247l36-32Q803,91 699.5,30.5T445-30Zm37,171q89,0 153,31.5T738,253t51,102q17,48 19.5,108t2.5,96l68-25q-99-15-180-27T552.5,483.5T436,456q-43-15-76.5-36t-53-51T287,296q0-42 21-77.5T372,162t110-21Z" />
      <glyph unicode="b" glyph-name="gid67" horiz-adv-x="1216" d="M647-30Q492-30 387,45.5T228,250T174,541t53.5,291t158,203.5T643,1110q152,0 262.5-74.5t170.5-203T1136,541q0-162-59.5-291.5T907.5,45T647-30ZM139,0V1440H349V777H325V0H139ZM618,159q100,0 165.5,51t98,137.5T914,541q0,106-32.5,192T782,870T611,921q-98,0-161.5-48t-94-134T325,541t30-198t95-135t168-49Z" />
      <glyph unicode="c" glyph-name="gid68" horiz-adv-x="1137" d="M602-30Q436-30 320,44T142.5,247T80,540q1,167 64,295.5T324,1037t281,73q177,0 302.5-88T1073,781L865,721q-31,91-101.5,141.5T602,913q-103,0-169-48.5T335,732T302,540q1-167 76.5-270T602,167q101,0 163.5,46.5T861,347l212-50Q1020,139 898,54.5T602-30Z" />
      <glyph unicode="d" glyph-name="gid70" horiz-adv-x="1217" d="M569-30Q418-30 308.5,45t-169,204.5T80,541q0,163 60,291.5t170.5,203T573,1110q153,0 257.5-74.5T988.5,832T1042,541T988,250T829,45.5T569-30Zm29,189q103,0 168,49t95,135t30,198T860.5,739t-94,134T605,921q-104,0-171-51T334.5,733T302,541q0-107 32.5-193.5t98-137.5T598,159ZM891,0V777H867v663h210V0H891Z" />
      <glyph unicode="e" glyph-name="gid72" horiz-adv-x="1193" d="M619-30Q458-30 336.5,40.5t-189,197T80,531q0,177 66.5,307T332,1039t277,71q165,0 281-76.5T1063.5,816T1109,481H900v76q-2,188-71.5,278T617,925q-157,0-236-99T302,540q0-178 79-275.5T609,167q98,0 169.5,44.5T890,339l205-65Q1032,129 904,49.5T619-30ZM234,481V644h771V481H234Z" />
      <glyph unicode="f" glyph-name="gid77" horiz-adv-x="741" d="M239,0V1118q0,41 3,87.5t17.5,92T308,1381q41,45 90,64t97.5,22t89.5,3H721V1298H595q-74,0-110.5-36.5T448,1158V0H239ZM60,912v168H721V912H60Z" />
      <glyph unicode="g" glyph-name="gid78" horiz-adv-x="1216" d="M585-510q-87,0-168.5,27T268-403.5T157-274l193,98q35-69 100-101t137-32q89,0 152,31.5T834.5-183T866-27V275h25v805h185V-29q0-43-3-82t-11-78q-23-109-87.5-180t-164-106T585-510ZM569-30Q418-30 308.5,45t-169,204.5T80,541q0,163 60,291.5t170.5,203T573,1110q153,0 257.5-74.5T988.5,832T1042,541T988,250T829,45.5T569-30Zm29,189q103,0 168,49t95,135t30,198T860.5,739t-94,134T605,921q-104,0-171-51T334.5,733T302,541q0-107 32.5-193.5t98-137.5T598,159Z" />
      <glyph unicode="h" glyph-name="gid79" horiz-adv-x="1230" d="M898,0V531q0,63-10.5,129.5T847.5,784t-83,92T625,911q-56,0-106-18.5T431.5,833t-59-108T351,562L221,611q0,147 55,259.5T434,1046t249,63q112,0 188-36t123.5-94.5T1067,851t34-135t9-116V0H898ZM139,0V1440H326V663h25V0H139Z" />
      <glyph unicode="i" glyph-name="gid80" horiz-adv-x="529" d="M160,1257v203H369V1257H160ZM160,0V1080H369V0H160Z" />
      <glyph unicode="j" glyph-name="gid87" horiz-adv-x="551" d="M-20-480v198H35q83,0 121.5,40T195-119V1080H405V-204q0-132-72.5-204T125-480H-20ZM195,1257v203H405V1257H195Z" />
      <glyph unicode="k" glyph-name="gid88" horiz-adv-x="1048" d="M139,0l1,1440H352V560l424,520h266L594,540L1088,0H804L352,520V0H139Z" />
      <glyph unicode="l" glyph-name="gid89" horiz-adv-x="529" d="M160,0V1470H369V0H160Z" />
      <glyph unicode="m" glyph-name="gid90" horiz-adv-x="1764" d="M1434,0l1,673q0,117-60,182.5T1217,921q-60,0-109.5-27.5t-80-82T997,675L896,726q-2,114 48.5,200T1082,1059.5t195,47.5q175,0 271-105t96-279L1643,0H1434ZM139,0V1080H325V768h24V0H139ZM787,0l1,669q0,118-59.5,185T569,921q-99,0-159.5-68T349,675L249,739q0,106 51,189t138,131t197,48q115,0 196-48.5T954.5,923T997,721L996,0H787Z" />
      <glyph unicode="n" glyph-name="gid91" horiz-adv-x="1230" d="M898,0V531q0,63-10.5,129.5T847.5,784t-83,92T625,911q-56,0-106-18.5T431.5,833t-59-108T351,562L221,611q0,147 55,259.5T434,1046t249,63q112,0 188-36t123.5-94.5T1067,851t34-135t9-116V0H898ZM139,0V1080H326V768h25V0H139Z" />
      <glyph unicode="o" glyph-name="gid93" horiz-adv-x="1219" d="M609-30Q447-30 328,43T144.5,244.5T80,541q0,169 66,297.5t185,200T609,1110q162,0 281-73t184-201t65-295q0-169-65.5-297.5T889,42.5T609-30Zm0,197q155,0 231.5,104.5T917,541q0,169-77.5,270.5T609,913q-105,0-173-47.5t-101-131T302,541q0-170 78-272T609,167Z" />
      <glyph unicode="p" glyph-name="gid101" horiz-adv-x="1216" d="M647-30Q492-30 387,45.5T228,250T174,541t53.5,291t158,203.5T643,1110q152,0 262.5-74.5t170.5-203T1136,541q0-162-59.5-291.5T907.5,45T647-30ZM139-480V1080H325V303h24V-480H139ZM618,159q100,0 165.5,51t98,137.5T914,541q0,106-32.5,192T782,870T611,921q-98,0-161.5-48t-94-134T325,541t30-198t95-135t168-49Z" />
      <glyph unicode="q" glyph-name="gid103" horiz-adv-x="1217" d="M569-30Q418-30 308.5,45t-169,204.5T80,541q0,163 60,291.5t170.5,203T573,1110q153,0 257.5-74.5T988.5,832T1042,541T988,250T829,45.5T569-30Zm29,189q103,0 168,49t95,135t30,198T860.5,739t-94,134T605,921q-104,0-171-51T334.5,733T302,541q0-107 32.5-193.5t98-137.5T598,159ZM867-480V303h24v777h186V-480H867Z" />
      <glyph unicode="r" glyph-name="gid104" horiz-adv-x="773" d="M140,0V1080H326V818l-26,34q20,52 52,95.5t74,71.5q41,30 91.5,46.5t103.5,20t102-5.5V884q-53,14-117.5,8T487,851q-51-33-80.5-80T364,666.5T351,545V0H140Z" />
      <glyph unicode="s" glyph-name="gid105" horiz-adv-x="1072" d="M553-29Q356-29 232,58T80,303l214,33q20-84 92.5-132.5T567,155q98,0 153.5,40T776,305q0,41-19.5,66.5T675,420T486,477q-139,36-220.5,77.5t-116,97T115,786q0,98 52,171t146.5,113T535,1110q124,0 221-39T913,960.5T985,793L771,754q-11,78-73,123T537,926q-95,4-154-31.5T324,797q0-36 22.5-61T434,688t192-55q136-35 216-77.5t114.5-101T991,313q0-160-116.5-251T553-29Z" />
      <glyph unicode="t" glyph-name="gid107" horiz-adv-x="845" d="M758,0Q656-20 558-17T383,21T267,131q-35,67-37.5,136.5T227,425v955H437V435q0-65 1.5-113T459,241q36-62 114.5-70.5T758,177V0ZM20,912v168H758V912H20Z" />
      <glyph unicode="u" glyph-name="gid108" horiz-adv-x="1230" d="M547-29Q435-29 359,7T235.5,101.5T163,229T129,364t-9,116v600H332V549q0-63 10.5-129.5t40-123.5t83-92T605,169q56,0 106,18.5T798.5,247t59,108T879,518l130-49q0-147-55-259.5T796,34T547-29ZM904,0V312H879v768h211V0H904Z" />
      <glyph unicode="v" glyph-name="gid113" horiz-adv-x="1076" d="M432,0L40,1080H251L538,262l287,818h211L644,0H432Z" />
      <glyph unicode="w" glyph-name="gid114" horiz-adv-x="1581" d="M370,0L40,1081l207-1L473,339l228,741H881l228-741l226,741h206L1211,0H1043L791,782L538,0H370Z" />
      <glyph unicode="x" glyph-name="gid115" horiz-adv-x="1090" d="M20,0L424,546L29,1080H277L546,709l266,371h248L665,546L1070,0H821L546,383L269,0H20Z" />
      <glyph unicode="y" glyph-name="gid116" horiz-adv-x="1097" d="M286-480L495,89l3-168L27,1080H245L597,185H533l336,895h212L485-480H286Z" />
      <glyph unicode="z" glyph-name="gid119" horiz-adv-x="1065" d="M40,0V33L653,893H96v187H985v-34L373,187H955V0H40Z" />
      <glyph unicode="{" glyph-name="gid196" horiz-adv-x="878" d="M664-428q-121,0-193.5,72.5T398-163V455q0,25-14,46L297,624q-17,26-17,56.5T297,736l87,123q14,23 14,46v617q0,120 72.5,193T664,1788H795V1589H678q-34,0-57.5-23.5T597,1509V905q0-88-51-160l-47-65l47-65q51-72 51-160V-149q0-34 23.5-58T678-231H795V-428H664Z" />
      <glyph unicode="|" glyph-name="gid267" horiz-adv-x="569" d="M180,0V1440H389V0H180Z" />
      <glyph unicode="}" glyph-name="gid197" horiz-adv-x="878" d="M214-428H83v197H201q33,0 56.5,24T281-149V455q0,88 52,160l46,65l-46,65q-52,72-52,160v604q0,33-23.5,56.5T201,1589H83v199H214q121,0 193.5-73T480,1522V905q0-23 14-46l87-123q18-25 18-55.5T581,624L494,501q-14-21-14-46V-163q0-120-72.5-192.5T214-428Z" />
      <glyph unicode="~" glyph-name="gid250" horiz-adv-x="1396" d="M925,428q-65,0-124.5,28t-114,64t-103,64T493,612q-48,0-64.5-45.5T431,461H239q-26,103-7.5,187t78,134T470,832q64,0 124-28t115-64.5T812,675t91-28q45,0 63,45t-1,109h192q25-103 7.5-187.5t-77.5-135T925,428Z" />
      <glyph unicode="&#xa0;" glyph-name="gid232" horiz-adv-x="400" />
      <glyph unicode="&#xa1;" glyph-name="gid181" horiz-adv-x="689" d="M240,1080H449V877H240v203Zm0-360H449V-360H240V720Z" />
      <glyph unicode="&#xa2;" glyph-name="gid235" horiz-adv-x="1137" d="M527-59V125q-142,17-242,93.5t-152,198T80,690q1,153 54.5,274.5t153,197T527,1254v186H695V1253q143-22 243-106t135-216L865,871q-31,91-101.5,141.5T602,1063q-103,0-169-48.5T335,882T302,690q1-167 76.5-270T602,317q101,0 163.5,46.5T861,497l212-50q-47-136-143.5-217.5T695,127V-59H527Z" />
      <glyph unicode="&#xa3;" glyph-name="gid239" horiz-adv-x="1142" d="M73,0V197h52q61,0 103.5,44.5T271,345v743q0,110 53,196.5t143.5,136T669,1470q101,0 177-45t130.5-126.5T1069,1109l-190-62q-33,108-82.5,166T669,1271q-83,0-133.5-53.5T485,1079l-2-882H988V0H73Zm0,626V825H807V626H73Z" />
      <glyph unicode="&#xa4;" glyph-name="gid236" horiz-adv-x="1321" d="M661,196q-108,0-203,41T291,350.5T178,518T137,722q0,108 41,203t113,167t167,113t203,41q109,0 204-41t167.5-113T1146,925t41-203q0-109-41-204T1032.5,350.5T865,237T661,196ZM200,120L60,260L293,493L435,353L200,120Zm94,825L60,1179l140,141l233-233L294,945Zm827-825L888,353l140,140l233-233L1121,120ZM661,376q95,0 173.5,47.5T959,549t46,171q0,95-47,173.5t-125.5,125T661,1065q-96,0-174-46.5t-124-125T317,720q0-93 46-171.5T487,423t174-47Zm368,571L888,1087l233,233l140-141L1029,947Z" />
      <glyph unicode="&#xa5;" glyph-name="gid240" horiz-adv-x="1186" d="M193,521V689H993V521H193Zm0-314V375H993V207H193ZM487,0V595L0,1440H244L593,835l349,605h244L699,595V0H487Z" />
      <glyph unicode="&#xa6;" glyph-name="gid268" horiz-adv-x="569" d="M180,651v789H389V651H180Zm0-1027V413H389V-376H180Z" />
      <glyph unicode="&#xa7;" glyph-name="gid262" horiz-adv-x="1072" d="M554-289q-109,0-203,34.5t-158.5,108T107,43L321,76q14-62 52.5-102T463-85.5T567-105q49,0 92,16t70,49.5T756,45q0,48-29,76t-93,48.5T466,217q-118,31-201,68.5t-126.5,92T95,513q0,99 58,161t147,90t181,23l16-81q-89-26-141-65.5T304,541q0-50 37.5-78T447,416t159-43q116-32 197.5-69T928,209T971,55q0-112-55-188.5t-149-116T554-289Zm57,549l-4,81q42,7 83,29.5T757,430t26,88q0,49-29.5,76.5t-93.5,48T493,690q-119,31-202,68T164.5,852T121,999q0,111 59,183t149,106.5T515,1323q103,0 193-37t150.5-108T932,1006L718,967q-11,62-41.5,100T602,1123t-95,18q-48,0-88-15t-64-43.5T331,1014q0-51 38.5-79t107-46.5T633,846q115-31 196.5-68t125-94T998,534q0-100-48.5-167t-136-95T611,260Z" />
      <glyph unicode="&#xa8;" glyph-name="gid271" horiz-adv-x="1083" d="M643,1621v200H843V1621H643Zm-403,0v200H440V1621H240Z" />
      <glyph unicode="&#xa9;" glyph-name="gid263" horiz-adv-x="1717" d="M858-97Q693-97 548-35T293.5,137T122,392T60,702q0,166 62,310.5T293.5,1267T548,1439t310,62q167,0 311.5-62.5t254-172t171.5-254T1657,702q0-165-62-310T1423.5,137.5t-254-172T858-97Zm14,374q-97,0-169,32T575,409q-52,66-73.5,140.5T480,703q1,83 23.5,157T575,995q55,67 129,100t176,33q56,0 103-11t96-42q53-31 91.5-81T1225,878l-163-45q-10,29-28,55t-45,47q-24,21-54.5,30T871,974q-51,0-92.5-20.5T707,895t-41-89T655,704q0-54 12.5-104T707,511q28-38 70-58t96-20q74,0 120,36q24,20 39,43t27,52l166-38q-19-58-52.5-104.5T1096,343q-45-32-98-49T872,277ZM859,102q124,0 232.5,46.5t191,129t129,191.5T1458,703q0,124-46.5,232.5t-129,191t-191,129T859,1302q-125,0-234-46.5t-191.5-129t-129-191T258,703q0-125 46.5-234t129-191.5T625,148.5T859,102Z" />
      <glyph unicode="&#xaa;" glyph-name="gid125" horiz-adv-x="636" d="M261,540q-88,0-134.5,48.5T80,703q0,59 29.5,99.5T203,865q49,16 121.5,26.5T481,915l-43-33q2,61-23,89.5T327,1000q-36,0-70-17t-47-59L99,959q20,68 77,109.5T328,1110q72,0 126.5-23.5T536,1010q14-29 17-58.5t3-65.5V555H451V672l16-21q-37-58-85-84.5T261,540Zm24,96q61,0 96,31t43,59q10,23 11.5,53.5T437,827l38-11q-83-14-131-21.5T264,776q-32-12-49-28.5T198,705q0-30 22-49.5T285,636Z" />
      <glyph unicode="&#xab;" glyph-name="gid220" horiz-adv-x="1139" d="M897,100L547,541L897,981l115-91L733,541l279-350L897,100Zm-387,0L160,541L510,981l115-91L347,541L625,191L510,100Z" />
      <glyph unicode="&#xac;" glyph-name="gid251" horiz-adv-x="1200" d="M912,378V617H120V785h960V378H912Z" />
      <glyph unicode="&#xad;" glyph-name="gid207" horiz-adv-x="840" d="M120,547V715H720V547H120Z" />
      <glyph unicode="&#xae;" glyph-name="gid264" horiz-adv-x="1290" d="M645,555q-105,0-196.5,39.5T288,703.5t-108.5,161T140,1061q0,104 39.5,195.5t108.5,161T448.5,1526T645,1565q104,0 195.5-39t161-108.5t109-161T1150,1061q0-105-39.5-196.5t-109-161t-161-109T645,555Zm1,146q98,0 180,49T957,881t49,180q0,100-49,181.5t-131,130T646,1421q-100,0-182-48.5t-130.5-130T285,1061q0-98 48.5-180T464,750t182-49ZM480,827v471H681q71,0 114.5-43.5T841,1143q0-41-21.5-78.5T757,1005l88-178H749L671,990H564V827H480Zm84,242H683q30,0 51,21.5t21,52.5q0,36-20,55.5T683,1218H564V1069Z" />
      <glyph unicode="&#xaf;" glyph-name="gid277" horiz-adv-x="1003" d="M240,1680v167H763V1680H240Z" />
      <glyph unicode="&#xb0;" glyph-name="gid266" horiz-adv-x="900" d="M420,750q-99,0-181,48.5t-130.5,130T60,1110q0,98 50,180t132,131t178,49q99,0 180.5-48.5t130.5-130T780,1110T731,928.5t-130.5-130T420,750Zm0,181q48,0 89,24.5t65.5,65.5t24.5,89t-24.5,89T509,1264.5T420,1289t-88.5-24.5T266,1199t-25-89t25-89t65-65.5T420,931Z" />
      <glyph unicode="&#xb1;" glyph-name="gid249" horiz-adv-x="1200" d="M517,440V677H120V845H517v235H685V845h395V677H685V440H517ZM120,139V307h960V139H120Z" />
      <glyph unicode="&#xb2;" glyph-name="gid163" horiz-adv-x="816" d="M100,540l1,124l388,349q46,41 64,77.5t18,71.5q0,71-44.5,118T412,1327q-48,0-86-22.5t-59-60T247,1164H102q0,89 40,155.5T252.5,1423T415,1460q86,0 154-38.5t107.5-106T716,1161q0-63-17-106.5T648,974t-84-81L268,628l-17,45H716V540H100Z" />
      <glyph unicode="&#xb3;" glyph-name="gid164" horiz-adv-x="799" d="M373,519q-101,0-182.5,57.5T80,732l137,37q17-57 60.5-86.5T373,653q71,1 116.5,47.5T535,817q0,72-45,119T373,983q-21,0-42.5-6T291,961l-66,111l320,280l17-46H116v134H665V1305L402,1053l-3,50q87,0 149.5-38.5t96.5-103T679,817q0-86-41-153.5t-110.5-106T373,519Z" />
      <glyph unicode="&#xb4;" glyph-name="gid273" horiz-adv-x="1045" d="M570,1600H406l143,350H713L570,1600Z" />
      <glyph unicode="&#xb5;" glyph-name="gid253" horiz-adv-x="1249" d="M139-480V1080H351V549q0-63 10.5-129.5T401,296t82.5-92T623,169q57,0 106.5,18.5T817,247t59.5,108T898,518v562h211V0H923V133Q864,54 773,12.5T566-29Q490-29 429.5-7T325,56V-480H139Z" />
      <glyph unicode="&#xb6;" glyph-name="gid261" horiz-adv-x="1377" d="M678-282V517H585q-11,0-42,1.5T475,525q-119,18-199.5,81T154,765.5T113,979q0,115 40.5,211.5t120.5,160T475,1432q37,6 68,7t42,1H887V-282H678Zm376,0V1440h209V-282H1054Z" />
      <glyph unicode="&#xb7;" glyph-name="gid184" horiz-adv-x="507" d="M257,497q-58,0-97.5,38T120,630q0,58 39.5,95.5T257,763q52,0 91-37.5T387,630q0-57-39-95t-91-38Z" />
      <glyph unicode="&#xb8;" glyph-name="gid278" horiz-adv-x="816" d="M375-482q-39,0-72.5,10T240-447l48,128q43-14 69-14q33,0 50.5,19.5T425-271q0,41-39.5,59.5T294-177L366,27l133,2L456-95q56-27 88.5-72T577-277q0-90-60-147.5T375-482Z" />
      <glyph unicode="&#xb9;" glyph-name="gid162" horiz-adv-x="673" d="M289,540v746L120,1183v156l169,101H433V540H289Z" />
      <glyph unicode="&#xba;" glyph-name="gid126" horiz-adv-x="698" d="M349,540q-122,0-195.5,80T80,826t74.5,205T349,1110q122,0 195.5-80T618,826q0-127-74-206.5T349,540Zm-1,113q72,0 107.5,48T491,826q0,78-35.5,124.5T348,997T242,949.5T208,825q0-79 35-125.5T348,653Z" />
      <glyph unicode="&#xbb;" glyph-name="gid221" horiz-adv-x="1139" d="M242,100L127,191L405,541L127,890l115,91L592,541L242,100Zm387,0L513,191L792,541L513,890l116,91L979,541L629,100Z" />
      <glyph unicode="&#xbc;" glyph-name="gid173" horiz-adv-x="2029" d="M289,540v746L120,1183v156l169,101H433V540H289ZM1561,0V153H1157V286l291,614h161L1319,286h242V525h142V286h86V153h-86V0H1561ZM476,0L349,96L1356,1449l127-96L476,0Z" />
      <glyph unicode="&#xbd;" glyph-name="gid172" horiz-adv-x="1975" d="M289,540v746L120,1183v156l169,101H433V540H289ZM1259,0V124l389,349q46,41 63.5,77.5T1729,622q0,71-44,118t-114,47q-49,0-86.5-22.5t-59-60T1406,624H1261q0,89 39.5,156t110,103.5T1573,920q86,0 154-38.5t108-106T1875,621q0-63-17.5-106.5t-51-80.5T1723,353L1427,88l-18,45h466V0H1259ZM476,0L349,96L1356,1449l127-96L476,0Z" />
      <glyph unicode="&#xbe;" glyph-name="gid174" horiz-adv-x="2023" d="M373,519q-101,0-182.5,57.5T80,732l137,37q17-57 60.5-86.5T373,653q71,1 116.5,47.5T535,817q0,72-45,119T373,983q-21,0-42.5-6T291,961l-66,111l320,280l17-46H116v134H665V1305L402,1053l-3,50q87,0 149.5-38.5t96.5-103T679,817q0-86-41-153.5t-110.5-106T373,519ZM1675,0V153H1271V286l291,614h161L1433,286h242V525h142V286h86V153h-86V0H1675ZM602,0L475,96L1482,1449l127-96L602,0Z" />
      <glyph unicode="&#xbf;" glyph-name="gid183" horiz-adv-x="1087" d="M679,689q0-72-11.5-135T624,434q-27-54-64-87.5t-80-66T389,197q-39-44-53-88.5T322,11q0-38 9-70.5T361-117q32-40 81-56.5T544-190q49,0 92,13t71,40q32,26 46.5,64.5T767,11H987q-8-93-48-175.5T831-298q-58-45-132-68T551-389q-106,0-200.5,33T193-249q-45,52-69,119T100,7q0,96 40.5,177T244,331q33,35 66.5,63.5t63,55.5T421,509q28,47 32,83.5t4,96.5H679Zm-2,391V838H457v242H677Z" />
      <glyph unicode="&#xc0;" glyph-name="gid6" horiz-adv-x="1317" d="M555,1600L413,1950H577l142-350H555ZM1277,0H1060L633,1314h55L257,0H40L508,1440H809L1277,0ZM1034,325H282V521h752V325Z" />
      <glyph unicode="&#xc1;" glyph-name="gid2" horiz-adv-x="1317" d="M761,1600H597l143,350H904L761,1600ZM40,0L508,1440H809L1277,0H1060L629,1314h54L257,0H40ZM283,325V521h752V325H283Z" />
      <glyph unicode="&#xc2;" glyph-name="gid4" horiz-adv-x="1317" d="M308,1600l259,300H747l258-300H805L657,1777L508,1600H308ZM40,0L508,1440H809L1277,0H1060L629,1314h54L257,0H40ZM283,325V521h752V325H283Z" />
      <glyph unicode="&#xc3;" glyph-name="gid8" horiz-adv-x="1317" d="M820,1654q-46,0-88,20t-81,45.5T577.5,1765T514,1785q-34,0-45.5-32.5T469,1677H333q-26,111 15.5,187.5T497,1941q46,0 88.5-20t81.5-45.5t73.5-45.5t63.5-20q33,0 45.5,31.5T849,1919H985q27-109-15-187t-150-78ZM40,0L508,1440H809L1277,0H1060L629,1314h54L257,0H40ZM283,325V521h752V325H283Z" />
      <glyph unicode="&#xc4;" glyph-name="gid5" horiz-adv-x="1317" d="M761,1621v200H961V1621H761Zm-403,0v200H558V1621H358ZM40,0L508,1440H809L1277,0H1060L629,1314h54L257,0H40ZM283,325V521h752V325H283Z" />
      <glyph unicode="&#xc5;" glyph-name="gid7" horiz-adv-x="1317" d="M659,1553q-67,0-122.5,33T448,1675t-33,123q0,68 33,123t88.5,88.5T659,2043q68,0 123.5-33.5T871,1921t33-123q0-67-33-123t-88.5-89T659,1553Zm0,135q47,0 78.5,32.5T769,1798q0,46-31.5,78T659,1908q-45,0-77.5-32T549,1798q0-45 32.5-77.5T659,1688ZM40,0L508,1440H809L1277,0H1060L629,1314h54L257,0H40ZM283,325V521h752V325H283Z" />
      <glyph unicode="&#xc6;" glyph-name="gid9" horiz-adv-x="1863" d="M40,0L508,1440H917V1243H584l99,71L257,0H40ZM283,325V521h718V325H283ZM843,0V1440h920V1243H1053V839h590V642H1053V197h710V0H843Z" />
      <glyph unicode="&#xc7;" glyph-name="gid12" horiz-adv-x="1461" d="M721-482q-39,0-72,10t-62,25l48,128q42-14 68-14q33,0 51,19.5T772-271q0,41-39.5,59.5T641-177L713,27l133,2L803-95q56-27 88.5-72T924-277q0-90-60.5-147.5T721-482ZM741-30Q525-30 373,64.5T140.5,328T60,720t80.5,392T373,1375.5T741,1470q249,0 412.5-126T1381,1005l-212-57q-42,151-149.5,237T741,1271q-153,0-255-69T332.5,1009T281,720q-1-165 50.5-289t154-193T741,169q171,0 278.5,86.5T1169,492l212-57q-64-213-227.5-339T741-30Z" />
      <glyph unicode="&#xc8;" glyph-name="gid19" horiz-adv-x="1160" d="M542,1600L399,1950H563l143-350H542ZM140,0V1440h920V1243H349V839H940V642H349V197h711V0H140Z" />
      <glyph unicode="&#xc9;" glyph-name="gid16" horiz-adv-x="1160" d="M708,1600H544l143,350H851L708,1600ZM140,0V1440h920V1243H349V839H940V642H349V197h711V0H140Z" />
      <glyph unicode="&#xca;" glyph-name="gid17" horiz-adv-x="1160" d="M239,1600l258,300H677l259-300H736L587,1777L439,1600H239ZM140,0V1440h920V1243H349V839H940V642H349V197h711V0H140Z" />
      <glyph unicode="&#xcb;" glyph-name="gid18" horiz-adv-x="1160" d="M690,1621v200H890V1621H690Zm-403,0v200H487V1621H287ZM140,0V1440h920V1243H349V839H940V642H349V197h711V0H140Z" />
      <glyph unicode="&#xcc;" glyph-name="gid27" horiz-adv-x="529" d="M179,1600L37,1950H201l142-350H179ZM160,0V1440H369V0H160Z" />
      <glyph unicode="&#xcd;" glyph-name="gid24" horiz-adv-x="529" d="M350,1600H186l143,350H493L350,1600ZM160,0V1440H369V0H160Z" />
      <glyph unicode="&#xce;" glyph-name="gid25" horiz-adv-x="529" d="M-87,1600l259,300H352l259-300H411L262,1777L113,1600H-87ZM160,0V1440H369V0H160Z" />
      <glyph unicode="&#xcf;" glyph-name="gid26" horiz-adv-x="529" d="M366,1621v200H566V1621H366Zm-403,0v200H163V1621H-37ZM160,0V1440H369V0H160Z" />
      <glyph unicode="&#xd0;" glyph-name="gid14" horiz-adv-x="1379" d="M20,637V805H680V637H20ZM138,0V1440H589q20,0 74.5-1t104.5-8q169-21 284.5-121T1227,1056.5T1286,720q0-184-59-337.5t-174.5-253T768,9Q718,2 663.5,1T589,0H138ZM352,199H589q34,0 81,2t83,8q110,21 178.5,95.5T1032,488t32,232q0,127-33,235.5t-101.5,182T753,1231q-36,7-83.5,8.5T589,1241H352V199Z" />
      <glyph unicode="&#xd1;" glyph-name="gid33" horiz-adv-x="1413" d="M891,1604q-45,0-87.5,20T722,1669.5T649,1715t-64,20q-34,0-45-32.5t1-75.5H405q-27,111 15,187.5T569,1891q46,0 88-20t81-45.5t73.5-45.5t63.5-20q33,0 45.5,31.5T920,1869h136q27-109-15-187t-150-78ZM140,0V1440H352L1061,370V1440h212V0H1061L352,1071V0H140Z" />
      <glyph unicode="&#xd2;" glyph-name="gid38" horiz-adv-x="1481" d="M643,1600L500,1950H664l143-350H643ZM741-30Q525-30 373,64.5T140.5,328T60,720t80.5,392T373,1375.5T741,1470q215,0 367.5-94.5T1341,1112t80-392t-80-392T1108.5,64.5T741-30Zm0,199q153-2 254.5,67.5t152.5,194T1199,720t-51,288.5T995.5,1201T741,1271q-153,2-254.5-67T334,1010T282,720t50-288.5T485.5,239T741,169Z" />
      <glyph unicode="&#xd3;" glyph-name="gid35" horiz-adv-x="1481" d="M835,1600H671l143,350H978L835,1600ZM741-30Q525-30 373,64.5T140.5,328T60,720t80.5,392T373,1375.5T741,1470q215,0 367.5-94.5T1341,1112t80-392t-80-392T1108.5,64.5T741-30Zm0,199q153-2 254.5,67.5t152.5,194T1199,720t-51,288.5T995.5,1201T741,1271q-153,2-254.5-67T334,1010T282,720t50-288.5T485.5,239T741,169Z" />
      <glyph unicode="&#xd4;" glyph-name="gid36" horiz-adv-x="1481" d="M389,1600l259,300H828l259-300H887L738,1777L589,1600H389ZM741-30Q525-30 373,64.5T140.5,328T60,720t80.5,392T373,1375.5T741,1470q215,0 367.5-94.5T1341,1112t80-392t-80-392T1108.5,64.5T741-30Zm0,199q153-2 254.5,67.5t152.5,194T1199,720t-51,288.5T995.5,1201T741,1271q-153,2-254.5-67T334,1010T282,720t50-288.5T485.5,239T741,169Z" />
      <glyph unicode="&#xd5;" glyph-name="gid40" horiz-adv-x="1481" d="M741-30Q525-30 373,64.5T140.5,328T60,720t80.5,392T373,1375.5T741,1470q215,0 367.5-94.5T1341,1112t80-392t-80-392T1108.5,64.5T741-30Zm0,199q153-2 254.5,67.5t152.5,194T1199,720t-51,288.5T995.5,1201T741,1271q-153,2-254.5-67T334,1010T282,720t50-288.5T485.5,239T741,169ZM915,1604q-46,0-88,20t-81,45.5T672.5,1715T609,1735q-34,0-45.5-32.5T564,1627H428q-26,111 15.5,187.5T592,1891q46,0 88.5-20t81.5-45.5t73.5-45.5t63.5-20q33,0 45.5,31.5T944,1869h136q27-109-15-187t-150-78Z" />
      <glyph unicode="&#xd6;" glyph-name="gid37" horiz-adv-x="1481" d="M842,1621v200h200V1621H842Zm-403,0v200H639V1621H439ZM741-30Q525-30 373,64.5T140.5,328T60,720t80.5,392T373,1375.5T741,1470q215,0 367.5-94.5T1341,1112t80-392t-80-392T1108.5,64.5T741-30Zm0,199q153-2 254.5,67.5t152.5,194T1199,720t-51,288.5T995.5,1201T741,1271q-153,2-254.5-67T334,1010T282,720t50-288.5T485.5,239T741,169Z" />
      <glyph unicode="&#xd7;" glyph-name="gid244" horiz-adv-x="1001" d="M762,340L500,602L238,340L120,459L381,721L121,982l119,118L500,840l261,260L880,982L619,721L881,459L762,340Z" />
      <glyph unicode="&#xd8;" glyph-name="gid39" horiz-adv-x="1481" d="M215-26L66,107L238,298l30,28l822,909l15,22l186,207l149-133l-203-226l-23-18L391,175l-18-25L215-26Zm526-4Q525-30 373,64.5T140.5,328T60,720t80.5,392T373,1375.5T741,1470q215,0 367.5-94.5T1341,1112t80-392t-80-392T1108.5,64.5T741-30Zm0,199q153-2 254.5,67.5t152.5,194T1199,720t-51,288.5T995.5,1201T741,1271q-153,2-254.5-67T334,1010T282,720t50-288.5T485.5,239T741,169Z" />
      <glyph unicode="&#xd9;" glyph-name="gid52" horiz-adv-x="1428" d="M651,1600L508,1950H672l143-350H651ZM714-30Q545-30 415.5,39.5T213,234.5T140,530v909l212,1V541q0-92 31-162t83-117t116.5-71T714,167q68,0 132.5,24.5T963,263t82.5,117T1076,541v899h212V530q0-169-73-295T1012.5,39.5T714-30Z" />
      <glyph unicode="&#xda;" glyph-name="gid49" horiz-adv-x="1428" d="M787,1600H623l143,350H930L787,1600ZM714-30Q545-30 415.5,39.5T213,234.5T140,530v909l212,1V541q0-92 31-162t83-117t116.5-71T714,167q68,0 132.5,24.5T963,263t82.5,117T1076,541v899h212V530q0-169-73-295T1012.5,39.5T714-30Z" />
      <glyph unicode="&#xdb;" glyph-name="gid50" horiz-adv-x="1428" d="M363,1600l258,300H801l259-300H860L711,1777L563,1600H363ZM714-30Q545-30 415.5,39.5T213,234.5T140,530v909l212,1V541q0-92 31-162t83-117t116.5-71T714,167q68,0 132.5,24.5T963,263t82.5,117T1076,541v899h212V530q0-169-73-295T1012.5,39.5T714-30Z" />
      <glyph unicode="&#xdc;" glyph-name="gid51" horiz-adv-x="1428" d="M815,1621v200h200V1621H815Zm-402,0v200H613V1621H413ZM714-30Q545-30 415.5,39.5T213,234.5T140,530v909l212,1V541q0-92 31-162t83-117t116.5-71T714,167q68,0 132.5,24.5T963,263t82.5,117T1076,541v899h212V530q0-169-73-295T1012.5,39.5T714-30Z" />
      <glyph unicode="&#xdd;" glyph-name="gid57" horiz-adv-x="1186" d="M665,1600H501l143,350H808L665,1600ZM487,0V595L0,1440H244L593,835l349,605h244L699,595V0H487Z" />
      <glyph unicode="&#xde;" glyph-name="gid43" horiz-adv-x="1237" d="M140,0V1440H352V1181H711q76,0 149-24q61-20 115-57t92-88q52-60 80.5-136.5T1177,720q1-77-27-151t-75-134q-62-80-158.5-127.5T711,260H352V0H140ZM352,457H710q52,0 105.5,26.5T906,557q27,35 43,77t14,86q-1,50-18.5,96.5T893,898q-34,37-83.5,61T710,983H352V457Z" />
      <glyph unicode="&#xdf;" glyph-name="gid106" horiz-adv-x="1245" d="M667-29q-59,0-102.5,6.5T483,0V205q33-12 71.5-20t86.5-8q123,0 197.5,62T913,422q0,125-94.5,187T572,672V857q65,6 114.5,31T764,958t28,110q0,97-64,151t-157,54q-63,0-115.5-26.5T376,1159q-13-29-18.5-69.5T352,1005V0H139V1061q0,44 4.5,80.5T159,1211q30,90 91,147.5T393.5,1443T571,1470q123,0 221.5-50T948,1280t57-209q0-89-34.5-162T866,793q50-15 96.5-47.5t83-80.5t58-110T1125,419q0-207-117.5-327.5T667-29Z" />
      <glyph unicode="&#xe0;" glyph-name="gid63" horiz-adv-x="1139" d="M501,1240L359,1590H523l142-350H501ZM445-30Q325-30 244,14.5t-122.5,118T80,294q0,82 29,144t86,105.5T335,614q72,21 163,37t191.5,30T889,709l-76-42q2,127-53.5,188.5T569,917q-85,0-156-39.5T314,747L119,807q40,139 152.5,221T571,1110q145,0 252.5-49.5T981,904q26-53 32-112t6-127V0H834V247l36-32Q803,91 699.5,30.5T445-30Zm37,171q89,0 153,31.5T738,253t51,102q17,48 19.5,108t2.5,96l68-25q-99-15-180-27T552.5,483.5T436,456q-43-15-76.5-36t-53-51T287,296q0-42 21-77.5T372,162t110-21Z" />
      <glyph unicode="&#xe1;" glyph-name="gid60" horiz-adv-x="1139" d="M668,1240H504l142,350H810L668,1240ZM445-30Q325-30 244,14.5t-122.5,118T80,294q0,82 29,144t86,105.5T335,614q72,21 163,37t191.5,30T889,709l-76-42q2,127-53.5,188.5T569,917q-85,0-156-39.5T314,747L119,807q40,139 152.5,221T571,1110q145,0 252.5-49.5T981,904q26-53 32-112t6-127V0H834V247l36-32Q803,91 699.5,30.5T445-30Zm37,171q89,0 153,31.5T738,253t51,102q17,48 19.5,108t2.5,96l68-25q-99-15-180-27T552.5,483.5T436,456q-43-15-76.5-36t-53-51T287,296q0-42 21-77.5T372,162t110-21Z" />
      <glyph unicode="&#xe2;" glyph-name="gid61" horiz-adv-x="1139" d="M235,1240l258,300H673l259-300H732L583,1417L435,1240H235ZM445-30Q325-30 244,14.5t-122.5,118T80,294q0,82 29,144t86,105.5T335,614q72,21 163,37t191.5,30T889,709l-76-42q2,127-53.5,188.5T569,917q-85,0-156-39.5T314,747L119,807q40,139 152.5,221T571,1110q145,0 252.5-49.5T981,904q26-53 32-112t6-127V0H834V247l36-32Q803,91 699.5,30.5T445-30Zm37,171q89,0 153,31.5T738,253t51,102q17,48 19.5,108t2.5,96l68-25q-99-15-180-27T552.5,483.5T436,456q-43-15-76.5-36t-53-51T287,296q0-42 21-77.5T372,162t110-21Z" />
      <glyph unicode="&#xe3;" glyph-name="gid65" horiz-adv-x="1139" d="M761,1244q-46,0-88,20t-81,45.5T518.5,1355T455,1375q-35,0-46-32.5t1-75.5H274q-27,111 15,187.5T438,1531q46,0 88.5-20t81.5-45.5t73-45.5t64-20q32,0 45,31.5t-1,77.5H925q28-109-14-187t-150-78ZM445-30Q325-30 244,14.5t-122.5,118T80,294q0,82 29,144t86,105.5T335,614q72,21 163,37t191.5,30T889,709l-76-42q2,127-53.5,188.5T569,917q-85,0-156-39.5T314,747L119,807q40,139 152.5,221T571,1110q145,0 252.5-49.5T981,904q26-53 32-112t6-127V0H834V247l36-32Q803,91 699.5,30.5T445-30Zm37,171q89,0 153,31.5T738,253t51,102q17,48 19.5,108t2.5,96l68-25q-99-15-180-27T552.5,483.5T436,456q-43-15-76.5-36t-53-51T287,296q0-42 21-77.5T372,162t110-21Z" />
      <glyph unicode="&#xe4;" glyph-name="gid62" horiz-adv-x="1139" d="M691,1261v200H891V1261H691Zm-403,0v200H488V1261H288ZM445-30Q325-30 244,14.5t-122.5,118T80,294q0,82 29,144t86,105.5T335,614q72,21 163,37t191.5,30T889,709l-76-42q2,127-53.5,188.5T569,917q-85,0-156-39.5T314,747L119,807q40,139 152.5,221T571,1110q145,0 252.5-49.5T981,904q26-53 32-112t6-127V0H834V247l36-32Q803,91 699.5,30.5T445-30Zm37,171q89,0 153,31.5T738,253t51,102q17,48 19.5,108t2.5,96l68-25q-99-15-180-27T552.5,483.5T436,456q-43-15-76.5-36t-53-51T287,296q0-42 21-77.5T372,162t110-21Z" />
      <glyph unicode="&#xe5;" glyph-name="gid64" horiz-adv-x="1139" d="M583,1193q-67,0-122.5,33t-89,89T338,1438q0,68 33.5,123t89,88.5T583,1683q68,0 123.5-33.5T795,1561t33-123q0-67-33-123t-88.5-89T583,1193Zm0,135q46,0 78,32.5t32,77.5q0,46-32,78t-78,32q-45,0-77.5-32T473,1438q0-45 32.5-77.5T583,1328ZM445-30Q325-30 244,14.5t-122.5,118T80,294q0,82 29,144t86,105.5T335,614q72,21 163,37t191.5,30T889,709l-76-42q2,127-53.5,188.5T569,917q-85,0-156-39.5T314,747L119,807q40,139 152.5,221T571,1110q145,0 252.5-49.5T981,904q26-53 32-112t6-127V0H834V247l36-32Q803,91 699.5,30.5T445-30Zm37,171q89,0 153,31.5T738,253t51,102q17,48 19.5,108t2.5,96l68-25q-99-15-180-27T552.5,483.5T436,456q-43-15-76.5-36t-53-51T287,296q0-42 21-77.5T372,162t110-21Z" />
      <glyph unicode="&#xe6;" glyph-name="gid66" horiz-adv-x="1876" d="M1330-30q-157,0-271.5,72.5T882,241.5T820,531q0,173 61,303.5t173.5,203T1321,1110q163,0 271.5-80T1752,808t41-327H1595v76q-2,172-61.5,270T1320,925q-104,0-168-49.5T1058.5,739T1029,540q0-170 73.5-271.5T1320,167q88,0 157,43t108,129l193-65q-38-97-107-165T1514.5,5.5T1330-30ZM482,139q99,0 177,47T771,297q19,38 28.5,82T811,465.5t1,75.5l67-36L610,487q-42-3-97-10.5t-106.5-27t-85.5-56T287,297q0-73 52-115.5T482,139ZM457-30Q277-30 178.5,59T80,291q0,88 34.5,147.5t90.5,96T327,591t130.5,29T573,633l280,22l-44-39q10,106-17,172t-84,97.5T571,917q-87,0-158.5-39T311,751L119,810q31,88 95,155.5t156,106T576,1110q172,0 277.5-72T997,838q15-52 18.5-101t3.5-82L918,241Q870,141 799,81.5T641-4T457-30ZM965,481V649h728V481H965Z" />
      <glyph unicode="&#xe7;" glyph-name="gid69" horiz-adv-x="1137" d="M563-482q-39,0-72.5,10T428-447l48,128q43-14 69-14q33,0 50.5,19.5T613-271q0,41-39.5,59.5T482-177L554,27l133,2L644-95q56-27 88.5-72T765-277q0-90-60-147.5T563-482ZM602-30Q436-30 320,44T142.5,247T80,540q1,167 64,295.5T324,1037t281,73q177,0 302.5-88T1073,781L865,721q-31,91-101.5,141.5T602,913q-103,0-169-48.5T335,732T302,540q1-167 76.5-270T602,167q101,0 163.5,46.5T861,347l212-50Q1020,139 898,54.5T602-30Z" />
      <glyph unicode="&#xe8;" glyph-name="gid76" horiz-adv-x="1193" d="M533,1240L390,1590H554l143-350H533ZM619-30Q458-30 336.5,40.5t-189,197T80,531q0,177 66.5,307T332,1039t277,71q165,0 281-76.5T1063.5,816T1109,481H900v76q-2,188-71.5,278T617,925q-157,0-236-99T302,540q0-178 79-275.5T609,167q98,0 169.5,44.5T890,339l205-65Q1032,129 904,49.5T619-30ZM234,481V644h771V481H234Z" />
      <glyph unicode="&#xe9;" glyph-name="gid73" horiz-adv-x="1193" d="M712,1240H548l143,350H855L712,1240ZM619-30Q458-30 336.5,40.5t-189,197T80,531q0,177 66.5,307T332,1039t277,71q165,0 281-76.5T1063.5,816T1109,481H900v76q-2,188-71.5,278T617,925q-157,0-236-99T302,540q0-178 79-275.5T609,167q98,0 169.5,44.5T890,339l205-65Q1032,129 904,49.5T619-30ZM234,481V644h771V481H234Z" />
      <glyph unicode="&#xea;" glyph-name="gid74" horiz-adv-x="1193" d="M257,1240l259,300H696l259-300H755L606,1417L457,1240H257ZM619-30Q458-30 336.5,40.5t-189,197T80,531q0,177 66.5,307T332,1039t277,71q165,0 281-76.5T1063.5,816T1109,481H900v76q-2,188-71.5,278T617,925q-157,0-236-99T302,540q0-178 79-275.5T609,167q98,0 169.5,44.5T890,339l205-65Q1032,129 904,49.5T619-30ZM234,481V644h771V481H234Z" />
      <glyph unicode="&#xeb;" glyph-name="gid75" horiz-adv-x="1193" d="M710,1261v200H910V1261H710Zm-403,0v200H507V1261H307ZM619-30Q458-30 336.5,40.5t-189,197T80,531q0,177 66.5,307T332,1039t277,71q165,0 281-76.5T1063.5,816T1109,481H900v76q-2,188-71.5,278T617,925q-157,0-236-99T302,540q0-178 79-275.5T609,167q98,0 169.5,44.5T890,339l205-65Q1032,129 904,49.5T619-30ZM234,481V644h771V481H234Z" />
      <glyph unicode="&#xec;" glyph-name="gid86" horiz-adv-x="529" d="M179,1240L37,1590H201l142-350H179ZM160,0V1080H369V0H160Z" />
      <glyph unicode="&#xed;" glyph-name="gid82" horiz-adv-x="529" d="M350,1240H186l143,350H493L350,1240ZM160,0V1080H369V0H160Z" />
      <glyph unicode="&#xee;" glyph-name="gid83" horiz-adv-x="529" d="M-73,1240l258,300H365l259-300H424L275,1417L127,1240H-73ZM160,0V1080H369V0H160Z" />
      <glyph unicode="&#xef;" glyph-name="gid84" horiz-adv-x="529" d="M366,1261v200H566V1261H366Zm-403,0v200H163V1261H-37ZM160,0V1080H369V0H160Z" />
      <glyph unicode="&#xf0;" glyph-name="gid71" horiz-adv-x="1183" d="M593-30Q438-31 323,36T144.5,223.5T80,503q1,160 65,280.5t179,187T593,1037q83,0 158.5-26T901,927q-15,110-82,199.5T648.5,1272T421,1337l32,165q160-6 283.5-70T939,1251q61-84 97-185.5T1087.5,829T1103,509q0-165-62-286.5T864,35T593-30Zm0,188q144,0 221.5,92.5T892,505q0,161-79,253T593,849q-146,1-224-90.5T291,504q0-164 78.5-255T593,158Zm36,933L508,1197l313,368l120-105L629,1091Z" />
      <glyph unicode="&#xf1;" glyph-name="gid92" horiz-adv-x="1230" d="M777,1244q-45,0-87.5,20T608,1309.5T535,1355t-64,20q-34,0-45-32.5t1-75.5H291q-27,111 15,187.5T455,1531q46,0 88-20t81-45.5t73.5-45.5t63.5-20q33,0 45.5,31.5T806,1509H942q27-109-15-187t-150-78ZM898,0V531q0,63-10.5,129.5T847.5,784t-83,92T625,911q-56,0-106-18.5T431.5,833t-59-108T351,562L221,611q0,147 55,259.5T434,1046t249,63q112,0 188-36t123.5-94.5T1067,851t34-135t9-116V0H898ZM139,0V1080H326V768h25V0H139Z" />
      <glyph unicode="&#xf2;" glyph-name="gid97" horiz-adv-x="1219" d="M516,1240L374,1590H538l142-350H516ZM609-30Q447-30 328,43T144.5,244.5T80,541q0,169 66,297.5t185,200T609,1110q162,0 281-73t184-201t65-295q0-169-65.5-297.5T889,42.5T609-30Zm0,197q155,0 231.5,104.5T917,541q0,169-77.5,270.5T609,913q-105,0-173-47.5t-101-131T302,541q0-170 78-272T609,167Z" />
      <glyph unicode="&#xf3;" glyph-name="gid94" horiz-adv-x="1219" d="M692,1240H528l143,350H835L692,1240ZM609-30Q447-30 328,43T144.5,244.5T80,541q0,169 66,297.5t185,200T609,1110q162,0 281-73t184-201t65-295q0-169-65.5-297.5T889,42.5T609-30Zm0,197q155,0 231.5,104.5T917,541q0,169-77.5,270.5T609,913q-105,0-173-47.5t-101-131T302,541q0-170 78-272T609,167Z" />
      <glyph unicode="&#xf4;" glyph-name="gid95" horiz-adv-x="1219" d="M259,1240l258,300H697l259-300H756L607,1417L459,1240H259ZM609-30Q447-30 328,43T144.5,244.5T80,541q0,169 66,297.5t185,200T609,1110q162,0 281-73t184-201t65-295q0-169-65.5-297.5T889,42.5T609-30Zm0,197q155,0 231.5,104.5T917,541q0,169-77.5,270.5T609,913q-105,0-173-47.5t-101-131T302,541q0-170 78-272T609,167Z" />
      <glyph unicode="&#xf5;" glyph-name="gid99" horiz-adv-x="1219" d="M771,1244q-45,0-87.5,20T602,1309.5T529,1355t-64,20q-34,0-45-32.5t1-75.5H285q-27,111 15,187.5T449,1531q46,0 88-20t81-45.5t73.5-45.5t63.5-20q33,0 45.5,31.5T800,1509H936q27-109-15-187t-150-78ZM609-30Q447-30 328,43T144.5,244.5T80,541q0,169 66,297.5t185,200T609,1110q162,0 281-73t184-201t65-295q0-169-65.5-297.5T889,42.5T609-30Zm0,197q155,0 231.5,104.5T917,541q0,169-77.5,270.5T609,913q-105,0-173-47.5t-101-131T302,541q0-170 78-272T609,167Z" />
      <glyph unicode="&#xf6;" glyph-name="gid96" horiz-adv-x="1219" d="M711,1261v200H911V1261H711Zm-402,0v200H509V1261H309ZM609-30Q447-30 328,43T144.5,244.5T80,541q0,169 66,297.5t185,200T609,1110q162,0 281-73t184-201t65-295q0-169-65.5-297.5T889,42.5T609-30Zm0,197q155,0 231.5,104.5T917,541q0,170-77.5,271T609,913q-105,0-173-47.5t-101-131T302,541q0-170 78-272T609,167Z" />
      <glyph unicode="&#xf7;" glyph-name="gid245" horiz-adv-x="1080" d="M120,637V805H960V637H120ZM496,902v221H717V902H496Zm0-484V639H717V418H496Z" />
      <glyph unicode="&#xf8;" glyph-name="gid98" horiz-adv-x="1219" d="M188-20L48,120L224,296l62,34L853,895l22,50l156,155l140-141L1001,792l-51-25L395,212l-41-66L188-20ZM609-30Q447-30 328,43T144.5,244.5T80,541q0,169 66,297.5t185,200T609,1110q162,0 281-73t184-201t65-295q0-169-65.5-297.5T889,42.5T609-30Zm0,197q155,0 231.5,104.5T917,541q0,169-77.5,270.5T609,913q-105,0-173-47.5t-101-131T302,541q0-170 78-272T609,167Z" />
      <glyph unicode="&#xf9;" glyph-name="gid112" horiz-adv-x="1230" d="M530,1240L388,1590H552l142-350H530ZM547-29Q435-29 359,7T235.5,101.5T163,229T129,364t-9,116v600H332V549q0-63 10.5-129.5t40-123.5t83-92T605,169q56,0 106,18.5T798.5,247t59,108T879,518l130-49q0-147-55-259.5T796,34T547-29ZM904,0V312H879v768h211V0H904Z" />
      <glyph unicode="&#xfa;" glyph-name="gid109" horiz-adv-x="1230" d="M678,1240H514l143,350H821L678,1240ZM547-29Q435-29 359,7T235.5,101.5T163,229T129,364t-9,116v600H332V549q0-63 10.5-129.5t40-123.5t83-92T605,169q56,0 106,18.5T798.5,247t59,108T879,518l130-49q0-147-55-259.5T796,34T547-29ZM904,0V312H879v768h211V0H904Z" />
      <glyph unicode="&#xfb;" glyph-name="gid110" horiz-adv-x="1230" d="M253,1240l259,300H692l259-300H751L602,1417L453,1240H253ZM547-29Q435-29 359,7T235.5,101.5T163,229T129,364t-9,116v600H332V549q0-63 10.5-129.5t40-123.5t83-92T605,169q56,0 106,18.5T798.5,247t59,108T879,518l130-49q0-147-55-259.5T796,34T547-29ZM904,0V312H879v768h211V0H904Z" />
      <glyph unicode="&#xfc;" glyph-name="gid111" horiz-adv-x="1230" d="M706,1261v200H906V1261H706Zm-403,0v200H503V1261H303ZM547-29Q435-29 359,7T235.5,101.5T163,229T129,364t-9,116v600H332V549q0-63 10.5-129.5t40-123.5t83-92T605,169q56,0 106,18.5T798.5,247t59,108T879,518l130-49q0-147-55-259.5T796,34T547-29ZM904,0V312H879v768h211V0H904Z" />
      <glyph unicode="&#xfd;" glyph-name="gid117" horiz-adv-x="1097" d="M639,1240H475l143,350H782L639,1240ZM286-480L495,89l3-168L27,1080H245L597,185H533l336,895h212L485-480H286Z" />
      <glyph unicode="&#xfe;" glyph-name="gid102" horiz-adv-x="1216" d="M140,837v603H351V837H140ZM647-30Q492-30 387,45.5T228,250T174,541t53.5,291t158,203.5T643,1110q152,0 262.5-74.5t170.5-203T1136,541q0-162-59.5-291.5T907.5,45T647-30ZM139-480V1080H325V303h24V-480H139ZM618,159q100,0 165.5,51t98,137.5T914,541q0,106-32.5,192T782,870T611,921q-98,0-161.5-48t-94-134T325,541t30-198t95-135t168-49Z" />
      <glyph unicode="&#xff;" glyph-name="gid118" horiz-adv-x="1097" d="M662,1261v200H862V1261H662Zm-403,0v200H459V1261H259ZM286-480L495,89l3-168L27,1080H245L597,185H533l336,895h212L485-480H286Z" />
      <glyph unicode="&#x2013;" glyph-name="gid208" horiz-adv-x="1080" d="M120,547V715H960V547H120Z" />
      <glyph unicode="&#x2014;" glyph-name="gid209" horiz-adv-x="1560" d="M120,547V715H1440V547H120Z" />
      <glyph unicode="&#x2018;" glyph-name="gid218" horiz-adv-x="527" d="M367,959q-108-18-165,42t-57,178v261H367V1199H251q-4-43 3.5-77t31.5-53.5t68-15.5l13-94Z" />
      <glyph unicode="&#x2019;" glyph-name="gid219" horiz-adv-x="527" d="M160,960l13,93q43-3 67,16t32,53t3,77H160v241H381V1179q0-118-56.5-178T160,960Z" />
      <glyph unicode="&#x201a;" glyph-name="gid214" horiz-adv-x="581" d="M120-239l13,93q43-3 67,16t32,53t3,77H120V241H341V-20q0-118-56.5-178T120-239Z" />
      <glyph unicode="&#x201c;" glyph-name="gid216" horiz-adv-x="849" d="M689,1445l-12-93q-44,3-68-16t-32-53t-3-77H689V965H468v261q0,118 56.5,178.5T689,1445Zm-308,0l-12-93q-44,3-68-16t-32-53t-3-77H381V965H160v261q0,118 56.5,178.5T381,1445Z" />
      <glyph unicode="&#x201d;" glyph-name="gid217" horiz-adv-x="849" d="M160,966l13,93q43-3 67,16t32,53t3,77H160v241H381V1185q0-118-56.5-178T160,966Zm308,0l13,93q43-3 67,16t32,53t3,77H468v241H689V1185q0-118-56.5-178T468,966Z" />
      <glyph unicode="&#x201e;" glyph-name="gid215" horiz-adv-x="849" d="M160-239l13,93q43-3 67,16t32,53t3,77H160V241H381V-20q0-118-56.5-178T160-239Zm308,0l13,93q43-3 67,16t32,53t3,77H468V241H689V-20q0-118-56.5-178T468-239Z" />
      <glyph unicode="&#x2022;" glyph-name="gid185" horiz-adv-x="1373" d="M692,363q-76,0-137.5,35t-98,95.5T420,630t36.5,136.5t98,95.5T692,897q71,0 130.5-35t95-95.5T953,630T917.5,493.5t-95-95.5T692,363Z" />
      <glyph unicode="&#x2039;" glyph-name="gid222" horiz-adv-x="1259" d="M757,153L280,630l477,477L887,977L533,630L887,283L757,153Z" />
      <glyph unicode="&#x203a;" glyph-name="gid223" horiz-adv-x="1259" d="M503,153L372,283L727,630L372,977l131,130L979,630L503,153Z" />
    </font>
</defs>
</svg>
