<?xml version="1.0" standalone="no"?>
<!DOCTYPE svg PUBLIC "-//W3C//DTD SVG 1.1//EN" "http://www.w3.org/Graphics/SVG/1.1/DTD/svg11.dtd">
<svg xmlns="http://www.w3.org/2000/svg">
  <defs>
    <font id="Manrope" horiz-adv-x="1176">
      <font-face font-family="Manrope ExtraLight ExtraBold" units-per-em="2000" panose-1="0 0 0 0 0 0 0 0 0 0" ascent="2132" descent="-600" alphabetic="0" />
      <glyph unicode=" " glyph-name="gid231" horiz-adv-x="400" />
      <glyph unicode="!" glyph-name="gid180" horiz-adv-x="752" d="M240,0V240H512V0H240Zm0,360V1440H512V360H240Z" />
      <glyph unicode="&quot;" glyph-name="gid224" horiz-adv-x="984" d="M120,1080v360H392V1080H120Zm392,0v360H784V1080H512Z" />
      <glyph unicode="#" glyph-name="gid187" horiz-adv-x="1870" d="M366,2L468,378H120l68,256H536l54,206H242l70,254H658l94,346h264l-94-346h216l94,346h264l-94-346h348l-68-254H1334l-56-206h348l-68-256H1210L1110,2H846L946,378H730L630,2H366ZM800,634h214l56,206H854L800,634Z" />
      <glyph unicode="$" glyph-name="gid237" horiz-adv-x="1282" d="M516-200V40H788V-200H516Zm0,1598v240H788V1398H516ZM654-30Q499-30 377,27.5t-199,163T80,440l270,42q27-118 113.5-188T670,224q113,0 187.5,53T932,408q0,53-32.5,87.5T798,552L442,662q-308,95-308,376q0,132 62.5,229t177,149.5T644,1468q143-2 254-51.5t185.5-143T1192,1046L912,996q-14,64-52,112.5t-94.5,76T640,1214q-66,2-119.5-19t-85-58.5T404,1052q0-52 44-89.5T588,898l254-72q191-55 275.5-149T1202,428q0-136-69-239T940.5,28T654-30Z" />
      <glyph unicode="%" glyph-name="gid254" horiz-adv-x="1800" d="M360,0L180,180L1440,1440l180-182L360,0Zm960-30q-99,0-180.5,48.5T1009,148.5T960,330q0,98 50,180t132,131t178,49q99,0 181-48.5t130.5-130T1680,330t-48.5-181.5T1501,18.5T1320-30Zm0,230q35,0 64.5,18t47.5,47.5t18,64.5t-18,64.5T1384.5,442T1320,460t-64.5-18T1208,394.5T1190,330t18-64.5t47.5-47.5t64.5-18ZM480,750q-99,0-181,48.5t-130.5,130T120,1110q0,98 50,180t132,131t178,49q99,0 180.5-48.5t130.5-130T840,1110T791,928.5t-130.5-130T480,750Zm0,230q35,0 64.5,18t47.5,47.5t18,64.5t-18,64.5T544.5,1222T480,1240t-64.5-18T368,1174.5T350,1110t18-64.5T415.5,998T480,980Z" />
      <glyph unicode="&amp;" glyph-name="gid260" horiz-adv-x="1348" d="M622-30Q502-30 394,6T214,120q-58,65-84.5,140T100,422q0,86 25,164.5T202,726q17,20 36,36.5T276,794q-54,62-81,122.5T168,1056q0,131 71.5,234T434,1436q51,18 103,24t101,6q99,0 189-30.5T980,1336q39-40 64.5-89t37.5-99l-270-54q-12,42-42,72q-28,29-66,37.5t-74,8.5q-57,0-100-20q-45-21-66.5-55T442,1052q0-46 18-73t42-53q17-18 42.5-42T598,834L928,528q0,17 0,40t0,42V774h236V500q0-46-2-96.5T1152,320l176-162L1154-28L1022,98Q965,49 900.5,20T770-20q-42-6-77-8t-71-2Zm12,258q23,0 44,2t42,6q32,6 58.5,17.5T826,280L474,604q-21-9-37.5-22T408,554q-16-22-25-51t-9-65q0-43 13.5-74.5T420,306q33-42 96-60t118-18Z" />
      <glyph unicode="&apos;" glyph-name="gid225" horiz-adv-x="552" d="M120,1080v360H392V1080H120Z" />
      <glyph unicode="(" glyph-name="gid194" horiz-adv-x="924" d="M642-388Q526-252 443.5-79t-125,362.5T280,660q-4,187 38.5,377t125,362.5T642,1708l202-148q-122-147-191-293.5t-97.5-297T526,660q1-159 29.5-309.5T653,53.5T844-240L642-388Z" />
      <glyph unicode=")" glyph-name="gid195" horiz-adv-x="924" d="M282-388L80-240Q202-93 271,53.5t97.5,297T398,660q-1,159-29.5,309.5t-97.5,297T80,1560l202,148q116-136 198.5-308.5t125-362.5T644,660q4-187-38.5-376.5T480.5-79T282-388Z" />
      <glyph unicode="*" glyph-name="gid186" horiz-adv-x="948" d="M326,710L132,850l148,168L60,1074l74,228l208-90l-18,228H564l-18-228l208,90l74-228l-220-56L756,850L562,710L444,900L326,710Z" />
      <glyph unicode="+" glyph-name="gid242" horiz-adv-x="1140" d="M466,270V616H120V826H466v344H676V826h344V616H676V270H466Z" />
      <glyph unicode="," glyph-name="gid176" horiz-adv-x="632" d="M120-270l16,114q48-4 78,15.5t41.5,56T260,0H120V272H392V0q0-144-67-218T120-270Z" />
      <glyph unicode="-" glyph-name="gid206" horiz-adv-x="840" d="M120,526V736H720V526H120Z" />
      <glyph unicode="." glyph-name="gid175" horiz-adv-x="640" d="M184,0V272H456V0H184Z" />
      <glyph unicode="/" glyph-name="gid188" horiz-adv-x="896" d="M504,1440H776L392,0H120L504,1440Z" />
      <glyph unicode="0" glyph-name="gid131" horiz-adv-x="1348" d="M674-30Q514-30 394,37T207,224T140,504V936q0,160 67,280t187,187t280,67t280-67t187-187t67-280V504q0-160-67-280T954,37T674-30Zm0,258q72,0 130,34t92,92t34,130V958q0,72-34,130t-92,92t-130,34t-130-34t-92-92T418,958V484q0-72 34-130t92-92t130-34Z" />
      <glyph unicode="1" glyph-name="gid132" horiz-adv-x="908" d="M390,0V1144L120,978v300l270,162H668V0H390Z" />
      <glyph unicode="2" glyph-name="gid133" horiz-adv-x="1208" d="M100,2V238L704,774q68,60 96,113t28,99q0,66-27,117.5t-76,81T610,1214q-69,0-121.5-31.5t-81.5-83T380,988H100q0,148 65,256t181,167t270,59q141,0 252.5-61.5T1044,1237t64-255q0-107-30-177.5t-89-130T844,540L454,198l-22,60h676V2H100Z" />
      <glyph unicode="3" glyph-name="gid134" horiz-adv-x="1182" d="M560-26Q452-26 354,17.5T183.5,140T80,326l264,70q21-79 82.5-122.5T560,230q62,0 113.5,30t82,81T786,454q0,93-63.5,159.5T560,680q-30,0-58-8.5T448,648L326,862l458,380l20-58H136v256h900V1184L680,840l-2,76q124-19 209.5-86.5t130-166T1062,454q0-136-69-244.5T810,37.5T560-26Z" />
      <glyph unicode="4" glyph-name="gid135" horiz-adv-x="1230" d="M726,0V224H100V478l454,962H866L412,478H726V838h276V478h128V224H1002V0H726Z" />
      <glyph unicode="5" glyph-name="gid136" horiz-adv-x="1178" d="M568-30Q459-30 363.5,15T199,140T100,326l262,70q13-51 46.5-88t78-57.5T578,230q62,0 113.5,30t82,81T804,454T773.5,567t-82,81T578,678q-76,0-124-25.5T382,604L152,674l44,766H982V1186H346l96,90L412,782l-46,56q54,44 123,64t129,20q136,0 239.5-60.5t162-166T1078,454t-71-245.5T820,34.5T568-30Z" />
      <glyph unicode="6" glyph-name="gid137" horiz-adv-x="1244" d="M642-30Q499-30 385.5,37T206,223.5T140,500V918q0,170 66,293.5t186,190T674,1468q105,0 200-31t174-105L854,1138q-36,36-83,56t-97,20q-78,0-135.5-36.5t-89-95T418,958V744l-46,50q62,63 143.5,96.5T684,924q136,0 239.5-61t162-167T1144,454t-69-245.5T892,34.5T642-30Zm0,260q62,0 113.5,30t82,81T868,454T838,567.5t-81,82T644,680T530.5,649.5t-82-82T418,454q0-60 30-111t81-82t113-31Z" />
      <glyph unicode="7" glyph-name="gid138" horiz-adv-x="1088" d="M212,0L696,1184H80v256H988V1184L506,0H212Z" />
      <glyph unicode="8" glyph-name="gid139" horiz-adv-x="1246" d="M622-30Q476-30 362.5,29.5t-178,164T120,432q0,114 51.5,215T320,812l-6-84q-73,71-114.5,150T158,1056q0,125 59.5,218t164,144.5T622,1470t240.5-51.5t164-144.5t59.5-218q0-99-39-177.5T928,726v84q95-60 146.5-162T1126,432q0-134-65-238.5T882,29.5T622-30Zm0,256q96,0 156,52t60,154q0,101-60,154.5T622,640T467,586.5T408,432q0-102 59-154t155-52Zm0,672q78,0 127,38.5T798,1056t-49,120.5T622,1216t-127-39.5T446,1056t49-119.5T622,898Z" />
      <glyph unicode="9" glyph-name="gid140" horiz-adv-x="1244" d="M602,1468q143,0 256.5-67T1038,1214.5T1104,938V520q0-170-66-293.5T852,36.5T570-30Q465-30 370.5,1.5T196,106L390,300q36-36 83.5-56T570,224q78,0 135.5,36.5t89,95T826,480V694l46-50q-61-63-143-96.5T560,514q-136,0-239.5,61t-162,167T100,984t69,245.5t183,174T602,1468Zm0-260q-62,0-113.5-30t-82-81T376,984t30-113.5t81-82T600,758t113.5,30.5t82,82T826,984q0,60-30,111t-81,82t-113,31Z" />
      <glyph unicode=":" glyph-name="gid177" horiz-adv-x="714" d="M220,120V392H492V120H220Zm2,568V960H494V688H222Z" />
      <glyph unicode=";" glyph-name="gid178" horiz-adv-x="712" d="M220-270l16,114q48-4 78,15.5t41.5,56T360,0H220V272H492V0q0-144-67-218T220-270Zm0,1078v272H492V808H220Z" />
      <glyph unicode="&lt;" glyph-name="gid248" horiz-adv-x="1290" d="M764,146L280,630l484,484L932,946L604,630L932,314L764,146Z" />
      <glyph unicode="=" glyph-name="gid246" horiz-adv-x="1500" d="M240,810v210H1260V810H240Zm0-390V630H1260V420H240Z" />
      <glyph unicode="&gt;" glyph-name="gid247" horiz-adv-x="1290" d="M526,146L358,314L686,630L358,946l168,168l484-484L526,146Z" />
      <glyph unicode="?" glyph-name="gid182" horiz-adv-x="1126" d="M394,390q0,66 15.5,132T456,642q25,51 54.5,80.5t68,60.5T670,870q41,45 54.5,88.5T738,1054q0,27-5.5,52T712,1150q-24,33-63.5,47.5T564,1212q-34,0-66.5-8T442,1178q-28-21-41.5-53T388,1054H100q12,107 61,196t127,140q57,38 126,58t138,20q114,0 215-35.5T934,1316q44-51 68-118.5t24-135.5q0-109-49-198T856,698q-31-33-55.5-57.5t-44-46T722,550q-28-46-34-75t-6-85H394ZM396,0V288H682V0H396Z" />
      <glyph unicode="@" glyph-name="gid259" horiz-adv-x="1834" d="M912-210q-168,0-306,53T368-7.5T214,220T160,506q0,203 60,351t164.5,244T622,1243.5T900,1290q191,0 336-57t242.5-156.5T1625,848t49-274q0-199-72.5-310.5T1350,152q-78,0-153,36T1092,296h68q-46-82-118.5-113T894,152q-111,0-196.5,48.5T563,336.5T514,540q0,119 51.5,206T704,880.5T898,928q65,0 136.5-26.5T1146,836l-42-58V900h162l-4-394q0-78 24.5-110t63.5-32q51,0 71,28.5t23.5,76T1448,574q0,158-53.5,257T1258,984.5t-173.5,75T920,1080q-130,0-231.5-38.5t-171-112T414,751.5T384,514q5-126 44-222T537.5,131T705,33T922,0q54,0 107.5,9T1132,34l68-200q-67-22-140-33T912-210Zm-2,574q65,0 111.5,37T1068,540q0,86-37.5,131T918,716q-91,0-134.5-48T740,540q0-81 44-128.5T910,364Z" />
      <glyph unicode="A" glyph-name="gid1" horiz-adv-x="1366" d="M40,0L480,1440H886L1326,0H1046L654,1270h52L320,0H40ZM304,300V554h760V300H304Z" />
      <glyph unicode="B" glyph-name="gid10" horiz-adv-x="1274" d="M140,0V1440H716q154,0 249-61.5T1104,1224t44-188q0-121-54.5-201T944,728v50q135-28 202.5-125T1214,436q0-129-47.5-227T1022,55.5T778,0H140ZM416,256H750q55,0 98,23.5t67.5,66T940,446q0,51-21,91t-63.5,63.5T750,624H416V256Zm0,622H712q46,0 82,16t57,49.5t21,86.5q0,66-41,111t-119,45H416V878Z" />
      <glyph unicode="C" glyph-name="gid11" horiz-adv-x="1492" d="M758-30Q542-30 385.5,64t-241,263T60,720t84.5,393t241,263T758,1470q248,0 416.5-123T1412,1014l-274-76q-40,131-135,203.5T758,1214q-137,0-228.5-61T392,981T346,720t46-261T529.5,287T758,226q150,0 245,73t135,203l274-76q-69-210-237.5-333T758-30Z" />
      <glyph unicode="D" glyph-name="gid13" horiz-adv-x="1420" d="M140,0V1440H606q17,0 70-1t102-7q174-21 295-121t184-254t63-337t-63-337T1073,129T778,8Q729,2 676,1T606,0H140ZM416,256H606q27,0 73,1.5t83,8.5q94,19 153.5,88t88,166T1032,720q0,108-29.5,205T913,1089t-151,85q-37,8-83,9t-73,1H416V256Z" />
      <glyph unicode="E" glyph-name="gid15" horiz-adv-x="1180" d="M140,0V1440h940V1186H412V878H960V624H412V254h668V0H140Z" />
      <glyph unicode="F" glyph-name="gid20" horiz-adv-x="1060" d="M140,0V1440h880V1168H412V856H900V584H412V0H140Z" />
      <glyph unicode="G" glyph-name="gid21" horiz-adv-x="1482" d="M740-30Q604-30 481,18.5T263.5,162t-149,235T60,720q0,239 91.5,406.5t246,255.5T740,1470q278,0 437-129t213-365l-278-40q-39,126-127.5,201.5T758,1214q-137,2-228-59T393.5,982T348,720t45.5-260T530,289t228-63q93-2 168.5,32T1054,365t74,187H900V762h518q2-13 3-46t1-38q0-207-84-367T1101,60.5T740-30Z" />
      <glyph unicode="H" glyph-name="gid22" horiz-adv-x="1468" d="M140,0V1440H412V848h644v592h272V0H1056V594H412V0H140Z" />
      <glyph unicode="I" glyph-name="gid23" horiz-adv-x="592" d="M160,0V1440H432V0H160Z" />
      <glyph unicode="J" glyph-name="gid28" horiz-adv-x="1026" d="M442-30Q270-30 158.5,58T0,296l268,64q9-55 58-95.5T430,224q38,0 81.5,21T574,312q12,29 14,71t2,97v960H866V480q0-69-0.5-120t-10-95.5T818,172Q757,66 659,18T442-30Z" />
      <glyph unicode="K" glyph-name="gid29" horiz-adv-x="1330" d="M140,0V1440H412V776l548,664h332L690,730L1330,0H986L412,656V0H140Z" />
      <glyph unicode="L" glyph-name="gid30" horiz-adv-x="1082" d="M160,0V1440H432V254h620V0H160Z" />
      <glyph unicode="M" glyph-name="gid31" horiz-adv-x="1720" d="M140,0V1440H384L860,484l476,956h244V0H1326V860L908,0H812L394,860V0H140Z" />
      <glyph unicode="N" glyph-name="gid32" horiz-adv-x="1458" d="M140,0V1440H416l626-960v960h276V0H1042L416,960V0H140Z" />
      <glyph unicode="O" glyph-name="gid34" horiz-adv-x="1516" d="M758-30Q542-30 385.5,64t-241,263T60,720t84.5,393t241,263T758,1470t372.5-94t241-263T1456,720t-84.5-393t-241-263T758-30Zm0,256q137-2 228,59t136.5,173T1168,720t-45.5,260T986,1151t-228,63t-228-59T393.5,982T348,720t45.5-260T530,289t228-63Z" />
      <glyph unicode="P" glyph-name="gid42" horiz-adv-x="1300" d="M140,0V1440H748q21,0 56.5-1.5T868,1432q129-20 211.5-85T1201,1183.5T1240,964t-39.5-219.5T1078.5,581T868,496q-28-4-64-6t-56-2H412V0H140ZM412,742H736q21,0 46,2t46,8q55,15 85,50.5t41.5,79T966,964t-11.5,82.5t-41.5,79T828,1176q-21,6-46,8t-46,2H412V742Z" />
      <glyph unicode="Q" glyph-name="gid44" horiz-adv-x="1516" d="M1266-30L846,388l168,168l418-418L1266-30ZM758-30Q542-30 385.5,64t-241,263T60,720t84.5,393t241,263T758,1470t372.5-94t241-263T1456,720t-84.5-393t-241-263T758-30Zm0,256q137-2 228,59t136.5,173T1168,720t-45.5,260T986,1151t-228,63t-228-59T393.5,982T348,720t45.5-260T530,289t228-63Z" />
      <glyph unicode="R" glyph-name="gid45" horiz-adv-x="1340" d="M140,0V1440H748q21,0 56.5-1.5T868,1432q129-20 211.5-85T1201,1183.5T1240,964q0-181-90-309.5T868,496l-120-8H412V0H140ZM952,0L668,586l280,54L1260,0H952ZM412,742H736q21,0 46,2t46,8q55,15 85,50.5t41.5,79T966,964t-11.5,82.5t-41.5,79T828,1176q-21,6-46,8t-46,2H412V742Z" />
      <glyph unicode="S" glyph-name="gid46" horiz-adv-x="1342" d="M684-30Q524-30 395.5,26.5t-211,162T80,440l284,42q30-124 124-191t214-67q67,0 130,21t103.5,62T976,408q0,22-6.5,42.5T948,489t-42.5,34T836,552L462,662q-42,12-97.5,34T257,759T170.5,867.5T136,1038q0,145 73,241t195,143t270,46q149-2 266-51t196-142.5T1250,1046L956,996q-16,70-59,118t-102.5,73T670,1214q-64,2-120.5-17.5t-92-56.5T422,1052q0-47 29-76.5T524,928t90-30l250-68q56-15 124-39.5t130.5-68t103-114.5T1262,428q0-116-48.5-202.5T1083,82.5T897.5-2T684-30Z" />
      <glyph unicode="T" glyph-name="gid47" horiz-adv-x="1220" d="M474,0V1186H20v254H1200V1186H746V0H474Z" />
      <glyph unicode="U" glyph-name="gid48" horiz-adv-x="1452" d="M726-30Q552-30 420,40.5T214,239T140,540v898l276,2V542q0-71 24-129t66.5-100t99-64.5T726,226q66,0 122.5,23T947,314t65.5,100T1036,542v898h276V540q0-173-74-301T1032,40.5T726-30Z" />
      <glyph unicode="V" glyph-name="gid53" horiz-adv-x="1306" d="M450,0L10,1440H290L650,256l366,1184h280L856,0H450Z" />
      <glyph unicode="W" glyph-name="gid54" horiz-adv-x="1978" d="M442,0L20,1440H306L576,450l270,988l286,2l270-990l270,990h286L1536,0H1268L989,972L710,0H442Z" />
      <glyph unicode="X" glyph-name="gid55" horiz-adv-x="1344" d="M20,0L504,728L34,1440H368L674,960l302,480h336L842,728L1324,0H990L674,496L356,0H20Z" />
      <glyph unicode="Y" glyph-name="gid56" horiz-adv-x="1260" d="M492,0V586L0,1440H318L630,898l312,542h318L768,586V0H492Z" />
      <glyph unicode="Z" glyph-name="gid58" horiz-adv-x="1360" d="M100,0V34L784,1186H160v254H1260v-34L580,256h660V0H100Z" />
      <glyph unicode="[" glyph-name="gid198" horiz-adv-x="858" d="M280-420V1800H738V1560H520V-180H738V-420H280Z" />
      <glyph unicode="\" glyph-name="gid189" horiz-adv-x="896" d="M392,1440L776,0H504L120,1440H392Z" />
      <glyph unicode="]" glyph-name="gid199" horiz-adv-x="858" d="M578-420H120v240H338V1560H120v240H578V-420Z" />
      <glyph unicode="^" glyph-name="gid252" horiz-adv-x="1368" d="M211,986l483,485l485-484L1011,819L694,1147L379,818L211,986Z" />
      <glyph unicode="_" glyph-name="gid210" horiz-adv-x="1320" d="M0-254V-44H1320V-254H0Z" />
      <glyph unicode="`" glyph-name="gid272" horiz-adv-x="1110" d="M486,1590L320,1980H522l166-390H486Z" />
      <glyph unicode="a" glyph-name="gid59" horiz-adv-x="1166" d="M440-30Q324-30 243.5,14.5t-122,119T80,298q0,75 23,137t74.5,109.5T316,624q60,22 143,39t188,32.5T878,730l-98-54q0,96-46,141T580,862q-60,0-125-29T364,730L118,808q41,134 154,218t308,84q143,0 254-44t168-152q32-60 38-120t6-134V0H808V222l34-46Q763,67 671.5,18.5T440-30Zm58,214q75,0 126.5,26.5t82,60.5T748,328q21,44 24.5,102.5T776,528l80-20q-121-20-196-33.5T539,450t-81-24q-40-16-64.5-34.5t-36-40.5T346,302q0-37 18.5-63.5T417,198t81-14Z" />
      <glyph unicode="b" glyph-name="gid67" horiz-adv-x="1248" d="M670-30Q509-30 401,45T238.5,249T184,540t54,291t159,204t259,75q155,0 270-74t178.5-202.5T1168,540q0-162-62.5-291T931,45T670-30ZM138,0V1440H412V740H378V0H138ZM626,212q88,0 144,44t83,118.5T880,540q0,90-28,164.5t-86.5,119T616,868q-85,0-137.5-41T402,712T378,540t24-172t78.5-115T626,212Z" />
      <glyph unicode="c" glyph-name="gid68" horiz-adv-x="1166" d="M616-30Q448-30 328,45T144,249T80,540q0,164 66.5,293T334,1036t286,74q191,0 320.5-96.5T1106,750L834,678q-24,84-83.5,131T616,856q-86,0-141-41.5t-81-113T368,540q0-141 62.5-228.5T616,224q92,0 140,42t72,120l278-58Q1060,156 932,63T616-30Z" />
      <glyph unicode="d" glyph-name="gid70" horiz-adv-x="1250" d="M578-30Q429-30 317,45T142.5,249T80,540q0,165 63.5,293.5T322,1036t270,74q154,0 259-75t159-204t54-291t-54.5-291T847,45T578-30Zm44,242q91,0 145.5,41T846,368t24,172T846,712T769.5,827T632,868q-91,0-149.5-44.5T396,704.5T368,540q0-91 27-165.5T478,256t144-44ZM870,0V740H836v700h274V0H870Z" />
      <glyph unicode="e" glyph-name="gid72" horiz-adv-x="1216" d="M642-30Q476-30 349.5,41.5t-198,197T80,526q0,177 70,308t193,203.5T626,1110q170,0 289-80t176-225t40-341H862V564q0,165-52.5,237.5T638,874q-139,0-204.5-84.5T368,540q0-151 65.5-233.5T626,224q80,0 137,35t87,101l272-78Q1061,134 929.5,52T642-30ZM284,464V666h716V464H284Z" />
      <glyph unicode="f" glyph-name="gid77" horiz-adv-x="772" d="M230,0V1076q0,41 2,93t16.5,105t53.5,96q50,56 108.5,76.5t113.5,22t94,1.5H752V1250H628q-64,0-95-32.5T502,1140V0H230ZM60,870v210H752V870H60Z" />
      <glyph unicode="g" glyph-name="gid78" horiz-adv-x="1248" d="M602-510q-92,0-175,29.5t-148.5,82T172-276L424-154q26-48 74.5-73T604-252q61,0 115,20.5t86.5,61T836-70V244h34v836h238V-74q0-40-3.5-75.5T1092-220q-26-99-96.5-163T823-478.5T602-510ZM578-30Q429-30 317,45T142.5,249T80,540q0,165 63.5,293.5T322,1036t270,74q154,0 259-75t159-204t54-291t-54.5-291T847,45T578-30Zm44,242q91,0 145.5,41T846,368t24,172T846,712T769.5,827T632,868q-91,0-149.5-44.5T396,704.5T368,540q0-91 27-165.5T478,256t144-44Z" />
      <glyph unicode="h" glyph-name="gid79" horiz-adv-x="1272" d="M876,0V510q0,37-4,94.5T847,720t-68.5,97T644,856q-35,0-75-11t-75-42.5T436.5,710T414,548L258,622q0,128 52,240t156.5,181T730,1112q127,0 207-43t124.5-109T1125,822.5T1148,692t4-86V0H876ZM138,0V1440H380V700h34V0H138Z" />
      <glyph unicode="i" glyph-name="gid80" horiz-adv-x="592" d="M160,1230v240H432V1230H160ZM160,0V1080H432V0H160Z" />
      <glyph unicode="j" glyph-name="gid87" horiz-adv-x="602" d="M-20-480v254H28q93,0 127.5,42T190-64V1080H462V-196q0-129-80.5-206.5T164-480H-20ZM190,1230v240H462V1230H190Z" />
      <glyph unicode="k" glyph-name="gid88" horiz-adv-x="1104" d="M138,0l2,1440H416V560l366,520h336L728,540L1144,0H790L416,520V0H138Z" />
      <glyph unicode="l" glyph-name="gid89" horiz-adv-x="592" d="M160,0V1470H432V0H160Z" />
      <glyph unicode="m" glyph-name="gid90" horiz-adv-x="1832" d="M1440,0V638q0,107-50.5,166.5T1250,864q-57,0-99-26.5t-65.5-74T1062,654L948,730q0,111 52.5,196t141,132.5T1338,1106q185,0 279.5-109.5T1712,710V0H1440ZM138,0V1080H378V722h34V0H138ZM790,0V638q0,107-50.5,166.5T600,864q-85,0-136.5-58.5T412,654L298,734q0,106 53,190t142.5,133T694,1106q127,0 208.5-54T1023,908t39-198V0H790Z" />
      <glyph unicode="n" glyph-name="gid91" horiz-adv-x="1272" d="M876,0V510q0,37-4,94.5T847,720t-68.5,97T644,856q-35,0-75-11t-75-42.5T436.5,710T414,548L258,622q0,128 52,240t156.5,181T730,1112q127,0 207-43t124.5-109T1125,822.5T1148,692t4-86V0H876ZM138,0V1080H380V722h34V0H138Z" />
      <glyph unicode="o" glyph-name="gid93" horiz-adv-x="1254" d="M626-30Q463-30 340,43T148.5,244.5T80,540q0,169 70,297.5T343,1038t283,72q163,0 286.5-73T1105,835.5T1174,540q0-168-69.5-296.5t-193-201T626-30Zm0,254q131,0 195.5,88.5T886,540q0,144-65.5,230T626,856q-89,0-146-40T395.5,705T368,540q0-145 65.5-230.5T626,224Z" />
      <glyph unicode="p" glyph-name="gid101" horiz-adv-x="1248" d="M670-30Q509-30 401,45T238.5,249T184,540t54,291t159,204t259,75q155,0 270-74t178.5-202.5T1168,540q0-162-62.5-291T931,45T670-30ZM138-480V1080H378V340h34V-480H138ZM626,212q88,0 144,44t83,118.5T880,540q0,90-28,164.5t-86.5,119T616,868q-85,0-137.5-41T402,712T378,540t24-172t78.5-115T626,212Z" />
      <glyph unicode="q" glyph-name="gid103" horiz-adv-x="1250" d="M578-30Q429-30 317,45T142.5,249T80,540q0,165 63.5,293.5T322,1036t270,74q154,0 259-75t159-204t54-291t-54.5-291T847,45T578-30Zm44,242q91,0 145.5,41T846,368t24,172T846,712T769.5,827T632,868q-91,0-149.5-44.5T396,704.5T368,540q0-91 27-165.5T478,256t144-44ZM836-480V340h34v740h240V-480H836Z" />
      <glyph unicode="r" glyph-name="gid104" horiz-adv-x="824" d="M140,0V1080H380V816l-26,34q21,56 56,102t86,76q39,24 85,37.5t95,17t98-2.5V826q-45,14-104.5,9.5T562,808q-48-22-81-58.5t-50-86T414,552V0H140Z" />
      <glyph unicode="s" glyph-name="gid105" horiz-adv-x="1094" d="M562-30Q358-30 232.5,62.5T80,324l278,42q17-76 75.5-119T582,204q74,0 114,28.5T736,312q0,32-16,51.5T648.5,402T476,452q-132,34-211,76T151,628.5T116,770q0,104 53,180.5t149.5,118T546,1110q127,0 225-39T929.5,960T1004,790L726,740q-7,60-52,95T552,876q-75,5-120.5-20T386,784q0-28 19.5-47t81-39T674,646q123-32 197.5-74.5T980,469.5T1014,326q0-166-120-261T562-30Z" />
      <glyph unicode="t" glyph-name="gid107" horiz-adv-x="888" d="M788,0Q676-21 568.5-18.5t-192,38T248,134q-40,74-42,150.5T204,458v922H476V474q0-63 1.5-113.5T498,280q36-57 115-62t175,8V0ZM20,870v210H788V870H20Z" />
      <glyph unicode="u" glyph-name="gid108" horiz-adv-x="1272" d="M542-32Q415-32 335,11T210.5,120T147,257.5T124,388t-4,86v606H396V570q0-37 4-94.5T425,360t68.5-97T628,224q35,0 75,11t75,42.5t57.5,93T858,532l156-74q0-128-52-240T805.5,37T542-32ZM892,0V358H858v722h274V0H892Z" />
      <glyph unicode="v" glyph-name="gid113" horiz-adv-x="1136" d="M432,0L40,1080H312L568,332l256,748h272L704,0H432Z" />
      <glyph unicode="w" glyph-name="gid114" horiz-adv-x="1628" d="M370,0L40,1082l266-2L502,436l199,644H927l199-644l196,644h266L1258,0H1050L814,704L578,0H370Z" />
      <glyph unicode="x" glyph-name="gid115" horiz-adv-x="1126" d="M20,0L406,546L28,1080H348L564,760l212,320h320L718,546L1106,0H786L564,332L340,0H20Z" />
      <glyph unicode="y" glyph-name="gid116" horiz-adv-x="1140" d="M278-480L486,92l4-168L20,1080H302L618,262H554l314,818h272L530-480H278Z" />
      <glyph unicode="z" glyph-name="gid119" horiz-adv-x="1070" d="M40,0V34L570,844H100v236H990v-34L462,236H970V0H40Z" />
      <glyph unicode="{" glyph-name="gid196" horiz-adv-x="918" d="M696-420q-138,0-216,78T402-126V458q0,19-10,32L302,618q-22,33-22,72t22,72l90,128q10,17 10,32v584q0,137 78,215.5T696,1800H838V1544H716q-24,0-41-17t-17-41V922q0-98-58-180l-38-52l38-52q58-82 58-180V-106q0-25 17-42.5T716-166H838V-420H696Z" />
      <glyph unicode="|" glyph-name="gid267" horiz-adv-x="632" d="M180,0V1440H452V0H180Z" />
      <glyph unicode="}" glyph-name="gid197" horiz-adv-x="918" d="M222-420H80v254H202q24,0 41,17.5T260-106V458q0,98 58,180l38,52l-38,52q-58,82-58,180v564q0,24-17,41t-41,17H80v256H222q138,0 216-78.5T516,1506V922q0-15 10-32l90-128q23-33 23-72t-23-72L526,490q-10-13-10-32V-126q0-138-78-216T222-420Z" />
      <glyph unicode="~" glyph-name="gid250" horiz-adv-x="1468" d="M976,390q-69,0-132,31.5T724.5,494t-106,73T528,599q-42,0-59-47.5T472,432H235q-30,123-12.5,222.5t84,158.5T491,872q69,0 132-31.5t120-73t106-73T940,663t58.5,47.5T996,830h237q29-123 12-222.5T1161.5,449T976,390Z" />
      <glyph unicode="&#xa0;" glyph-name="gid232" horiz-adv-x="400" />
      <glyph unicode="&#xa1;" glyph-name="gid181" horiz-adv-x="752" d="M240,1080H512V840H240v240Zm0-360H512V-360H240V720Z" />
      <glyph unicode="&#xa2;" glyph-name="gid235" horiz-adv-x="1166" d="M524-58V126q-140,21-239.5,99t-152,198T80,690t54,266.5t153.5,197T524,1252v188H734V1250q146-27 244-118t128-232L834,828q-24,84-83.5,131T616,1006q-86,0-141-41.5t-81-113T368,690q0-141 62.5-228.5T616,374q92,0 140,42t72,120l278-58q-39-144-135-232.5T734,130V-58H524Z" />
      <glyph unicode="&#xa3;" glyph-name="gid239" horiz-adv-x="1142" d="M80,0V254h2q62,0 106,46t44,106v676q0,110 56,198t151,139t211,51q108,0 186.5-48.5t133.5-132t92-187.5l-244-80q-25,87-63.5,139.5T650,1214q-63,0-101.5-41.5T510,1068l-2-814H954V0H80Zm0,592V848H792V592H80Z" />
      <glyph unicode="&#xa4;" glyph-name="gid236" horiz-adv-x="1360" d="M680,196q-108,0-203,41T310,350.5T197,518T156,722q0,108 41,203t113,167t167,113t203,41q109,0 204-41t167.5-113T1165,925t41-203q0-109-41-204T1051.5,350.5T884,237T680,196ZM240,100L60,280L314,534L496,354L240,100Zm74,804L60,1158l180,182l254-254L314,904Zm806-804L866,354l180,180l254-254L1120,100ZM680,424q82,0 149,40.5t107,108T976,720q0,82-40.5,149t-108,107T680,1016q-82,0-149-40T424,869T384,720q0-80 40-147.5t107-108T680,424Zm368,482L866,1086l254,254l180-182L1048,906Z" />
      <glyph unicode="&#xa5;" glyph-name="gid240" horiz-adv-x="1260" d="M210,526V736h840V526H210Zm0-338V398h840V188H210ZM492,0V586L0,1440H318L630,898l312,542h318L768,586V0H492Z" />
      <glyph unicode="&#xa6;" glyph-name="gid268" horiz-adv-x="632" d="M180,600v840H452V600H180Zm0-1040V400H452V-440H180Z" />
      <glyph unicode="&#xa7;" glyph-name="gid262" horiz-adv-x="1094" d="M560-270q-118,0-215,38T184-115.5T100,84l278,42q11-53 40.5-89t71-54.5T578-36q35,0 66.5,11T696,10t20,62q0,37-23.5,58.5t-80.5,39T456,212q-121,31-201,71.5T135.5,379T96,510q0,100 59.5,161.5t149.5,90T486,790l26-114q-73-25-109.5-53.5T366,550q0-42 34-64t98.5-38.5T654,406q115-32 190.5-71T957,238T994,90q0-117-56.5-197T783-228.5T560-270Zm50,544l-8,110q33,10 64,30.5t50.5,50T736,532q0,37-23.5,58.5t-80.5,39T476,672q-121,31-201,70.5T155.5,841T116,990q0,118 60,193t152.5,111T520,1330q101,0 192.5-36t154-107T944,1010L666,960q-8,46-26.5,76.5t-50,46T512,1098q-35,0-63.5-9.5t-45.5-29T386,1010q0-43 36-65.5T523,906t151-40q114-32 189.5-70.5t113-95T1014,558q0-99-48-165.5t-138.5-97T610,274Z" />
      <glyph unicode="&#xa8;" glyph-name="gid271" horiz-adv-x="1144" d="M664,1592v240H904V1592H664Zm-424,0v240H480V1592H240Z" />
      <glyph unicode="&#xa9;" glyph-name="gid263" horiz-adv-x="1828" d="M914-140q-177,0-332,66.5T310,110T126.5,382T60,714t66.5,332T310,1318t272,183.5T914,1568t332-66.5T1518,1318t183.5-272T1768,714t-66.5-332T1518,110T1246-73.5T914-140Zm18,426q-103,0-175,32T628,420q-52,66-76,139T528,714q0,86 25.5,159T628,1006q56,68 130.5,102T942,1142q57,0 104-11t98-43q57-34 97.5-88T1298,872l-204-54q-7,27-21.5,51T1034,914q-22,20-48.5,29T930,952q-45,0-79.5-18T790,884q-27-34-36.5-78.5T744,714q0-46 10.5-89T790,546q24-33 59.5-50.5T934,478q70,0 104,34q21,21 32,41t20,45l208-42q-16-58-49-110t-83-90q-45-34-99.5-52T932,286ZM914,114q125,0 233.5,46.5t191,129t129,191.5T1514,714q0,125-46.5,233.5t-129,191t-191,129T914,1314q-124,0-233-46.5t-191.5-129t-129-191T314,714q0-124 46.5-233t129-191.5T681,160.5T914,114Z" />
      <glyph unicode="&#xaa;" glyph-name="gid125" horiz-adv-x="643" d="M260,540q-87,0-133.5,48.5T80,704q0,56 26.5,97.5T198,867q45,17 116,28t165,25l-49-27q0,48-23,70.5T330,986q-30,0-62.5-14.5T222,920L99,959q20,67 77,109t154,42q71,0 127-22t84-76q16-30 19-60t3-67V555H444V666l17-23q-40-55-85.5-79T260,540Zm29,107q56,0 86.5,27.5T414,719q11,22 12.5,51.5T428,819l40-10q-91-15-132-23t-67-18q-30-12-43-27t-13-35q0-28 20.5-43.5T289,647Z" />
      <glyph unicode="&#xab;" glyph-name="gid220" horiz-adv-x="1206" d="M944,94L590,540L944,986l142-112L820,540l266-334L944,94ZM514,94L160,540L514,986L656,874L390,540L656,206L514,94Z" />
      <glyph unicode="&#xac;" glyph-name="gid251" horiz-adv-x="1200" d="M870,366V596H120V806h960V366H870Z" />
      <glyph unicode="&#xad;" glyph-name="gid207" horiz-adv-x="840" d="M120,526V736H720V526H120Z" />
      <glyph unicode="&#xae;" glyph-name="gid264" horiz-adv-x="1330" d="M664,536q-108,0-203,41T294,690.5T181,858t-41,204q0,108 41,203t113,167t167,113t203,41q109,0 204-41t167.5-113T1149,1265t41-203q0-109-41-204T1035.5,690.5T868,577T664,536Zm2,176q95,0 174.5,48T968,887.5t48,174.5q0,97-48,176.5T840.5,1365T666,1412q-97,0-176.5-47T363,1238.5T316,1062q0-95 47-174.5T489.5,760T666,712ZM498,824v476H698q77,0 119-43t45-115q0-43-20-79.5T780,1002l88-178H766L688,986H588V824H498Zm90,246H702q30,0 49,20.5t19,51.5q0,35-16.5,53.5T702,1214H588V1070Z" />
      <glyph unicode="&#xaf;" glyph-name="gid277" horiz-adv-x="1024" d="M240,1680v208H784V1680H240Z" />
      <glyph unicode="&#xb0;" glyph-name="gid266" horiz-adv-x="900" d="M420,750q-99,0-181,48.5t-130.5,130T60,1110q0,98 50,180t132,131t178,49q99,0 180.5-48.5t130.5-130T780,1110T731,928.5t-130.5-130T420,750Zm0,230q35,0 64.5,18t47.5,47.5t18,64.5t-18,64.5T484.5,1222T420,1240t-64.5-18T308,1174.5T290,1110t18-64.5T355.5,998T420,980Z" />
      <glyph unicode="&#xb1;" glyph-name="gid249" horiz-adv-x="1200" d="M496,440V656H120V866H496v214H706V866h374V656H706V440H496ZM120,120V330h960V120H120Z" />
      <glyph unicode="&#xb2;" glyph-name="gid163" horiz-adv-x="832" d="M100,540V688l378,336q42,38 60,71t18,61q0,63-37,103.5T420,1300q-43,0-76-19.5t-51.5-52T276,1158H100q0,93 40.5,160.5T254,1423t170,37q88,0 157.5-38.5t110-107.5T732,1154q0-67-19-111t-56-81t-91-84L322,662l-14,38H732V540H100Z" />
      <glyph unicode="&#xb3;" glyph-name="gid164" horiz-adv-x="818" d="M382,518q-102,0-187.5,60T80,740l166,44q14-51 52.5-77.5T382,680q59,0 100.5,41T524,820q0,59-40,100.5T382,962q-19,0-37-5.5T312,942l-78,134l288,240l14-38H116v162H682V1278L458,1062l-2,48q78-12 132-54.5t82-104T698,820q0-86-43.5-154.5T539,557.5T382,518Z" />
      <glyph unicode="&#xb4;" glyph-name="gid273" horiz-adv-x="1110" d="M624,1590H422l166,390H790L624,1590Z" />
      <glyph unicode="&#xb5;" glyph-name="gid253" horiz-adv-x="1290" d="M138-480V1080H414V570q0-37 4-94.5T443,360t68.5-97T646,224q35,0 75,11t75,42.5t57.5,93T876,532v548h274V0H910V112Q852,46 764.5,7T560-32q-54,0-99,8.5T378,0V-480H138Z" />
      <glyph unicode="&#xb6;" glyph-name="gid261" horiz-adv-x="1484" d="M668-282V488H572q-6,0-42,1t-78,7q-126,18-208.5,83t-123,164.5T80,964q0,119 39.5,218.5T241,1348t211,84q42,6 77.5,7t42.5,1H940V-282H668Zm464,0V1440h272V-282H1132Z" />
      <glyph unicode="&#xb7;" glyph-name="gid184" horiz-adv-x="560" d="M284,470q-69,0-116.5,45.5T120,630t47.5,114.5T284,790q63,0 109.5-45.5T440,630T393.5,515.5T284,470Z" />
      <glyph unicode="&#xb8;" glyph-name="gid278" horiz-adv-x="838" d="M382-484q-42,0-77,11t-65,27l58,156q39-12 60-12q27,0 41.5,15T414-256q0,36-38.5,53.5T284-170L354,34l158,2L476-72q59-30 90.5-77.5T598-262q0-99-64.5-160.5T382-484Z" />
      <glyph unicode="&#xb9;" glyph-name="gid162" horiz-adv-x="703" d="M289,540v715L120,1151v188l169,101H463V540H289Z" />
      <glyph unicode="&#xba;" glyph-name="gid126" horiz-adv-x="707" d="M353,540q-122,0-197.5,80T80,825q0,127 76.5,206T353,1110q122,0 198-80t76-205q0-126-76-205.5T353,540Zm0,127q65,0 97.5,44T483,825q0,72-32.5,115T353,983q-67,0-98-43.5T224,825q0-73 32.5-115.5T353,667Z" />
      <glyph unicode="&#xbb;" glyph-name="gid221" horiz-adv-x="1206" d="M262,94L120,206L386,540L120,874L262,986L616,540L262,94Zm430,0L550,206L816,540L550,874L692,986l354-446L692,94Z" />
      <glyph unicode="&#xbc;" glyph-name="gid173" horiz-adv-x="2112" d="M289,540v715L120,1151v188l169,101H463V540H289ZM1620,0V140H1228V300l284,600h196L1424,300h196V524h172V300h80V140h-80V0H1620ZM571,0L417,114l964,1340l154-116L571,0Z" />
      <glyph unicode="&#xbd;" glyph-name="gid172" horiz-adv-x="2081" d="M289,540v715L120,1151v188l169,101H463V540H289ZM1349,0V148l378,336q42,38 60,71t18,61q0,63-37,103.5T1669,760q-43,0-76-19.5t-51.5-52T1525,618H1349q0,93 40.5,161T1503,883.5T1673,920q88,0 157.5-38.5t110-107.5T1981,614q0-67-19-111t-56-81t-91-84L1571,122l-14,38h424V0H1349ZM571,0L417,114l964,1340l154-116L571,0Z" />
      <glyph unicode="&#xbe;" glyph-name="gid174" horiz-adv-x="2088" d="M382,518q-102,0-187.5,60T80,740l166,44q14-51 52.5-77.5T382,680q59,0 100.5,41T524,820q0,59-40,100.5T382,962q-19,0-37-5.5T312,942l-78,134l288,240l14-38H116v162H682V1278L458,1062l-2,48q78-12 132-54.5t82-104T698,820q0-86-43.5-154.5T539,557.5T382,518ZM1716,0V140H1324V300l284,600h196L1520,300h196V524h172V300h80V140h-80V0H1716ZM686,0L532,114l964,1340l154-116L686,0Z" />
      <glyph unicode="&#xbf;" glyph-name="gid183" horiz-adv-x="1126" d="M732,690q0-66-15-132T670,438q-25-51-54.5-80.5t-68-60.5T456,210q-40-45-54-88T388,26q0-27 5.5-51.5T414-70q24-33 63.5-47.5T562-132q35,0 67.5,8T684-98q29,21 42.5,53T738,26h288q-12-106-61-195.5T838-310q-57-37-126-57.5T574-388q-114,0-215,35.5T192-236q-43,51-67.5,119T100,18q0,110 49,199T270,382q31,33 55.5,57.5t44,46T404,530q29,47 34.5,76t5.5,84H732Zm-2,390V792H444v288H730Z" />
      <glyph unicode="&#xc0;" glyph-name="gid6" horiz-adv-x="1366" d="M554,1590L388,1980H590l166-390H554ZM1326,0H1046L660,1270h52L320,0H40L480,1440H886L1326,0ZM1062,300H302V554h760V300Z" />
      <glyph unicode="&#xc1;" glyph-name="gid2" horiz-adv-x="1366" d="M812,1590H610l166,390H978L812,1590ZM40,0L480,1440H886L1326,0H1046L654,1270h52L320,0H40ZM304,300V554h760V300H304Z" />
      <glyph unicode="&#xc2;" glyph-name="gid4" horiz-adv-x="1366" d="M280,1590l288,330H792l288-330H830L680,1770L530,1590H280ZM40,0L480,1440H886L1326,0H1046L654,1270h52L320,0H40ZM304,300V554h760V300H304Z" />
      <glyph unicode="&#xc3;" glyph-name="gid8" horiz-adv-x="1366" d="M856,1646q-49,0-93.5,22.5t-85,51.5T602,1771.5T538,1794q-30,0-41.5-33.5T498,1676H330q-31,131 12.5,221.5T512,1988q49,0 93.5-22.5t85-51.5t75.5-51.5t64-22.5q30,0 42,33.5t-2,84.5h168q32-130-12-221t-170-91ZM40,0L480,1440H886L1326,0H1046L654,1270h52L320,0H40ZM304,300V554h760V300H304Z" />
      <glyph unicode="&#xc4;" glyph-name="gid5" horiz-adv-x="1366" d="M776,1592v240h240V1592H776Zm-424,0v240H592V1592H352ZM40,0L480,1440H886L1326,0H1046L654,1270h52L320,0H40ZM304,300V554h760V300H304Z" />
      <glyph unicode="&#xc5;" glyph-name="gid7" horiz-adv-x="1366" d="M684,1550q-74,0-135.5,36.5t-98,98T414,1820q0,75 36.5,136t98,97.5T684,2090q75,0 136-36.5t97.5-97.5T954,1820q0-74-36.5-135.5t-97.5-98T684,1550Zm0,160q46,0 78,32.5t32,77.5q0,46-32,78t-78,32q-45,0-77.5-32T574,1820q0-45 32.5-77.5T684,1710ZM40,0L480,1440H886L1326,0H1046L654,1270h52L320,0H40ZM304,300V554h760V300H304Z" />
      <glyph unicode="&#xc6;" glyph-name="gid9" horiz-adv-x="1890" d="M40,0L480,1440H940V1186H590l116,86L320,0H40ZM304,300V554h760V300H304ZM850,0V1440h940V1186H1122V878h548V624H1122V254h668V0H850Z" />
      <glyph unicode="&#xc7;" glyph-name="gid12" horiz-adv-x="1492" d="M734-484q-42,0-77,11t-65,27l58,156q39-12 60-12q27,0 41.5,15T766-256q0,36-38.5,53.5T636-170L706,34l158,2L828-72q59-30 90.5-77.5T950-262q0-99-64.5-160.5T734-484ZM758-30Q542-30 385.5,64t-241,263T60,720t84.5,393t241,263T758,1470q248,0 416.5-123T1412,1014l-274-76q-40,131-135,203.5T758,1214q-137,0-228.5-61T392,981T346,720t46-261T529.5,287T758,226q150,0 245,73t135,203l274-76q-69-210-237.5-333T758-30Z" />
      <glyph unicode="&#xc8;" glyph-name="gid19" horiz-adv-x="1180" d="M526,1590L360,1980H562l166-390H526ZM140,0V1440h940V1186H412V878H960V624H412V254h668V0H140Z" />
      <glyph unicode="&#xc9;" glyph-name="gid16" horiz-adv-x="1180" d="M739,1590H537l166,390H905L739,1590ZM140,0V1440h940V1186H412V878H960V624H412V254h668V0H140Z" />
      <glyph unicode="&#xca;" glyph-name="gid17" horiz-adv-x="1180" d="M196,1590l288,330H708l288-330H746L596,1770L446,1590H196ZM140,0V1440h940V1186H412V878H960V624H412V254h668V0H140Z" />
      <glyph unicode="&#xcb;" glyph-name="gid18" horiz-adv-x="1180" d="M700,1592v240H940V1592H700Zm-424,0v240H516V1592H276ZM140,0V1440h940V1186H412V878H960V624H412V254h668V0H140Z" />
      <glyph unicode="&#xcc;" glyph-name="gid27" horiz-adv-x="592" d="M191,1590L25,1980H227l166-390H191ZM160,0V1440H432V0H160Z" />
      <glyph unicode="&#xcd;" glyph-name="gid24" horiz-adv-x="592" d="M401,1590H199l166,390H567L401,1590ZM160,0V1440H432V0H160Z" />
      <glyph unicode="&#xce;" glyph-name="gid25" horiz-adv-x="592" d="M-108,1590l288,330H404l288-330H442L292,1770L142,1590H-108ZM160,0V1440H432V0H160Z" />
      <glyph unicode="&#xcf;" glyph-name="gid26" horiz-adv-x="592" d="M388,1592v240H628V1592H388Zm-424,0v240H204V1592H-36ZM160,0V1440H432V0H160Z" />
      <glyph unicode="&#xd0;" glyph-name="gid14" horiz-adv-x="1428" d="M20,616V826H710V616H20ZM148,0V1440H614q17,0 70-1t102-7q174-21 295-121t184-254t63-337t-63-337T1081,129T786,8Q737,2 684,1T614,0H148ZM424,256H614q27,0 73,1.5t83,8.5q94,19 153.5,88t88,166T1040,720q0,108-29.5,205T921,1089t-151,85q-37,8-83,9t-73,1H424V256Z" />
      <glyph unicode="&#xd1;" glyph-name="gid33" horiz-adv-x="1458" d="M922,1596q-49,0-93.5,22.5t-85,51.5T668,1721.5T604,1744q-30,0-41.5-33.5T564,1626H396q-31,131 12.5,221.5T578,1938q49,0 93.5-22.5t85-51.5t75.5-51.5t64-22.5q30,0 42,33.5t-2,84.5h168q32-130-12-221t-170-91ZM140,0V1440H416l626-960v960h276V0H1042L416,960V0H140Z" />
      <glyph unicode="&#xd2;" glyph-name="gid38" horiz-adv-x="1516" d="M629,1590L463,1980H665l166-390H629ZM758-30Q542-30 385.5,64t-241,263T60,720t84.5,393t241,263T758,1470t372.5-94t241-263T1456,720t-84.5-393t-241-263T758-30Zm0,256q137-2 228,59t136.5,173T1168,720t-45.5,260T986,1151t-228,63t-228-59T393.5,982T348,720t45.5-260T530,289t228-63Z" />
      <glyph unicode="&#xd3;" glyph-name="gid35" horiz-adv-x="1516" d="M867,1590H665l166,390h202L867,1590ZM758-30Q542-30 385.5,64t-241,263T60,720t84.5,393t241,263T758,1470t372.5-94t241-263T1456,720t-84.5-393t-241-263T758-30Zm0,256q137-2 228,59t136.5,173T1168,720t-45.5,260T986,1151t-228,63t-228-59T393.5,982T348,720t45.5-260T530,289t228-63Z" />
      <glyph unicode="&#xd4;" glyph-name="gid36" horiz-adv-x="1516" d="M354,1590l288,330H866l288-330H904L754,1770L604,1590H354ZM758-30Q542-30 385.5,64t-241,263T60,720t84.5,393t241,263T758,1470t372.5-94t241-263T1456,720t-84.5-393t-241-263T758-30Zm0,256q137-2 228,59t136.5,173T1168,720t-45.5,260T986,1151t-228,63t-228-59T393.5,982T348,720t45.5-260T530,289t228-63Z" />
      <glyph unicode="&#xd5;" glyph-name="gid40" horiz-adv-x="1516" d="M758-30Q542-30 385.5,64t-241,263T60,720t84.5,393t241,263T758,1470t372.5-94t241-263T1456,720t-84.5-393t-241-263T758-30Zm0,256q137-2 228,59t136.5,173T1168,720t-45.5,260T986,1151t-228,63t-228-59T393.5,982T348,720t45.5-260T530,289t228-63ZM942,1596q-49,0-93.5,22.5t-85,51.5T688,1721.5T624,1744q-30,0-41.5-33.5T584,1626H416q-31,131 12.5,221.5T598,1938q49,0 93.5-22.5t85-51.5t75.5-51.5t64-22.5q30,0 42,33.5t-2,84.5h168q32-130-12-221t-170-91Z" />
      <glyph unicode="&#xd6;" glyph-name="gid37" horiz-adv-x="1516" d="M850,1592v240h240V1592H850Zm-424,0v240H666V1592H426ZM758-30Q542-30 385.5,64t-241,263T60,720t84.5,393t241,263T758,1470t372.5-94t241-263T1456,720t-84.5-393t-241-263T758-30Zm0,256q137-2 228,59t136.5,173T1168,720t-45.5,260T986,1151t-228,63t-228-59T393.5,982T348,720t45.5-260T530,289t228-63Z" />
      <glyph unicode="&#xd7;" glyph-name="gid244" horiz-adv-x="1026" d="M758,328L513,573L268,328L120,477L364,722L121,965l149,148L513,870l243,243L905,965L661,722L906,477L758,328Z" />
      <glyph unicode="&#xd8;" glyph-name="gid39" horiz-adv-x="1516" d="M286-26L94,144L252,324l34,30l778,878l12,22l188,212l192-172l-206-232l-26-18L444,162l-14-24L286-26Zm472-4Q542-30 385.5,64t-241,263T60,720t84.5,393t241,263T758,1470t372.5-94t241-263T1456,720t-84.5-393t-241-263T758-30Zm0,256q137-2 228,59t136.5,173T1168,720t-45.5,260T986,1151t-228,63t-228-59T393.5,982T348,720t45.5-260T530,289t228-63Z" />
      <glyph unicode="&#xd9;" glyph-name="gid52" horiz-adv-x="1452" d="M642,1590L476,1980H678l166-390H642ZM726-30Q552-30 420,40.5T214,239T140,540v898l276,2V542q0-71 24-129t66.5-100t99-64.5T726,226q66,0 122.5,23T947,314t65.5,100T1036,542v898h276V540q0-173-74-301T1032,40.5T726-30Z" />
      <glyph unicode="&#xda;" glyph-name="gid49" horiz-adv-x="1452" d="M825,1590H623l166,390H991L825,1590ZM726-30Q552-30 420,40.5T214,239T140,540v898l276,2V542q0-71 24-129t66.5-100t99-64.5T726,226q66,0 122.5,23T947,314t65.5,100T1036,542v898h276V540q0-173-74-301T1032,40.5T726-30Z" />
      <glyph unicode="&#xdb;" glyph-name="gid50" horiz-adv-x="1452" d="M322,1590l288,330H834l288-330H872L722,1770L572,1590H322ZM726-30Q552-30 420,40.5T214,239T140,540v898l276,2V542q0-71 24-129t66.5-100t99-64.5T726,226q66,0 122.5,23T947,314t65.5,100T1036,542v898h276V540q0-173-74-301T1032,40.5T726-30Z" />
      <glyph unicode="&#xdc;" glyph-name="gid51" horiz-adv-x="1452" d="M818,1592v240h240V1592H818Zm-424,0v240H634V1592H394ZM726-30Q552-30 420,40.5T214,239T140,540v898l276,2V542q0-71 24-129t66.5-100t99-64.5T726,226q66,0 122.5,23T947,314t65.5,100T1036,542v898h276V540q0-173-74-301T1032,40.5T726-30Z" />
      <glyph unicode="&#xdd;" glyph-name="gid57" horiz-adv-x="1260" d="M730,1590H528l166,390H896L730,1590ZM492,0V586L0,1440H318L630,898l312,542h318L768,586V0H492Z" />
      <glyph unicode="&#xde;" glyph-name="gid43" horiz-adv-x="1284" d="M140,0V1440H416V1196H742q74,0 146-22t134.5-66T1128,1002q45-60 70-133.5T1224,720q2-75-24.5-148.5T1128,438q-63-87-165-139.5T742,246H416V0H140ZM416,500H740q41,0 87,23t77,65q21,29 33.5,62.5T948,720q-1,39-13.5,76.5T896,862q-28,33-71,55.5T740,940H416V500Z" />
      <glyph unicode="&#xdf;" glyph-name="gid106" horiz-adv-x="1292" d="M710-30q-66,0-108.5,7.5T524,0V266q26-10 63-20t83-10q105,0 167.5,48T900,432q0,114-84,163T598,644V880q61,4 102.5,25.5T763,964t21,88q0,78-58,121t-130,43q-48,0-89.5-18T438,1132q-13-24-19.5-63T412,986V0H138V1060q0,38 3.5,68t12.5,60q31,101 98.5,163t157,90.5T596,1470q128,0 233-54t167-147.5t62-210.5q0-76-25-142.5T954,798q53-22 93.5-58.5t68-85t42-106T1172,428q0-214-119-336T710-30Z" />
      <glyph unicode="&#xe0;" glyph-name="gid63" horiz-adv-x="1166" d="M494,1230L328,1620H530l166-390H494ZM440-30Q324-30 243.5,14.5t-122,119T80,298q0,75 23,137t74.5,109.5T316,624q60,22 143,39t188,32.5T878,730l-98-54q0,96-46,141T580,862q-60,0-125-29T364,730L118,808q41,134 154,218t308,84q143,0 254-44t168-152q32-60 38-120t6-134V0H808V222l34-46Q763,67 671.5,18.5T440-30Zm58,214q75,0 126.5,26.5t82,60.5T748,328q21,44 24.5,102.5T776,528l80-20q-121-20-196-33.5T539,450t-81-24q-40-16-64.5-34.5t-36-40.5T346,302q0-37 18.5-63.5T417,198t81-14Z" />
      <glyph unicode="&#xe1;" glyph-name="gid60" horiz-adv-x="1166" d="M705,1230H503l166,390H871L705,1230ZM440-30Q324-30 243.5,14.5t-122,119T80,298q0,75 23,137t74.5,109.5T316,624q60,22 143,39t188,32.5T878,730l-98-54q0,96-46,141T580,862q-60,0-125-29T364,730L118,808q41,134 154,218t308,84q143,0 254-44t168-152q32-60 38-120t6-134V0H808V222l34-46Q763,67 671.5,18.5T440-30Zm58,214q75,0 126.5,26.5t82,60.5T748,328q21,44 24.5,102.5T776,528l80-20q-121-20-196-33.5T539,450t-81-24q-40-16-64.5-34.5t-36-40.5T346,302q0-37 18.5-63.5T417,198t81-14Z" />
      <glyph unicode="&#xe2;" glyph-name="gid61" horiz-adv-x="1166" d="M196,1230l288,330H708l288-330H746L596,1410L446,1230H196ZM440-30Q324-30 243.5,14.5t-122,119T80,298q0,75 23,137t74.5,109.5T316,624q60,22 143,39t188,32.5T878,730l-98-54q0,96-46,141T580,862q-60,0-125-29T364,730L118,808q41,134 154,218t308,84q143,0 254-44t168-152q32-60 38-120t6-134V0H808V222l34-46Q763,67 671.5,18.5T440-30Zm58,214q75,0 126.5,26.5t82,60.5T748,328q21,44 24.5,102.5T776,528l80-20q-121-20-196-33.5T539,450t-81-24q-40-16-64.5-34.5t-36-40.5T346,302q0-37 18.5-63.5T417,198t81-14Z" />
      <glyph unicode="&#xe3;" glyph-name="gid65" horiz-adv-x="1166" d="M790,1236q-49,0-93.5,22.5t-85,51.5T536,1361.5T472,1384q-30,0-41.5-33.5T432,1266H264q-31,131 12.5,221.5T446,1578q49,0 93.5-22.5t85-51.5t75.5-51.5t64-22.5q30,0 42,33.5t-2,84.5H972q32-130-12-221t-170-91ZM440-30Q324-30 243.5,14.5t-122,119T80,298q0,75 23,137t74.5,109.5T316,624q60,22 143,39t188,32.5T878,730l-98-54q0,96-46,141T580,862q-60,0-125-29T364,730L118,808q41,134 154,218t308,84q143,0 254-44t168-152q32-60 38-120t6-134V0H808V222l34-46Q763,67 671.5,18.5T440-30Zm58,214q75,0 126.5,26.5t82,60.5T748,328q21,44 24.5,102.5T776,528l80-20q-121-20-196-33.5T539,450t-81-24q-40-16-64.5-34.5t-36-40.5T346,302q0-37 18.5-63.5T417,198t81-14Z" />
      <glyph unicode="&#xe4;" glyph-name="gid62" horiz-adv-x="1166" d="M692,1232v240H932V1232H692Zm-424,0v240H508V1232H268ZM440-30Q324-30 243.5,14.5t-122,119T80,298q0,75 23,137t74.5,109.5T316,624q60,22 143,39t188,32.5T878,730l-98-54q0,96-46,141T580,862q-60,0-125-29T364,730L118,808q41,134 154,218t308,84q143,0 254-44t168-152q32-60 38-120t6-134V0H808V222l34-46Q763,67 671.5,18.5T440-30Zm58,214q75,0 126.5,26.5t82,60.5T748,328q21,44 24.5,102.5T776,528l80-20q-121-20-196-33.5T539,450t-81-24q-40-16-64.5-34.5t-36-40.5T346,302q0-37 18.5-63.5T417,198t81-14Z" />
      <glyph unicode="&#xe5;" glyph-name="gid64" horiz-adv-x="1166" d="M596,1190q-74,0-135.5,36.5t-98,98T326,1460q0,75 36.5,136t98,97.5T596,1730q75,0 136-36.5t97.5-97.5T866,1460q0-74-36.5-135.5t-97.5-98T596,1190Zm0,160q46,0 78,32.5t32,77.5q0,46-32,78t-78,32q-45,0-77.5-32T486,1460q0-45 32.5-77.5T596,1350ZM440-30Q324-30 243.5,14.5t-122,119T80,298q0,75 23,137t74.5,109.5T316,624q60,22 143,39t188,32.5T878,730l-98-54q0,96-46,141T580,862q-60,0-125-29T364,730L118,808q41,134 154,218t308,84q143,0 254-44t168-152q32-60 38-120t6-134V0H808V222l34-46Q763,67 671.5,18.5T440-30Zm58,214q75,0 126.5,26.5t82,60.5T748,328q21,44 24.5,102.5T776,528l80-20q-121-20-196-33.5T539,450t-81-24q-40-16-64.5-34.5t-36-40.5T346,302q0-37 18.5-63.5T417,198t81-14Z" />
      <glyph unicode="&#xe6;" glyph-name="gid66" horiz-adv-x="1868" d="M1321-30q-160,0-279.5,72T856,239.5T790,526q0,175 64.5,306.5T1035,1037t271,73q167,0 278.5-83T1747,798t37-334H1529V564q0,147-43,228.5T1306,874q-92,0-145.5-43.5t-76-119T1062,540q0-145 61.5-230.5T1306,224q71,0 126.5,34.5T1517,360l257-78q-37-98-107.5-168T1506.5,7T1321-30ZM498,182q83,0 148.5,41T740,312q16,28 25,61.5t12,73t1,85.5l98-34L648,470q-39-4-90.5-13.5t-99.5-28T378,379t-32-79q0-51 40-84.5T498,182ZM454-30Q273-30 176.5,61T80,290q0,86 34.5,146t91,98.5T330,596t136.5,35T592,650l246,32l-64-52q11,88-14.5,138.5t-74,72T580,862q-70,0-129.5-32T362,730L118,804q36,82 100.5,151.5t157,112T588,1110q176,0 285.5-72T1022,840q18-58 21-112.5t3-83.5L908,212Q855,126 787,72.5T636-5.5T454-30ZM982,464V674h677V464H982Z" />
      <glyph unicode="&#xe7;" glyph-name="gid69" horiz-adv-x="1166" d="M586-484q-42,0-77,11t-65,27l58,156q39-12 60-12q27,0 41.5,15T618-256q0,36-38.5,53.5T488-170L558,34l158,2L680-72q59-30 90.5-77.5T802-262q0-99-64.5-160.5T586-484ZM616-30Q448-30 328,45T144,249T80,540q0,164 66.5,293T334,1036t286,74q191,0 320.5-96.5T1106,750L834,678q-24,84-83.5,131T616,856q-86,0-141-41.5t-81-113T368,540q0-141 62.5-228.5T616,224q92,0 140,42t72,120l278-58Q1060,156 932,63T616-30Z" />
      <glyph unicode="&#xe8;" glyph-name="gid76" horiz-adv-x="1216" d="M523,1230L357,1620H559l166-390H523ZM642-30Q476-30 349.5,41.5t-198,197T80,526q0,177 70,308t193,203.5T626,1110q170,0 289-80t176-225t40-341H862V564q0,165-52.5,237.5T638,874q-139,0-204.5-84.5T368,540q0-151 65.5-233.5T626,224q80,0 137,35t87,101l272-78Q1061,134 929.5,52T642-30ZM284,464V666h716V464H284Z" />
      <glyph unicode="&#xe9;" glyph-name="gid73" horiz-adv-x="1216" d="M749,1230H547l166,390H915L749,1230ZM642-30Q476-30 349.5,41.5t-198,197T80,526q0,177 70,308t193,203.5T626,1110q170,0 289-80t176-225t40-341H862V564q0,165-52.5,237.5T638,874q-139,0-204.5-84.5T368,540q0-151 65.5-233.5T626,224q80,0 137,35t87,101l272-78Q1061,134 929.5,52T642-30ZM284,464V666h716V464H284Z" />
      <glyph unicode="&#xea;" glyph-name="gid74" horiz-adv-x="1216" d="M222,1230l288,330H734l288-330H772L622,1410L472,1230H222ZM642-30Q476-30 349.5,41.5t-198,197T80,526q0,177 70,308t193,203.5T626,1110q170,0 289-80t176-225t40-341H862V564q0,165-52.5,237.5T638,874q-139,0-204.5-84.5T368,540q0-151 65.5-233.5T626,224q80,0 137,35t87,101l272-78Q1061,134 929.5,52T642-30ZM284,464V666h716V464H284Z" />
      <glyph unicode="&#xeb;" glyph-name="gid75" horiz-adv-x="1216" d="M718,1232v240H958V1232H718Zm-424,0v240H534V1232H294ZM642-30Q476-30 349.5,41.5t-198,197T80,526q0,177 70,308t193,203.5T626,1110q170,0 289-80t176-225t40-341H862V564q0,165-52.5,237.5T638,874q-139,0-204.5-84.5T368,540q0-151 65.5-233.5T626,224q80,0 137,35t87,101l272-78Q1061,134 929.5,52T642-30ZM284,464V666h716V464H284Z" />
      <glyph unicode="&#xec;" glyph-name="gid86" horiz-adv-x="592" d="M191,1230L25,1620H227l166-390H191ZM160,0V1080H432V0H160Z" />
      <glyph unicode="&#xed;" glyph-name="gid82" horiz-adv-x="592" d="M401,1230H199l166,390H567L401,1230ZM160,0V1080H432V0H160Z" />
      <glyph unicode="&#xee;" glyph-name="gid83" horiz-adv-x="592" d="M-88,1230l288,330H424l288-330H462L312,1410L162,1230H-88ZM160,0V1080H432V0H160Z" />
      <glyph unicode="&#xef;" glyph-name="gid84" horiz-adv-x="592" d="M388,1232v240H628V1232H388Zm-424,0v240H204V1232H-36ZM160,0V1080H432V0H160Z" />
      <glyph unicode="&#xf0;" glyph-name="gid71" horiz-adv-x="1202" d="M602-30Q448-30 330.5,37.5T146.5,225T80,502q0,158 66.5,278.5t184,188T602,1036q66,0 125.5-15.5T866,966q-13,85-82,161.5T613.5,1255T402,1314l42,206q153-4 273.5-59T920,1304q72-88 116.5-198.5t65-256T1122,510q0-165-63.5-286.5T878,36T602-30Zm0,240q117,0 182.5,77.5T850,504q0,138-65.5,215T602,796q-121,0-185.5-75.5T352,504t65-217.5T602,210Zm38,848L492,1190l330,376l148-132L640,1058Z" />
      <glyph unicode="&#xf1;" glyph-name="gid92" horiz-adv-x="1272" d="M810,1236q-49,0-93.5,22.5t-85,51.5T556,1361.5T492,1384q-30,0-41.5-33.5T452,1266H284q-31,131 12.5,221.5T466,1578q49,0 93.5-22.5t85-51.5t75.5-51.5t64-22.5q30,0 42,33.5t-2,84.5H992q32-130-12-221t-170-91ZM876,0V510q0,37-4,94.5T847,720t-68.5,97T644,856q-35,0-75-11t-75-42.5T436.5,710T414,548L258,622q0,128 52,240t156.5,181T730,1112q127,0 207-43t124.5-109T1125,822.5T1148,692t4-86V0H876ZM138,0V1080H380V722h34V0H138Z" />
      <glyph unicode="&#xf2;" glyph-name="gid97" horiz-adv-x="1254" d="M513,1230L347,1620H549l166-390H513ZM626-30Q463-30 340,43T148.5,244.5T80,540q0,169 70,297.5T343,1038t283,72q163,0 286.5-73T1105,835.5T1174,540q0-168-69.5-296.5t-193-201T626-30Zm0,254q131,0 195.5,88.5T886,540q0,144-65.5,230T626,856q-89,0-146-40T395.5,705T368,540q0-145 65.5-230.5T626,224Z" />
      <glyph unicode="&#xf3;" glyph-name="gid94" horiz-adv-x="1254" d="M731,1230H529l166,390H897L731,1230ZM626-30Q463-30 340,43T148.5,244.5T80,540q0,169 70,297.5T343,1038t283,72q163,0 286.5-73T1105,835.5T1174,540q0-168-69.5-296.5t-193-201T626-30Zm0,254q131,0 195.5,88.5T886,540q0,144-65.5,230T626,856q-89,0-146-40T395.5,705T368,540q0-145 65.5-230.5T626,224Z" />
      <glyph unicode="&#xf4;" glyph-name="gid95" horiz-adv-x="1254" d="M224,1230l288,330H736l288-330H774L624,1410L474,1230H224ZM626-30Q463-30 340,43T148.5,244.5T80,540q0,169 70,297.5T343,1038t283,72q163,0 286.5-73T1105,835.5T1174,540q0-168-69.5-296.5t-193-201T626-30Zm0,254q131,0 195.5,88.5T886,540q0,144-65.5,230T626,856q-89,0-146-40T395.5,705T368,540q0-145 65.5-230.5T626,224Z" />
      <glyph unicode="&#xf5;" glyph-name="gid99" horiz-adv-x="1254" d="M800,1236q-49,0-93.5,22.5t-85,51.5T546,1361.5T482,1384q-30,0-41.5-33.5T442,1266H274q-31,131 12.5,221.5T456,1578q49,0 93.5-22.5t85-51.5t75.5-51.5t64-22.5q30,0 42,33.5t-2,84.5H982q32-130-12-221t-170-91ZM626-30Q463-30 340,43T148.5,244.5T80,540q0,169 70,297.5T343,1038t283,72q163,0 286.5-73T1105,835.5T1174,540q0-168-69.5-296.5t-193-201T626-30Zm0,254q131,0 195.5,88.5T886,540q0,144-65.5,230T626,856q-89,0-146-40T395.5,705T368,540q0-145 65.5-230.5T626,224Z" />
      <glyph unicode="&#xf6;" glyph-name="gid96" horiz-adv-x="1254" d="M720,1232v240H960V1232H720Zm-424,0v240H536V1232H296ZM626-30Q463-30 340,43T148.5,244.5T80,540q0,169 70,297.5T343,1038t283,72q163,0 286.5-73T1105,835.5T1174,540q0-168-69.5-296.5t-193-201T626-30Zm0,254q131,0 195.5,88.5T886,540q0,144-65.5,230T626,856q-89,0-146-40T395.5,705T368,540q0-145 65.5-230.5T626,224Z" />
      <glyph unicode="&#xf7;" glyph-name="gid245" horiz-adv-x="1080" d="M120,616V826H960V616H120ZM504,902v272H776V902H504Zm0-484V690H776V418H504Z" />
      <glyph unicode="&#xf8;" glyph-name="gid98" horiz-adv-x="1254" d="M236-30L56,150L238,332l82,40L832,882l20,62l166,166l180-182L1024,756l-66-26L456,228l-50-88L236-30Zm390,0Q463-30 340,43T148.5,244.5T80,540q0,169 70,297.5T343,1038t283,72q163,0 286.5-73T1105,835.5T1174,540q0-168-69.5-296.5t-193-201T626-30Zm0,254q131,0 195.5,88.5T886,540q0,144-65.5,230T626,856q-89,0-146-40T395.5,705T368,540q0-145 65.5-230.5T626,224Z" />
      <glyph unicode="&#xf9;" glyph-name="gid112" horiz-adv-x="1272" d="M522,1230L356,1620H558l166-390H522ZM542-32Q415-32 335,11T210.5,120T147,257.5T124,388t-4,86v606H396V570q0-37 4-94.5T425,360t68.5-97T628,224q35,0 75,11t75,42.5t57.5,93T858,532l156-74q0-128-52-240T805.5,37T542-32ZM892,0V358H858v722h274V0H892Z" />
      <glyph unicode="&#xfa;" glyph-name="gid109" horiz-adv-x="1272" d="M715,1230H513l166,390H881L715,1230ZM542-32Q415-32 335,11T210.5,120T147,257.5T124,388t-4,86v606H396V570q0-37 4-94.5T425,360t68.5-97T628,224q35,0 75,11t75,42.5t57.5,93T858,532l156-74q0-128-52-240T805.5,37T542-32ZM892,0V358H858v722h274V0H892Z" />
      <glyph unicode="&#xfb;" glyph-name="gid110" horiz-adv-x="1272" d="M222,1230l288,330H734l288-330H772L622,1410L472,1230H222ZM542-32Q415-32 335,11T210.5,120T147,257.5T124,388t-4,86v606H396V570q0-37 4-94.5T425,360t68.5-97T628,224q35,0 75,11t75,42.5t57.5,93T858,532l156-74q0-128-52-240T805.5,37T542-32ZM892,0V358H858v722h274V0H892Z" />
      <glyph unicode="&#xfc;" glyph-name="gid111" horiz-adv-x="1272" d="M718,1232v240H958V1232H718Zm-424,0v240H534V1232H294ZM542-32Q415-32 335,11T210.5,120T147,257.5T124,388t-4,86v606H396V570q0-37 4-94.5T425,360t68.5-97T628,224q35,0 75,11t75,42.5t57.5,93T858,532l156-74q0-128-52-240T805.5,37T542-32ZM892,0V358H858v722h274V0H892Z" />
      <glyph unicode="&#xfd;" glyph-name="gid117" horiz-adv-x="1140" d="M688,1230H486l166,390H854L688,1230ZM278-480L486,92l4-168L20,1080H302L618,262H554l314,818h272L530-480H278Z" />
      <glyph unicode="&#xfe;" glyph-name="gid102" horiz-adv-x="1248" d="M140,864v576H414V864H140ZM670-30Q509-30 401,45T238.5,249T184,540t54,291t159,204t259,75q155,0 270-74t178.5-202.5T1168,540q0-162-62.5-291T931,45T670-30ZM138-480V1080H378V340h34V-480H138ZM626,212q88,0 144,44t83,118.5T880,540q0,90-28,164.5t-86.5,119T616,868q-85,0-137.5-41T402,712T378,540t24-172t78.5-115T626,212Z" />
      <glyph unicode="&#xff;" glyph-name="gid118" horiz-adv-x="1140" d="M676,1232v240H916V1232H676Zm-424,0v240H492V1232H252ZM278-480L486,92l4-168L20,1080H302L618,262H554l314,818h272L530-480H278Z" />
      <glyph unicode="&#x2013;" glyph-name="gid208" horiz-adv-x="1080" d="M120,526V736H960V526H120Z" />
      <glyph unicode="&#x2014;" glyph-name="gid209" horiz-adv-x="1560" d="M120,526V736H1440V526H120Z" />
      <glyph unicode="&#x2018;" glyph-name="gid218" horiz-adv-x="610" d="M430,898q-138-22-205,52t-67,218v272H430V1168H290q-7-48 4.5-84.5t41.5-56t78-15.5l16-114Z" />
      <glyph unicode="&#x2019;" glyph-name="gid219" horiz-adv-x="610" d="M180,898l16,114q48-4 78,15.5t41.5,56T320,1168H180v272H452V1168q0-144-67-218T180,898Z" />
      <glyph unicode="&#x201a;" glyph-name="gid214" horiz-adv-x="632" d="M120-270l16,114q48-4 78,15.5t41.5,56T260,0H120V272H392V0q0-144-67-218T120-270Z" />
      <glyph unicode="&#x201c;" glyph-name="gid216" horiz-adv-x="954" d="M794,1440l-16-114q-48,4-78-15.5t-41.5-56T654,1170H794V898H522v272q0,144 67,218.5T794,1440Zm-362,0l-16-114q-48,4-78-15.5t-41.5-56T292,1170H432V898H160v272q0,144 67,218.5T432,1440Z" />
      <glyph unicode="&#x201d;" glyph-name="gid217" horiz-adv-x="954" d="M160,898l16,114q48-4 78,15.5t41.5,56T300,1168H160v272H432V1168q0-144-67-218T160,898Zm362,0l16,114q48-4 78,15.5t41.5,56T662,1168H522v272H794V1168q0-144-67-218T522,898Z" />
      <glyph unicode="&#x201e;" glyph-name="gid215" horiz-adv-x="954" d="M160-270l16,114q48-4 78,15.5t41.5,56T300,0H160V272H432V0q0-144-67-218T160-270Zm362,0l16,114q48-4 78,15.5t41.5,56T662,0H522V272H794V0q0-144-67-218T522-270Z" />
      <glyph unicode="&#x2022;" glyph-name="gid185" horiz-adv-x="1440" d="M726,330q-85,0-154.5,39.5T461,477T420,630q0,86 41.5,154T572,891t154,39q80,0 147-39T980,784t40-154q0-85-40-153T873,369.5T726,330Z" />
      <glyph unicode="&#x2039;" glyph-name="gid222" horiz-adv-x="1290" d="M764,146L280,630l484,484L932,946L604,630L932,314L764,146Z" />
      <glyph unicode="&#x203a;" glyph-name="gid223" horiz-adv-x="1290" d="M526,146L358,314L686,630L358,946l168,168l484-484L526,146Z" />
    </font>
</defs>
</svg>
