<?xml version="1.0" standalone="no"?>
<!DOCTYPE svg PUBLIC "-//W3C//DTD SVG 1.1//EN" "http://www.w3.org/Graphics/SVG/1.1/DTD/svg11.dtd">
<svg xmlns="http://www.w3.org/2000/svg">
  <defs>
    <font id="Manrope" horiz-adv-x="1102">
      <font-face font-family="Manrope ExtraLight" units-per-em="2000" panose-1="0 0 0 0 0 0 0 0 0 0" ascent="2132" descent="-600" alphabetic="0" />
      <glyph unicode=" " glyph-name="gid231" horiz-adv-x="400" />
      <glyph unicode="!" glyph-name="gid180" horiz-adv-x="627" d="M240,0V165H387V0H240Zm0,360V1440H387V360H240Z" />
      <glyph unicode="&quot;" glyph-name="gid224" horiz-adv-x="784" d="M120,1080v360H267V1080H120Zm317,0v360H584V1080H437Z" />
      <glyph unicode="#" glyph-name="gid187" horiz-adv-x="1841" d="M411,1L527,434H120l37,141H565l85,321H243l38,141H689l107,403H943L834,1037h335l107,403h147l-109-403h407l-38-141H1277l-87-321h407l-38-141H1153L1037,1H891l115,433H673L557,1H411ZM711,575h334l85,321H797L711,575Z" />
      <glyph unicode="$" glyph-name="gid237" horiz-adv-x="1178" d="M520-197V31H667V-197H520Zm0,1607v229H667V1410H520ZM611-30Q468-30 353.5,21t-189,144T67,385l143,25q33-138 142.5-218.5T617,111q157,0 254,76.5T968,388q0,92-54,147T731,629L411,729q-290,91-290,344q0,118 58.5,207.5t163,139.5T587,1469q137,0 245.5-51.5T1011,1272t93-223l-147-28q-14,92-64.5,161T763,1289.5T587,1329q-92,0-164-32t-113.5-88.5T268,1079q0-80 57.5-135.5T508,850l275-83q174-52 251-140t77-235q0-127-62-222T874.5,22.5T611-30Z" />
      <glyph unicode="%" glyph-name="gid254" horiz-adv-x="1803" d="M280,0L180,100L1523,1440l100-99L280,0ZM1323-30q-99,0-180.5,48.5T1012,148.5T963,330q0,98 50,180t132,131t178,49q99,0 181-48.5t130.5-130T1683,330t-48.5-181.5T1504,18.5T1323-30Zm0,133q61,0 113,31t83,82.5T1550,330t-31,113.5T1436,526t-113,31q-62,0-113.5-31t-83-82.5T1095,330t31.5-113.5t83-82.5T1323,103ZM480,750q-99,0-181,48.5t-130.5,130T120,1110q0,98 50,180t132,131t178,49q99,0 180.5-48.5t130.5-130T840,1110T791,928.5t-130.5-130T480,750Zm0,133q62,0 113.5,31T676,996.5T707,1110t-31,113.5T593.5,1306T480,1337t-113.5-31T284,1223.5T253,1110t31-113.5T366.5,914T480,883Z" />
      <glyph unicode="&amp;" glyph-name="gid260" horiz-adv-x="1303" d="M603-30Q483-30 380.5,4.5T209,113q-54,58-80,129.5T100,394q-1,76 22,151t72,133q29,36 65.5,60T335,779q-75,78-114.5,144.5T181,1087q0,111 56.5,203T394,1427q51,23 104.5,32.5T605,1469q81,0 159-22.5T897,1376q37-29 65-68.5t44-82.5l-142-42q-21,54-70,91q-38,30-87.5,42T607,1328q-85,0-154-33q-60-30-90-83t-30-124q0-61 20-100.5T411,902q22-24 49-48.5T515,803L971,380q4,28 5,54.5t1,52.5l-1,211h139V477q0-79-6-129t-16-83L1279,94L1182-9L1023,141q-33-43-83.5-77T839,11Q785-13 725-21.5T603-30Zm2,142q57,0 103,7t88,29q53,28 79,52.5T917,244L449,672q-42-13-78.5-35.5T308,583q-29-36-43-83t-14-99q2-55 18.5-101.5T319,217q47-55 126-80t160-25Z" />
      <glyph unicode="&apos;" glyph-name="gid225" horiz-adv-x="427" d="M120,1080v360H267V1080H120Z" />
      <glyph unicode="(" glyph-name="gid194" horiz-adv-x="852" d="M657-359Q539-224 454.5-57.5T324.5,292T280,660q-1,185 44.5,368.5t130,349.5T657,1679l108-84q-116-139-194-291.5T454.5,989T415,660q1-165 40.5-328.5t117-317T765-273L657-359Z" />
      <glyph unicode=")" glyph-name="gid195" horiz-adv-x="852" d="M195-359L87-273Q202-139 279.5,14.5t117,317T437,660q-1,167-39.5,329T281,1303.5T87,1595l108,84q118-135 202.5-301t130-349.5T572,660q1-185-44.5-368T397.5-57.5T195-359Z" />
      <glyph unicode="*" glyph-name="gid186" horiz-adv-x="873" d="M259,779L149,859l158,204L60,1138l42,129l243-86l-6,259H475l-6-259l242,86l42-129l-246-75L663,859L553,779L407,991L259,779Z" />
      <glyph unicode="+" glyph-name="gid242" horiz-adv-x="1153" d="M514,263V657H120V783H514v394H640V783h393V657H640V263H514Z" />
      <glyph unicode="," glyph-name="gid176" horiz-adv-x="531" d="M120-209l9,73q40-3 58,16t22,51t2,69H120V211H291V-40q0-92-46.5-138T120-209Z" />
      <glyph unicode="-" glyph-name="gid206" horiz-adv-x="840" d="M120,567V693H720V567H120Z" />
      <glyph unicode="." glyph-name="gid175" horiz-adv-x="507" d="M168,0V171H339V0H168Z" />
      <glyph unicode="/" glyph-name="gid188" horiz-adv-x="775" d="M504,1440H655L271,0H120L504,1440Z" />
      <glyph unicode="0" glyph-name="gid131" horiz-adv-x="1220" d="M610-30Q477-30 370.5,32T202,200.5T140,440v560q0,133 62,239.5T370.5,1408T610,1470t239.5-62T1018,1239.5t62-239.5V440q0-133-62-239.5T849.5,32T610-30Zm0,142q89,0 162,43.5T888,272t43,161v574q0,89-43,162T772,1285.5T610,1329t-162-43.5T332,1169t-43-162V433q0-88 43-161T448,155.5T610,112Z" />
      <glyph unicode="1" glyph-name="gid132" horiz-adv-x="780" d="M391,0V1276L120,1113v165l271,162H540V0H391Z" />
      <glyph unicode="2" glyph-name="gid133" horiz-adv-x="1140" d="M100,1l1,134L752,723q84,76 111.5,144.5T891,1011q0,89-42,161T736,1286.5T577,1329q-92,0-164-44T299.5,1169T259,1012H109q0,131 62,235t168,163.5T579,1470q131,0 235.5-61.5t165-166T1040,1010q0-90-21.5-158.5t-67-127T836,604L258,82l-23,60h805V1H100Z" />
      <glyph unicode="3" glyph-name="gid134" horiz-adv-x="1106" d="M527-29Q420-29 330,9T175,117.5T80,286l140,42q36-107 118.5-162T525,113q96,2 165.5,43T797,270t37,169q0,147-85.5,236.5T523,765q-39,0-82-10.5T361,725L287,842l560,517l24-60H137v141H969V1297L481,831l-2,58q150,19 264-34T921.5,693.5T986,439q0-138-59.5-243.5T763,30.5T527-29Z" />
      <glyph unicode="4" glyph-name="gid135" horiz-adv-x="1179" d="M774,0V279H100V419L582,1440H747L265,419H774V839H922V419h157V279H922V0H774Z" />
      <glyph unicode="5" glyph-name="gid136" horiz-adv-x="1155" d="M565-30Q453-30 358,16T196,143T100,329l141,38q19-78 69-134.5T427.5,145T569,114q96,0 172.5,46.5T863,284t45,169q0,95-47,171.5T737,746T569,791q-102,0-176-44.5T275,635L141,691l44,749H954V1299H250l73,69L284,729l-37,49q62,71 150,111t185,40q133,0 240-63.5T992,694t63-241q0-132-67-241.5T810,36T565-30Z" />
      <glyph unicode="6" glyph-name="gid137" horiz-adv-x="1241" d="M627-30Q492-30 381.5,35.5t-176,178T140,467V966q0,145 65,258.5t177.5,179T638,1469q123,0 228.5-54T1039,1264l-113-93q-46,72-122,115t-166,43q-101,0-180-49T334,1151.5T289,979V665l-37,42q63,99 165.5,160T641,928q134,0 241-63.5T1052,693t63-242q0-133-66.5-242T871.5,35T627-30Zm0,143q94,0 171.5,45t123,122T967,451T921.5,622.5T799,745.5T628,791T457,745.5t-122.5-123T289,451q0-93 45-170T456,158.5T627,113Z" />
      <glyph unicode="7" glyph-name="gid138" horiz-adv-x="1004" d="M217,0L747,1297H80v143H904V1297L375,0H217Z" />
      <glyph unicode="8" glyph-name="gid139" horiz-adv-x="1161" d="M579-30Q444-30 340.5,24t-162,151.5T120,404q0,134 65,238.5T383,801l-2-58Q270,784 212,877t-58,206q0,120 55,206.5T359.5,1423T579,1470t220-47t151-133.5t55-206.5q0-113-55.5-205T780,743l-5,58q133-53 199.5-158T1041,404q0-131-59-228.5T819,24T579-30Zm0,141q136,0 221,75.5T885,404q0,144-84,218.5T579,697T358,622.5T275,404q0-142 84-217.5T579,111Zm0,728q120,0 195,61.5T849,1083t-75,181.5T579,1325t-194.5-60.5T310,1083t74.5-182.5T579,839Z" />
      <glyph unicode="9" glyph-name="gid140" horiz-adv-x="1241" d="M614,1469q136,0 246.5-65.5t175.5-178T1101,973V473q0-144-65-258T858.5,35.5T603-30Q480-30 375.5,24.5T203,175l112,93q46-71 122.5-114T603,111q102,0 180.5,48.5t124,128T953,460V774l36-42q-62-99-164.5-160T600,511q-133,0-240.5,64t-170,172T127,988t66,242.5t177,174T614,1469Zm0-142q-94,0-171-45.5T320.5,1159T275,988t45-171T442,694.5T613,649t171.5,45.5T907.5,817T953,988q0,93-45.5,170T785,1281t-171,46Z" />
      <glyph unicode=":" glyph-name="gid177" horiz-adv-x="598" d="M220,160V331H391V160H220Zm1,589V920H392V749H221Z" />
      <glyph unicode=";" glyph-name="gid178" horiz-adv-x="611" d="M220-209l9,73q40-3 58,16t22,51t2,69H220V211H391V-40q0-92-46.5-138T220-209Zm0,1118v171H391V909H220Z" />
      <glyph unicode="&lt;" glyph-name="gid248" horiz-adv-x="1229" d="M749,161L280,630l469,469l94-92L461,630L843,253l-94-92Z" />
      <glyph unicode="=" glyph-name="gid246" horiz-adv-x="1500" d="M240,827V953H1260V827H240Zm0-340V613H1260V487H240Z" />
      <glyph unicode="&gt;" glyph-name="gid247" horiz-adv-x="1229" d="M479,161l-93,92L767,630L386,1007l93,92L949,630L479,161Z" />
      <glyph unicode="?" glyph-name="gid182" horiz-adv-x="1047" d="M422,393q0,78 7.5,137.5T469,650q30,57 74,94.5t92,71T726,895q39,45 52,91t13,97t-12.5,91T740,1243q-40,49-98,67t-121,18q-62,0-115.5-17.5T317,1257q-34-32-49.5-77T252,1085H100q4,79 34.5,154.5T224,1366q59,54 137.5,78.5T520,1469q98,0 186-29.5T854,1341q48-51 70.5-116.5T947,1085q0-83-31-156T829,799q-34-37-77-68.5t-82.5-65T609,593q-26-48-28.5-91T578,393H422ZM423,0V196H578V0H423Z" />
      <glyph unicode="@" glyph-name="gid259" horiz-adv-x="1807" d="M907-210q-160,0-296,55.5T374,0.5T216.5,235T160,529q0,169 55,308.5t155.5,241T609,1235t303,55q189,0 330.5-60.5t233.5-164T1610.5,833T1646,566q-10-189-89.5-285T1335,185q-92,0-160,43t-91,121l48-5q-35-71-104.5-103T883,209q-91,0-159.5,39.5T616.5,358T578,520q0,96 40,166T728,794t158,38q65,0 134.5-27T1127,717l-39-44V804h106l-1-325q0-74 34.5-120.5T1342,312q54,0 90.5,30t56.5,84.5T1512,555q6,152-39,266t-128,190.5T1152.5,1126T919,1164q-150,0-266.5-50t-197-138T334,773.5T295,530q1-133 48.5-245.5T475,89.5t196-128T914-84q85,0 170.5,22T1237-1l47-112q-87-49-183-73T907-210ZM891,337q78,0 127.5,45T1068,521q0,92-47.5,139T894,707q-90,0-137.5-49T709,521q0-89 49-136.5T891,337Z" />
      <glyph unicode="A" glyph-name="gid1" horiz-adv-x="1267" d="M40,0L536,1440H731L1227,0H1074L603,1358h58L193,0H40ZM261,349V487h744V349H261Z" />
      <glyph unicode="B" glyph-name="gid10" horiz-adv-x="1226" d="M140,0V1440H696q121,0 211-50t140-134.5t50-186.5q0-116-62-206.5T869,737l-2,49q140-40 220-140t80-242q0-125-53-215.5T965,49T742,0H140ZM288,141H706q88,0 158,31.5T974.5,262T1015,402q0,80-37,144T877.5,648.5T733,687H288V141Zm0,685H695q69,0 126,31.5T911.5,944T945,1071q0,102-70.5,166T695,1301H288V826Z" />
      <glyph unicode="C" glyph-name="gid11" horiz-adv-x="1431" d="M723-30Q508-30 360,65.5T136,330T60,720t76,390t224,264.5T723,1470q251,0 410-128.5T1351,997l-150-39q-46,171-165,271T723,1329q-169,0-281-77T273.5,1037.5T215,720q-1-180 55.5-317t170-214.5T723,111q194,0 313,100.5T1201,482l150-39q-59-216-218-344.5T723-30Z" />
      <glyph unicode="D" glyph-name="gid13" horiz-adv-x="1343" d="M140,0V1440H577q23,0 78.5-1t106.5-8q164-23 274-122t165-252t55-337t-55-337T1036,131T762,9Q712,3 655,1.5T577,0H140ZM292,141H577q41,0 88.5,2.5T747,153q126,22 203.5,102T1064,455.5T1100,720q0,145-36,266T950,1186T747,1287q-34,7-82.5,9.5T577,1299H292V141Z" />
      <glyph unicode="E" glyph-name="gid15" horiz-adv-x="1140" d="M140,0V1440h900V1299H287V801H920V660H287V141h753V0H140Z" />
      <glyph unicode="F" glyph-name="gid20" horiz-adv-x="1007" d="M140,0V1440H967V1293H287V793H847V647H287V0H140Z" />
      <glyph unicode="G" glyph-name="gid21" horiz-adv-x="1410" d="M717-30Q565-30 443,23T235.5,174T105,410.5T60,720q0,226 78.5,394.5T364,1376t353,93q230,0 374.5-107.5T1293,1073l-148-36q-47,132-154.5,211T723,1327q-169,1-281-75.5t-168.5-214T216,720t55.5-316.5T441,189.5T723,111q155,0 256,60t153.5,172T1192,608H860V734h486q3-23 3.5-48.5T1350,649q0-195-70-348.5t-210.5-242T717-30Z" />
      <glyph unicode="H" glyph-name="gid22" horiz-adv-x="1369" d="M140,0V1440H287V791h796v649h146V0H1083V650H287V0H140Z" />
      <glyph unicode="I" glyph-name="gid23" horiz-adv-x="467" d="M160,0V1440H307V0H160Z" />
      <glyph unicode="J" glyph-name="gid28" horiz-adv-x="927" d="M386-29Q242-29 139,51T0,265l147,35q18-79 83.5-133.5T385,112q56,0 113.5,27T589,228q22,43 25.5,93.5T618,443v997H766V443q0-60-1-108.5t-10.5-93T719,152Q667,61 579.5,16T386-29Z" />
      <glyph unicode="K" glyph-name="gid29" horiz-adv-x="1187" d="M140,0V1440H287V760l657,680h188L461,745L1187,0H995L287,720V0H140Z" />
      <glyph unicode="L" glyph-name="gid30" horiz-adv-x="1021" d="M160,0V1440H307V141H991V0H160Z" />
      <glyph unicode="M" glyph-name="gid31" horiz-adv-x="1681" d="M140,0V1440H275L841,229l563,1211h137V1H1401V1112L888,0H793L281,1112V0H140Z" />
      <glyph unicode="N" glyph-name="gid32" horiz-adv-x="1369" d="M140,0V1440H288L1081,260V1440h148V0H1081L288,1181V0H140Z" />
      <glyph unicode="O" glyph-name="gid34" horiz-adv-x="1447" d="M723-30Q508-30 360,65.5T136,330T60,720t76,390t224,264.5T723,1470q216,0 363.5-95.5t224-264.5T1387,720t-76.5-390t-224-264.5T723-30Zm0,141q169,0 282,77t169.5,214.5T1231,720t-56.5,317T1005,1251t-282,78q-169,0-281-77T273.5,1037.5T216,720t55.5-316.5T441,189.5T723,111Z" />
      <glyph unicode="P" glyph-name="gid42" horiz-adv-x="1208" d="M140,0V1440H696q21,0 47.5-1.5T797,1432q113-17 191.5-78.5t119-154.5T1148,993q0-112-41-205T987.5,633.5T797,555q-27-4-53.5-6T696,547H287V0H140ZM287,687H692q18,0 42,2t47,7q74,16 121.5,61t71,107T997,993t-23.5,129.5t-71,107.5T781,1291q-23,5-47,6.5t-42,1.5H287V687Z" />
      <glyph unicode="Q" glyph-name="gid44" horiz-adv-x="1447" d="M1271-29L887,353L987,453L1369,71L1271-29ZM723-30Q508-30 360,65.5T136,330T60,720t76,390t224,264.5T723,1470q216,0 363.5-95.5t224-264.5T1387,720t-76.5-390t-224-264.5T723-30Zm0,141q169,0 282,77t169.5,214.5T1231,720t-56.5,317T1005,1251t-282,78q-169,0-281-77T273.5,1037.5T216,720t55.5-316.5T441,189.5T723,111Z" />
      <glyph unicode="R" glyph-name="gid45" horiz-adv-x="1261" d="M140,0V1440H696q21,0 47.5-1.5T797,1432q113-17 191.5-78.5t119-154.5T1148,993q0-163-86-283T816,559l-51-12H287V0H140Zm872,0L728,586l141,54L1181,0H1012ZM287,687H692q18,0 42,2t47,7q74,16 121.5,61t71,107T997,993t-23.5,129.5t-71,107.5T781,1291q-23,5-47,6.5t-42,1.5H287V687Z" />
      <glyph unicode="S" glyph-name="gid46" horiz-adv-x="1233" d="M640-30Q489-30 368.5,20.5T169.5,164T67,385l150,25q36-140 152-219.5T646,111q106,0 190,33.5T968,240t48,147q0,56-20,95.5T943,548t-72,43.5T795,620L430,729q-66,19-122,48.5t-97.5,71T146,946t-23,128q0,122 64,211t175,137t253,47q144,0 257.5-51T1060,1272.5t98-223.5l-154-28q-15,94-69,163T797.5,1290.5T614,1329q-97,0-172.5-32.5T322,1208t-44-128q0-73 40.5-117t100-69T534,853l282-83q44-12 103.5-34.5t116-64T1129,563t37-170q0-100-39.5-179t-111-133T848.5-1.5T640-30Z" />
      <glyph unicode="T" glyph-name="gid47" horiz-adv-x="1193" d="M523,0V1299H20v141H1173V1299H670V0H523Z" />
      <glyph unicode="U" glyph-name="gid48" horiz-adv-x="1404" d="M702-30Q537-30 410.5,38T212,230T140,520v919l148,1V539q0-112 38-193.5t99.5-134T560,134t142-25q70,0 143,25t134,77.5t99,134T1116,539v901h148V520q0-166-72-289.5T993.5,38.5T702-30Z" />
      <glyph unicode="V" glyph-name="gid53" horiz-adv-x="1207" d="M506,0L10,1440H163L602,167l442,1273h153L701,0H506Z" />
      <glyph unicode="W" glyph-name="gid54" horiz-adv-x="1871" d="M449,0L33,1440H186L523,251L858,1439l154,1L1349,251l335,1189h154L1423,0H1275L935,1181L597,0H449Z" />
      <glyph unicode="X" glyph-name="gid55" horiz-adv-x="1212" d="M20,0L519,729L33,1440H211L606,852l395,588h179L694,729L1192,0H1014L606,605L199,0H20Z" />
      <glyph unicode="Y" glyph-name="gid56" horiz-adv-x="1112" d="M483,0V603L0,1440H170L557,771l385,669h170L631,603V0H483Z" />
      <glyph unicode="Z" glyph-name="gid58" horiz-adv-x="1228" d="M100,0V31L887,1299H120v141H1128v-34L345,140h776V0H100Z" />
      <glyph unicode="[" glyph-name="gid198" horiz-adv-x="814" d="M280-436V1776H654V1640H416V-300H654V-436H280Z" />
      <glyph unicode="\" glyph-name="gid189" horiz-adv-x="775" d="M271,1440L655,0H504L120,1440H271Z" />
      <glyph unicode="]" glyph-name="gid199" horiz-adv-x="814" d="M534-436H160v136H398V1640H160v136H534V-436Z" />
      <glyph unicode="^" glyph-name="gid252" horiz-adv-x="1339" d="M211,1002l468,470l471-469l-92-93L679,1291L303,909l-92,93Z" />
      <glyph unicode="_" glyph-name="gid210" horiz-adv-x="1320" d="M0-213V-87H1320V-213H0Z" />
      <glyph unicode="`" glyph-name="gid272" horiz-adv-x="979" d="M463,1610L343,1920H469l120-310H463Z" />
      <glyph unicode="a" glyph-name="gid59" horiz-adv-x="1111" d="M449-30Q327-30 244.5,14T121,131T80,290q0,88 35.5,150.5t97,102.5T355,604q82,20 181.5,35.5t195,27T899,689l-52-32q3,160-62,237T559,971q-111,0-187.5-50T264,763L121,805q37,145 149,225t291,80q148,0 251.5-55.5T959,894q20-47 26-105t6-118V0H860V271l38-16Q843,116 727,43T449-30ZM466,97q103,0 180,37T770,235.5T831,381q12,52 13,114.5t1,93.5l56-29q-75-10-162.5-20t-172-23T414,486q-46-13-89-36.5T254.5,387T227,290q0-47 23.5-91t76-73T466,97Z" />
      <glyph unicode="b" glyph-name="gid67" horiz-adv-x="1184" d="M625-30Q476-30 373,45.5t-156,205T164,541q0,164 53.5,292.5T375,1036t256,74q148,0 254-75t162.5-204T1104,541q0-162-57-291T883,45.5T625-30ZM139,0V1440H287V813H271V0H139ZM610,107q113,0 188,57T910.5,319.5T948,541q0,122-37,220T798.5,916T607,973q-113,0-187.5-55T308,765.5T271,541q0-125 37-223.5T420,163t190-56Z" />
      <glyph unicode="c" glyph-name="gid68" horiz-adv-x="1107" d="M588-30Q425-30 312,43T140.5,244.5T80,540q2,170 62,298.5t173,200T589,1110q164,0 285.5-80T1041,811L897,765q-38,97-120.5,150.5T588,969q-119,0-197-54.5T275,763T236,540q2-194 90-311.5T588,111q110,0 187.5,50.5T893,309l148-44Q981,121 865,45.5T588-30Z" />
      <glyph unicode="d" glyph-name="gid70" horiz-adv-x="1185" d="M559-30Q408-30 301,45.5T137,250T80,541q0,161 56.5,290T299,1035t254,75q152,0 256-74T966.5,833.5T1020,541q0-161-53-290.5T811,45.5T559-30Zm15,137q115,0 190,56T876,317.5T913,541q0,127-37,224.5T764.5,918T577,973q-116,0-192-57T272.5,761T236,541q0-123 37.5-221.5T386,164t188-57ZM913,0V813H897v627h148V0H913Z" />
      <glyph unicode="e" glyph-name="gid72" horiz-adv-x="1169" d="M597-30Q439-30 323.5,40T144,237T80,535q0,177 63,306t177.5,199T591,1110q160,0 273-73.5T1035,826t53-327H938v52q-4,210-90.5,317T595,975q-174,0-266.5-113T236,540q0-204 92.5-316.5T591,111q116,0 202.5,53.5T930,319l137-53Q1003,125 878.5,47.5T597-30ZM184,499V622h825V499H184Z" />
      <glyph unicode="f" glyph-name="gid77" horiz-adv-x="709" d="M247,0V1160q0,42 4.5,83t18.5,78.5t44,69.5q33,36 72,52.5t81.5,21.5t83.5,5H689V1346H561q-84,0-125.5-41T394,1176V0H247ZM60,954v126H689V954H60Z" />
      <glyph unicode="g" glyph-name="gid78" horiz-adv-x="1184" d="M569-510q-83,0-163.5,24.5T257-408.5T143-272l133,74q45-90 126.5-129.5T569-367q117,0 189.5,43.5T864-195T896,17V305h17v775h131V15q0-46-2.5-88.5T1032-157q-19-121-78.5-199t-156-116T569-510ZM559-30Q408-30 301,45.5T137,250T80,541q0,161 56.5,290T299,1035t254,75q152,0 256-74T966.5,833.5T1020,541q0-161-53-290.5T811,45.5T559-30Zm15,137q115,0 190,56T876,317.5T913,541q0,127-37,224.5T764.5,918T577,973q-116,0-192-57T272.5,761T236,541q0-123 37.5-221.5T386,164t188-57Z" />
      <glyph unicode="h" glyph-name="gid79" horiz-adv-x="1188" d="M920,0V551q0,90-17,165.5t-54.5,132t-97,87.5T607,967q-78,0-137.5-27t-100-77.5T308,740T287,576L183,599q0,166 58,279t160,171t234,58q97,0 169.5-30t123-81T1009,879.5t45-139T1068,594V0H920ZM139,0V1440H272V627h15V0H139Z" />
      <glyph unicode="i" glyph-name="gid80" horiz-adv-x="467" d="M160,1285v165H307V1285H160ZM160,0V1080H307V0H160Z" />
      <glyph unicode="j" glyph-name="gid87" horiz-adv-x="501" d="M-20-480v142H41q73,0 116.5,37.5T201-175V1080H347V-212q0-135-64.5-201.5T85-480H-20ZM201,1285v165H347V1285H201Z" />
      <glyph unicode="k" glyph-name="gid88" horiz-adv-x="992" d="M139,0l1,1440H288V560l482,520H966L460,540L1032,0H818L288,520V0H139Z" />
      <glyph unicode="l" glyph-name="gid89" horiz-adv-x="467" d="M160,0V1470H307V0H160Z" />
      <glyph unicode="m" glyph-name="gid90" horiz-adv-x="1696" d="M1428,0l1,709q0,125-69.5,196.5T1183,977q-61,0-119-28t-95.5-90T931,697l-87,25q-3,116 45.5,203t134,135.5T1217,1109q163,0 261-100.5T1576,737L1575,0H1428ZM139,0V1080H271V814h16V0H139ZM785,0l1,699q0,129-68.5,203.5T537,977T356,900.5T287,697l-88,48q0,104 49,186.5t134,130T575,1109q103,0 183.5-44T885,937t46-204L930,0H785Z" />
      <glyph unicode="n" glyph-name="gid91" horiz-adv-x="1188" d="M920,0V551q0,90-17,165.5t-54.5,132t-97,87.5T607,967q-78,0-137.5-27t-100-77.5T308,740T287,576L183,599q0,166 58,279t160,171t234,58q97,0 169.5-30t123-81T1009,879.5t45-139T1068,594V0H920ZM139,0V1080H272V814h15V0H139Z" />
      <glyph unicode="o" glyph-name="gid93" horiz-adv-x="1183" d="M591-30Q430-30 316,43T141,245T80,541q0,170 62,298t176.5,199.5T591,1110q162,0 276.5-72.5t175-201T1103,541q0-170-61-298.5T866,42T591-30Zm0,141q180,0 268,119.5T947,541q0,196-88.5,312T591,969q-121,0-199.5-54.5t-117-151T236,541q0-195 90-312.5T591,111Z" />
      <glyph unicode="p" glyph-name="gid101" horiz-adv-x="1184" d="M625-30Q476-30 373,45.5t-156,205T164,541q0,164 53.5,292.5T375,1036t256,74q148,0 254-75t162.5-204T1104,541q0-162-57-291T883,45.5T625-30ZM139-480V1080H271V267h16V-480H139ZM610,107q113,0 188,57T910.5,319.5T948,541q0,122-37,220T798.5,916T607,973q-113,0-187.5-55T308,765.5T271,541q0-125 37-223.5T420,163t190-56Z" />
      <glyph unicode="q" glyph-name="gid103" horiz-adv-x="1185" d="M559-30Q408-30 301,45.5T137,250T80,541q0,161 56.5,290T299,1035t254,75q152,0 256-74T966.5,833.5T1020,541q0-161-53-290.5T811,45.5T559-30Zm15,137q115,0 190,56T876,317.5T913,541q0,127-37,224.5T764.5,918T577,973q-116,0-192-57T272.5,761T236,541q0-123 37.5-221.5T386,164t188-57ZM897-480V267h16v813h132V-480H897Z" />
      <glyph unicode="r" glyph-name="gid104" horiz-adv-x="721" d="M140,0V1080H272V820l-26,34q18,48 47,88.5t63,66.5q42,37 98,56.5t113,23t104-8.5V942q-59,15-129,7T413,893q-54-42-81-100.5t-36-124T287,539V0H140Z" />
      <glyph unicode="s" glyph-name="gid105" horiz-adv-x="1050" d="M543-29Q353-29 230.5,53T80,281l150,25q24-92 109.5-146.5T551,105q123,0 194,51.5T816,297q0,50-22.5,81.5T702,437T496,501q-147,40-230,80T148,673.5T113,802q0,92 52,161.5t144,108T523,1110t218.5-39.5T897,960t70-165L817,768q-15,95-94.5,150.5T521,976q-115,3-187-43.5T262,809q0-43 26-73.5T382.5,678T578,619q149-38 234-80t121-99t36-141q0-153-113.5-240.5T543-29Z" />
      <glyph unicode="t" glyph-name="gid107" horiz-adv-x="801" d="M728,0Q637-19 548.5-15t-158,38T285,129q-29,60-31.5,121.5T251,391v989H397V397q0-68 1.5-113.5T419,203q36-67 114.5-80T728,129V0ZM20,954v126H728V954H20Z" />
      <glyph unicode="u" glyph-name="gid108" horiz-adv-x="1188" d="M553-27Q456-27 383.5,3t-123,81T179,200.5t-45,139T120,486v594H268V529q0-89 17-165t54.5-132.5t97-87.5T581,113q78,0 137.5,27t100,77.5t61.5,123T901,504l104-23q0-166-58-279T787,31T553-27ZM916,0V266H901v814h147V0H916Z" />
      <glyph unicode="v" glyph-name="gid113" horiz-adv-x="1016" d="M432,0L40,1080H189L508,192l317,888H976L584,0H432Z" />
      <glyph unicode="w" glyph-name="gid114" horiz-adv-x="1535" d="M370,0L40,1081l147-1L443,241l257,839H834l257-839l258,839h146L1165,0H1037L767,860L498,0H370Z" />
      <glyph unicode="x" glyph-name="gid115" horiz-adv-x="1054" d="M20,0L442,546L29,1080H205L528,659l320,421h176L611,546L1034,0H857L528,433L197,0H20Z" />
      <glyph unicode="y" glyph-name="gid116" horiz-adv-x="1055" d="M294-480L503,87l3-168L33,1080H189L577,109H513l358,971h150L441-480H294Z" />
      <glyph unicode="z" glyph-name="gid119" horiz-adv-x="1059" d="M40,0V31L737,943H92v137H979v-34L283,137H941V0H40Z" />
      <glyph unicode="{" glyph-name="gid196" horiz-adv-x="839" d="M633-436q-104,0-171,67T395-199V453q0,31-18,58L292,630q-12,18-12,40t12,40l85,119q18,29 18,58v651q0,104 67,171t171,67H752V1635H639q-42,0-72.5-30T536,1531V887q0-77-45-140l-55-77l55-77q45-63 45-140V-193q0-42 30.5-72T639-295H752V-436H633Z" />
      <glyph unicode="|" glyph-name="gid267" horiz-adv-x="507" d="M180,0V1440H327V0H180Z" />
      <glyph unicode="}" glyph-name="gid197" horiz-adv-x="839" d="M206-436H87v141H199q44,0 74,30t30,72V453q0,77 44,140l56,77l-56,77q-44,63-44,140v644q0,44-30,74t-74,30H87v141H206q104,0 171-67t67-171V887q0-29 18-58l85-119q13-18 13-40t-13-40L462,511q-18-27-18-58V-199q0-103-67-170T206-436Z" />
      <glyph unicode="~" glyph-name="gid250" horiz-adv-x="1324" d="M873,466q-59,0-115.5,24t-109,55.5t-100,56T459,626q-55,0-70.5-43.5T389,489H243q-21,85-2.5,153.5t72,109T448,792q61,0 118-24t109.5-56t100-56T865,632q49,0 68,42t2,98h146q21-83 2.5-152.5t-72-111.5T873,466Z" />
      <glyph unicode="&#xa0;" glyph-name="gid232" horiz-adv-x="400" />
      <glyph unicode="&#xa1;" glyph-name="gid181" horiz-adv-x="627" d="M240,1080H387V915H240v165Zm0-360H387V-360H240V720Z" />
      <glyph unicode="&#xa2;" glyph-name="gid235" horiz-adv-x="1107" d="M531-59V123q-146,13-245.5,88.5T134,410T80,690q2,160 54.5,282.5T287,1169t244,87v184H657V1255q138-15 240.5-92T1041,961L897,915q-38,97-120.5,150.5T588,1119q-119,0-197-54.5T275,913T236,690q2-194 90-311.5T588,261q110,0 187.5,50.5T893,459l148-44Q986,287 888.5,213.5T657,125V-59H531Z" />
      <glyph unicode="&#xa3;" glyph-name="gid239" horiz-adv-x="1142" d="M67,0V141H169q58,0 100,42t42,100v811q0,110 49.5,195t135,133T689,1470q94,0 166.5-41.5t127-121T1075,1115l-134-44q-41,129-101.5,193.5T687,1329q-103,0-165.5-65.5T459,1089V141h563V0H67Zm0,660V801H823V660H67Z" />
      <glyph unicode="&#xa4;" glyph-name="gid236" horiz-adv-x="1283" d="M641,196q-108,0-203,41T271,350.5T158,518T117,722q0,108 41,203t113,167t167,113t203,41q109,0 204-41t167.5-113T1126,925t41-203q0-109-41-204T1012.5,350.5T845,237T641,196ZM160,140L60,240L273,453L373,353L160,140ZM274,987L60,1201l100,99l213-213L274,987Zm849-847L910,353l100,100l213-213L1123,140ZM641,328q109,0 198.5,54T982,525t53,195q0,109-54.5,198t-144,142T641,1113q-108,0-197-53T302,918T249,720q0-106 53-195T444,382t197-54Zm368,659l-99,100l213,213l100-99L1009,987Z" />
      <glyph unicode="&#xa5;" glyph-name="gid240" horiz-adv-x="1112" d="M177,517V643H937V517H177Zm0-292V351H937V225H177ZM483,0V603L0,1440H170L557,771l385,669h170L631,603V0H483Z" />
      <glyph unicode="&#xa6;" glyph-name="gid268" horiz-adv-x="507" d="M180,701v739H327V701H180Zm0-1013V427H327V-312H180Z" />
      <glyph unicode="&#xa7;" glyph-name="gid262" horiz-adv-x="1050" d="M548-309q-99,0-190.5,32t-157,100.5T113,1L263,26q19-72 66.5-116t108-64.5T555-175q63,0 118,22t89,64.5T796,17q0,61-35,94.5t-106,57T476,221q-116,31-202,66.5T140.5,376T93,515q0,98 57.5,161.5T296,767t181,18l4-49q-104-27-171.5-78T242,531q0-58 41-91t112.5-55T558,339q117-30 205-65.5t137-94T949,21q0-108-53.5-181.5T751-271.5T548-309Zm65,555l-2,53q53,3 103,28t82.5,69.5T829,504q0,60-34.5,94T689,655.5T509,708q-115,31-201,66T174.5,863.5T127,1009q0,104 57,172t145.5,102T511,1317q103,0 192-39t147-109.5T920,1002L770,975q-14,77-56.5,122.5T614,1163t-113,20q-61,0-112.5-20T306,1106t-31-88q0-58 42-91.5T430.5,871T591,826q117-31 205-66t137-93t49-157q0-102-49.5-169t-133-92.5T613,246Z" />
      <glyph unicode="&#xa8;" glyph-name="gid271" horiz-adv-x="1021" d="M621,1651v160H781V1651H621Zm-381,0v160H400V1651H240Z" />
      <glyph unicode="&#xa9;" glyph-name="gid263" horiz-adv-x="1607" d="M803-53Q650-53 515,4.5T278,164T118,401T60,690t58,289t160,237t237,159.5T803,1433q155,0 289.5-57.5T1329,1216t160-237t58-289t-58-289T1329,164T1092.5,4.5T803-53Zm9,322q-91,0-163,31T523,399q-52,66-71.5,142T432,693q1,78 21.5,153T523,983q54,67 127,99t168,32q54,0 102-11.5t95-39.5q48-30 85-75t53-104l-123-37q-12,31-34,60t-51,50q-28,20-62.5,29.5T813,996q-58,0-106-23.5T625,907q-34-44-47-100.5T565,694q0-61 14.5-118T625,477q32-44 80.5-67T813,387q78,0 134,38q29,21 48,47t32,58l126-34q-22-57-56-99t-71-68q-45-30-96.5-45T812,269ZM803,90q125,0 233,46.5t190.5,129t129,192T1402,691q0,125-46.5,233t-129,190.5t-190.5,129T803,1290q-124,0-233.5-46.5t-192-129T248.5,924T202,691q0-124 46.5-233.5t129-192t192-129T803,90Z" />
      <glyph unicode="&#xaa;" glyph-name="gid125" horiz-adv-x="630" d="M263,540q-90,0-136.5,48T80,702q0,61 33,100.5T208,862q52,16 126,26.5T482,909l-36-37q4,72-23,106.5T325,1013q-43,0-78.5-19.5T197,929l-97,29q20,70 76,111t149,41q73,0 127-24.5t78-78.5q13-26 16.5-56t3.5-63V555H457V678l16-20q-34-60-85-89T263,540Zm18,86q67,0 105.5,33.5T435,732q9,25 9.5,57t0.5,47l36-14q-74-11-129-19t-94-20q-32-10-53-29t-21-51t23.5-54.5T281,626Z" />
      <glyph unicode="&#xab;" glyph-name="gid220" horiz-adv-x="1071" d="M849,106L503,541L849,975l89-69L647,541L938,175l-89-69Zm-343,0L160,541L506,975l89-69L303,541L595,175l-89-69Z" />
      <glyph unicode="&#xac;" glyph-name="gid251" horiz-adv-x="1200" d="M954,390V637H120V763h960V390H954Z" />
      <glyph unicode="&#xad;" glyph-name="gid207" horiz-adv-x="840" d="M120,567V693H720V567H120Z" />
      <glyph unicode="&#xae;" glyph-name="gid264" horiz-adv-x="1250" d="M625,575q-100,0-188,37.5T282,717T177.5,872T140,1061q0,100 37.5,187.5t104.5,154T437,1507t188,38q101,0 188.5-38T968,1402.5t104.5-154T1110,1061q0-101-37.5-189T968,717T813.5,612.5T625,575Zm1,114q102,0 186,50.5T946,874t50,187q0,102-50,186T812,1381t-186,50q-103,0-187-50T305,1247t-50-186q0-103 50-187T439,739.5T626,689ZM462,831v465H665q65,0 109-43.5T819,1145q0-41-22-78.5T733,1009l88-178H733L653,994H540V831H462Zm78,236H665q30,0 52,22.5t22,55.5q0,35-22.5,56T665,1222H540V1067Z" />
      <glyph unicode="&#xaf;" glyph-name="gid277" horiz-adv-x="981" d="M240,1680v125H741V1680H240Z" />
      <glyph unicode="&#xb0;" glyph-name="gid266" horiz-adv-x="900" d="M420,750q-99,0-181,48.5t-130.5,130T60,1110q0,98 50,180t132,131t178,49q99,0 180.5-48.5t130.5-130T780,1110T731,928.5t-130.5-130T420,750Zm0,133q62,0 113.5,31T616,996.5T647,1110t-31,113.5T533.5,1306T420,1337t-113.5-31T224,1223.5T193,1110t31-113.5T306.5,914T420,883Z" />
      <glyph unicode="&#xb1;" glyph-name="gid249" horiz-adv-x="1200" d="M537,440V697H120V823H537v257H663V823h417V697H663V440H537ZM120,157V283h960V157H120Z" />
      <glyph unicode="&#xb2;" glyph-name="gid163" horiz-adv-x="800" d="M100,540l1,100l400,361q50,45 67,85.5t17,81.5q0,79-51.5,133T404,1355q-54,0-96-26t-66.5-68T219,1170H104q0,85 39,150.5T250,1423t155,37q84,0 150.5-38.5t105.5-105T700,1167q0-59-15.5-101.5t-46-79T562,909L214,594l-21,53H700V540H100Z" />
      <glyph unicode="&#xb3;" glyph-name="gid164" horiz-adv-x="779" d="M365,519q-100,0-178,55T80,724l107,31q21-64 69.5-96.5T365,627q83,1 131.5,53.5T545,815q0,83-50,135.5T363,1003q-23,0-47-6t-47-16l-54,87l352,320l21-54H116v106H649V1333L346,1045l-3,52q95,10 166.5-24.5T620,970.5T659,815q0-87-38.5-153.5T515.5,557T365,519Z" />
      <glyph unicode="&#xb4;" glyph-name="gid273" horiz-adv-x="979" d="M517,1610H391l119,310H636L517,1610Z" />
      <glyph unicode="&#xb5;" glyph-name="gid253" horiz-adv-x="1207" d="M139-480V1080H287V529q0-89 17-165t55-132.5T456.5,144T601,113q77,0 137,27t100,77.5t61,123T920,504v576h147V0H935V153Q876,63 781.5,18T572-27Q473-27 397,9T271,112V-480H139Z" />
      <glyph unicode="&#xb6;" glyph-name="gid261" horiz-adv-x="1269" d="M688-282V547H599q-16,0-43,1.5T497,555q-111,17-189.5,78.5T188,788T147,993t40.5,205t119,155T497,1432q32,5 58.5,6.5T599,1440H835V-282H688Zm288,0V1440h147V-282H976Z" />
      <glyph unicode="&#xb7;" glyph-name="gid184" horiz-adv-x="453" d="M229,523q-45,0-77,30.5T120,630t32,76.5T229,737q43,0 73.5-30.5T333,630t-30.5-76.5T229,523Z" />
      <glyph unicode="&#xb8;" glyph-name="gid278" horiz-adv-x="794" d="M367-480q-36,0-67.5,9T240-449l38,102q46-18 77-18q39,0 60.5,24.5T437-287q0,46-41,66.5T304-185L378,21H487L436-119q54-24 87.5-65.5T557-291q0-81-56.5-135T367-480Z" />
      <glyph unicode="&#xb9;" glyph-name="gid162" horiz-adv-x="642" d="M290,540v777L120,1214v124l170,102H402V540H290Z" />
      <glyph unicode="&#xba;" glyph-name="gid126" horiz-adv-x="690" d="M344,540q-121,0-192.5,80T80,826q0,127 73,205.5T344,1110q122,0 194-79.5T610,826q0-127-72-206.5T344,540Zm0,99q78,0 116,52t38,135q0,84-38.5,135T344,1012q-79,0-116-51.5T191,826q0-85 38.5-136T344,639Z" />
      <glyph unicode="&#xbb;" glyph-name="gid221" horiz-adv-x="1071" d="M222,106l-89,69L425,541L133,906l89,69L568,541L222,106Zm343,0l-88,69L768,541L477,906l88,69L911,541L565,106Z" />
      <glyph unicode="&#xbc;" glyph-name="gid173" horiz-adv-x="1947" d="M290,540v777L120,1214v124l170,102H402V540H290ZM1501,0V165H1087V272l297,628h127L1213,272h288V525h112V272h94V165h-94V0H1501ZM381,0L280,78L1331,1445l99-78L381,0Z" />
      <glyph unicode="&#xbd;" glyph-name="gid172" horiz-adv-x="1868" d="M290,540v777L120,1214v124l170,102H402V540H290ZM1168,0l2,100l399,361q50,45 67.5,85.5T1654,628q0,79-52,133t-130,54q-53,0-95.5-26T1310,721t-23-91H1172q0,85 39.5,150.5T1319,883t155,37q84,0 150.5-38.5t105-105T1768,627q0-59-15-101.5t-46-79T1630,369L1282,54l-20,53h506V0H1168ZM381,0L280,78L1331,1445l99-78L381,0Z" />
      <glyph unicode="&#xbe;" glyph-name="gid174" horiz-adv-x="1959" d="M365,519q-100,0-178,55T80,724l107,31q21-64 69.5-96.5T365,627q83,1 131.5,53.5T545,815q0,83-50,135.5T363,1003q-23,0-47-6t-47-16l-54,87l352,320l21-54H116v106H649V1333L346,1045l-3,52q95,10 166.5-24.5T620,970.5T659,815q0-87-38.5-153.5T515.5,557T365,519ZM1633,0V165H1219V272l297,628h127L1345,272h288V525h112V272h94V165h-94V0H1633ZM518,0L417,78L1468,1445l99-78L518,0Z" />
      <glyph unicode="&#xbf;" glyph-name="gid183" horiz-adv-x="1047" d="M625,687q0-78-7-137.5T578,430q-30-57-73.5-94.5t-92-71T321,185q-38-44-51.5-90.5T256-3q0-50 13-90t38-70q40-48 98.5-66.5T526-248q63,0 117,17.5T731-177q35,33 50,78T795-5H947q-4-79-34-154.5T823-286q-59-53-137-78T527-389q-98,0-186,30T193-261q-47,52-70,117.5T100-5q0,83 31.5,156.5T218,281q34,37 77.5,69T378,415t61,72q27,48 28.5,91.5T469,687H625Zm0,393V884H469v196H625Z" />
      <glyph unicode="&#xc0;" glyph-name="gid6" horiz-adv-x="1267" d="M557,1610L437,1920H563l120-310H557ZM1227,0H1074L607,1358h57L193,0H40L536,1440H731L1227,0ZM1006,349H262V487h744V349Z" />
      <glyph unicode="&#xc1;" glyph-name="gid2" horiz-adv-x="1267" d="M711,1610H585l119,310H830L711,1610ZM40,0L536,1440H731L1227,0H1074L603,1358h58L193,0H40ZM261,349V487h744V349H261Z" />
      <glyph unicode="&#xc2;" glyph-name="gid4" horiz-adv-x="1267" d="M336,1610l229,270H701l230-270H781L633,1783L486,1610H336ZM40,0L536,1440H731L1227,0H1074L603,1358h58L193,0H40ZM261,349V487h744V349H261Z" />
      <glyph unicode="&#xc3;" glyph-name="gid8" horiz-adv-x="1267" d="M784,1662q-42,0-82,17t-77.5,39.5t-71,39.5T490,1775q-39,0-49.5-30.5T441,1679H337q-23,89 17.5,151.5T483,1893q43,0 83-17t77.5-39.5t71-39.5t63.5-17q35,0 48.5,30t0.5,69H931q23-88-17-152.5T784,1662ZM40,0L536,1440H731L1227,0H1074L603,1358h58L193,0H40ZM261,349V487h744V349H261Z" />
      <glyph unicode="&#xc4;" glyph-name="gid5" horiz-adv-x="1267" d="M745,1651v160H905V1651H745Zm-381,0v160H524V1651H364ZM40,0L536,1440H731L1227,0H1074L603,1358h58L193,0H40ZM261,349V487h744V349H261Z" />
      <glyph unicode="&#xc5;" glyph-name="gid7" horiz-adv-x="1267" d="M635,1557q-60,0-110,29.5t-80,79T415,1776q0,60 30,110t80,79.5T635,1995q61,0 110.5-29.5t79-79.5T854,1776q0-61-29.5-110.5t-79-79T635,1557Zm0,109q46,0 78,32.5t32,77.5q0,46-32,78t-78,32q-45,0-77.5-32T525,1776q0-45 32.5-77.5T635,1666ZM40,0L536,1440H731L1227,0H1074L603,1358h58L193,0H40ZM261,349V487h744V349H261Z" />
      <glyph unicode="&#xc6;" glyph-name="gid9" horiz-adv-x="1837" d="M40,0L536,1440H893V1299H578l81,57L193,0H40ZM261,349V487H939V349H261ZM837,0V1440h900V1299H983V801h634V660H983V141h754V0H837Z" />
      <glyph unicode="&#xc7;" glyph-name="gid12" horiz-adv-x="1431" d="M709-480q-36,0-68,9t-60,22l38,102q47-18 78-18q39,0 60,24.5T778-287q0,46-41,66.5T645-185L719,21H828L777-119q54-24 87.5-65.5T898-291q0-81-56-135T709-480ZM723-30Q508-30 360,65.5T136,330T60,720t76,390t224,264.5T723,1470q251,0 410-128.5T1351,997l-150-39q-46,171-165,271T723,1329q-169,0-281-77T273.5,1037.5T215,720q-1-180 55.5-317t170-214.5T723,111q194,0 313,100.5T1201,482l150-39q-59-216-218-344.5T723-30Z" />
      <glyph unicode="&#xc8;" glyph-name="gid19" horiz-adv-x="1140" d="M558,1610L439,1920H565l119-310H558ZM140,0V1440h900V1299H287V801H920V660H287V141h753V0H140Z" />
      <glyph unicode="&#xc9;" glyph-name="gid16" horiz-adv-x="1140" d="M677,1610H551l119,310H796L677,1610ZM140,0V1440h900V1299H287V801H920V660H287V141h753V0H140Z" />
      <glyph unicode="&#xca;" glyph-name="gid17" horiz-adv-x="1140" d="M281,1610l230,270H647l229-270H726L579,1783L431,1610H281ZM140,0V1440h900V1299H287V801H920V660H287V141h753V0H140Z" />
      <glyph unicode="&#xcb;" glyph-name="gid18" horiz-adv-x="1140" d="M680,1651v160H840V1651H680Zm-381,0v160H459V1651H299ZM140,0V1440h900V1299H287V801H920V660H287V141h753V0H140Z" />
      <glyph unicode="&#xcc;" glyph-name="gid27" horiz-adv-x="467" d="M168,1610L48,1920H174l120-310H168ZM160,0V1440H307V0H160Z" />
      <glyph unicode="&#xcd;" glyph-name="gid24" horiz-adv-x="467" d="M299,1610H173l119,310H418L299,1610ZM160,0V1440H307V0H160Z" />
      <glyph unicode="&#xce;" glyph-name="gid25" horiz-adv-x="467" d="M-65,1610l229,270H300l229-270H379L232,1783L85,1610H-65ZM160,0V1440H307V0H160Z" />
      <glyph unicode="&#xcf;" glyph-name="gid26" horiz-adv-x="467" d="M344,1651v160H504V1651H344Zm-381,0v160H123V1651H-37ZM160,0V1440H307V0H160Z" />
      <glyph unicode="&#xd0;" glyph-name="gid14" horiz-adv-x="1331" d="M20,657V783H650V657H20ZM128,0V1440H565q23,0 78.5-1t106.5-8q164-23 274-122t165-252t55-337t-55-337T1024,131T750,9Q700,3 643,1.5T565,0H128ZM280,141H565q41,0 88.5,2.5T735,153q126,22 203.5,102T1052,455.5T1088,720q0,145-36,266T938,1186T735,1287q-34,7-82.5,9.5T565,1299H280V141Z" />
      <glyph unicode="&#xd1;" glyph-name="gid33" horiz-adv-x="1369" d="M861,1612q-43,0-82.5,17t-77,39.5T630,1708t-63,17q-39,0-50-30.5t0-65.5H413q-22,89 18,151.5T559,1843q43,0 83.5-17t78-39.5t71-39.5t63.5-17q35,0 48.5,30t0.5,69h104q23-88-17-152.5T861,1612ZM140,0V1440H288L1081,260V1440h148V0H1081L288,1181V0H140Z" />
      <glyph unicode="&#xd2;" glyph-name="gid38" horiz-adv-x="1447" d="M656,1610L537,1920H663l119-310H656ZM723-30Q508-30 360,65.5T136,330T60,720t76,390t224,264.5T723,1470q216,0 363.5-95.5t224-264.5T1387,720t-76.5-390t-224-264.5T723-30Zm0,141q169,0 282,77t169.5,214.5T1231,720t-56.5,317T1005,1251t-282,78q-169,0-281-77T273.5,1037.5T216,720t55.5-316.5T441,189.5T723,111Z" />
      <glyph unicode="&#xd3;" glyph-name="gid35" horiz-adv-x="1447" d="M804,1610H678l119,310H923L804,1610ZM723-30Q508-30 360,65.5T136,330T60,720t76,390t224,264.5T723,1470q216,0 363.5-95.5t224-264.5T1387,720t-76.5-390t-224-264.5T723-30Zm0,141q169,0 282,77t169.5,214.5T1231,720t-56.5,317T1005,1251t-282,78q-169,0-281-77T273.5,1037.5T216,720t55.5-316.5T441,189.5T723,111Z" />
      <glyph unicode="&#xd4;" glyph-name="gid36" horiz-adv-x="1447" d="M425,1610l229,270H790l229-270H869L722,1783L575,1610H425ZM723-30Q508-30 360,65.5T136,330T60,720t76,390t224,264.5T723,1470q216,0 363.5-95.5t224-264.5T1387,720t-76.5-390t-224-264.5T723-30Zm0,141q169,0 282,77t169.5,214.5T1231,720t-56.5,317T1005,1251t-282,78q-169,0-281-77T273.5,1037.5T216,720t55.5-316.5T441,189.5T723,111Z" />
      <glyph unicode="&#xd5;" glyph-name="gid40" horiz-adv-x="1447" d="M723-30Q508-30 360,65.5T136,330T60,720t76,390t224,264.5T723,1470q216,0 363.5-95.5t224-264.5T1387,720t-76.5-390t-224-264.5T723-30Zm0,141q169,0 282,77t169.5,214.5T1231,720t-56.5,317T1005,1251t-282,78q-169,0-281-77T273.5,1037.5T216,720t55.5-316.5T441,189.5T723,111ZM888,1612q-42,0-82,17t-77.5,39.5t-71,39.5T594,1725q-39,0-49.5-30.5T545,1629H441q-23,89 17.5,151.5T587,1843q43,0 83-17t77.5-39.5t71-39.5t63.5-17q35,0 48.5,30t0.5,69h104q23-88-17-152.5T888,1612Z" />
      <glyph unicode="&#xd6;" glyph-name="gid37" horiz-adv-x="1447" d="M834,1651v160H994V1651H834Zm-381,0v160H613V1651H453ZM723-30Q508-30 360,65.5T136,330T60,720t76,390t224,264.5T723,1470q216,0 363.5-95.5t224-264.5T1387,720t-76.5-390t-224-264.5T723-30Zm0,141q169,0 282,77t169.5,214.5T1231,720t-56.5,317T1005,1251t-282,78q-169,0-281-77T273.5,1037.5T216,720t55.5-316.5T441,189.5T723,111Z" />
      <glyph unicode="&#xd7;" glyph-name="gid244" horiz-adv-x="975" d="M767,352L488,631L209,352l-89,90L399,720L120,998l89,89L488,809l278,278l89-89L576,720L855,442l-88-90Z" />
      <glyph unicode="&#xd8;" glyph-name="gid39" horiz-adv-x="1447" d="M143-26L38,69L224,272l26,26l866,941l17,20l185,202l105-94l-200-220l-19-16L339,189l-22-27L143-26Zm580-4Q508-30 360,65.5T136,330T60,720t76,390t224,264.5T723,1470q216,0 363.5-95.5t224-264.5T1387,720t-76.5-390t-224-264.5T723-30Zm0,141q169,0 282,77t169.5,214.5T1231,720t-56.5,317T1005,1251t-282,78q-169,0-281-77T273.5,1037.5T216,720t55.5-316.5T441,189.5T723,111Z" />
      <glyph unicode="&#xd9;" glyph-name="gid52" horiz-adv-x="1404" d="M660,1610L541,1920H667l119-310H660ZM702-30Q537-30 410.5,38T212,230T140,520v919l148,1V539q0-112 38-193.5t99.5-134T560,134t142-25q70,0 143,25t134,77.5t99,134T1116,539v901h148V520q0-166-72-289.5T993.5,38.5T702-30Z" />
      <glyph unicode="&#xda;" glyph-name="gid49" horiz-adv-x="1404" d="M749,1610H623l119,310H868L749,1610ZM702-30Q537-30 410.5,38T212,230T140,520v919l148,1V539q0-112 38-193.5t99.5-134T560,134t142-25q70,0 143,25t134,77.5t99,134T1116,539v901h148V520q0-166-72-289.5T993.5,38.5T702-30Z" />
      <glyph unicode="&#xdb;" glyph-name="gid50" horiz-adv-x="1404" d="M403,1610l230,270H769l229-270H848L701,1783L553,1610H403ZM702-30Q537-30 410.5,38T212,230T140,520v919l148,1V539q0-112 38-193.5t99.5-134T560,134t142-25q70,0 143,25t134,77.5t99,134T1116,539v901h148V520q0-166-72-289.5T993.5,38.5T702-30Z" />
      <glyph unicode="&#xdc;" glyph-name="gid51" horiz-adv-x="1404" d="M813,1651v160H973V1651H813Zm-382,0v160H591V1651H431ZM702-30Q537-30 410.5,38T212,230T140,520v919l148,1V539q0-112 38-193.5t99.5-134T560,134t142-25q70,0 143,25t134,77.5t99,134T1116,539v901h148V520q0-166-72-289.5T993.5,38.5T702-30Z" />
      <glyph unicode="&#xdd;" glyph-name="gid57" horiz-adv-x="1112" d="M600,1610H474l119,310H719L600,1610ZM483,0V603L0,1440H170L557,771l385,669h170L631,603V0H483Z" />
      <glyph unicode="&#xde;" glyph-name="gid43" horiz-adv-x="1189" d="M140,0V1440H288V1167H681q77,0 151-28q50-17 95-47t80-70q58-60 90-139.5T1129,720q1-79-28-153.5T1021,433q-59-73-150-116T681,274H288V0H140ZM288,415H680q63,0 124.5,30T908,527q33,41 52,90.5T977,720q-1,60-23.5,116T889,934q-39,41-95.5,66T680,1025H288V415Z" />
      <glyph unicode="&#xdf;" glyph-name="gid106" horiz-adv-x="1197" d="M625-29q-52,0-97.5,6T441,0V145q41-14 81-21t89-7q141,0 228.5,76.5T927,412q0,135-105,210T546,700V835q69,7 127,36t92.5,81.5T800,1084q0,116-70,180.5T547,1329q-78,0-142-34t-91-110q-12-34-17-76t-5-86V0H139V1063q0,50 6.5,93t19.5,77q29,80 83,132.5T377.5,1444T545,1470q119,0 210.5-46T899,1291.5T951,1085q0-102-44-182T778,789q48-9 100-37.5T975,675t73.5-114T1077,411q0-200-116-320T625-29Z" />
      <glyph unicode="&#xe0;" glyph-name="gid63" horiz-adv-x="1111" d="M509,1250L389,1560H515l120-310H509ZM449-30Q327-30 244.5,14T121,131T80,290q0,88 35.5,150.5t97,102.5T355,604q82,20 181.5,35.5t195,27T899,689l-52-32q3,160-62,237T559,971q-111,0-187.5-50T264,763L121,805q37,145 149,225t291,80q148,0 251.5-55.5T959,894q20-47 26-105t6-118V0H860V271l38-16Q843,116 727,43T449-30ZM466,97q103,0 180,37T770,235.5T831,381q12,52 13,114.5t1,93.5l56-29q-75-10-162.5-20t-172-23T414,486q-46-13-89-36.5T254.5,387T227,290q0-47 23.5-91t76-73T466,97Z" />
      <glyph unicode="&#xe1;" glyph-name="gid60" horiz-adv-x="1111" d="M630,1250H504l120,310H750L630,1250ZM449-30Q327-30 244.5,14T121,131T80,290q0,88 35.5,150.5t97,102.5T355,604q82,20 181.5,35.5t195,27T899,689l-52-32q3,160-62,237T559,971q-111,0-187.5-50T264,763L121,805q37,145 149,225t291,80q148,0 251.5-55.5T959,894q20-47 26-105t6-118V0H860V271l38-16Q843,116 727,43T449-30ZM466,97q103,0 180,37T770,235.5T831,381q12,52 13,114.5t1,93.5l56-29q-75-10-162.5-20t-172-23T414,486q-46-13-89-36.5T254.5,387T227,290q0-47 23.5-91t76-73T466,97Z" />
      <glyph unicode="&#xe2;" glyph-name="gid61" horiz-adv-x="1111" d="M273,1250l230,270H639l229-270H718L571,1423L423,1250H273ZM449-30Q327-30 244.5,14T121,131T80,290q0,88 35.5,150.5t97,102.5T355,604q82,20 181.5,35.5t195,27T899,689l-52-32q3,160-62,237T559,971q-111,0-187.5-50T264,763L121,805q37,145 149,225t291,80q148,0 251.5-55.5T959,894q20-47 26-105t6-118V0H860V271l38-16Q843,116 727,43T449-30ZM466,97q103,0 180,37T770,235.5T831,381q12,52 13,114.5t1,93.5l56-29q-75-10-162.5-20t-172-23T414,486q-46-13-89-36.5T254.5,387T227,290q0-47 23.5-91t76-73T466,97Z" />
      <glyph unicode="&#xe3;" glyph-name="gid65" horiz-adv-x="1111" d="M731,1252q-42,0-82,17t-77.5,39.5t-71,39.5T437,1365q-38,0-49-30.5t0-65.5H284q-22,89 18,151.5T430,1483q43,0 83-17t77.5-39.5T662,1387t63-17q36,0 49,30t1,69H879q22-88-18-152.5T731,1252ZM449-30Q327-30 244.5,14T121,131T80,290q0,88 35.5,150.5t97,102.5T355,604q82,20 181.5,35.5t195,27T899,689l-52-32q3,160-62,237T559,971q-111,0-187.5-50T264,763L121,805q37,145 149,225t291,80q148,0 251.5-55.5T959,894q20-47 26-105t6-118V0H860V271l38-16Q843,116 727,43T449-30ZM466,97q103,0 180,37T770,235.5T831,381q12,52 13,114.5t1,93.5l56-29q-75-10-162.5-20t-172-23T414,486q-46-13-89-36.5T254.5,387T227,290q0-47 23.5-91t76-73T466,97Z" />
      <glyph unicode="&#xe4;" glyph-name="gid62" horiz-adv-x="1111" d="M689,1291v160H849V1291H689Zm-381,0v160H468V1291H308ZM449-30Q327-30 244.5,14T121,131T80,290q0,88 35.5,150.5t97,102.5T355,604q82,20 181.5,35.5t195,27T899,689l-52-32q3,160-62,237T559,971q-111,0-187.5-50T264,763L121,805q37,145 149,225t291,80q148,0 251.5-55.5T959,894q20-47 26-105t6-118V0H860V271l38-16Q843,116 727,43T449-30ZM466,97q103,0 180,37T770,235.5T831,381q12,52 13,114.5t1,93.5l56-29q-75-10-162.5-20t-172-23T414,486q-46-13-89-36.5T254.5,387T227,290q0-47 23.5-91t76-73T466,97Z" />
      <glyph unicode="&#xe5;" glyph-name="gid64" horiz-adv-x="1111" d="M570,1197q-60,0-110,29.5t-79.5,79T351,1416q0,60 29.5,110t79.5,79.5T570,1635q61,0 110.5-29.5t79-79.5T789,1416q0-61-29.5-110.5t-79-79T570,1197Zm0,109q47,0 78.5,32.5T680,1416q0,46-31.5,78T570,1526q-45,0-77.5-32T460,1416q0-45 32.5-77.5T570,1306ZM449-30Q327-30 244.5,14T121,131T80,290q0,88 35.5,150.5t97,102.5T355,604q82,20 181.5,35.5t195,27T899,689l-52-32q3,160-62,237T559,971q-111,0-187.5-50T264,763L121,805q37,145 149,225t291,80q148,0 251.5-55.5T959,894q20-47 26-105t6-118V0H860V271l38-16Q843,116 727,43T449-30ZM466,97q103,0 180,37T770,235.5T831,381q12,52 13,114.5t1,93.5l56-29q-75-10-162.5-20t-172-23T414,486q-46-13-89-36.5T254.5,387T227,290q0-47 23.5-91t76-73T466,97Z" />
      <glyph unicode="&#xe6;" glyph-name="gid66" horiz-adv-x="1884" d="M1339-30q-155,0-264.5,73t-167,201T850,537q0,171 58,300t167,201t262,72q158,0 263-77.5t156-215T1803,499H1660v52q-4,197-79.5,310.5T1334,975q-116,0-191-55.5T1032.5,766T997,540q0-194 85-311.5T1334,111q105,0 188,51.5T1652,319l130-53q-40-95-106.5-161T1523,4.5T1339-30ZM466,97q116,0 206,52.5T801,283q24,47 33.5,102t11,100.5T846,551l35-38L572,503q-44-1-103-7T355,470.5T263.5,409T227,293q0-93 64-144.5T466,97ZM459-30Q280-30 180,57.5T80,291q0,90 34.5,149t90,93.5t120,51.5t125,23T553,617l314,10l-22-25q7,123-21.5,205.5T730,930.5T563,971q-106,0-188.5-45T261,773L121,816q26,93 89.5,158.5t154,100.5T564,1110q168,0 270-72.5T971,836q14-45 17-89t3-82L928,271Q884,157 810.5,91T646-2.5T459-30ZM947,499V625h781V499H947Z" />
      <glyph unicode="&#xe7;" glyph-name="gid69" horiz-adv-x="1107" d="M539-480q-36,0-67.5,9T412-449l38,102q46-18 77-18q39,0 60.5,24.5T609-287q0,46-41,66.5T476-185L550,21H659L608-119q54-24 87.5-65.5T729-291q0-81-56.5-135T539-480ZM588-30Q425-30 312,43T140.5,244.5T80,540q2,170 62,298.5t173,200T589,1110q164,0 285.5-80T1041,811L897,765q-38,97-120.5,150.5T588,969q-119,0-197-54.5T275,763T236,540q2-194 90-311.5T588,111q110,0 187.5,50.5T893,309l148-44Q981,121 865,45.5T588-30Z" />
      <glyph unicode="&#xe8;" glyph-name="gid76" horiz-adv-x="1169" d="M542,1250L423,1560H549l119-310H542ZM597-30Q439-30 323.5,40T144,237T80,535q0,177 63,306t177.5,199T591,1110q160,0 273-73.5T1035,826t53-327H938v52q-4,210-90.5,317T595,975q-174,0-266.5-113T236,540q0-204 92.5-316.5T591,111q116,0 202.5,53.5T930,319l137-53Q1003,125 878.5,47.5T597-30ZM184,499V622h825V499H184Z" />
      <glyph unicode="&#xe9;" glyph-name="gid73" horiz-adv-x="1169" d="M676,1250H550l119,310H795L676,1250ZM597-30Q439-30 323.5,40T144,237T80,535q0,177 63,306t177.5,199T591,1110q160,0 273-73.5T1035,826t53-327H938v52q-4,210-90.5,317T595,975q-174,0-266.5-113T236,540q0-204 92.5-316.5T591,111q116,0 202.5,53.5T930,319l137-53Q1003,125 878.5,47.5T597-30ZM184,499V622h825V499H184Z" />
      <glyph unicode="&#xea;" glyph-name="gid74" horiz-adv-x="1169" d="M293,1250l229,270H658l229-270H737L590,1423L443,1250H293ZM597-30Q439-30 323.5,40T144,237T80,535q0,177 63,306t177.5,199T591,1110q160,0 273-73.5T1035,826t53-327H938v52q-4,210-90.5,317T595,975q-174,0-266.5-113T236,540q0-204 92.5-316.5T591,111q116,0 202.5,53.5T930,319l137-53Q1003,125 878.5,47.5T597-30ZM184,499V622h825V499H184Z" />
      <glyph unicode="&#xeb;" glyph-name="gid75" horiz-adv-x="1169" d="M702,1291v160H862V1291H702Zm-381,0v160H481V1291H321ZM597-30Q439-30 323.5,40T144,237T80,535q0,177 63,306t177.5,199T591,1110q160,0 273-73.5T1035,826t53-327H938v52q-4,210-90.5,317T595,975q-174,0-266.5-113T236,540q0-204 92.5-316.5T591,111q116,0 202.5,53.5T930,319l137-53Q1003,125 878.5,47.5T597-30ZM184,499V622h825V499H184Z" />
      <glyph unicode="&#xec;" glyph-name="gid86" horiz-adv-x="467" d="M168,1250L48,1560H174l120-310H168ZM160,0V1080H307V0H160Z" />
      <glyph unicode="&#xed;" glyph-name="gid82" horiz-adv-x="467" d="M299,1250H173l119,310H418L299,1250ZM160,0V1080H307V0H160Z" />
      <glyph unicode="&#xee;" glyph-name="gid83" horiz-adv-x="467" d="M-59,1250l230,270H307l229-270H386L239,1423L91,1250H-59ZM160,0V1080H307V0H160Z" />
      <glyph unicode="&#xef;" glyph-name="gid84" horiz-adv-x="467" d="M344,1291v160H504V1291H344Zm-381,0v160H123V1291H-37ZM160,0V1080H307V0H160Z" />
      <glyph unicode="&#xf0;" glyph-name="gid71" horiz-adv-x="1165" d="M583-30Q428-31 316,35.5t-173.5,187T80,503q1,162 62.5,282.5t174,187T583,1037q100,2 192-35T935,889q-16,135-81,237.5T683.5,1290T441,1361l20,123q169-8 295-81.5T957,1197q50-79 78-171t39-217t11-302q0-163-61-284.5T850.5,35T583-30Zm0,136q171,0 261,107.5T934,505q0,186-92,292T583,901q-171,2-261.5-105.5T231,504q0-188 91-293T583,106Zm34,1019l-93,78l295,362l94-79L617,1125Z" />
      <glyph unicode="&#xf1;" glyph-name="gid92" horiz-adv-x="1188" d="M745,1252q-43,0-82.5,17t-77,39.5T514,1348t-63,17q-39,0-50-30.5t0-65.5H297q-22,89 18,151.5T443,1483q43,0 83.5-17t78-39.5t71-39.5t63.5-17q35,0 48.5,30t0.5,69H892q23-88-17-152.5T745,1252ZM920,0V551q0,90-17,165.5t-54.5,132t-97,87.5T607,967q-78,0-137.5-27t-100-77.5T308,740T287,576L183,599q0,166 58,279t160,171t234,58q97,0 169.5-30t123-81T1009,879.5t45-139T1068,594V0H920ZM139,0V1080H272V814h15V0H139Z" />
      <glyph unicode="&#xf2;" glyph-name="gid97" horiz-adv-x="1183" d="M520,1250L400,1560H526l120-310H520ZM591-30Q430-30 316,43T141,245T80,541q0,170 62,298t176.5,199.5T591,1110q162,0 276.5-72.5t175-201T1103,541q0-170-61-298.5T866,42T591-30Zm0,141q180,0 268,119.5T947,541q0,196-88.5,312T591,969q-121,0-199.5-54.5t-117-151T236,541q0-195 90-312.5T591,111Z" />
      <glyph unicode="&#xf3;" glyph-name="gid94" horiz-adv-x="1183" d="M654,1250H528l119,310H773L654,1250ZM591-30Q430-30 316,43T141,245T80,541q0,170 62,298t176.5,199.5T591,1110q162,0 276.5-72.5t175-201T1103,541q0-170-61-298.5T866,42T591-30Zm0,141q180,0 268,119.5T947,541q0,196-88.5,312T591,969q-121,0-199.5-54.5t-117-151T236,541q0-195 90-312.5T591,111Z" />
      <glyph unicode="&#xf4;" glyph-name="gid95" horiz-adv-x="1183" d="M293,1250l230,270H659l229-270H738L591,1423L443,1250H293ZM591-30Q430-30 316,43T141,245T80,541q0,170 62,298t176.5,199.5T591,1110q162,0 276.5-72.5t175-201T1103,541q0-170-61-298.5T866,42T591-30Zm0,141q180,0 268,119.5T947,541q0,196-88.5,312T591,969q-121,0-199.5-54.5t-117-151T236,541q0-195 90-312.5T591,111Z" />
      <glyph unicode="&#xf5;" glyph-name="gid99" horiz-adv-x="1183" d="M743,1252q-43,0-82.5,17t-77,39.5T512,1348t-63,17q-39,0-50-30.5t0-65.5H295q-22,89 18,151.5T441,1483q43,0 83.5-17t78-39.5t71-39.5t63.5-17q35,0 48.5,30t0.5,69H890q23-88-17-152.5T743,1252ZM591-30Q430-30 316,43T141,245T80,541q0,170 62,298t176.5,199.5T591,1110q162,0 276.5-72.5t175-201T1103,541q0-170-61-298.5T866,42T591-30Zm0,141q180,0 268,119.5T947,541q0,196-88.5,312T591,969q-121,0-199.5-54.5t-117-151T236,541q0-195 90-312.5T591,111Z" />
      <glyph unicode="&#xf6;" glyph-name="gid96" horiz-adv-x="1183" d="M703,1291v160H863V1291H703Zm-382,0v160H481V1291H321ZM591-30Q430-30 316,43T141,245T80,541q0,170 62,298t176.5,199.5T591,1110q162,0 276.5-72.5t175-201T1103,541q0-170-61-298.5T866,42T591-30Zm0,141q180,0 268,119.5T947,541q0,196-88.5,312T591,969q-121,0-199.5-54.5t-117-151T236,541q0-195 90-312.5T591,111Z" />
      <glyph unicode="&#xf7;" glyph-name="gid245" horiz-adv-x="1080" d="M120,657V783H960V657H120ZM488,902v171H659V902H488Zm0-484V589H659V418H488Z" />
      <glyph unicode="&#xf8;" glyph-name="gid98" horiz-adv-x="1183" d="M140-10L40,90L210,260l42,28L873,907l24,38l146,145l100-99L979,828l-37-23L333,196l-31-44L140-10ZM591-30Q430-30 316,43T141,245T80,541q0,170 62,298t176.5,199.5T591,1110q162,0 276.5-72.5t175-201T1103,541q0-170-61-298.5T866,42T591-30Zm0,141q180,0 268,119.5T947,541q0,196-88.5,312T591,969q-121,0-199.5-54.5t-117-151T236,541q0-195 90-312.5T591,111Z" />
      <glyph unicode="&#xf9;" glyph-name="gid112" horiz-adv-x="1188" d="M539,1250L419,1560H545l120-310H539ZM553-27Q456-27 383.5,3t-123,81T179,200.5t-45,139T120,486v594H268V529q0-89 17-165t54.5-132.5t97-87.5T581,113q78,0 137.5,27t100,77.5t61.5,123T901,504l104-23q0-166-58-279T787,31T553-27ZM916,0V266H901v814h147V0H916Z" />
      <glyph unicode="&#xfa;" glyph-name="gid109" horiz-adv-x="1188" d="M641,1250H515l119,310H760L641,1250ZM553-27Q456-27 383.5,3t-123,81T179,200.5t-45,139T120,486v594H268V529q0-89 17-165t54.5-132.5t97-87.5T581,113q78,0 137.5,27t100,77.5t61.5,123T901,504l104-23q0-166-58-279T787,31T553-27ZM916,0V266H901v814h147V0H916Z" />
      <glyph unicode="&#xfb;" glyph-name="gid110" horiz-adv-x="1188" d="M285,1250l229,270H650l229-270H729L582,1423L435,1250H285ZM553-27Q456-27 383.5,3t-123,81T179,200.5t-45,139T120,486v594H268V529q0-89 17-165t54.5-132.5t97-87.5T581,113q78,0 137.5,27t100,77.5t61.5,123T901,504l104-23q0-166-58-279T787,31T553-27ZM916,0V266H901v814h147V0H916Z" />
      <glyph unicode="&#xfc;" glyph-name="gid111" horiz-adv-x="1188" d="M694,1291v160H854V1291H694Zm-381,0v160H473V1291H313ZM553-27Q456-27 383.5,3t-123,81T179,200.5t-45,139T120,486v594H268V529q0-89 17-165t54.5-132.5t97-87.5T581,113q78,0 137.5,27t100,77.5t61.5,123T901,504l104-23q0-166-58-279T787,31T553-27ZM916,0V266H901v814h147V0H916Z" />
      <glyph unicode="&#xfd;" glyph-name="gid117" horiz-adv-x="1055" d="M590,1250H464l119,310H709L590,1250ZM294-480L503,87l3-168L33,1080H189L577,109H513l358,971h150L441-480H294Z" />
      <glyph unicode="&#xfe;" glyph-name="gid102" horiz-adv-x="1184" d="M140,809v631H287V809H140ZM625-30Q476-30 373,45.5t-156,205T164,541q0,164 53.5,292.5T375,1036t256,74q148,0 254-75t162.5-204T1104,541q0-162-57-291T883,45.5T625-30ZM139-480V1080H271V267h16V-480H139ZM610,107q113,0 188,57T910.5,319.5T948,541q0,122-37,220T798.5,916T607,973q-113,0-187.5-55T308,765.5T271,541q0-125 37-223.5T420,163t190-56Z" />
      <glyph unicode="&#xff;" glyph-name="gid118" horiz-adv-x="1055" d="M648,1291v160H808V1291H648Zm-381,0v160H427V1291H267ZM294-480L503,87l3-168L33,1080H189L577,109H513l358,971h150L441-480H294Z" />
      <glyph unicode="&#x2013;" glyph-name="gid208" horiz-adv-x="1080" d="M120,567V693H960V567H120Z" />
      <glyph unicode="&#x2014;" glyph-name="gid209" horiz-adv-x="1560" d="M120,567V693H1440V567H120Z" />
      <glyph unicode="&#x2018;" glyph-name="gid218" horiz-adv-x="443" d="M303,1021q-78-16-124,30t-46,138v251H303V1229H213q-3-37 1.5-69t22.5-50.5t57-16.5l9-72Z" />
      <glyph unicode="&#x2019;" glyph-name="gid219" horiz-adv-x="443" d="M140,1020l9,73q40-3 58,16t22,51t2,69H140v211H311V1189q0-92-46.5-138T140,1020Z" />
      <glyph unicode="&#x201a;" glyph-name="gid214" horiz-adv-x="531" d="M120-209l9,73q40-3 58,16t22,51t2,69H120V211H291V-40q0-92-46.5-138T120-209Z" />
      <glyph unicode="&#x201c;" glyph-name="gid216" horiz-adv-x="745" d="M585,1451l-10-73q-39,3-57-16t-22-51t-2-69h91V1031H414v251q0,92 46.5,138T585,1451Zm-254,0l-10-73q-39,3-57-16t-22-51t-2-69h91V1031H160v251q0,92 46.5,138T331,1451Z" />
      <glyph unicode="&#x201d;" glyph-name="gid217" horiz-adv-x="745" d="M160,1034l9,73q40-3 58,16t22,51t2,69H160v211H331V1203q0-92-46.5-138T160,1034Zm254,0l9,73q40-3 58,16t22,51t2,69H414v211H585V1203q0-92-46.5-138T414,1034Z" />
      <glyph unicode="&#x201e;" glyph-name="gid215" horiz-adv-x="745" d="M160-209l9,73q40-3 58,16t22,51t2,69H160V211H331V-40q0-92-46.5-138T160-209Zm254,0l9,73q40-3 58,16t22,51t2,69H414V211H585V-40q0-92-46.5-138T414-209Z" />
      <glyph unicode="&#x2022;" glyph-name="gid185" horiz-adv-x="1307" d="M658,397q-66,0-120,30.5T452,511T420,630t32,119.5T537.5,833T658,863q62,0 114-30t83.5-83T887,630q0-66-31.5-119T772,427.5T658,397Z" />
      <glyph unicode="&#x2039;" glyph-name="gid222" horiz-adv-x="1229" d="M749,161L280,630l469,469l94-92L461,630L843,253l-94-92Z" />
      <glyph unicode="&#x203a;" glyph-name="gid223" horiz-adv-x="1229" d="M479,161l-93,92L767,630L386,1007l93,92L949,630L479,161Z" />
    </font>
</defs>
</svg>
