<?xml version="1.0" standalone="no"?>
<!DOCTYPE svg PUBLIC "-//W3C//DTD SVG 1.1//EN" "http://www.w3.org/Graphics/SVG/1.1/DTD/svg11.dtd">
<svg xmlns="http://www.w3.org/2000/svg">
<defs >
<font id="MavenPro" horiz-adv-x="550" ><font-face
    font-family="Maven Pro SemiBold"
    units-per-em="1000"
    panose-1="0 0 0 0 0 0 0 0 0 0"
    ascent="965"
    descent="-210"
    alphabetic="0" />
<glyph unicode=" " horiz-adv-x="280" />
<glyph unicode="!" horiz-adv-x="402" d="M159 180L144 667H267L252 180H159ZM147 0V104H264V0H147Z" />
<glyph unicode="&quot;" horiz-adv-x="410" d="M242 475L224 676H328L310 475H242ZM99 475L81 676H185L168 475H99Z" />
<glyph unicode="#" horiz-adv-x="610" d="M131 19L150 124H73V199H162L186 338H100V413H199L218 523H296L277 413H396L416 523H494L474 413H541V338H462L438 199H513V124H425L407 19H329L347 124H227L209 19H131ZM240 199H360L384 338H264L240 199Z" />
<glyph unicode="$" horiz-adv-x="571" d="M242 627V754H344V627H242ZM242 -96V36H344V-96H242ZM289 -12Q239 -12 200 -7T127 9T61 37V169Q103 135 160 116T275 96Q329 96 356 117T384 179Q384 210 362 229T302 262T221 291Q190 302 161 315T108 350T70 402T56
480Q56 517 70 553T113 618T188 664T298 681Q339 681 369 676T427 661T486 636V504Q462 521 435 536T378 562T311 573Q275 574 249 565T209 538T195 495Q195 464 212 446T261 415T331 391Q370 379 405 364T466 328T508 274T523 196Q523 140 498 93T420 17T289 -12Z"
/>
<glyph unicode="%" horiz-adv-x="805" d="M190 311Q108 311 70 357T32 495Q32 586 70 632T190 679Q273 679 310 633T348 495Q348 404 311 358T190 311ZM190 386Q203 386 218 393T244 425T255 495Q255 542 244 565T218 596T190 604Q178 604 163 596T136 565T125
495Q125 449 136 425T162 394T190 386ZM615 -9Q533 -9 495 37T457 175Q457 266 495 312T615 359Q698 359 735 313T773 175Q773 84 736 38T615 -9ZM615 66Q628 66 643 73T669 105T680 175Q680 222 669 245T643 276T615 284Q603 284 588 276T561 245T550 175Q550
129 561 105T587 74T615 66ZM149 -22L556 685H652L245 -22H149Z" />
<glyph unicode="&amp;" horiz-adv-x="672" d="M481 0L172 373Q151 400 130 436T109 510Q109 555 134 593T205 654T305 678Q361 678 402 658T467 601T491 520Q491 477 472 447T417 391T335 337L285 409Q321 429 339 445T365 477T372 508Q372 536 354 553T306 570Q278
570 259 552T239 507Q239 495 248 479T269 446T291 418L638 0H481ZM257 -11Q205 -11 165 5T99 48T59 108T45 174Q45 208 59 243T107 313T200 375L278 309Q243 289 222 267T191 223T181 185Q181 173 185 158T199 127T229 103T280 93Q315 93 348 112T401 155L466
77Q444 53 415 33T347 1T257 -11ZM453 203Q466 221 474 241T486 277T493 300H590Q584 265 565 220T520 134L453 203Z" />
<glyph unicode="&apos;" horiz-adv-x="267" d="M99 475L81 676H185L168 475H99Z" />
<glyph unicode="(" horiz-adv-x="352" d="M201 -113Q172 -75 140 -13T86 131T64 306Q64 400 86 481T140 624T201 724H312Q300 702 282 662T245 567T215 446T203 306Q203 232 215 166T245 45T281 -50T312 -113H201Z" />
<glyph unicode=")" horiz-adv-x="352" d="M40 -113Q52 -90 70 -50T107 45T137 165T150 306Q150 380 138 446T107 566T71 661T40 724H151Q182 686 213 624T266 481T288 306Q288 212 267 131T214 -13T151 -113H40Z" />
<glyph unicode="*" horiz-adv-x="412" d="M174 460L182 537L117 490L84 548L166 581L84 615L117 672L182 625L174 703H240L233 625L297 672L330 615L249 581L330 548L297 490L233 537L240 460H174Z" />
<glyph unicode="+" horiz-adv-x="551" d="M232 120V256H95V342H232V479H318V342H454V256H318V120H232Z" />
<glyph unicode="," horiz-adv-x="340" d="M74 -112L148 84H259L169 -112H74Z" />
<glyph unicode="-" horiz-adv-x="464" d="M79 257V351H384V257H79Z" />
<glyph unicode="." horiz-adv-x="262" d="M65 0V129H197V0H65Z" />
<glyph unicode="/" horiz-adv-x="434" d="M-14 -98L353 756H449L81 -98H-14Z" />
<glyph unicode="0" horiz-adv-x="661" d="M330 -12Q186 -12 117 74T48 333Q48 505 117 591T330 678Q476 678 544 592T613 333Q613 160 545 74T330 -12ZM330 100Q356 100 382 108T429 140T462 210T475 333Q475 409 463 455T429 524T382 556T330 565Q305 565 279
557T232 525T199 455T186 333Q186 256 198 210T232 140T279 108T330 100Z" />
<glyph unicode="1" horiz-adv-x="465" d="M202 0V534L72 457V584L213 667H338V0H202Z" />
<glyph unicode="2" horiz-adv-x="601" d="M72 0V100Q106 121 147 153T229 223T303 303T357 385T378 463Q378 496 364 519T322 556T251 569Q199 569 157 548T78 499V620Q116 643 167 661T287 679Q364 679 414 654T489 583T514 479Q514 432 495 388T442 303T370
226T290 158T216 101L188 126H526V0H72Z" />
<glyph unicode="3" horiz-adv-x="592" d="M265 -8Q211 -8 163 6T75 41V161Q115 137 160 119T257 100Q324 100 361 124T398 195Q398 241 364 268T254 295H163V401H256Q312 401 339 423T366 482Q366 512 351 530T307 557T243 566Q205 566 169 557T89 527V636Q124
653 166 664T256 676Q307 676 349 664T423 629T471 572T489 495Q489 464 478 440T451 399T419 373T394 362Q408 358 429 345T471 311T505 259T519 189Q519 141 501 105T448 43T367 5T265 -8Z" />
<glyph unicode="4" horiz-adv-x="605" d="M336 0V185H39V290L342 667H473V292H561V185H473V0H336ZM160 292H336V509L160 292Z" />
<glyph unicode="5" horiz-adv-x="589" d="M285 -11Q219 -11 168 4T88 39V168Q104 154 130 139T192 114T269 104Q306 104 331 112T373 136T396 170T404 212Q404 256 387 279T343 312T283 321Q246 321 218 315T171 302T147 291L83 361L123 668H491V547H214L190 354L93
375Q133 409 189 424T315 440Q358 440 398 429T471 392T523 325T542 221Q542 152 520 107T461 37T378 0T285 -11Z" />
<glyph unicode="6" horiz-adv-x="613" d="M302 -11Q173 -11 112 70T50 307Q50 407 73 474T133 582T213 644T298 672T373 679Q416 679 449 673T504 658V542Q477 553 449 560T384 567Q355 567 327 559T273 535T229 491T198 425T187 335Q187 261 196 215T222 145T261
112T311 103Q346 103 368 114T403 143T421 181T426 217Q426 273 397 302T314 331Q276 331 249 319T206 287T181 241L155 313Q161 329 175 349T211 389T263 421T334 434Q447 434 505 378T564 215Q564 169 548 129T500 57T419 7T302 -11Z" />
<glyph unicode="7" horiz-adv-x="587" d="M140 0L404 574L424 541H68V667H541V581L289 0H140Z" />
<glyph unicode="8" horiz-adv-x="617" d="M309 -11Q241 -11 192 5T111 48T64 112T48 191Q48 229 61 256T93 303T131 333T162 350Q153 354 138 364T106 392T80 434T69 493Q69 549 94 591T172 656T309 679Q393 679 446 656T524 591T550 493Q550 459 540 434T514
392T483 365T458 350Q470 345 489 334T526 303T557 257T570 191Q570 149 555 113T508 49T427 5T309 -11ZM309 99Q347 99 370 110T406 140T423 177T428 210Q428 237 415 259T375 294T309 307Q271 307 245 294T205 259T191 210Q191 196 195 177T212 140T248 111T309
99ZM309 391Q336 391 359 401T396 432T410 481Q410 511 396 530T359 558T309 568Q283 568 260 559T223 530T208 481Q208 452 222 432T259 402T309 391Z" />
<glyph unicode="9" horiz-adv-x="617" d="M241 -11Q198 -11 165 -5T110 11V127Q137 116 165 109T230 102Q259 102 287 109T341 134T385 178T416 244T427 334Q427 408 418 454T392 524T352 556T301 565Q267 565 245 554T210 525T193 488T188 451Q188 396 218 367T301
338Q338 338 365 349T409 381T433 427L459 356Q453 340 439 319T403 279T351 247T280 234Q167 235 109 291T50 454Q50 500 65 540T112 612T191 661T301 679Q438 679 501 598T564 361Q564 261 541 194T481 86T401 25T316 -3T241 -11Z" />
<glyph unicode=":" horiz-adv-x="408" d="M148 348V457H260V348H148ZM148 42V151H260V42H148Z" />
<glyph unicode=";" horiz-adv-x="302" d="M38 -112L107 94H232L132 -112H38ZM105 328V457H237V328H105Z" />
<glyph unicode="&lt;" horiz-adv-x="664" d="M537 42L120 229V308L537 495V387L250 269L537 149V42Z" />
<glyph unicode="=" horiz-adv-x="638" d="M125 341V434H514V341H125ZM125 163V256H514V163H125Z" />
<glyph unicode="&gt;" horiz-adv-x="655" d="M124 42V149L411 269L124 387V495L540 308V229L124 42Z" />
<glyph unicode="?" horiz-adv-x="505" d="M185 180V211Q185 266 200 301T237 360T281 401T318 438T333 486Q333 521 319 540T280 568T222 577Q180 577 142 563T80 530V633Q89 639 111 649T166 667T236 675Q277 675 313 664T378 629T422 570T438 486Q438 442 423
415T386 367T342 327T304 279T289 207V180H185ZM178 0V104H296V0H178Z" />
<glyph unicode="@" horiz-adv-x="913" d="M409 -149Q370 -149 326 -138T238 -103T160 -40T104 54T82 182Q82 275 120 352T220 485T358 571T509 602Q548 602 593 591T682 556T762 494T819 402T841 277Q841 228 831 183T799 103T746 48T672 27Q647 27 629 36T600
58T582 84Q565 60 531 44T442 27Q369 27 327 59T285 149Q285 170 293 195T324 243T391 280T506 295Q523 295 538 294T569 291Q569 296 569 300T569 309Q568 326 562 340T537 364T481 374Q444 374 411 369T349 352L360 425Q387 433 419 440T485 448Q564 448 605
412T646 305Q646 265 639 226T630 149Q629 133 632 117T645 90T679 79Q701 79 727 99T771 164T790 275Q790 343 765 394T697 480T606 532T508 550Q436 550 370 522T250 442T166 324T135 180Q135 108 157 59T215 -22T288 -70T360 -93T413 -99Q478 -99 531 -87T632
-49L622 -108Q579 -128 526 -138T409 -149ZM442 104Q481 104 503 113T536 139T551 177T559 224Q546 225 533 225T506 226Q362 226 362 150Q362 131 374 121T404 108T442 104Z" />
<glyph unicode="A" horiz-adv-x="678" d="M15 0L271 667H418L663 0H522L304 621L364 627L147 0H15ZM150 163L183 267H493L505 163H150Z" />
<glyph unicode="B" horiz-adv-x="659" d="M75 0V667H340Q417 667 469 647T548 587T575 484Q575 440 556 412T509 368T458 339L442 368Q489 363 527 343T588 286T611 198Q611 129 579 86T491 21T365 0H75ZM212 109H359Q389 109 414 117T456 146T472 204Q472 232
462 249T436 276T398 289T356 293H212V109ZM211 397H351Q373 397 392 403T424 426T437 473Q437 522 411 540T342 558H211V397Z" />
<glyph unicode="C" horiz-adv-x="628" d="M366 -11Q207 -11 125 73T43 334Q43 505 123 592T366 680Q419 680 472 667T575 631V511Q525 543 477 557T384 571Q318 571 274 548T207 472T184 333Q184 247 206 196T274 121T389 98Q430 98 477 111T575 156V36Q546 22
511 11T439 -5T366 -11Z" />
<glyph unicode="D" horiz-adv-x="699" d="M75 0V667H326Q492 667 571 583T651 334Q651 169 572 85T326 0H75ZM211 109H311Q412 109 462 163T512 334Q512 451 462 505T311 559H211V109Z" />
<glyph unicode="E" horiz-adv-x="590" d="M75 0V667H522V558H212V389H482V279H211V109H522V0H75Z" />
<glyph unicode="F" horiz-adv-x="561" d="M75 0V667H516V558H211V379H476V269H211V0H75Z" />
<glyph unicode="G" horiz-adv-x="701" d="M369 -12Q269 -12 197 24T87 136T48 334Q48 453 86 530T197 643T368 680Q429 680 487 668T599 633V506Q542 535 491 553T385 571Q320 571 276 548T209 473T186 334Q186 248 209 196T275 121T380 97Q411 97 438 101T490
115V254H365V364H626V54Q566 22 501 5T369 -12Z" />
<glyph unicode="H" horiz-adv-x="699" d="M75 0V667H211V389H488V667H624V0H488V275H211V0H75Z" />
<glyph unicode="I" horiz-adv-x="287" d="M75 0V667H212V0H75Z" />
<glyph unicode="J" horiz-adv-x="471" d="M188 -11Q145 -11 108 -1T38 25V152Q69 131 97 116T157 101Q207 101 233 126T260 209V667H396V202Q396 139 378 98T329 32T262 -1T188 -11Z" />
<glyph unicode="K" horiz-adv-x="661" d="M204 204L165 305L448 667H620L204 204ZM75 0V667H212V0H75ZM340 403L641 0H467L235 315L340 403Z" />
<glyph unicode="L" horiz-adv-x="546" d="M75 0V667H212V111H516V0H75Z" />
<glyph unicode="M" horiz-adv-x="829" d="M75 0V667H215L449 331L373 326L617 667H754V0H618V559L649 523L408 196L174 524L206 552V0H75Z" />
<glyph unicode="N" horiz-adv-x="724" d="M75 0V667H197L561 170L522 90V667H649V0H538L166 500L202 561V0H75Z" />
<glyph unicode="O" horiz-adv-x="732" d="M366 -12Q267 -12 196 25T86 139T48 333Q48 504 130 591T366 679Q465 679 536 642T646 528T684 334Q684 163 602 76T366 -12ZM366 102Q425 102 464 125T524 199T544 334Q544 418 524 468T465 542T366 565Q307 565 268
542T208 468T188 333Q188 249 208 199T267 125T366 102Z" />
<glyph unicode="P" horiz-adv-x="650" d="M211 229V0H75V667H357Q473 667 537 614T602 453Q602 345 538 287T357 229H211ZM211 339H340Q375 339 397 347T433 370T451 405T457 446Q457 469 452 489T433 525T398 549T340 558H211V339Z" />
<glyph unicode="Q" horiz-adv-x="732" d="M366 -17Q210 -17 129 68T48 333Q48 508 127 596T366 684Q522 684 603 599T684 334Q684 159 606 71T366 -17ZM366 82Q425 83 464 107T524 185T544 334Q544 423 524 475T465 551T366 575Q307 575 268 552T208 475T188 333Q188
239 208 184T267 106T366 82ZM620 -13Q636 -13 649 -10T683 7V-82Q664 -93 642 -97T596 -101Q571 -101 546 -94T499 -72T460 -31T433 33Q423 70 408 99T373 144T325 161Q292 161 265 146T217 104V199Q234 221 268 240T349 259Q390 259 426 241T489 184T533 86Q548
40 569 14T620 -13Z" />
<glyph unicode="R" horiz-adv-x="687" d="M75 0V667H386Q494 667 554 616T614 461Q614 413 595 370T538 297T446 261L447 306L647 0H476L300 295L361 241H211V0H75ZM211 346H357Q411 346 440 372T469 454Q469 504 445 531T369 558H211V346Z" />
<glyph unicode="S" horiz-adv-x="571" d="M289 -12Q239 -12 200 -7T127 9T61 37V169Q103 135 160 116T275 96Q329 96 356 117T384 179Q384 210 362 229T302 262T221 291Q190 302 161 315T108 350T70 402T56 480Q56 517 70 553T113 618T188 664T298 681Q339 681
369 676T427 661T486 636V504Q462 521 435 536T378 562T311 573Q275 574 249 565T209 538T195 495Q195 464 212 446T261 415T331 391Q370 379 405 364T466 328T508 274T523 196Q523 140 498 93T420 17T289 -12Z" />
<glyph unicode="T" horiz-adv-x="586" d="M224 0V558H23V667H563V558H360V0H224Z" />
<glyph unicode="U" horiz-adv-x="716" d="M369 -17Q224 -17 150 50T75 256V667H216V260Q216 174 252 133T363 92Q434 92 472 133T511 260V667H641V256Q641 164 607 103T512 13T369 -17Z" />
<glyph unicode="V" horiz-adv-x="685" d="M266 0L15 667H171L372 89H327L526 666L670 667L410 0H266Z" />
<glyph unicode="W" horiz-adv-x="1000" d="M220 0L25 667H173L311 124H286L445 667H555L718 117H689L827 667H975L780 0H645L487 512H515L355 0H220Z" />
<glyph unicode="X" horiz-adv-x="654" d="M641 0H473L14 667H182L641 0ZM322 411L482 667H635L396 308L322 411ZM350 287L168 0H18L272 378L350 287Z" />
<glyph unicode="Y" horiz-adv-x="665" d="M271 0V294L19 667H186L382 350L322 352L504 667H644L387 260L407 334V0H271Z" />
<glyph unicode="Z" horiz-adv-x="627" d="M57 0V103L428 589L461 557H64V667H567V567L211 87L171 110H567V0H57Z" />
<glyph unicode="[" horiz-adv-x="393" d="M92 -116V696H334V582H228V-1H334V-116H92Z" />
<glyph unicode="\" horiz-adv-x="399" d="M331 -98L-37 756H59L426 -98H331Z" />
<glyph unicode="]" horiz-adv-x="398" d="M75 -116V-2H180V582H75V696H316V-116H75Z" />
<glyph unicode="^" horiz-adv-x="576" d="M127 471L248 690H312L434 471H348L281 610L213 471H127Z" />
<glyph unicode="_" horiz-adv-x="546" d="M0 -97V-24H546V-97H0Z" />
<glyph unicode="`" horiz-adv-x="249" d="M138 555L35 676H160L209 555H138Z" />
<glyph unicode="a" horiz-adv-x="567" d="M259 -15Q216 -15 178 -7T110 20T63 71T45 152Q45 204 66 239T127 293T227 312Q263 312 294 306T350 288T391 263L400 192Q379 206 347 214T276 223Q223 223 197 206T171 153Q171 129 185 112T221 87T267 79Q322 79 346
86T371 119V317Q371 366 340 388T253 411Q210 411 165 397T92 359V474Q119 492 173 504T289 517Q315 517 344 513T400 497T449 466T484 417T497 345L496 106Q496 60 467 34T384 -4T259 -15Z" />
<glyph unicode="b" horiz-adv-x="592" d="M292 -15Q251 -15 211 -10T140 9T89 46T70 108V698H195V425L168 465Q186 483 214 494T272 511T321 517Q434 517 492 450T550 256Q550 177 529 125T473 42T391 -2T292 -15ZM289 93Q340 93 369 113T410 169T422 249Q422
306 407 342T364 395T295 413Q272 413 245 407T195 388V141Q195 122 208 112T243 97T289 93Z" />
<glyph unicode="c" horiz-adv-x="499" d="M299 -11Q249 -11 203 3T121 48T64 128T43 247Q43 320 63 371T118 454T199 502T298 517Q339 517 380 509T456 486V375Q421 390 388 399T318 409Q247 409 208 374T169 260Q169 177 205 138T323 98Q360 98 394 109T457 134V24Q422
7 384 -2T299 -11Z" />
<glyph unicode="d" horiz-adv-x="598" d="M302 -15Q250 -15 203 -3T120 40T64 123T43 257Q43 378 102 448T281 518Q298 518 325 515T380 501T430 472L402 431V713H528V119Q528 85 508 60T456 18T383 -6T302 -15ZM307 93Q347 93 374 103T402 132V388Q380 401 355
407T307 413Q262 413 232 397T187 345T172 254Q172 207 184 171T225 114T307 93Z" />
<glyph unicode="e" horiz-adv-x="558" d="M293 -15Q218 -15 162 16T74 105T43 247Q43 379 106 449T286 519Q368 519 419 483T493 380T515 221H125L116 307H414L390 271Q388 350 363 384T281 419Q247 419 222 404T184 352T170 253Q170 175 206 134T319 93Q350 93
378 99T431 114T474 132V19Q438 4 394 -5T293 -15Z" />
<glyph unicode="f" horiz-adv-x="389" d="M110 0V404H33V504H111V520Q111 571 122 606T151 663T193 697T243 713T295 718Q311 718 328 716T356 709V597Q347 605 337 609T310 614Q296 614 283 612T260 601T244 576T238 534V504H356V404H237V0H110Z" />
<glyph unicode="g" horiz-adv-x="586" d="M267 -15Q196 -12 146 16T70 100T43 237Q43 322 64 376T122 461T210 504T319 517Q377 517 422 502T494 458T521 384V-10Q521 -57 507 -94T462 -159T385 -200T275 -215Q215 -215 171 -206T101 -186V-72Q116 -78 142 -86T202
-101T268 -107Q321 -107 348 -93T386 -57T396 -6V73L425 51Q408 32 384 17T330 -6T267 -15ZM294 84Q322 84 348 90T396 110V357Q396 381 384 392T351 408T307 413Q253 413 224 391T183 330T171 243Q171 171 203 128T294 84Z" />
<glyph unicode="h" horiz-adv-x="601" d="M70 0V710H198V417L151 447Q190 478 241 497T343 517Q400 517 442 498T507 436T531 322V0H404V300Q404 355 378 382T299 410Q272 410 245 402T198 382L196 0H70Z" />
<glyph unicode="i" horiz-adv-x="273" d="M73 0V499H200L201 0H73ZM70 579V684H203V579H70Z" />
<glyph unicode="j" horiz-adv-x="294" d="M8 -193V-87Q40 -89 58 -81T85 -55T94 -10V504H221L222 -11Q222 -78 195 -118T120 -175T8 -193ZM91 584V689H224V584H91Z" />
<glyph unicode="k" horiz-adv-x="566" d="M169 285L365 504H520L235 218L169 285ZM196 0H70V695H198L196 0ZM260 335L539 0H377L170 249L260 335Z" />
<glyph unicode="l" horiz-adv-x="266" d="M196 0H70V695H196V0Z" />
<glyph unicode="m" horiz-adv-x="907" d="M523 336V0H396V314Q396 333 391 350T374 381T341 402T287 410Q262 410 239 405T197 392V0H70V462Q91 473 120 483T183 500T252 512T318 517Q387 517 432 499T500 440T523 336ZM386 432Q418 459 459 477T545 506T632 517Q701
517 746 499T814 440T837 336V0H710V314Q710 333 705 350T688 381T655 402T601 410Q576 410 553 403T511 382L386 432Z" />
<glyph unicode="n" horiz-adv-x="598" d="M70 462Q91 473 120 483T183 500T252 512T318 517Q387 517 433 499T504 440T528 336V0H401V314Q401 333 396 350T379 381T346 402T292 410Q267 410 242 405T197 392V0H70V462Z" />
<glyph unicode="o" horiz-adv-x="584" d="M292 -15Q167 -15 105 54T43 253Q43 393 106 456T291 519Q375 519 430 490T514 401T542 253Q542 123 477 54T292 -15ZM291 89Q335 89 362 109T403 166T416 253Q416 310 403 346T362 399T291 416Q247 416 220 398T181 344T169
253Q169 174 197 132T291 89Z" />
<glyph unicode="p" horiz-adv-x="592" d="M321 -14Q304 -14 276 -11T218 3T167 32L195 73V-191H70V402Q70 434 89 456T141 492T215 512T300 519Q371 519 427 494T516 409T549 245Q549 167 522 109T445 18T321 -14ZM290 90Q334 90 363 107T406 159T421 249Q421
297 411 333T373 390T295 411Q246 411 221 401T195 373V115Q218 102 243 96T290 90Z" />
<glyph unicode="q" horiz-adv-x="592" d="M309 517Q367 517 415 505T493 464T522 382V-201H397V78L425 37Q404 15 376 4T320 -10T276 -14Q164 -14 104 53T43 242Q43 322 63 375T121 460T206 504T309 517ZM305 409Q253 409 224 389T183 332T171 248Q171 195 187
160T232 107T302 90Q326 90 350 96T397 115V361Q397 378 384 388T349 404T305 409Z" />
<glyph unicode="r" horiz-adv-x="414" d="M70 0V455Q84 465 119 479T202 505T297 517Q333 517 354 512T389 498V402Q369 405 344 407T292 409T241 406T197 401V0H70Z" />
<glyph unicode="s" horiz-adv-x="475" d="M218 -15Q164 -15 126 -4T53 24V139Q76 124 101 111T156 89T221 81Q260 81 279 96T299 134Q299 154 284 165T245 185T194 201Q169 207 144 217T97 244T64 287T51 352Q51 397 69 428T116 478T180 506T248 514Q306 513 341
501T407 472V368Q372 387 340 402T264 418Q225 418 204 405T182 367Q182 346 195 334T229 314T276 299Q301 292 327 284T377 260T415 217T430 147Q429 88 399 53T320 1T218 -15Z" />
<glyph unicode="t" horiz-adv-x="399" d="M263 -16Q185 -16 144 22T103 134V404H25V504H103V644H235V504H351V404H235V154Q235 124 246 109T288 94Q304 94 321 99T351 112V2Q332 -8 309 -12T263 -16Z" />
<glyph unicode="u" horiz-adv-x="595" d="M300 -15Q231 -15 179 7T99 75T70 190V504H197V204Q197 148 222 121T301 94Q355 94 379 121T404 204V504H525V190Q525 86 465 36T300 -15Z" />
<glyph unicode="v" horiz-adv-x="605" d="M239 0L28 504H165L327 101L297 99L445 504H578L366 0H239Z" />
<glyph unicode="w" horiz-adv-x="818" d="M196 0L28 504H164L284 85L245 81L360 504H458L571 93H540L658 504H791L623 0H506L396 360L418 354L313 0H196Z" />
<glyph unicode="x" horiz-adv-x="576" d="M306 207L161 0H25L245 290L306 207ZM545 0H393L30 504H182L545 0ZM265 293L414 504H550L325 207L265 293Z" />
<glyph unicode="y" horiz-adv-x="578" d="M164 -195Q142 -195 122 -191T86 -180V-74Q100 -79 113 -82T141 -85Q168 -85 187 -71T220 -29T241 45L243 -24L28 504H173L303 129H288L416 504H551L348 -19Q322 -86 292 -124T229 -179T164 -195Z" />
<glyph unicode="z" horiz-adv-x="482" d="M45 0V103L324 435L338 407H51V504H437V403L172 71L169 104H437V0H45Z" />
<glyph unicode="{" horiz-adv-x="387" d="M320 -109Q248 -109 206 -90T144 -36T125 45V189Q125 212 114 225T89 245T68 253V336Q75 338 88 344T113 363T125 399V543Q125 590 144 625T205 679T320 698H339V584H324Q300 584 286 576T267 552T261 512V396Q261 356
238 332T184 294Q215 282 238 258T261 192V76Q261 53 266 37T286 13T324 4H339V-109H320Z" />
<glyph unicode="|" horiz-adv-x="467" d="M185 -99V666H287V-99H185Z" />
<glyph unicode="}" horiz-adv-x="381" d="M58 -109V4H72Q96 5 110 13T129 37T135 76V192Q135 233 158 257T212 294Q182 307 159 331T135 396V512Q135 536 130 551T110 575T72 584H58V698H76Q148 698 190 679T252 625T271 543V399Q271 376 282 363T307 344T327
336V253Q321 251 307 245T282 226T271 189V45Q271 -1 252 -36T191 -90T76 -109H58Z" />
<glyph unicode="~" horiz-adv-x="512" d="M98 227V303Q124 334 150 339T203 336T256 313T309 290T362 286T414 323V247Q389 216 363 211T310 214T257 237T203 260T150 264T98 227Z" />
<glyph unicode="&#xa0;" horiz-adv-x="280" />
<glyph unicode="&#xa1;" horiz-adv-x="397" d="M142 -168L157 320H250L265 -168H142ZM145 396V499H262V396H145Z" />
<glyph unicode="&#xa2;" horiz-adv-x="499" d="M240 547V668H342V547H240ZM240 0V111H342V0H240ZM299 67Q249 67 203 81T121 126T64 206T43 325Q43 398 63 449T118 532T199 580T298 595Q339 595 380 587T456 564V453Q421 468 388 477T318 487Q247 487 208 452T169
338Q169 255 205 216T323 176Q360 176 394 187T457 212V102Q422 85 384 76T299 67Z" />
<glyph unicode="&#xa3;" horiz-adv-x="559" d="M132 487Q132 532 152 575T219 647T344 676Q390 676 431 662T504 630V514Q474 536 441 550T368 564Q327 564 302 552T264 519T252 473V118Q296 106 337 99T419 96T504 123V14Q467 -10 430 -15T354 -14T278 1T201
16T126 16T50 -15V97Q73 111 93 114T132 121V487ZM50 276V374H420V276H50Z" />
<glyph unicode="&#xa4;" horiz-adv-x="493" d="M247 156Q197 156 155 180T89 247T64 339Q64 390 88 431T155 497T247 522Q298 522 339 498T405 432T430 339Q430 289 406 247T340 181T247 156ZM246 245Q283 245 308 271T334 339Q334 381 309 407T246 434Q209 434
184 408T158 339Q158 297 183 271T246 245ZM115 267L176 207L102 134L43 193L115 267ZM392 542L451 483L378 409L318 470L392 542ZM176 470L115 409L43 483L102 542L176 470ZM451 193L392 134L318 207L378 267L451 193Z" />
<glyph unicode="&#xa5;" horiz-adv-x="666" d="M275 0V122H130V201H275V286H130V365H226L18 667H167L336 397L506 667H654L446 365H542V286H397V201H542V122H397V0H275Z" />
<glyph unicode="&#xa6;" horiz-adv-x="467" d="M287 218V-99H185V218H287ZM185 349V666H287V349H185Z" />
<glyph unicode="&#xa7;" horiz-adv-x="576" d="M250 -8Q193 -8 147 6T65 42V147Q97 121 138 105T236 89Q251 89 269 90T306 97T336 113T348 141Q348 156 334 167T291 191T213 216Q173 228 138 244T82 285T60 350Q60 376 71 394T99 424T137 443T175 452Q163 456
150 467T128 495T119 532Q119 567 134 594T176 639T242 666T328 676Q373 676 414 665T489 636V540Q454 559 419 569T343 579Q325 579 299 576T254 561T235 528Q235 518 243 508T275 487T342 464Q384 453 425 436T494 389T521 312Q521 290 511 274T486 248T453 231T421
221Q441 208 452 183T463 131Q463 66 406 29T250 -8ZM358 271Q379 275 392 284T405 308Q405 321 396 332T365 353T304 373Q284 378 266 383T233 394Q210 392 193 382T176 352Q176 346 180 339T203 324T259 305Q281 299 306 291T358 271Z" />
<glyph unicode="&#xa8;" horiz-adv-x="417" d="M238 560V654H353V560H238ZM65 560V654H179V560H65Z" />
<glyph unicode="&#xa9;" horiz-adv-x="778" d="M390 -8Q320 -8 258 18T149 92T75 201T48 333Q48 404 74 466T148 575T258 648T390 675Q461 675 523 649T632 575T705 466T732 333Q732 263 706 201T632 92T523 19T390 -8ZM396 134Q358 134 326 144T268 178T229 240T215
334Q215 390 229 428T268 489T325 523T396 533Q428 533 458 527T519 509V445Q489 458 461 464T402 470Q366 470 340 457T300 415T286 334Q286 283 300 253T340 210T402 197Q432 197 460 203T519 223V159Q489 147 459 141T396 134ZM390 41Q450 41 503 64T596 127T659
220T682 333Q682 394 660 447T597 540T503 603T390 626Q330 626 277 604T184 541T121 447T98 333Q98 273 120 220T183 127T277 64T390 41Z" />
<glyph unicode="&#xaa;" horiz-adv-x="401" d="M194 384Q172 384 150 388T110 402T82 431T71 476Q71 520 97 542T178 564Q206 564 224 560T246 552Q246 585 232 601T188 618Q162 618 138 613T98 601V657Q117 664 142 669T192 675Q256 675 288 645T320 557V475Q320
447 310 429T283 401T243 388T194 384ZM196 437Q216 437 231 444T247 473V511Q244 512 231 515T201 519Q188 519 175 516T153 504T144 478Q144 463 151 454T170 441T196 437Z" />
<glyph unicode="&#xab;" horiz-adv-x="606" d="M418 64L249 255L418 445H549L369 255L549 64H418ZM202 64L33 255L202 445H333L153 255L333 64H202Z" />
<glyph unicode="&#xac;" horiz-adv-x="629" d="M447 151V243H97V329H532V151H447Z" />
<glyph unicode="&#xad;" horiz-adv-x="600" d="M79 257V351H384V257H79Z" />
<glyph unicode="&#xae;" horiz-adv-x="778" d="M390 -8Q320 -8 258 18T149 92T76 201T49 333Q49 404 75 466T149 575T258 648T390 675Q461 675 523 649T632 575T705 466T732 333Q732 263 706 201T632 92T523 19T390 -8ZM390 41Q451 41 504 64T597 127T660 220T683
333Q683 394 660 447T597 540T504 603T390 626Q330 626 277 604T184 541T121 447T98 333Q98 273 121 220T184 127T277 64T390 41ZM255 139V528H403Q469 528 508 498T548 409Q548 380 540 360T518 326T491 305T464 294L564 139H483L397 283H326V139H255ZM326 341H405Q432
341 447 349T469 372T476 404Q476 421 470 435T448 459T405 468H326V341Z" />
<glyph unicode="&#xaf;" horiz-adv-x="399" d="M68 559V642H332V559H68Z" />
<glyph unicode="&#xb0;" horiz-adv-x="387" d="M191 448Q138 448 110 476T82 558Q82 612 110 640T191 669Q244 669 272 641T300 558Q300 504 272 476T191 448ZM191 495Q222 495 236 509T251 559Q251 592 237 607T191 622Q159 622 145 607T131 559Q131 524 145
510T191 495Z" />
<glyph unicode="&#xb1;" horiz-adv-x="585" d="M251 158V295H114V381H251V517H337V381H473V295H337V158H251ZM114 20V102H473V20H114Z" />
<glyph unicode="&#xb2;" horiz-adv-x="334" d="M48 464V517Q69 533 94 553T142 596T179 645T194 697Q194 722 177 735T137 749Q109 749 89 739T51 717V796Q71 808 98 817T156 827Q207 827 236 811T278 771T291 720Q291 684 271 649T219 585T151 535L141 550H294V464H48Z" />
<glyph unicode="&#xb3;" horiz-adv-x="329" d="M149 459Q120 459 95 467T47 485V561Q69 548 89 540T135 531Q160 531 178 542T196 577Q196 598 180 610T133 622H94V684H135Q153 684 166 693T179 723Q179 737 164 745T127 754Q107 754 89 749T55 735V805Q74 814
96 820T145 827Q181 827 210 816T258 782T276 729Q276 707 266 692T244 668T225 658Q240 652 256 641T282 612T293 565Q293 539 282 520T251 487T205 466T149 459Z" />
<glyph unicode="&#xb4;" horiz-adv-x="255" d="M62 555L111 676H237L134 555H62Z" />
<glyph unicode="&#xb5;" horiz-adv-x="628" d="M99 -210V499H221V177Q221 159 227 140T257 108T330 94Q357 94 379 97T420 106V499H542V47Q537 45 518 36T468 18T398 1T313 -7Q289 -7 270 -2T239 9T221 15V-210H99Z" />
<glyph unicode="&#xb6;" horiz-adv-x="487" d="M326 0V219H289Q167 219 103 276T39 444Q39 551 103 609T290 667H426V0H326Z" />
<glyph unicode="&#xb7;" horiz-adv-x="337" d="M111 219V328H222V219H111Z" />
<glyph unicode="&#xb8;" horiz-adv-x="270" d="M49 -129L137 -5H222L167 -129H49Z" />
<glyph unicode="&#xb9;" horiz-adv-x="242" d="M85 463V757L100 722L35 684V777L106 822H179V463H85Z" />
<glyph unicode="&#xba;" horiz-adv-x="421" d="M208 389Q172 389 142 403T93 448T75 532Q75 586 93 617T141 662T208 676Q244 676 274 663T322 618T340 532Q340 480 322 449T274 403T208 389ZM208 443Q241 443 256 464T272 532Q272 579 257 601T208 623Q175 623
159 601T143 532Q143 486 159 465T208 443Z" />
<glyph unicode="&#xbb;" horiz-adv-x="612" d="M276 64L455 255L276 445H406L576 255L406 64H276ZM60 64L239 255L60 445H190L360 255L190 64H60Z" />
<glyph unicode="&#xbc;" horiz-adv-x="736" d="M85 314V608L100 573L35 535V628L106 673H179V314H85ZM66 -22L473 685H569L162 -22H66ZM550 1V85H400V156L563 360H639V158H686V85H639V1H550ZM480 158H550V280L583 286L480 158Z" />
<glyph unicode="&#xbd;" horiz-adv-x="722" d="M85 314V608L100 573L35 535V628L106 673H179V314H85ZM62 -22L469 685H565L158 -22H62ZM426 1V54Q447 70 472 90T520 133T557 182T572 234Q572 259 555 272T515 286Q487 286 467 276T429 254V333Q449 345 476 354T534
364Q585 364 614 348T656 308T669 257Q669 221 649 186T597 122T529 72L519 87H672V1H426Z" />
<glyph unicode="&#xbe;" horiz-adv-x="775" d="M149 316Q120 316 95 324T47 342V418Q69 405 89 397T135 388Q160 388 178 399T196 434Q196 455 180 467T133 479H94V541H135Q153 541 166 550T179 580Q179 594 164 602T127 611Q107 611 89 606T55 592V662Q74 671
96 677T145 684Q181 684 210 673T258 639T276 586Q276 564 266 549T244 525T225 515Q240 509 256 498T282 469T293 422Q293 396 282 377T251 344T205 323T149 316ZM127 -22L534 685H630L223 -22H127ZM589 1V85H439V156L602 360H678V158H725V85H678V1H589ZM519 158H589V280L622
286L519 158Z" />
<glyph unicode="&#xbf;" horiz-adv-x="504" d="M279 -176Q238 -176 201 -165T136 -130T92 -70T76 14Q76 58 91 85T128 133T173 173T210 221T225 292V320H330V288Q330 233 315 198T278 140T234 99T196 62T181 14Q181 -20 195 -40T235 -68T293 -77Q335 -77 373 -63T435
-30V-133Q426 -139 404 -149T349 -168T279 -176ZM219 396V499H336V396H219Z" />
<glyph unicode="&#xc0;" horiz-adv-x="678" d="M15 0L271 667H418L663 0H522L304 621L364 627L147 0H15ZM150 163L183 267H493L505 163H150ZM309 718L216 831H332L381 718H309Z" />
<glyph unicode="&#xc1;" horiz-adv-x="678" d="M15 0L271 667H418L663 0H522L304 621L364 627L147 0H15ZM150 163L183 267H493L505 163H150ZM307 723L349 837H482L374 723H307Z" />
<glyph unicode="&#xc2;" horiz-adv-x="678" d="M15 0L271 667H418L663 0H522L304 621L364 627L147 0H15ZM150 163L183 267H493L505 163H150ZM202 713L288 834H392L477 713H393L340 775L286 713H202Z" />
<glyph unicode="&#xc3;" horiz-adv-x="678" d="M15 0L271 667H418L663 0H522L304 621L364 627L147 0H15ZM150 163L183 267H493L505 163H150ZM237 722H175Q170 760 183 790T221 837T276 854Q301 854 321 845T358 823T391 800T423 790Q440 790 448 804T454 846H521Q524
807 511 778T473 734T417 718Q388 718 367 727T330 749T300 771T272 781Q253 781 244 764T237 722Z" />
<glyph unicode="&#xc4;" horiz-adv-x="678" d="M15 0L271 667H418L663 0H522L304 621L364 627L147 0H15ZM150 163L183 267H493L505 163H150ZM367 710V804H482V710H367ZM194 710V804H308V710H194Z" />
<glyph unicode="&#xc5;" horiz-adv-x="678" d="M15 0L271 667H418L663 0H522L304 621L364 627L147 0H15ZM150 163L183 267H493L505 163H150ZM339 658Q282 658 254 682T225 752Q225 798 253 822T339 846Q396 846 424 822T453 752Q453 706 425 682T339 658ZM339
712Q367 712 378 721T389 752Q389 774 378 783T339 792Q311 792 300 783T289 752Q289 730 300 721T339 712Z" />
<glyph unicode="&#xc6;" horiz-adv-x="1008" d="M504 630L576 622L168 0H15L478 667H941V558H640V391H901V281H640V110H941V0H504V630ZM555 165H188L242 269H564L555 165Z" />
<glyph unicode="&#xc7;" horiz-adv-x="628" d="M366 -11Q207 -11 125 73T43 334Q43 505 123 592T366 680Q419 680 472 667T575 631V511Q525 543 477 557T384 571Q318 571 274 548T207 472T184 333Q184 247 206 196T274 121T389 98Q430 98 477 111T575 156V36Q546
22 511 11T439 -5T366 -11ZM230 -118L318 6H403L348 -118H230Z" />
<glyph unicode="&#xc8;" horiz-adv-x="590" d="M75 0V667H522V558H212V389H482V279H211V109H522V0H75ZM274 718L181 831H297L346 718H274Z" />
<glyph unicode="&#xc9;" horiz-adv-x="590" d="M75 0V667H522V558H212V389H482V279H211V109H522V0H75ZM272 723L314 837H447L339 723H272Z" />
<glyph unicode="&#xca;" horiz-adv-x="590" d="M75 0V667H522V558H212V389H482V279H211V109H522V0H75ZM167 713L253 834H357L442 713H358L305 775L251 713H167Z" />
<glyph unicode="&#xcb;" horiz-adv-x="590" d="M75 0V667H522V558H212V389H482V279H211V109H522V0H75ZM332 710V804H447V710H332ZM159 710V804H273V710H159Z" />
<glyph unicode="&#xcc;" horiz-adv-x="287" d="M75 0V667H212V0H75ZM116 718L23 831H139L188 718H116Z" />
<glyph unicode="&#xcd;" horiz-adv-x="287" d="M75 0V667H212V0H75ZM115 723L157 837H290L182 723H115Z" />
<glyph unicode="&#xce;" horiz-adv-x="287" d="M75 0V667H212V0H75ZM10 713L96 834H200L285 713H201L148 775L94 713H10Z" />
<glyph unicode="&#xcf;" horiz-adv-x="287" d="M75 0V667H212V0H75ZM174 710V804H289V710H174ZM1 710V804H115V710H1Z" />
<glyph unicode="&#xd0;" horiz-adv-x="699" d="M75 0V667H326Q492 667 571 583T651 334Q651 169 572 85T326 0H75ZM211 109H311Q412 109 462 163T512 334Q512 451 462 505T311 559H211V109ZM263 294V374H547V294H263Z" />
<glyph unicode="&#xd1;" horiz-adv-x="724" d="M75 0V667H197L561 170L522 90V667H649V0H538L166 500L202 561V0H75ZM260 722H198Q193 760 206 790T244 837T299 854Q324 854 344 845T381 823T414 800T446 790Q463 790 471 804T477 846H544Q547 807 534 778T496
734T440 718Q411 718 390 727T353 749T323 771T295 781Q276 781 267 764T260 722Z" />
<glyph unicode="&#xd2;" horiz-adv-x="732" d="M366 -12Q267 -12 196 25T86 139T48 333Q48 504 130 591T366 679Q465 679 536 642T646 528T684 334Q684 163 602 76T366 -12ZM366 102Q425 102 464 125T524 199T544 334Q544 418 524 468T465 542T366 565Q307 565
268 542T208 468T188 333Q188 249 208 199T267 125T366 102ZM339 733L246 846H362L411 733H339Z" />
<glyph unicode="&#xd3;" horiz-adv-x="732" d="M366 -12Q267 -12 196 25T86 139T48 333Q48 504 130 591T366 679Q465 679 536 642T646 528T684 334Q684 163 602 76T366 -12ZM366 102Q425 102 464 125T524 199T544 334Q544 418 524 468T465 542T366 565Q307 565
268 542T208 468T188 333Q188 249 208 199T267 125T366 102ZM337 738L379 852H512L404 738H337Z" />
<glyph unicode="&#xd4;" horiz-adv-x="732" d="M366 -12Q267 -12 196 25T86 139T48 333Q48 504 130 591T366 679Q465 679 536 642T646 528T684 334Q684 163 602 76T366 -12ZM366 102Q425 102 464 125T524 199T544 334Q544 418 524 468T465 542T366 565Q307 565
268 542T208 468T188 333Q188 249 208 199T267 125T366 102ZM232 728L318 849H422L507 728H423L370 790L316 728H232Z" />
<glyph unicode="&#xd5;" horiz-adv-x="732" d="M366 -12Q267 -12 196 25T86 139T48 333Q48 504 130 591T366 679Q465 679 536 642T646 528T684 334Q684 163 602 76T366 -12ZM366 102Q425 102 464 125T524 199T544 334Q544 418 524 468T465 542T366 565Q307 565
268 542T208 468T188 333Q188 249 208 199T267 125T366 102ZM267 737H205Q200 775 213 805T251 852T306 869Q331 869 351 860T388 838T421 815T453 805Q470 805 478 819T484 861H551Q554 822 541 793T503 749T447 733Q418 733 397 742T360 764T330 786T302 796Q283
796 274 779T267 737Z" />
<glyph unicode="&#xd6;" horiz-adv-x="732" d="M366 -12Q267 -12 196 25T86 139T48 333Q48 504 130 591T366 679Q465 679 536 642T646 528T684 334Q684 163 602 76T366 -12ZM366 102Q425 102 464 125T524 199T544 334Q544 418 524 468T465 542T366 565Q307 565
268 542T208 468T188 333Q188 249 208 199T267 125T366 102ZM397 725V819H512V725H397ZM224 725V819H338V725H224Z" />
<glyph unicode="&#xd7;" horiz-adv-x="508" d="M75 77L211 256L75 436H162L255 314L349 436H436L300 256L436 77H349L255 199L162 77H75Z" />
<glyph unicode="&#xd8;" horiz-adv-x="732" d="M34 0L612 667H708L128 0H34ZM366 -12Q267 -12 196 25T86 139T48 333Q48 504 130 591T366 679Q465 679 536 642T646 528T684 334Q684 163 602 76T366 -12ZM366 102Q425 102 464 125T524 199T544 334Q544 418 524
468T465 542T366 565Q307 565 268 542T208 468T188 333Q188 249 208 199T267 125T366 102Z" />
<glyph unicode="&#xd9;" horiz-adv-x="716" d="M369 -17Q224 -17 150 50T75 256V667H216V260Q216 174 252 133T363 92Q434 92 472 133T511 260V667H641V256Q641 164 607 103T512 13T369 -17ZM327 723L234 836H350L399 723H327Z" />
<glyph unicode="&#xda;" horiz-adv-x="716" d="M369 -17Q224 -17 150 50T75 256V667H216V260Q216 174 252 133T363 92Q434 92 472 133T511 260V667H641V256Q641 164 607 103T512 13T369 -17ZM326 728L368 842H501L393 728H326Z" />
<glyph unicode="&#xdb;" horiz-adv-x="716" d="M369 -17Q224 -17 150 50T75 256V667H216V260Q216 174 252 133T363 92Q434 92 472 133T511 260V667H641V256Q641 164 607 103T512 13T369 -17ZM221 718L307 839H411L496 718H412L359 780L305 718H221Z" />
<glyph unicode="&#xdc;" horiz-adv-x="716" d="M369 -17Q224 -17 150 50T75 256V667H216V260Q216 174 252 133T363 92Q434 92 472 133T511 260V667H641V256Q641 164 607 103T512 13T369 -17ZM385 715V809H500V715H385ZM212 715V809H326V715H212Z" />
<glyph unicode="&#xdd;" horiz-adv-x="665" d="M271 0V294L19 667H186L382 350L322 352L504 667H644L387 260L407 334V0H271ZM320 723L362 837H495L387 723H320Z" />
<glyph unicode="&#xde;" horiz-adv-x="612" d="M86 0V667H208V567H316Q433 567 496 510T559 347Q559 241 496 184T316 126H208V0H86ZM208 232H303Q346 232 372 242T412 269T432 306T437 347Q437 367 432 387T413 424T372 452T303 462H208V232Z" />
<glyph unicode="&#xdf;" horiz-adv-x="621" d="M70 0V433Q70 506 96 564T174 657T305 691Q378 691 433 671T518 615T549 531Q549 497 538 472T510 428T473 398T438 381Q468 372 500 349T555 286T578 184Q578 130 556 85T488 13T373 -14Q349 -15 323 -11T267 1V109Q292
96 315 91T357 85Q401 85 425 111T450 189Q450 230 430 256T379 294T315 308V411Q366 411 392 435T418 502Q418 530 404 548T367 575T312 585Q256 585 227 546T198 437V0H70Z" />
<glyph unicode="&#xe0;" horiz-adv-x="567" d="M259 -15Q216 -15 178 -7T110 20T63 71T45 152Q45 204 66 239T127 293T227 312Q263 312 294 306T350 288T391 263L400 192Q379 206 347 214T276 223Q223 223 197 206T171 153Q171 129 185 112T221 87T267 79Q322
79 346 86T371 119V317Q371 366 340 388T253 411Q210 411 165 397T92 359V474Q119 492 173 504T289 517Q315 517 344 513T400 497T449 466T484 417T497 345L496 106Q496 60 467 34T384 -4T259 -15ZM253 570L150 691H275L324 570H253Z" />
<glyph unicode="&#xe1;" horiz-adv-x="567" d="M259 -15Q216 -15 178 -7T110 20T63 71T45 152Q45 204 66 239T127 293T227 312Q263 312 294 306T350 288T391 263L400 192Q379 206 347 214T276 223Q223 223 197 206T171 153Q171 129 185 112T221 87T267 79Q322
79 346 86T371 119V317Q371 366 340 388T253 411Q210 411 165 397T92 359V474Q119 492 173 504T289 517Q315 517 344 513T400 497T449 466T484 417T497 345L496 106Q496 60 467 34T384 -4T259 -15ZM246 570L295 691H421L318 570H246Z" />
<glyph unicode="&#xe2;" horiz-adv-x="567" d="M259 -15Q216 -15 178 -7T110 20T63 71T45 152Q45 204 66 239T127 293T227 312Q263 312 294 306T350 288T391 263L400 192Q379 206 347 214T276 223Q223 223 197 206T171 153Q171 129 185 112T221 87T267 79Q322
79 346 86T371 119V317Q371 366 340 388T253 411Q210 411 165 397T92 359V474Q119 492 173 504T289 517Q315 517 344 513T400 497T449 466T484 417T497 345L496 106Q496 60 467 34T384 -4T259 -15ZM154 574L240 695H344L429 574H345L292 636L238 574H154Z" />
<glyph unicode="&#xe3;" horiz-adv-x="567" d="M259 -15Q216 -15 178 -7T110 20T63 71T45 152Q45 204 66 239T127 293T227 312Q263 312 294 306T350 288T391 263L400 192Q379 206 347 214T276 223Q223 223 197 206T171 153Q171 129 185 112T221 87T267 79Q322
79 346 86T371 119V317Q371 366 340 388T253 411Q210 411 165 397T92 359V474Q119 492 173 504T289 517Q315 517 344 513T400 497T449 466T484 417T497 345L496 106Q496 60 467 34T384 -4T259 -15ZM181 560H119Q114 598 127 628T165 675T220 692Q245 692 265 683T302
661T335 638T367 628Q384 628 392 642T398 684H465Q468 645 455 616T417 572T361 556Q332 556 311 565T274 587T244 609T216 619Q197 619 188 602T181 560Z" />
<glyph unicode="&#xe4;" horiz-adv-x="567" d="M259 -15Q216 -15 178 -7T110 20T63 71T45 152Q45 204 66 239T127 293T227 312Q263 312 294 306T350 288T391 263L400 192Q379 206 347 214T276 223Q223 223 197 206T171 153Q171 129 185 112T221 87T267 79Q322
79 346 86T371 119V317Q371 366 340 388T253 411Q210 411 165 397T92 359V474Q119 492 173 504T289 517Q315 517 344 513T400 497T449 466T484 417T497 345L496 106Q496 60 467 34T384 -4T259 -15ZM321 575V669H436V575H321ZM148 575V669H262V575H148Z" />
<glyph unicode="&#xe5;" horiz-adv-x="567" d="M259 -15Q216 -15 178 -7T110 20T63 71T45 152Q45 204 66 239T127 293T227 312Q263 312 294 306T350 288T391 263L400 192Q379 206 347 214T276 223Q223 223 197 206T171 153Q171 129 185 112T221 87T267 79Q322
79 346 86T371 119V317Q371 366 340 388T253 411Q210 411 165 397T92 359V474Q119 492 173 504T289 517Q315 517 344 513T400 497T449 466T484 417T497 345L496 106Q496 60 467 34T384 -4T259 -15ZM286 550Q229 550 201 574T172 644Q172 690 200 714T286 738Q343
738 371 714T400 644Q400 598 372 574T286 550ZM286 604Q314 604 325 613T336 644Q336 666 325 675T286 684Q258 684 247 675T236 644Q236 622 247 613T286 604Z" />
<glyph unicode="&#xe6;" horiz-adv-x="886" d="M448 51Q416 27 368 4T252 -19Q194 -19 147 -3T73 49T45 148Q45 201 68 237T136 293T240 312Q269 312 298 306T351 290T391 266L400 192Q379 206 347 214T276 223Q221 223 196 204T171 146Q171 123 184 107T221 83T271
74Q296 74 321 78T370 92T406 117L448 51ZM371 213V315Q371 365 340 387T253 410Q210 410 165 396T92 358V474Q119 492 173 504T289 517Q315 517 344 513T400 497T449 466T484 417T497 345L496 222Q496 155 533 122T646 88Q692 88 733 101T800 132V19Q765 0 721
-10T619 -20Q544 -20 488 9T402 90T371 213ZM371 247Q371 377 434 447T614 517Q696 517 747 481T821 379T843 221H453L444 307H742L718 271Q716 349 691 383T609 417Q575 417 550 402T511 351T497 253L371 247Z" />
<glyph unicode="&#xe7;" horiz-adv-x="499" d="M299 -11Q249 -11 203 3T121 48T64 128T43 247Q43 320 63 371T118 454T199 502T298 517Q339 517 380 509T456 486V375Q421 390 388 399T318 409Q247 409 208 374T169 260Q169 177 205 138T323 98Q360 98 394 109T457
134V24Q422 7 384 -2T299 -11ZM167 -129L255 -5H340L285 -129H167Z" />
<glyph unicode="&#xe8;" horiz-adv-x="558" d="M293 -15Q218 -15 162 16T74 105T43 247Q43 379 106 449T286 519Q368 519 419 483T493 380T515 221H125L116 307H414L390 271Q388 350 363 384T281 419Q247 419 222 404T184 352T170 253Q170 175 206 134T319 93Q350
93 378 99T431 114T474 132V19Q438 4 394 -5T293 -15ZM254 565L151 686H276L325 565H254Z" />
<glyph unicode="&#xe9;" horiz-adv-x="558" d="M293 -15Q218 -15 162 16T74 105T43 247Q43 379 106 449T286 519Q368 519 419 483T493 380T515 221H125L116 307H414L390 271Q388 350 363 384T281 419Q247 419 222 404T184 352T170 253Q170 175 206 134T319 93Q350
93 378 99T431 114T474 132V19Q438 4 394 -5T293 -15ZM247 565L296 686H422L319 565H247Z" />
<glyph unicode="&#xea;" horiz-adv-x="558" d="M293 -15Q218 -15 162 16T74 105T43 247Q43 379 106 449T286 519Q368 519 419 483T493 380T515 221H125L116 307H414L390 271Q388 350 363 384T281 419Q247 419 222 404T184 352T170 253Q170 175 206 134T319 93Q350
93 378 99T431 114T474 132V19Q438 4 394 -5T293 -15ZM155 569L241 690H345L430 569H346L293 631L239 569H155Z" />
<glyph unicode="&#xeb;" horiz-adv-x="558" d="M293 -15Q218 -15 162 16T74 105T43 247Q43 379 106 449T286 519Q368 519 419 483T493 380T515 221H125L116 307H414L390 271Q388 350 363 384T281 419Q247 419 222 404T184 352T170 253Q170 175 206 134T319 93Q350
93 378 99T431 114T474 132V19Q438 4 394 -5T293 -15ZM322 570V664H437V570H322ZM149 570V664H263V570H149Z" />
<glyph unicode="&#xec;" horiz-adv-x="315" d="M98 0V499H220V0H98ZM125 564L37 680H132L192 564H125Z" />
<glyph unicode="&#xed;" horiz-adv-x="315" d="M98 0V499H220V0H98ZM126 560L185 676H280L192 560H126Z" />
<glyph unicode="&#xee;" horiz-adv-x="315" d="M98 0V499H220V0H98ZM36 560L136 681H181L281 560H202L159 617L115 560H36Z" />
<glyph unicode="&#xef;" horiz-adv-x="315" d="M98 0V499H220V0H98ZM29 560V654H129V560H29ZM188 560V654H288V560H188Z" />
<glyph unicode="&#xf0;" horiz-adv-x="578" d="M292 -20Q167 -20 105 48T43 250Q43 381 99 449T255 517Q311 517 346 497T406 441L415 366Q394 394 362 410T291 427Q247 427 220 405T181 344T169 250Q169 167 197 126T291 84Q329 84 355 103T395 169T410 301Q410
377 389 436T334 541T257 624T171 690V695H332Q367 669 402 629T467 538T513 424T531 290Q531 138 472 59T292 -20ZM188 545L171 622L488 676L507 604L188 545Z" />
<glyph unicode="&#xf1;" horiz-adv-x="598" d="M70 462Q91 473 120 483T183 500T252 512T318 517Q387 517 433 499T504 440T528 336V0H401V314Q401 333 396 350T379 381T346 402T292 410Q267 410 242 405T197 392V0H70V462ZM194 555H132Q127 593 140 623T178 670T233
687Q258 687 278 678T315 656T348 633T380 623Q397 623 405 637T411 679H478Q481 640 468 611T430 567T374 551Q345 551 324 560T287 582T257 604T229 614Q210 614 201 597T194 555Z" />
<glyph unicode="&#xf2;" horiz-adv-x="584" d="M292 -15Q167 -15 105 54T43 253Q43 393 106 456T291 519Q375 519 430 490T514 401T542 253Q542 123 477 54T292 -15ZM291 89Q335 89 362 109T403 166T416 253Q416 310 403 346T362 399T291 416Q247 416 220 398T181
344T169 253Q169 174 197 132T291 89ZM261 570L158 691H283L332 570H261Z" />
<glyph unicode="&#xf3;" horiz-adv-x="584" d="M292 -15Q167 -15 105 54T43 253Q43 393 106 456T291 519Q375 519 430 490T514 401T542 253Q542 123 477 54T292 -15ZM291 89Q335 89 362 109T403 166T416 253Q416 310 403 346T362 399T291 416Q247 416 220 398T181
344T169 253Q169 174 197 132T291 89ZM253 570L302 691H428L325 570H253Z" />
<glyph unicode="&#xf4;" horiz-adv-x="584" d="M292 -15Q167 -15 105 54T43 253Q43 393 106 456T291 519Q375 519 430 490T514 401T542 253Q542 123 477 54T292 -15ZM291 89Q335 89 362 109T403 166T416 253Q416 310 403 346T362 399T291 416Q247 416 220 398T181
344T169 253Q169 174 197 132T291 89ZM161 574L247 695H351L436 574H352L299 636L245 574H161Z" />
<glyph unicode="&#xf5;" horiz-adv-x="584" d="M292 -15Q167 -15 105 54T43 253Q43 393 106 456T291 519Q375 519 430 490T514 401T542 253Q542 123 477 54T292 -15ZM291 89Q335 89 362 109T403 166T416 253Q416 310 403 346T362 399T291 416Q247 416 220 398T181
344T169 253Q169 174 197 132T291 89ZM189 560H127Q122 598 135 628T173 675T228 692Q253 692 273 683T310 661T343 638T375 628Q392 628 400 642T406 684H473Q476 645 463 616T425 572T369 556Q340 556 319 565T282 587T252 609T224 619Q205 619 196 602T189 560Z"
/>
<glyph unicode="&#xf6;" horiz-adv-x="584" d="M292 -15Q167 -15 105 54T43 253Q43 393 106 456T291 519Q375 519 430 490T514 401T542 253Q542 123 477 54T292 -15ZM291 89Q335 89 362 109T403 166T416 253Q416 310 403 346T362 399T291 416Q247 416 220 398T181
344T169 253Q169 174 197 132T291 89ZM328 575V669H443V575H328ZM155 575V669H269V575H155Z" />
<glyph unicode="&#xf7;" horiz-adv-x="628" d="M102 216V302H528V216H102ZM264 49V147H366V49H264ZM264 371V469H366V371H264Z" />
<glyph unicode="&#xf8;" horiz-adv-x="594" d="M143 0H24L449 499H568L143 0ZM292 -15Q167 -15 105 54T43 253Q43 393 106 456T291 519Q375 519 430 490T514 401T542 253Q542 123 477 54T292 -15ZM291 89Q335 89 362 109T403 166T416 253Q416 310 403 346T362
399T291 416Q247 416 220 398T181 344T169 253Q169 174 197 132T291 89Z" />
<glyph unicode="&#xf9;" horiz-adv-x="595" d="M300 -15Q231 -15 179 7T99 75T70 190V504H197V204Q197 148 222 121T301 94Q355 94 379 121T404 204V504H525V190Q525 86 465 36T300 -15ZM270 565L167 686H292L341 565H270Z" />
<glyph unicode="&#xfa;" horiz-adv-x="595" d="M300 -15Q231 -15 179 7T99 75T70 190V504H197V204Q197 148 222 121T301 94Q355 94 379 121T404 204V504H525V190Q525 86 465 36T300 -15ZM262 565L311 686H437L334 565H262Z" />
<glyph unicode="&#xfb;" horiz-adv-x="595" d="M300 -15Q231 -15 179 7T99 75T70 190V504H197V204Q197 148 222 121T301 94Q355 94 379 121T404 204V504H525V190Q525 86 465 36T300 -15ZM170 569L256 690H360L445 569H361L308 631L254 569H170Z" />
<glyph unicode="&#xfc;" horiz-adv-x="595" d="M300 -15Q231 -15 179 7T99 75T70 190V504H197V204Q197 148 222 121T301 94Q355 94 379 121T404 204V504H525V190Q525 86 465 36T300 -15ZM337 570V664H452V570H337ZM164 570V664H278V570H164Z" />
<glyph unicode="&#xfd;" horiz-adv-x="578" d="M164 -195Q142 -195 122 -191T86 -180V-74Q100 -79 113 -82T141 -85Q168 -85 187 -71T220 -29T241 45L243 -24L28 504H173L303 129H288L416 504H551L348 -19Q322 -86 292 -124T229 -179T164 -195ZM251 555L300 676H426L323
555H251Z" />
<glyph unicode="&#xfe;" horiz-adv-x="588" d="M196 -189H70V695H196V-189ZM196 110Q219 97 244 91T291 85Q332 85 360 101T402 152T417 239Q417 286 407 322T370 378T296 399Q264 399 235 392T196 369L82 440Q92 458 116 470T172 491T238 503T301 507Q370 507
425 482T512 397T545 235Q545 160 518 103T441 13T317 -19Q300 -19 273 -16T218 -2T168 27L196 110Z" />
<glyph unicode="&#xff;" horiz-adv-x="578" d="M164 -195Q142 -195 122 -191T86 -180V-74Q100 -79 113 -82T141 -85Q168 -85 187 -71T220 -29T241 45L243 -24L28 504H173L303 129H288L416 504H551L348 -19Q322 -86 292 -124T229 -179T164 -195ZM326 560V654H441V560H326ZM153
560V654H267V560H153Z" />
<glyph unicode="&#x2013;" horiz-adv-x="560" d="M69 245V335H489V245H69Z" />
<glyph unicode="&#x2014;" horiz-adv-x="891" d="M79 245V337H812V245H79Z" />
<glyph unicode="&#x2018;" horiz-adv-x="278" d="M137 480L47 676H158L232 480H137Z" />
<glyph unicode="&#x2019;" horiz-adv-x="278" d="M47 480L121 676H232L142 480H47Z" />
<glyph unicode="&#x201a;" horiz-adv-x="321" d="M72 -112L146 84H256L167 -112H72Z" />
<glyph unicode="&#x201c;" horiz-adv-x="435" d="M293 480L203 676H313L387 480H293ZM138 480L48 676H158L232 480H138Z" />
<glyph unicode="&#x201d;" horiz-adv-x="433" d="M203 480L277 676H387L297 480H203ZM48 480L122 676H232L142 480H48Z" />
<glyph unicode="&#x201e;" horiz-adv-x="476" d="M227 -112L301 84H412L322 -112H227ZM72 -112L146 84H256L167 -112H72Z" />
<glyph unicode="&#x2022;" horiz-adv-x="473" d="M236 181Q195 181 161 201T107 255T87 330Q87 371 107 404T161 458T236 478Q277 478 310 458T364 405T384 330Q384 289 364 255T311 201T236 181Z" />
<glyph unicode="&#x2039;" horiz-adv-x="374" d="M200 64L31 255L200 445H331L151 255L331 64H200Z" />
<glyph unicode="&#x203a;" horiz-adv-x="396" d="M53 64L233 255L53 445H184L353 255L184 64H53Z" />
</font>
</defs>
</svg>
