<?xml version="1.0" standalone="no"?>
<!DOCTYPE svg PUBLIC "-//W3C//DTD SVG 1.1//EN" "http://www.w3.org/Graphics/SVG/1.1/DTD/svg11.dtd">
<svg xmlns="http://www.w3.org/2000/svg">
<defs >
<font id="Mulish" horiz-adv-x="581" ><font-face
    font-family="Mulish ExtraLight SemiBold"
    units-per-em="1000"
    panose-1="0 0 0 0 0 0 0 0 0 0"
    ascent="1005"
    descent="-250"
    alphabetic="0" />
<glyph unicode=" " horiz-adv-x="267" />
<glyph unicode="!" horiz-adv-x="237" d="M79 195L128 705H253L141 195H79ZM19 0L38 119H157L138 0H19Z" />
<glyph unicode="&quot;" horiz-adv-x="417" d="M109 422L129 705H247L177 422H109ZM295 422L315 705H433L363 422H295Z" />
<glyph unicode="#" horiz-adv-x="600" d="M42 0L106 177H21L32 246H130L210 467H89L100 536H235L296 705H370L309 536H453L514 705H588L527 536H611L601 467H502L422 246H544L533 177H397L334 0H259L323 177H180L118 0H42ZM205 246H348L427 467H284L205 246Z" />
<glyph unicode="$" horiz-adv-x="600" d="M211 -115L230 14L251 -5Q209 -3 165 5T82 30T15 69L58 149Q100 118 153 101T280 83Q356 83 398 112T447 187Q454 228 430 254T343 291L250 309Q194 321 157 347T103 415T95 509Q105 570 140 613T230 680T356 709L338
695L359 820H441L421 695L407 709Q459 707 509 688T592 635L551 558Q519 589 474 605T371 622Q296 622 250 591T194 507Q187 464 209 437T289 398L382 380Q479 361 519 312T548 185Q535 103 467 54T293 -4L314 15L293 -115H211Z" />
<glyph unicode="%" horiz-adv-x="943" d="M272 0H179L703 705H797L272 0ZM238 283Q153 283 112 342T86 509Q102 606 155 660T288 714Q374 714 414 655T438 489Q423 393 371 338T238 283ZM241 351Q285 351 314 387T355 496Q366 573 347 609T283 646Q240 646 212
611T172 503Q160 426 179 389T241 351ZM688 -9Q602 -9 561 50T537 217Q553 314 605 368T737 422Q823 422 864 363T889 197Q873 101 821 46T688 -9ZM692 59Q736 59 764 95T804 204Q817 280 797 317T733 354Q690 354 662 319T621 211Q610 133 629 96T692 59Z" />
<glyph unicode="&amp;" horiz-adv-x="678" d="M614 -9Q570 9 533 38T470 97L499 96Q450 47 385 19T248 -9Q173 -9 122 15T47 84T33 186Q43 248 88 292T207 378L254 404L233 385Q196 432 182 474T174 566Q181 608 205 641T272 694T374 714Q425 714 462 696T517
644T529 561Q524 527 504 495T446 433T347 369L348 393L502 196H483Q515 238 539 295T576 418H665Q649 335 617 263T541 135L535 162Q557 134 589 108T659 64L614 -9ZM262 71Q318 71 363 92T449 156L439 130L260 353L303 350L261 326Q204 293 173 264T134 190Q126
136 158 104T262 71ZM371 643Q329 643 302 620T269 563Q265 538 268 519T283 478T320 425L298 423Q371 461 405 492T445 561Q452 599 431 621T371 643Z" />
<glyph unicode="&apos;" horiz-adv-x="231" d="M109 422L129 705H247L177 422H109Z" />
<glyph unicode="(" horiz-adv-x="335" d="M152 -180Q123 -104 109 -26T94 128Q94 238 120 342T191 539T292 705H379Q301 573 250 421T198 99Q198 36 208 -35T234 -180H152Z" />
<glyph unicode=")" horiz-adv-x="335" d="M46 -180H-41Q37 -48 88 104T140 426Q140 490 131 561T104 705H186Q215 629 229 551T244 397Q244 288 219 184T149 -13T46 -180Z" />
<glyph unicode="*" horiz-adv-x="456" d="M177 360L120 401L228 524L79 568L105 634L249 580L255 736H326L308 580L459 634L477 568L322 523L410 401L353 360L277 490L177 360Z" />
<glyph unicode="+" horiz-adv-x="600" d="M229 40L262 250H53L64 324H273L306 528H382L350 324H557L546 250H338L305 40H229Z" />
<glyph unicode="," horiz-adv-x="237" d="M55 -123L17 -82Q49 -53 61 -30T79 22L103 0H19L37 119H156L142 28Q138 -2 129 -27T102 -76T55 -123Z" />
<glyph unicode="-" horiz-adv-x="433" d="M67 234L80 315H373L360 234H67Z" />
<glyph unicode="." horiz-adv-x="237" d="M19 0L38 119H157L138 0H19Z" />
<glyph unicode="/" horiz-adv-x="300" d="M16 -57H-73L321 750H409L16 -57Z" />
<glyph unicode="0" horiz-adv-x="600" d="M269 -9Q139 -9 88 89T65 367Q94 546 169 630T363 714Q491 714 543 619T567 341Q539 163 462 77T269 -9ZM275 78Q349 78 397 142T468 351Q483 450 476 511T439 600T357 628Q282 628 235 565T165 358Q149 260 156 198T194
107T275 78Z" />
<glyph unicode="1" horiz-adv-x="600" d="M80 0L94 87H258L342 617L393 615L174 493L190 595L385 705H460L362 87H516L502 0H80Z" />
<glyph unicode="2" horiz-adv-x="600" d="M43 0L55 77L345 341Q397 388 424 426T459 509Q468 567 437 596T341 626Q287 626 237 609T138 553L104 631Q152 670 219 692T353 714Q429 714 479 690T551 620T563 510Q553 446 515 393T409 281L159 59L158 87H523L510 0H43Z" />
<glyph unicode="3" horiz-adv-x="600" d="M263 -9Q191 -9 129 12T28 74L68 153Q110 115 159 97T266 79Q337 79 380 106T432 195Q450 315 302 315H190L203 399H304Q368 399 411 429T463 516Q472 569 441 597T344 626Q286 626 236 608T138 551L104 630Q153 671 219
692T356 714Q468 714 523 663T565 521Q556 462 513 417T403 356L404 368Q474 356 508 307T531 182Q516 88 445 40T263 -9Z" />
<glyph unicode="4" horiz-adv-x="600" d="M332 0L356 146H28L40 220L459 705H545L468 227H573L560 146H455L433 0H332ZM368 227L425 582H452L124 202L122 227H368Z" />
<glyph unicode="5" horiz-adv-x="600" d="M279 -9Q233 -9 190 1T110 29T50 74L88 153Q130 116 178 98T282 79Q351 79 397 113T454 214Q464 279 431 318T331 358Q283 358 243 339T167 281H95L162 705H589L574 618H247L207 363H179Q212 403 259 423T362 444Q428
444 475 416T543 334T553 207Q543 140 507 92T412 17T279 -9Z" />
<glyph unicode="6" horiz-adv-x="600" d="M291 -9Q206 -9 149 31T71 153T69 357Q89 479 136 557T254 675T414 714Q472 714 523 696T608 639L566 562Q533 596 494 611T408 626Q312 626 252 561T167 357L153 272H143Q166 353 222 400T362 447Q427 447 473 417T540
334T550 206Q539 140 505 92T416 17T291 -9ZM293 75Q365 75 404 112T453 212Q464 282 431 322T333 363Q268 363 225 324T171 221Q160 155 194 115T293 75Z" />
<glyph unicode="7" horiz-adv-x="600" d="M56 0L505 657L503 617H118L132 705H612L600 628L174 0H56Z" />
<glyph unicode="8" horiz-adv-x="600" d="M269 -9Q140 -9 79 48T33 202Q45 275 97 318T223 371L221 353Q156 367 125 418T104 536Q118 620 186 667T370 714Q445 714 496 690T570 620T584 516Q573 449 528 406T416 350L418 367Q466 358 497 333T542 270T547 180Q533
88 460 40T269 -9ZM274 73Q353 73 397 103T452 194Q462 255 427 285T309 316Q229 316 185 287T131 200Q121 141 156 107T274 73ZM324 398Q393 398 435 426T485 511Q494 568 462 600T360 632Q289 632 249 602T200 522Q192 468 223 433T324 398Z" />
<glyph unicode="9" horiz-adv-x="600" d="M219 -9Q161 -9 110 10T25 67L66 143Q100 110 139 95T225 79Q320 79 381 144T465 348L479 433H490Q468 352 412 305T271 258Q207 258 161 288T93 372T83 500Q93 566 127 614T217 688T343 714Q429 714 485 674T562 552T564
348Q545 227 497 148T378 30T219 -9ZM299 343Q366 343 408 382T462 485Q472 550 439 590T341 631Q270 631 230 594T180 493Q169 424 202 384T299 343Z" />
<glyph unicode=":" horiz-adv-x="237" d="M80 385L99 504H218L199 385H80ZM19 0L38 119H156L137 0H19Z" />
<glyph unicode=";" horiz-adv-x="237" d="M53 -123L14 -89Q48 -58 63 -32T81 22L100 0H21L40 119H159L145 30Q139 -15 118 -52T53 -123ZM80 385L99 504H218L199 385H80Z" />
<glyph unicode="&lt;" horiz-adv-x="600" d="M511 34L53 248L65 326L591 541L578 455L89 257L98 307L523 111L511 34Z" />
<glyph unicode="=" horiz-adv-x="600" d="M69 350L80 424H572L561 350H69ZM38 151L49 224H541L530 151H38Z" />
<glyph unicode="&gt;" horiz-adv-x="600" d="M20 34L33 119L521 316L513 266L87 463L100 541L558 326L546 248L20 34Z" />
<glyph unicode="?" horiz-adv-x="455" d="M163 195L168 230Q174 262 185 290T220 349T283 415Q304 435 324 458T357 506T370 559Q370 592 345 610T274 628Q234 628 196 617T122 587L136 677Q172 695 216 704T301 714Q353 714 392 698T452 651T474 578Q474 535
457 498T410 431T349 374Q292 326 267 292T233 222L225 195H163ZM103 0L122 119H241L223 0H103Z" />
<glyph unicode="@" horiz-adv-x="967" d="M504 -164Q408 -164 329 -134T191 -46T101 91T69 271Q69 370 102 451T195 592T337 682T519 714Q607 714 679 688T805 612T888 495T918 343Q918 256 892 193T820 94T716 59Q656 59 624 93T594 187L618 188Q593 125 547
92T449 59Q370 59 327 108T284 243Q284 316 311 373T388 464T499 497Q553 497 587 470T633 393H619L635 488H714L670 237Q667 222 666 210T665 186Q665 154 679 138T721 122Q757 122 786 149T833 227T851 343Q851 413 827 469T759 566T653 627T518 648Q435 648
367 622T248 545T171 426T143 271Q143 156 188 73T314 -54T504 -98Q582 -98 646 -75T753 -8L789 -64Q741 -112 668 -138T504 -164ZM462 126Q503 126 535 151T586 221T605 323Q605 376 582 402T510 429Q469 429 436 405T385 340T366 244Q366 187 391 157T462 126Z"
/>
<glyph unicode="A" horiz-adv-x="742" d="M-30 0L396 705H485L692 0H590L534 200L574 172H147L197 200L80 0H-30ZM426 591L217 232L196 255H551L527 232L429 591H426Z" />
<glyph unicode="B" horiz-adv-x="685" d="M43 0L155 705H452Q564 705 617 656T656 515Q646 450 600 409T484 352L486 367Q562 357 597 308T621 185Q607 94 538 47T354 0H43ZM156 81H353Q424 81 468 107T522 191Q529 238 515 265T470 305T394 317H193L156 81ZM207
397H386Q461 397 502 425T552 503Q562 566 532 595T432 625H242L207 397Z" />
<glyph unicode="C" horiz-adv-x="685" d="M377 -9Q260 -9 187 38T87 171T76 367Q94 478 145 555T278 674T464 714Q535 714 590 694T684 636L645 553Q602 591 560 606T458 622Q347 622 276 553T184 358Q172 275 189 213T256 117T388 83Q441 83 492 101T591 160L624
78Q576 36 511 14T377 -9Z" />
<glyph unicode="D" horiz-adv-x="754" d="M43 0L155 705H389Q515 705 591 661T697 536T709 339Q682 169 575 85T291 0H43ZM161 87H294Q431 87 508 151T605 348Q627 486 571 552T377 618H245L161 87Z" />
<glyph unicode="E" horiz-adv-x="591" d="M43 0L155 705H617L604 622H242L207 400H546L533 316H194L157 84H518L505 0H43Z" />
<glyph unicode="F" horiz-adv-x="567" d="M43 0L155 705H607L593 622H245L210 396H535L522 313H197L147 0H43Z" />
<glyph unicode="G" horiz-adv-x="735" d="M386 -9Q262 -9 188 37T86 167T77 365Q95 477 148 554T286 673T478 714Q555 714 609 695T701 642L660 559Q620 593 579 608T473 623Q353 623 279 553T184 354Q164 225 213 153T394 81Q444 81 487 89T575 116L543 66L579
297H406L419 375H680L627 45Q596 28 555 16T470 -2T386 -9Z" />
<glyph unicode="H" horiz-adv-x="770" d="M43 0L155 705H259L211 401H607L655 705H759L647 0H543L593 314H197L147 0H43Z" />
<glyph unicode="I" horiz-adv-x="270" d="M43 0L155 705H259L147 0H43Z" />
<glyph unicode="J" horiz-adv-x="344" d="M15 -187Q-2 -187 -24 -185T-67 -175L-54 -91Q-35 -98 -19 -100T11 -103Q57 -103 83 -75T119 14L229 705H333L222 6Q211 -60 186 -102T118 -166T15 -187Z" />
<glyph unicode="K" horiz-adv-x="648" d="M43 0L155 705H259L209 388H211L581 705H714L282 339L280 388L628 0H500L202 329H200L147 0H43Z" />
<glyph unicode="L" horiz-adv-x="552" d="M43 0L155 705H259L161 89H506L493 0H43Z" />
<glyph unicode="M" horiz-adv-x="864" d="M44 0L156 705H247L422 92H391L761 705H851L739 0H645L734 564H768L424 0H361L195 564H228L139 0H44Z" />
<glyph unicode="N" horiz-adv-x="750" d="M43 0L155 705H235L574 132L553 137L643 705H740L628 0H549L209 573L230 568L140 0H43Z" />
<glyph unicode="O" horiz-adv-x="779" d="M77 367Q95 478 145 555T273 673T451 714Q560 714 628 667T724 534T733 339Q716 228 666 151T537 32T359 -9Q251 -9 182 38T87 171T77 367ZM184 357Q171 270 187 209T249 114T367 81Q475 81 541 152T626 349Q640 435 623
496T560 591T443 624Q335 624 270 554T184 357Z" />
<glyph unicode="P" horiz-adv-x="658" d="M43 0L155 705H444Q562 705 616 647T653 487Q644 426 611 383T523 317T395 294H194L147 0H43ZM207 377H390Q462 377 502 406T552 494Q562 557 531 589T428 622H245L207 377Z" />
<glyph unicode="Q" horiz-adv-x="779" d="M509 -192Q481 -173 454 -143T405 -77T369 -2L462 33Q479 -19 514 -61T588 -134L509 -192ZM77 367Q95 478 145 555T273 673T451 714Q560 714 628 667T724 534T733 339Q716 228 666 151T537 32T359 -9Q251 -9 182 38T87
171T77 367ZM184 357Q171 270 187 209T249 114T367 81Q475 81 541 152T626 349Q640 435 623 496T560 591T443 624Q335 624 270 554T184 357Z" />
<glyph unicode="R" horiz-adv-x="697" d="M43 0L155 705H443Q563 705 618 649T656 492Q647 432 613 390T524 325T403 302L409 318H433Q474 318 502 297T546 230L620 0H511L438 231Q426 272 397 284T322 296H194L147 0H43ZM206 375H392Q463 375 504 406T555 495Q564
558 531 590T423 622H245L206 375Z" />
<glyph unicode="S" horiz-adv-x="633" d="M288 -9Q205 -9 138 11T26 62L65 144Q113 114 167 97T295 79Q378 79 422 109T473 186Q480 230 457 256T369 292L271 308Q175 322 132 375T101 511Q110 572 149 617T251 688T397 714Q469 714 528 695T624 643L586 562Q547
592 499 609T386 626Q308 626 260 595T203 510Q195 464 219 435T308 396L408 381Q505 367 547 318T577 185Q568 129 530 85T431 16T288 -9Z" />
<glyph unicode="T" horiz-adv-x="611" d="M212 0L310 618H69L83 705H669L655 618H414L316 0H212Z" />
<glyph unicode="U" horiz-adv-x="735" d="M337 -9Q244 -9 182 23T95 122T84 286L151 705H255L188 285Q172 183 208 132T347 81Q437 81 490 129T560 286L627 705H729L661 280Q646 181 605 117T497 22T337 -9Z" />
<glyph unicode="V" horiz-adv-x="708" d="M268 0L70 705H177L343 87H308L670 705H782L359 0H268Z" />
<glyph unicode="W" horiz-adv-x="1116" d="M237 0L102 705H206L313 96H276L590 705H670L777 96H743L1052 705H1158L797 0H708L602 580H622L325 0H237Z" />
<glyph unicode="X" horiz-adv-x="661" d="M-41 0L304 381L302 339L86 705H204L370 413H337L595 705H723L391 339V381L617 0H499L322 308H361L86 0H-41Z" />
<glyph unicode="Y" horiz-adv-x="617" d="M216 0L269 331L280 265L55 705H169L337 368H312L587 705H707L341 262L373 331L320 0H216Z" />
<glyph unicode="Z" horiz-adv-x="601" d="M4 0L16 76L514 653L509 618H102L116 705H627L615 629L116 52L121 87H541L527 0H4Z" />
<glyph unicode="[" horiz-adv-x="334" d="M35 -180L175 705H394L382 627H262L147 -102H267L254 -180H35Z" />
<glyph unicode="\" horiz-adv-x="300" d="M194 -57L55 750H138L277 -57H194Z" />
<glyph unicode="]" horiz-adv-x="334" d="M-58 -180L-46 -102H73L188 627H70L82 705H300L160 -180H-58Z" />
<glyph unicode="^" horiz-adv-x="600" d="M27 140L320 628H398L537 140H460L332 593H382L111 140H27Z" />
<glyph unicode="_" horiz-adv-x="505" d="M-40 -63L-30 0H455L445 -63H-40Z" />
<glyph unicode="`" horiz-adv-x="500" d="M300 553L158 755H260L370 553H300Z" />
<glyph unicode="a" horiz-adv-x="609" d="M236 -9Q167 -9 120 24T53 118T46 266Q66 387 136 450T305 513Q370 513 414 481T468 392L457 390L486 504H583Q576 473 569 443T556 383L496 0H395L413 114H429Q403 57 354 24T236 -9ZM266 70Q330 70 376 115T437 249Q452
342 419 387T317 433Q253 433 208 388T147 256Q133 162 165 116T266 70Z" />
<glyph unicode="b" horiz-adv-x="609" d="M305 -9Q240 -9 196 23T142 112L152 114L134 0H34L151 736H252L197 392L181 390Q207 447 256 480T374 513Q444 513 491 480T558 386T564 239Q544 117 474 54T305 -9ZM293 70Q358 70 403 115T463 249Q477 342 445 387T344
433Q280 433 234 388T173 256Q159 162 192 116T293 70Z" />
<glyph unicode="c" horiz-adv-x="499" d="M264 -9Q186 -9 132 24T56 119T46 266Q66 387 141 450T326 513Q374 513 417 499T487 455L451 386Q426 410 394 421T330 433Q260 433 212 389T149 257Q135 170 170 121T279 72Q312 72 348 84T416 124L447 53Q416 24 366 8T264 -9Z" />
<glyph unicode="d" horiz-adv-x="609" d="M236 -9Q167 -9 120 24T53 118T46 266Q66 387 136 450T305 513Q370 513 414 481T468 392H457L512 736H613L496 0H396L414 114H429Q403 57 354 24T236 -9ZM266 70Q330 70 376 115T437 249Q452 342 419 387T317 433Q253
433 208 388T147 256Q133 162 165 116T266 70Z" />
<glyph unicode="e" horiz-adv-x="546" d="M279 -9Q193 -9 137 25T57 122T47 269Q60 346 96 400T188 484T316 513Q387 513 433 482T498 397T507 270L502 240H123L132 298H442L424 283Q435 360 407 400T311 441Q264 441 229 420T173 361T146 277L141 249Q130 163
167 117T290 70Q332 70 372 82T447 124L479 55Q439 24 387 8T279 -9Z" />
<glyph unicode="f" horiz-adv-x="352" d="M64 0L131 426H33L46 504H171L139 478L153 565Q167 651 219 695T362 740Q382 740 403 737T438 727L425 645Q414 650 399 653T366 657Q337 657 313 646T273 611T251 552L241 484L229 504H381L368 426H232L165 0H64Z" />
<glyph unicode="g" horiz-adv-x="612" d="M231 -224Q165 -224 112 -208T19 -160L51 -86Q78 -106 106 -119T165 -138T232 -144Q306 -144 347 -108T399 -2L421 133H432Q409 78 358 45T240 12Q172 12 124 44T56 136T48 276Q67 391 137 452T307 513Q373 513 417 481T470
392L463 400L489 504H587Q578 473 571 443T560 383L501 10Q483 -104 415 -164T231 -224ZM269 91Q336 91 381 136T440 261Q453 345 421 389T321 433Q253 433 208 389T148 264Q135 181 168 136T269 91Z" />
<glyph unicode="h" horiz-adv-x="593" d="M34 0L151 736H252L198 397H183Q213 454 264 483T382 513Q474 513 510 460T530 304L483 0H382L429 303Q440 372 418 402T341 432Q276 432 234 393T181 288L135 0H34Z" />
<glyph unicode="i" horiz-adv-x="249" d="M34 0L113 504H214L135 0H34ZM122 609L139 714H256L239 609H122Z" />
<glyph unicode="j" horiz-adv-x="249" d="M-60 -221Q-77 -221 -97 -218T-133 -208L-119 -126Q-107 -130 -93 -133T-64 -137Q-25 -137 -1 -113T33 -32L118 504H219L133 -39Q119 -129 71 -175T-60 -221ZM126 609L143 714H260L243 609H126Z" />
<glyph unicode="k" horiz-adv-x="532" d="M34 0L151 736H252L180 284H182L432 504H561L258 239V284L504 0H381L174 231H172L135 0H34Z" />
<glyph unicode="l" horiz-adv-x="249" d="M34 0L151 736H252L135 0H34Z" />
<glyph unicode="m" horiz-adv-x="888" d="M34 0L94 383Q99 412 101 442T105 504H203L196 398H183Q212 455 259 484T367 513Q428 513 465 483T506 393H490Q518 447 570 480T684 513Q769 513 805 462T825 302L777 0H676L725 307Q735 372 716 402T646 432Q588 432
550 392T501 284L455 0H354L403 307Q414 372 396 402T325 432Q267 432 229 392T180 284L135 0H34Z" />
<glyph unicode="n" horiz-adv-x="593" d="M34 0L94 383Q99 412 101 442T105 504H203L196 398L183 397Q213 454 264 483T382 513Q474 513 510 460T530 304L483 0H382L429 303Q440 372 418 402T341 432Q276 432 234 393T181 288L135 0H34Z" />
<glyph unicode="o" d="M258 -9Q180 -9 128 23T55 117T46 266Q59 346 97 401T193 485T322 513Q402 513 453 481T526 387T534 239Q521 158 483 103T387 20T258 -9ZM265 70Q328 70 374 115T434 249Q449 342 416 387T316 433Q251 433 207 388T147 256Q133 162 165
116T265 70Z" />
<glyph unicode="p" horiz-adv-x="609" d="M0 -216L94 383Q99 412 101 442T105 504H203L196 390H181Q207 447 256 480T374 513Q444 513 491 480T558 386T564 239Q544 117 474 54T305 -9Q240 -9 196 23T142 112H153L101 -216H0ZM293 70Q358 70 403 115T463 249Q477
342 445 387T344 433Q280 433 234 388T173 256Q159 162 192 116T293 70Z" />
<glyph unicode="q" horiz-adv-x="609" d="M361 -216L413 112L429 114Q403 57 354 24T236 -9Q167 -9 120 24T53 118T46 266Q66 387 136 450T305 513Q370 513 414 481T468 392L457 390L486 504H583Q576 473 569 443T556 383L462 -216H361ZM266 70Q330 70 376 115T437
249Q452 342 419 387T317 433Q253 433 208 388T147 256Q133 162 165 116T266 70Z" />
<glyph unicode="r" horiz-adv-x="377" d="M32 0L93 379Q98 410 101 441T105 504H203L196 374H177Q195 421 223 452T289 498T365 513Q379 513 390 512T413 508L397 418Q383 424 370 425T339 427Q297 427 263 409T208 358T180 284L134 0H32Z" />
<glyph unicode="s" horiz-adv-x="498" d="M215 -9Q156 -9 105 6T23 46L56 116Q90 92 132 79T220 65Q274 65 305 84T341 135Q346 164 330 182T276 206L200 219Q126 231 97 270T77 369Q85 415 114 447T189 496T290 513Q345 513 391 499T464 461L429 393Q403 414
366 426T290 439Q236 439 206 419T170 366Q165 337 179 318T228 293L306 280Q382 267 412 230T433 135Q426 90 397 58T322 8T215 -9Z" />
<glyph unicode="t" horiz-adv-x="363" d="M234 -9Q148 -9 113 36T90 169L131 426H33L46 504H143L165 637L270 664L244 504H384L372 426H232L193 179Q185 123 201 99T257 74Q275 74 289 77T317 86L304 4Q287 -2 270 -5T234 -9Z" />
<glyph unicode="u" horiz-adv-x="586" d="M220 -9Q130 -9 88 42T62 198L110 504H211L163 201Q153 133 175 103T253 72Q315 72 355 112T406 219L451 504H552L472 0H374L390 108H405Q377 52 329 22T220 -9Z" />
<glyph unicode="v" horiz-adv-x="537" d="M182 0L46 504H150L254 83H225L465 504H571L274 0H182Z" />
<glyph unicode="w" horiz-adv-x="875" d="M171 0L60 504H161L244 84H218L437 504H516L600 84H576L792 504H895L624 0H532L442 428H489L265 0H171Z" />
<glyph unicode="x" horiz-adv-x="541" d="M-42 0L233 284L231 236L56 504H171L293 307H257L442 504H567L310 237L312 283L495 0H378L246 211H283L84 0H-42Z" />
<glyph unicode="y" horiz-adv-x="536" d="M-16 -227L-33 -145Q16 -135 50 -121T108 -85T154 -27L188 32L184 -9L45 504H150L254 84H227L464 504H571L255 -36Q225 -86 195 -120T132 -175T63 -208T-16 -227Z" />
<glyph unicode="z" horiz-adv-x="522" d="M9 0L20 67L403 451L399 426H76L89 504H509L499 437L113 50L117 77H453L441 0H9Z" />
<glyph unicode="{" horiz-adv-x="372" d="M210 -180Q166 -180 138 -166T100 -127T94 -68L127 143Q133 183 123 201T72 222L40 225L51 300L85 303Q124 306 141 324T166 382L199 593Q209 649 239 677T321 705H433L421 627H348Q328 627 315 617T297 583L264 371Q259
335 241 311T198 274T153 262V266Q174 266 193 253T223 216T228 154L196 -58Q192 -81 201 -91T232 -102H306L293 -180H210Z" />
<glyph unicode="|" horiz-adv-x="272" d="M17 -180L157 705H258L118 -180H17Z" />
<glyph unicode="}" horiz-adv-x="372" d="M-59 -180L-47 -102H26Q47 -102 60 -92T78 -58L111 154Q117 191 135 215T177 251T222 264L223 260Q201 260 182 273T152 310T147 371L180 583Q184 606 175 616T144 627H69L82 705H165Q210 705 237 691T276 652T281 593L248
382Q242 342 253 324T303 303L335 301L323 225L291 222Q252 220 234 202T210 143L176 -68Q167 -124 136 -152T54 -180H-59Z" />
<glyph unicode="~" horiz-adv-x="600" d="M419 213Q385 213 353 226T293 255Q267 270 244 280T200 290Q169 290 147 273T108 226L55 262Q81 310 114 335T193 361Q227 361 260 348T321 319Q348 305 369 295T411 284Q443 284 465 302T504 348L557 312Q531 265 498
239T419 213Z" />
<glyph unicode="&#xa0;" horiz-adv-x="267" />
<glyph unicode="&#xa1;" horiz-adv-x="237" d="M-13 -180L97 309H159L112 -180H-13ZM80 385L99 504H218L199 385H80Z" />
<glyph unicode="&#xa2;" horiz-adv-x="600" d="M217 -115L238 20L254 -4Q163 11 117 76T88 252Q106 359 169 419T332 491L308 462L331 608H414L391 467L374 493Q422 492 463 478T530 437L494 369Q468 392 436 402T372 413Q302 413 254 371T191 247Q182 193 194
154T240 93T321 72Q354 72 390 84T458 122L490 52Q456 23 403 6T293 -9L320 16L299 -115H217Z" />
<glyph unicode="&#xa3;" horiz-adv-x="600" d="M5 0L15 71Q63 88 92 113T128 178L150 321H55L65 386H161L180 504Q196 608 260 661T429 714Q491 714 540 697T623 644L582 570Q550 600 516 614T433 629Q368 629 331 598T283 501L264 386H442L432 321H255L236 205Q228
155 202 125T139 81L140 86H539L525 0H5Z" />
<glyph unicode="&#xa4;" horiz-adv-x="600" d="M114 -28L68 20L141 95Q118 126 105 164T92 245Q92 288 105 326T141 396L68 471L114 518L188 442Q218 467 255 480T334 493Q375 493 411 481T478 444L551 519L600 470L526 395Q550 364 562 326T575 245Q575 203 562
165T525 94L599 20L552 -27L480 48Q449 24 412 11T334 -3Q293 -3 256 10T187 47L114 -28ZM334 81Q376 81 411 103T466 163T487 245Q487 291 467 328T411 387T334 409Q291 409 256 387T200 328T179 245Q179 200 200 163T256 104T334 81Z" />
<glyph unicode="&#xa5;" horiz-adv-x="600" d="M208 0L236 173H58L68 236H246L260 327H82L92 390H243L242 377L62 705H172L332 404H307L564 705H682L398 377L400 390H552L542 327H363L349 236H527L518 173H339L312 0H208Z" />
<glyph unicode="&#xa6;" horiz-adv-x="272" d="M104 372L157 705H258L205 372H104ZM17 -180L70 154H171L118 -180H17Z" />
<glyph unicode="&#xa7;" horiz-adv-x="555" d="M210 -189Q144 -189 89 -172T-10 -123L28 -55Q50 -74 78 -87T139 -108T207 -116Q270 -116 305 -85T341 -6Q341 30 325 51T270 94L161 155Q105 188 75 227T45 312Q45 359 69 398T138 465L135 453Q127 470 123 487T119
523Q119 582 150 624T234 690T350 714Q407 714 458 699T550 649L517 583Q486 610 441 625T352 641Q289 641 253 610T217 530Q217 495 233 473T289 429L395 369Q454 336 483 297T513 213Q513 166 489 127T419 58L422 75Q432 59 436 41T440 3Q440 -56 409 -99T326
-166T210 -189ZM137 329Q137 298 158 274T220 224L317 170Q342 154 361 140T392 108L379 109Q401 129 411 152T422 196Q422 227 400 251T336 301L243 353Q219 368 200 383T168 415L181 419Q159 398 148 374T137 329Z" />
<glyph unicode="&#xa8;" horiz-adv-x="500" d="M347 604L361 703H461L445 604H347ZM166 604L180 703H280L265 604H166Z" />
<glyph unicode="&#xa9;" horiz-adv-x="815" d="M429 -9Q353 -9 287 18T171 95T95 210T67 353Q67 430 94 496T171 610T286 686T429 714Q506 714 572 687T686 611T762 496T790 353Q790 277 763 211T687 95T572 19T429 -9ZM444 137Q345 137 289 196T232 355Q232 454
288 511T444 568Q484 568 523 555T588 517L560 455Q536 477 507 487T450 498Q389 498 355 460T320 354Q320 287 354 248T450 208Q478 208 507 218T560 251L588 188Q563 165 523 151T444 137ZM429 39Q496 39 552 62T651 129T716 229T740 353Q740 420 717 477T651
576T553 642T429 666Q362 666 305 643T206 577T141 477T117 353Q117 286 140 229T206 129T305 63T429 39Z" />
<glyph unicode="&#xaa;" horiz-adv-x="333" d="M160 409Q128 409 105 421T70 456T63 508Q68 538 88 555T143 580T221 588H291L284 548H214Q137 548 131 505Q127 484 139 471T180 458Q215 458 242 481T276 544L285 602Q289 631 274 646T223 662Q198 662 169 656T115
634L99 683Q126 698 162 706T232 714Q300 714 330 683T349 589L321 415H258L266 470H264Q245 439 220 424T160 409Z" />
<glyph unicode="&#xab;" horiz-adv-x="469" d="M129 87L27 267L187 449H282L119 260L215 87H129ZM323 87L221 267L381 449H476L313 260L409 87H323Z" />
<glyph unicode="&#xac;" horiz-adv-x="600" d="M453 145L486 352H70L81 425H574L529 145H453Z" />
<glyph unicode="&#xad;" horiz-adv-x="433" d="M67 234L80 315H373L360 234H67Z" />
<glyph unicode="&#xae;" horiz-adv-x="815" d="M429 -9Q353 -9 287 18T171 95T95 210T67 353Q67 430 94 496T171 610T286 686T429 714Q506 714 572 687T686 611T762 496T790 353Q790 277 763 211T687 95T572 19T429 -9ZM429 39Q496 39 552 62T651 129T716 229T740
353Q740 420 717 477T651 576T553 642T429 666Q362 666 305 643T206 577T141 477T117 353Q117 286 140 229T206 129T305 63T429 39ZM279 142V564H457Q525 564 562 531T600 441Q600 383 563 353T459 322L476 333Q508 333 528 319T561 264L604 142H523L478 270Q470
293 454 301T413 309H345L360 320V142H279ZM359 371H445Q485 371 503 387T522 437Q522 471 504 487T445 503H359V371Z" />
<glyph unicode="&#xaf;" horiz-adv-x="500" d="M156 621L165 685H471L461 621H156Z" />
<glyph unicode="&#xb0;" horiz-adv-x="375" d="M238 411Q194 411 160 430T106 484T86 562Q86 604 105 638T160 692T238 712Q282 712 315 693T369 639T389 561Q389 519 369 485T316 431T238 411ZM238 473Q276 473 299 498T322 562Q322 600 299 625T238 650Q201
650 177 625T153 562Q153 523 177 498T238 473Z" />
<glyph unicode="&#xb1;" horiz-adv-x="600" d="M244 133L269 294H60L72 368H281L307 530H383L357 368H563L552 294H345L320 133H244ZM13 0L25 74H517L506 0H13Z" />
<glyph unicode="&#xb2;" horiz-adv-x="380" d="M54 282L64 342L224 481Q255 510 270 532T290 573Q295 607 279 623T230 639Q203 639 172 629T115 598L97 661Q127 684 166 696T249 709Q317 709 354 675T381 580Q376 553 357 522T296 457L164 342L161 352H362L350 282H54Z" />
<glyph unicode="&#xb3;" horiz-adv-x="380" d="M200 278Q151 278 113 289T50 323L73 384Q95 365 126 355T195 344Q232 344 256 359T285 407Q290 437 271 450T214 464H133L143 527H213Q250 527 273 542T301 587Q305 614 289 628T235 643Q203 643 169 632T113 601L94
662Q126 684 167 696T253 709Q323 709 358 678T384 594Q378 555 349 528T280 493L282 502Q326 496 349 468T364 393Q356 339 310 309T200 278Z" />
<glyph unicode="&#xb4;" horiz-adv-x="500" d="M263 553L396 755H501L333 553H263Z" />
<glyph unicode="&#xb5;" horiz-adv-x="575" d="M-5 -216L108 504H209L162 199Q152 134 173 103T246 72Q310 72 349 114T399 228L441 504H542L465 0H366L383 107H389Q368 53 330 22T238 -9Q198 -9 169 6T127 51L131 52L97 -216H-5Z" />
<glyph unicode="&#xb6;" horiz-adv-x="614" d="M183 -180L259 296Q204 296 164 319T101 383T79 473Q79 543 110 595T195 676T319 705H602L462 -180H385L513 629H388L260 -180H183Z" />
<glyph unicode="&#xb7;" horiz-adv-x="240" d="M54 215L73 334H193L175 215H54Z" />
<glyph unicode="&#xb8;" horiz-adv-x="500" d="M183 -194Q155 -194 131 -189T89 -173L109 -124Q126 -132 143 -136T182 -140Q209 -140 225 -131T242 -105Q242 -94 233 -88T207 -81Q197 -81 187 -82T161 -88L145 -72L174 20H232L208 -56L181 -47Q193 -44 205 -42T227
-40Q263 -40 284 -56T306 -104Q306 -144 271 -169T183 -194Z" />
<glyph unicode="&#xb9;" horiz-adv-x="380" d="M77 282L89 352H187L231 633L267 632L131 560L143 642L263 705H325L269 352H355L344 282H77Z" />
<glyph unicode="&#xba;" horiz-adv-x="348" d="M205 410Q137 410 100 452T73 569Q84 638 129 676T241 714Q310 714 347 674T373 556Q363 488 318 449T205 410ZM209 464Q245 464 271 489T305 563Q313 611 295 636T238 661Q201 661 175 637T141 563Q134 514 152
489T209 464Z" />
<glyph unicode="&#xbb;" horiz-adv-x="469" d="M103 87H8L170 276L75 449H161L263 269L103 87ZM296 87H201L363 276L268 449H354L456 269L296 87Z" />
<glyph unicode="&#xbc;" horiz-adv-x="904" d="M77 282L89 352H187L231 633L267 632L131 560L143 642L263 705H325L269 352H355L344 282H77ZM269 -9H179L719 714H809L269 -9ZM710 0L723 80H524L533 139L785 423H854L810 145H872L862 80H800L787 0H710ZM736 145L765
337H779L597 130L596 145H736Z" />
<glyph unicode="&#xbd;" horiz-adv-x="950" d="M77 282L89 352H187L231 633L267 632L131 560L143 642L263 705H325L269 352H355L344 282H77ZM269 -9H179L719 714H809L269 -9ZM579 0L589 60L749 199Q780 228 795 250T815 291Q820 325 804 341T755 357Q728 357 697
347T640 316L622 379Q652 402 691 414T774 427Q842 427 879 393T906 298Q901 271 882 240T821 175L689 60L686 70H887L875 0H579Z" />
<glyph unicode="&#xbe;" horiz-adv-x="904" d="M200 278Q151 278 113 289T50 323L73 384Q95 365 126 355T195 344Q232 344 256 359T285 407Q290 437 271 450T214 464H133L143 527H213Q250 527 273 542T301 587Q305 614 289 628T235 643Q203 643 169 632T113 601L94
662Q126 684 167 696T253 709Q323 709 358 678T384 594Q378 555 349 528T280 493L282 502Q326 496 349 468T364 393Q356 339 310 309T200 278ZM269 -9H179L719 714H809L269 -9ZM710 0L723 80H524L533 139L785 423H854L810 145H872L862 80H800L787 0H710ZM736 145L765
337H779L597 130L596 145H736Z" />
<glyph unicode="&#xbf;" horiz-adv-x="455" d="M155 -206Q103 -206 64 -189T3 -141T-19 -69Q-19 -25 -1 11T46 78T107 135Q164 183 188 218T223 288L230 309H293L288 280Q283 248 271 219T236 160T173 94Q152 74 132 51T99 3T86 -51Q86 -83 111 -101T182 -119Q222
-119 260 -108T334 -78L320 -167Q284 -186 240 -196T155 -206ZM353 504L334 385H214L233 504H353Z" />
<glyph unicode="&#xc0;" horiz-adv-x="742" d="M-30 0L396 705H485L692 0H590L534 200L574 172H147L197 200L80 0H-30ZM426 591L217 232L196 255H551L527 232L429 591H426ZM414 765L275 938H383L488 765H414Z" />
<glyph unicode="&#xc1;" horiz-adv-x="742" d="M-30 0L396 705H485L692 0H590L534 200L574 172H147L197 200L80 0H-30ZM426 591L217 232L196 255H551L527 232L429 591H426ZM414 765L545 938H656L488 765H414Z" />
<glyph unicode="&#xc2;" horiz-adv-x="742" d="M-30 0L396 705H485L692 0H590L534 200L574 172H147L197 200L80 0H-30ZM426 591L217 232L196 255H551L527 232L429 591H426ZM276 765L417 938H507L612 765H540L457 877L348 765H276Z" />
<glyph unicode="&#xc3;" horiz-adv-x="742" d="M-30 0L396 705H485L692 0H590L534 200L574 172H147L197 200L80 0H-30ZM426 591L217 232L196 255H551L527 232L429 591H426ZM288 778L235 781Q246 848 281 884T368 921Q398 921 423 909T472 882Q492 869 510 860T547
850Q604 850 622 925L676 921Q665 854 630 818T544 781Q514 781 488 794T439 821Q419 833 401 843T363 853Q307 853 288 778Z" />
<glyph unicode="&#xc4;" horiz-adv-x="742" d="M-30 0L396 705H485L692 0H590L534 200L574 172H147L197 200L80 0H-30ZM426 591L217 232L196 255H551L527 232L429 591H426ZM497 799L513 898H612L596 799H497ZM316 799L332 898H431L415 799H316Z" />
<glyph unicode="&#xc5;" horiz-adv-x="742" d="M-30 0L396 705H485L692 0H590L534 200L574 172H147L197 200L80 0H-30ZM426 591L217 232L196 255H551L527 232L429 591H426ZM466 756Q432 756 404 772T360 816T344 876Q344 910 360 936T404 978T466 994Q501 994
528 979T572 936T588 876Q588 843 572 816T529 773T466 756ZM466 806Q496 806 515 826T534 876Q534 905 516 924T466 944Q436 944 417 925T397 876Q397 846 416 826T466 806Z" />
<glyph unicode="&#xc6;" horiz-adv-x="1011" d="M-50 0L495 705H1037L1022 622H633L659 644L640 372L627 400H966L953 316H619L636 326L618 58L608 84H938L925 0H518L531 195L555 172H178L219 200L68 0H-50ZM536 621L242 231L233 256H549L535 229L563 621H536Z" />
<glyph unicode="&#xc7;" horiz-adv-x="685" d="M377 -9Q260 -9 187 38T87 171T76 367Q94 478 145 555T278 674T464 714Q535 714 590 694T684 636L645 553Q602 591 560 606T458 622Q347 622 276 553T184 358Q172 275 189 213T256 117T388 83Q441 83 492 101T591
160L624 78Q576 36 511 14T377 -9ZM333 -194Q305 -194 281 -189T239 -173L259 -124Q276 -132 293 -136T332 -140Q359 -140 375 -131T392 -105Q392 -94 383 -88T357 -81Q347 -81 337 -82T311 -88L295 -72L324 20H382L358 -56L331 -47Q343 -44 355 -42T377 -40Q413
-40 434 -56T456 -104Q456 -144 421 -169T333 -194Z" />
<glyph unicode="&#xc8;" horiz-adv-x="591" d="M43 0L155 705H617L604 622H242L207 400H546L533 316H194L157 84H518L505 0H43ZM375 765L236 938H344L449 765H375Z" />
<glyph unicode="&#xc9;" horiz-adv-x="591" d="M43 0L155 705H617L604 622H242L207 400H546L533 316H194L157 84H518L505 0H43ZM375 765L506 938H617L449 765H375Z" />
<glyph unicode="&#xca;" horiz-adv-x="591" d="M43 0L155 705H617L604 622H242L207 400H546L533 316H194L157 84H518L505 0H43ZM237 765L378 938H468L573 765H501L418 877L309 765H237Z" />
<glyph unicode="&#xcb;" horiz-adv-x="591" d="M43 0L155 705H617L604 622H242L207 400H546L533 316H194L157 84H518L505 0H43ZM457 799L473 898H572L556 799H457ZM276 799L292 898H391L375 799H276Z" />
<glyph unicode="&#xcc;" horiz-adv-x="270" d="M43 0L155 705H259L147 0H43ZM180 765L41 938H149L254 765H180Z" />
<glyph unicode="&#xcd;" horiz-adv-x="270" d="M43 0L155 705H259L147 0H43ZM180 765L311 938H422L254 765H180Z" />
<glyph unicode="&#xce;" horiz-adv-x="270" d="M43 0L155 705H259L147 0H43ZM41 765L182 938H272L377 765H305L222 877L113 765H41Z" />
<glyph unicode="&#xcf;" horiz-adv-x="270" d="M43 0L155 705H259L147 0H43ZM262 799L278 898H377L361 799H262ZM81 799L97 898H196L180 799H81Z" />
<glyph unicode="&#xd0;" horiz-adv-x="754" d="M43 0L155 705H389Q515 705 591 661T697 536T709 339Q682 169 575 85T291 0H43ZM161 87H294Q431 87 508 151T605 348Q627 486 571 552T377 618H245L161 87ZM9 319L21 396H406L393 319H9Z" />
<glyph unicode="&#xd1;" horiz-adv-x="750" d="M43 0L155 705H235L574 132L553 137L643 705H740L628 0H549L209 573L230 568L140 0H43ZM296 778L243 781Q254 848 289 884T376 921Q406 921 431 909T480 882Q500 869 518 860T555 850Q612 850 630 925L684 921Q673
854 638 818T552 781Q522 781 496 794T447 821Q427 833 409 843T371 853Q315 853 296 778Z" />
<glyph unicode="&#xd2;" horiz-adv-x="779" d="M77 367Q95 478 145 555T273 673T451 714Q560 714 628 667T724 534T733 339Q716 228 666 151T537 32T359 -9Q251 -9 182 38T87 171T77 367ZM184 357Q171 270 187 209T249 114T367 81Q475 81 541 152T626 349Q640
435 623 496T560 591T443 624Q335 624 270 554T184 357ZM434 765L295 938H403L508 765H434Z" />
<glyph unicode="&#xd3;" horiz-adv-x="779" d="M77 367Q95 478 145 555T273 673T451 714Q560 714 628 667T724 534T733 339Q716 228 666 151T537 32T359 -9Q251 -9 182 38T87 171T77 367ZM184 357Q171 270 187 209T249 114T367 81Q475 81 541 152T626 349Q640
435 623 496T560 591T443 624Q335 624 270 554T184 357ZM434 765L565 938H676L508 765H434Z" />
<glyph unicode="&#xd4;" horiz-adv-x="779" d="M77 367Q95 478 145 555T273 673T451 714Q560 714 628 667T724 534T733 339Q716 228 666 151T537 32T359 -9Q251 -9 182 38T87 171T77 367ZM184 357Q171 270 187 209T249 114T367 81Q475 81 541 152T626 349Q640
435 623 496T560 591T443 624Q335 624 270 554T184 357ZM295 765L436 938H526L631 765H559L476 877L367 765H295Z" />
<glyph unicode="&#xd5;" horiz-adv-x="779" d="M77 367Q95 478 145 555T273 673T451 714Q560 714 628 667T724 534T733 339Q716 228 666 151T537 32T359 -9Q251 -9 182 38T87 171T77 367ZM184 357Q171 270 187 209T249 114T367 81Q475 81 541 152T626 349Q640
435 623 496T560 591T443 624Q335 624 270 554T184 357ZM307 778L254 781Q265 848 300 884T387 921Q417 921 442 909T491 882Q511 869 529 860T566 850Q623 850 641 925L695 921Q684 854 649 818T563 781Q533 781 507 794T458 821Q438 833 420 843T382 853Q326
853 307 778Z" />
<glyph unicode="&#xd6;" horiz-adv-x="779" d="M77 367Q95 478 145 555T273 673T451 714Q560 714 628 667T724 534T733 339Q716 228 666 151T537 32T359 -9Q251 -9 182 38T87 171T77 367ZM184 357Q171 270 187 209T249 114T367 81Q475 81 541 152T626 349Q640
435 623 496T560 591T443 624Q335 624 270 554T184 357ZM516 799L532 898H631L615 799H516ZM335 799L351 898H450L434 799H335Z" />
<glyph unicode="&#xd7;" horiz-adv-x="600" d="M117 50L65 103L264 287L99 467L153 519L319 338L517 519L567 467L368 284L533 103L480 50L314 232L117 50Z" />
<glyph unicode="&#xd8;" horiz-adv-x="779" d="M77 367Q95 478 145 555T273 673T451 714Q560 714 628 667T724 534T733 339Q716 228 666 151T537 32T359 -9Q251 -9 182 38T87 171T77 367ZM184 357Q171 270 187 209T249 114T367 81Q475 81 541 152T626 349Q640
435 623 496T560 591T443 624Q335 624 270 554T184 357ZM238 60L164 -40L100 4L174 105L214 149L554 602L579 647L653 746L718 701L643 602L603 557L264 104L238 60Z" />
<glyph unicode="&#xd9;" horiz-adv-x="735" d="M337 -9Q244 -9 182 23T95 122T84 286L151 705H255L188 285Q172 183 208 132T347 81Q437 81 490 129T560 286L627 705H729L661 280Q646 181 605 117T497 22T337 -9ZM414 765L275 938H383L488 765H414Z" />
<glyph unicode="&#xda;" horiz-adv-x="735" d="M337 -9Q244 -9 182 23T95 122T84 286L151 705H255L188 285Q172 183 208 132T347 81Q437 81 490 129T560 286L627 705H729L661 280Q646 181 605 117T497 22T337 -9ZM414 765L545 938H656L488 765H414Z" />
<glyph unicode="&#xdb;" horiz-adv-x="735" d="M337 -9Q244 -9 182 23T95 122T84 286L151 705H255L188 285Q172 183 208 132T347 81Q437 81 490 129T560 286L627 705H729L661 280Q646 181 605 117T497 22T337 -9ZM275 765L416 938H506L611 765H539L456 877L347 765H275Z" />
<glyph unicode="&#xdc;" horiz-adv-x="735" d="M337 -9Q244 -9 182 23T95 122T84 286L151 705H255L188 285Q172 183 208 132T347 81Q437 81 490 129T560 286L627 705H729L661 280Q646 181 605 117T497 22T337 -9ZM496 799L512 898H611L595 799H496ZM315 799L331
898H430L414 799H315Z" />
<glyph unicode="&#xdd;" horiz-adv-x="617" d="M216 0L269 331L280 265L55 705H169L337 368H312L587 705H707L341 262L373 331L320 0H216ZM354 765L485 938H596L428 765H354Z" />
<glyph unicode="&#xde;" horiz-adv-x="659" d="M43 0L155 705H259L238 575H423Q542 575 595 517T633 357Q624 297 591 254T503 187T375 164H173L147 0H43ZM186 248H369Q441 248 482 277T532 365Q542 427 511 459T407 492H225L186 248Z" />
<glyph unicode="&#xdf;" horiz-adv-x="652" d="M34 0L111 484Q131 614 201 678T395 743Q459 743 505 722T573 659T585 558Q579 521 558 486T495 418T384 361L385 381Q469 357 521 326T594 252T607 152Q600 101 570 65T495 10T392 -9Q332 -9 287 5T211 44L242 113Q277
90 312 79T390 67Q441 67 472 90T511 159Q517 192 501 221T436 276T298 326L311 405Q375 426 413 450T468 501T490 558Q499 609 473 637T386 666Q313 666 271 626T214 496L135 0H34Z" />
<glyph unicode="&#xe0;" horiz-adv-x="609" d="M236 -9Q167 -9 120 24T53 118T46 266Q66 387 136 450T305 513Q370 513 414 481T468 392L457 390L486 504H583Q576 473 569 443T556 383L496 0H395L413 114H429Q403 57 354 24T236 -9ZM266 70Q330 70 376 115T437
249Q452 342 419 387T317 433Q253 433 208 388T147 256Q133 162 165 116T266 70ZM311 553L169 755H271L381 553H311Z" />
<glyph unicode="&#xe1;" horiz-adv-x="609" d="M236 -9Q167 -9 120 24T53 118T46 266Q66 387 136 450T305 513Q370 513 414 481T468 392L457 390L486 504H583Q576 473 569 443T556 383L496 0H395L413 114H429Q403 57 354 24T236 -9ZM266 70Q330 70 376 115T437
249Q452 342 419 387T317 433Q253 433 208 388T147 256Q133 162 165 116T266 70ZM312 553L445 755H550L382 553H312Z" />
<glyph unicode="&#xe2;" horiz-adv-x="609" d="M236 -9Q167 -9 120 24T53 118T46 266Q66 387 136 450T305 513Q370 513 414 481T468 392L457 390L486 504H583Q576 473 569 443T556 383L496 0H395L413 114H429Q403 57 354 24T236 -9ZM266 70Q330 70 376 115T437
249Q452 342 419 387T317 433Q253 433 208 388T147 256Q133 162 165 116T266 70ZM187 553L319 755H410L499 553H433L360 693L255 553H187Z" />
<glyph unicode="&#xe3;" horiz-adv-x="609" d="M236 -9Q167 -9 120 24T53 118T46 266Q66 387 136 450T305 513Q370 513 414 481T468 392L457 390L486 504H583Q576 473 569 443T556 383L496 0H395L413 114H429Q403 57 354 24T236 -9ZM266 70Q330 70 376 115T437
249Q452 342 419 387T317 433Q253 433 208 388T147 256Q133 162 165 116T266 70ZM219 587L166 591Q176 658 208 694T288 731Q314 731 332 719T366 692Q380 679 394 669T426 659Q476 659 494 734L547 731Q537 664 505 628T426 591Q400 591 381 603T346 630Q332 643
318 652T287 662Q237 662 219 587Z" />
<glyph unicode="&#xe4;" horiz-adv-x="609" d="M236 -9Q167 -9 120 24T53 118T46 266Q66 387 136 450T305 513Q370 513 414 481T468 392L457 390L486 504H583Q576 473 569 443T556 383L496 0H395L413 114H429Q403 57 354 24T236 -9ZM266 70Q330 70 376 115T437
249Q452 342 419 387T317 433Q253 433 208 388T147 256Q133 162 165 116T266 70ZM397 604L411 703H511L495 604H397ZM216 604L230 703H330L315 604H216Z" />
<glyph unicode="&#xe5;" horiz-adv-x="609" d="M236 -9Q167 -9 120 24T53 118T46 266Q66 387 136 450T305 513Q370 513 414 481T468 392L457 390L486 504H583Q576 473 569 443T556 383L496 0H395L413 114H429Q403 57 354 24T236 -9ZM266 70Q330 70 376 115T437
249Q452 342 419 387T317 433Q253 433 208 388T147 256Q133 162 165 116T266 70ZM366 546Q332 546 304 562T260 605T243 665Q243 699 259 725T303 768T365 784Q400 784 427 768T471 725T487 665Q487 632 471 605T428 562T366 546ZM365 596Q396 596 415 616T434
665Q434 695 415 714T366 734Q336 734 317 715T297 665Q297 635 316 616T365 596Z" />
<glyph unicode="&#xe6;" horiz-adv-x="877" d="M209 -9Q146 -9 106 14T48 77T38 161Q48 213 85 242T188 284T349 297H400L391 240H337Q275 240 231 233T161 207T130 154Q124 114 148 89T222 63Q284 63 324 102T375 205L393 318Q403 379 376 406T298 434Q250 434
210 423T122 385L93 456Q122 474 157 487T231 506T305 513Q386 513 426 483T473 396H442Q478 454 532 483T651 513Q721 513 766 482T831 397T839 270L834 240H463L472 298H774L756 283Q767 360 739 400T646 441Q600 441 566 420T511 361T484 277L479 249Q468 163
505 117T625 70Q665 70 704 82T779 124L811 55Q772 24 720 8T614 -9Q525 -9 471 30T397 141H422Q395 70 340 31T209 -9Z" />
<glyph unicode="&#xe7;" horiz-adv-x="499" d="M264 -9Q186 -9 132 24T56 119T46 266Q66 387 141 450T326 513Q374 513 417 499T487 455L451 386Q426 410 394 421T330 433Q260 433 212 389T149 257Q135 170 170 121T279 72Q312 72 348 84T416 124L447 53Q416 24
366 8T264 -9ZM229 -194Q201 -194 177 -189T135 -173L155 -124Q172 -132 189 -136T228 -140Q255 -140 271 -131T288 -105Q288 -94 279 -88T253 -81Q243 -81 233 -82T207 -88L191 -72L220 20H278L254 -56L227 -47Q239 -44 251 -42T273 -40Q309 -40 330 -56T352 -104Q352
-144 317 -169T229 -194Z" />
<glyph unicode="&#xe8;" horiz-adv-x="546" d="M279 -9Q193 -9 137 25T57 122T47 269Q60 346 96 400T188 484T316 513Q387 513 433 482T498 397T507 270L502 240H123L132 298H442L424 283Q435 360 407 400T311 441Q264 441 229 420T173 361T146 277L141 249Q130
163 167 117T290 70Q332 70 372 82T447 124L479 55Q439 24 387 8T279 -9ZM299 553L157 755H259L369 553H299Z" />
<glyph unicode="&#xe9;" horiz-adv-x="546" d="M279 -9Q193 -9 137 25T57 122T47 269Q60 346 96 400T188 484T316 513Q387 513 433 482T498 397T507 270L502 240H123L132 298H442L424 283Q435 360 407 400T311 441Q264 441 229 420T173 361T146 277L141 249Q130
163 167 117T290 70Q332 70 372 82T447 124L479 55Q439 24 387 8T279 -9ZM300 553L433 755H538L370 553H300Z" />
<glyph unicode="&#xea;" horiz-adv-x="546" d="M279 -9Q193 -9 137 25T57 122T47 269Q60 346 96 400T188 484T316 513Q387 513 433 482T498 397T507 270L502 240H123L132 298H442L424 283Q435 360 407 400T311 441Q264 441 229 420T173 361T146 277L141 249Q130
163 167 117T290 70Q332 70 372 82T447 124L479 55Q439 24 387 8T279 -9ZM175 553L307 755H398L487 553H421L348 693L243 553H175Z" />
<glyph unicode="&#xeb;" horiz-adv-x="546" d="M279 -9Q193 -9 137 25T57 122T47 269Q60 346 96 400T188 484T316 513Q387 513 433 482T498 397T507 270L502 240H123L132 298H442L424 283Q435 360 407 400T311 441Q264 441 229 420T173 361T146 277L141 249Q130
163 167 117T290 70Q332 70 372 82T447 124L479 55Q439 24 387 8T279 -9ZM385 604L399 703H499L483 604H385ZM204 604L218 703H318L303 604H204Z" />
<glyph unicode="&#xec;" horiz-adv-x="249" d="M34 0L113 504H214L135 0H34ZM136 553L-6 755H96L206 553H136Z" />
<glyph unicode="&#xed;" horiz-adv-x="249" d="M34 0L113 504H214L135 0H34ZM138 553L271 755H376L208 553H138Z" />
<glyph unicode="&#xee;" horiz-adv-x="249" d="M34 0L113 504H214L135 0H34ZM13 553L145 755H236L325 553H259L186 693L81 553H13Z" />
<glyph unicode="&#xef;" horiz-adv-x="249" d="M34 0L113 504H214L135 0H34ZM223 604L237 703H337L321 604H223ZM42 604L56 703H156L141 604H42Z" />
<glyph unicode="&#xf0;" horiz-adv-x="587" d="M258 -9Q182 -9 130 21T54 108T43 238Q53 305 89 354T180 430T304 457Q377 457 424 422T481 311H455Q468 394 446 468T368 596L393 595L181 510L161 558L341 630L340 617Q312 638 279 653T209 677L236 744Q299 732
347 710T433 656L410 659L537 710L558 663L452 620L455 635Q497 589 521 531T551 408T545 272Q524 135 449 63T258 -9ZM264 71Q330 71 375 112T431 223Q443 296 411 337T310 378Q244 378 200 339T143 226Q131 152 164 112T264 71Z" />
<glyph unicode="&#xf1;" horiz-adv-x="593" d="M34 0L94 383Q99 412 101 442T105 504H203L196 398L183 397Q213 454 264 483T382 513Q474 513 510 460T530 304L483 0H382L429 303Q440 372 418 402T341 432Q276 432 234 393T181 288L135 0H34ZM217 587L164 591Q174
658 206 694T286 731Q312 731 330 719T364 692Q378 679 392 669T424 659Q474 659 492 734L545 731Q535 664 503 628T424 591Q398 591 379 603T344 630Q330 643 316 652T285 662Q235 662 217 587Z" />
<glyph unicode="&#xf2;" d="M258 -9Q180 -9 128 23T55 117T46 266Q59 346 97 401T193 485T322 513Q402 513 453 481T526 387T534 239Q521 158 483 103T387 20T258 -9ZM265 70Q328 70 374 115T434 249Q449 342 416 387T316 433Q251 433 207 388T147 256Q133 162
165 116T265 70ZM303 553L161 755H263L373 553H303Z" />
<glyph unicode="&#xf3;" d="M258 -9Q180 -9 128 23T55 117T46 266Q59 346 97 401T193 485T322 513Q402 513 453 481T526 387T534 239Q521 158 483 103T387 20T258 -9ZM265 70Q328 70 374 115T434 249Q449 342 416 387T316 433Q251 433 207 388T147 256Q133 162
165 116T265 70ZM304 553L437 755H542L374 553H304Z" />
<glyph unicode="&#xf4;" d="M258 -9Q180 -9 128 23T55 117T46 266Q59 346 97 401T193 485T322 513Q402 513 453 481T526 387T534 239Q521 158 483 103T387 20T258 -9ZM265 70Q328 70 374 115T434 249Q449 342 416 387T316 433Q251 433 207 388T147 256Q133 162
165 116T265 70ZM179 553L311 755H402L491 553H425L352 693L247 553H179Z" />
<glyph unicode="&#xf5;" d="M258 -9Q180 -9 128 23T55 117T46 266Q59 346 97 401T193 485T322 513Q402 513 453 481T526 387T534 239Q521 158 483 103T387 20T258 -9ZM265 70Q328 70 374 115T434 249Q449 342 416 387T316 433Q251 433 207 388T147 256Q133 162
165 116T265 70ZM211 587L158 591Q168 658 200 694T280 731Q306 731 324 719T358 692Q372 679 386 669T418 659Q468 659 486 734L539 731Q529 664 497 628T418 591Q392 591 373 603T338 630Q324 643 310 652T279 662Q229 662 211 587Z" />
<glyph unicode="&#xf6;" d="M258 -9Q180 -9 128 23T55 117T46 266Q59 346 97 401T193 485T322 513Q402 513 453 481T526 387T534 239Q521 158 483 103T387 20T258 -9ZM265 70Q328 70 374 115T434 249Q449 342 416 387T316 433Q251 433 207 388T147 256Q133 162
165 116T265 70ZM389 604L403 703H503L487 604H389ZM208 604L222 703H322L307 604H208Z" />
<glyph unicode="&#xf7;" horiz-adv-x="600" d="M53 250L64 324H557L546 250H53ZM213 42L229 136H323L308 42H213ZM277 438L291 532H386L371 438H277Z" />
<glyph unicode="&#xf8;" d="M258 -9Q180 -9 128 23T55 117T46 266Q59 346 97 401T193 485T322 513Q402 513 453 481T526 387T534 239Q521 158 483 103T387 20T258 -9ZM265 70Q333 70 380 115T441 249Q456 340 422 386T316 433Q247 433 201 388T140 255Q126 166
158 118T265 70ZM118 -37L69 -2L467 539L514 505L118 -37Z" />
<glyph unicode="&#xf9;" horiz-adv-x="586" d="M220 -9Q130 -9 88 42T62 198L110 504H211L163 201Q153 133 175 103T253 72Q315 72 355 112T406 219L451 504H552L472 0H374L390 108H405Q377 52 329 22T220 -9ZM305 554L163 756H265L375 554H305Z" />
<glyph unicode="&#xfa;" horiz-adv-x="586" d="M220 -9Q130 -9 88 42T62 198L110 504H211L163 201Q153 133 175 103T253 72Q315 72 355 112T406 219L451 504H552L472 0H374L390 108H405Q377 52 329 22T220 -9ZM306 554L439 756H544L376 554H306Z" />
<glyph unicode="&#xfb;" horiz-adv-x="586" d="M220 -9Q130 -9 88 42T62 198L110 504H211L163 201Q153 133 175 103T253 72Q315 72 355 112T406 219L451 504H552L472 0H374L390 108H405Q377 52 329 22T220 -9ZM181 554L313 756H404L493 554H427L354 694L249 554H181Z" />
<glyph unicode="&#xfc;" horiz-adv-x="586" d="M220 -9Q130 -9 88 42T62 198L110 504H211L163 201Q153 133 175 103T253 72Q315 72 355 112T406 219L451 504H552L472 0H374L390 108H405Q377 52 329 22T220 -9ZM391 605L405 704H505L489 605H391ZM210 605L224 704H324L309
605H210Z" />
<glyph unicode="&#xfd;" horiz-adv-x="536" d="M-16 -227L-33 -145Q16 -135 50 -121T108 -85T154 -27L188 32L184 -9L45 504H150L254 84H227L464 504H571L255 -36Q225 -86 195 -120T132 -175T63 -208T-16 -227ZM281 553L414 755H519L351 553H281Z" />
<glyph unicode="&#xfe;" horiz-adv-x="609" d="M0 -216L151 736H252L197 392L181 390Q207 447 256 480T374 513Q444 513 491 480T558 386T564 239Q544 117 474 54T305 -9Q240 -9 196 23T142 112H153L101 -216H0ZM293 70Q358 70 403 115T463 249Q477 342 445 387T344
433Q280 433 234 388T173 256Q159 162 192 116T293 70Z" />
<glyph unicode="&#xff;" horiz-adv-x="536" d="M-16 -227L-33 -145Q16 -135 50 -121T108 -85T154 -27L188 32L184 -9L45 504H150L254 84H227L464 504H571L255 -36Q225 -86 195 -120T132 -175T63 -208T-16 -227ZM366 604L380 703H480L464 604H366ZM185 604L199
703H299L284 604H185Z" />
<glyph unicode="&#x2013;" horiz-adv-x="505" d="M-1 243L9 306H513L504 243H-1Z" />
<glyph unicode="&#x2014;" horiz-adv-x="1010" d="M-1 243L9 306H1018L1009 243H-1Z" />
<glyph unicode="&#x2018;" horiz-adv-x="237" d="M93 470L108 561Q113 592 121 617T147 665T195 711L233 671Q201 642 189 620T171 567L146 589H231L212 470H93Z" />
<glyph unicode="&#x2019;" horiz-adv-x="237" d="M148 464L110 505Q142 534 154 556T172 608L196 587H112L131 705H250L235 615Q231 585 222 560T195 511T148 464Z" />
<glyph unicode="&#x201a;" horiz-adv-x="237" d="M56 -123L17 -82Q49 -53 61 -30T80 22L104 0H19L38 119H157L142 28Q138 -2 129 -27T103 -76T56 -123Z" />
<glyph unicode="&#x201c;" horiz-adv-x="419" d="M93 470L108 561Q113 592 121 617T147 665T195 711L233 671Q201 642 189 620T171 567L146 589H231L212 470H93ZM275 470L290 561Q295 592 303 617T329 665T377 711L415 671Q383 642 371 620T353 567L328 589H413L394
470H275Z" />
<glyph unicode="&#x201d;" horiz-adv-x="419" d="M148 464L110 505Q142 534 154 556T172 608L196 587H112L131 705H250L235 615Q231 585 222 560T195 511T148 464ZM330 464L292 505Q324 534 336 556T354 608L378 587H294L313 705H432L417 615Q413 585 404 560T377
511T330 464Z" />
<glyph unicode="&#x201e;" horiz-adv-x="419" d="M56 -123L17 -82Q49 -53 61 -30T80 22L104 0H19L38 119H157L142 28Q138 -2 129 -27T103 -76T56 -123ZM238 -123L199 -82Q231 -53 243 -30T262 22L286 0H201L220 119H339L324 28Q320 -2 311 -27T285 -76T238 -123Z" />
<glyph unicode="&#x2022;" horiz-adv-x="529" d="M267 89Q217 89 176 112T111 176T86 266Q86 312 109 352T173 418T266 444Q315 444 356 421T422 358T448 266Q448 217 424 177T358 113T267 89Z" />
<glyph unicode="&#x2039;" horiz-adv-x="275" d="M129 87L27 267L187 449H282L119 260L215 87H129Z" />
<glyph unicode="&#x203a;" horiz-adv-x="275" d="M103 87H8L170 276L75 449H161L263 269L103 87Z" />
</font>
</defs>
</svg>
