<?xml version="1.0" standalone="no"?>
<!DOCTYPE svg PUBLIC "-//W3C//DTD SVG 1.1//EN" "http://www.w3.org/Graphics/SVG/1.1/DTD/svg11.dtd">
<svg xmlns="http://www.w3.org/2000/svg">
<defs >
<font id="Mulish" horiz-adv-x="581" ><font-face
    font-family="Mulish ExtraLight"
    units-per-em="1000"
    panose-1="0 0 0 0 0 0 0 0 0 0"
    ascent="1005"
    descent="-250"
    alphabetic="0" />
<glyph unicode=" " horiz-adv-x="274" />
<glyph unicode="!" horiz-adv-x="248" d="M86 209L47 705H201L162 209H86ZM54 0V139H194V0H54Z" />
<glyph unicode="&quot;" horiz-adv-x="448" d="M80 415L49 705H194L164 415H80ZM285 415L254 705H399L369 415H285Z" />
<glyph unicode="#" horiz-adv-x="600" d="M78 0L112 172H37V252H127L170 461H59V542H186L219 705H306L273 542H402L435 705H522L489 542H563V461H472L430 252H542V172H414L380 0H292L327 172H199L166 0H78ZM215 252H343L385 461H257L215 252Z" />
<glyph unicode="$" horiz-adv-x="600" d="M260 -115V16L283 -6Q210 -4 146 16T34 74L73 175Q120 140 176 121T299 102Q374 102 408 128T443 195Q443 228 419 248T335 281L229 304Q137 324 93 371T48 496Q48 555 77 601T158 676T280 709L260 694V820H360V694L339
710Q396 707 451 687T544 629L506 533Q468 568 419 585T312 603Q246 603 208 575T170 500Q170 466 193 445T272 411L378 388Q474 368 520 323T567 203Q567 145 538 101T459 30T341 -4L360 17V-115H260Z" />
<glyph unicode="%" horiz-adv-x="950" d="M321 0H214L630 705H737L321 0ZM222 284Q137 284 89 342T41 500Q41 601 89 658T222 715Q307 715 355 657T403 500Q403 400 355 342T222 284ZM222 364Q259 364 279 397T300 500Q300 571 280 602T222 634Q185 634 165 603T144
500Q144 428 164 396T222 364ZM729 -10Q644 -10 596 48T548 207Q548 308 596 364T729 421Q814 421 862 364T910 207Q910 107 862 49T729 -10ZM729 71Q766 71 786 103T807 207Q807 278 787 309T729 341Q692 341 672 310T651 207Q651 135 671 103T729 71Z" />
<glyph unicode="&amp;" horiz-adv-x="688" d="M658 -10Q612 6 570 33T494 92L521 91Q475 44 414 17T284 -10Q207 -10 151 14T65 80T35 180Q35 248 75 296T185 386L219 405L200 382Q157 425 136 465T115 548Q115 598 139 635T208 694T313 715Q391 715 440 674T489
561Q489 523 474 490T426 427T338 367L341 392L516 211H490Q516 252 530 307T547 423H652Q649 341 626 268T564 139L563 169Q590 141 625 118T701 80L658 -10ZM291 87Q341 87 380 106T451 162L448 132L238 345L289 344L260 328Q226 307 204 286T170 242T159 188Q159
141 193 114T291 87ZM313 630Q275 630 252 608T229 550Q229 531 236 514T259 478T301 430L271 428Q333 462 361 490T390 556Q390 591 369 610T313 630Z" />
<glyph unicode="&apos;" horiz-adv-x="243" d="M80 415L49 705H194L164 415H80Z" />
<glyph unicode="(" horiz-adv-x="356" d="M233 -180Q186 -106 157 -35T114 109T101 263Q101 344 114 417T156 561T233 705H333Q281 590 256 482T230 263Q230 154 255 45T333 -180H233Z" />
<glyph unicode=")" horiz-adv-x="356" d="M123 -180H23Q75 -65 100 44T126 263Q126 372 101 481T23 705H123Q171 632 200 561T242 417T255 263Q255 183 242 109T200 -36T123 -180Z" />
<glyph unicode="*" horiz-adv-x="457" d="M147 349L76 401L169 517L25 557L53 641L191 588L184 736H273L266 588L405 641L432 557L289 518L382 401L310 349L229 474L147 349Z" />
<glyph unicode="+" horiz-adv-x="600" d="M255 39V243H54V331H255V530H346V331H546V243H346V39H255Z" />
<glyph unicode="," horiz-adv-x="248" d="M115 -133L64 -93Q96 -60 108 -32T121 29L148 0H54V139H194V47Q194 -4 177 -46T115 -133Z" />
<glyph unicode="-" horiz-adv-x="438" d="M67 226V325H371V226H67Z" />
<glyph unicode="." horiz-adv-x="248" d="M54 0V139H194V0H54Z" />
<glyph unicode="/" horiz-adv-x="316" d="M78 -59H-25L238 752H341L78 -59Z" />
<glyph unicode="0" horiz-adv-x="600" d="M300 -10Q176 -10 109 84T42 354Q42 531 109 623T300 715Q425 715 491 623T558 355Q558 179 492 85T300 -10ZM300 96Q368 96 401 158T434 355Q434 489 401 549T300 610Q233 610 200 550T166 355Q166 221 199 159T300 96Z" />
<glyph unicode="1" horiz-adv-x="600" d="M111 0V107H273V597H335L127 473V595L310 705H402V107H554V0H111Z" />
<glyph unicode="2" horiz-adv-x="600" d="M78 0V95L312 339Q356 385 377 424T398 504Q398 555 366 581T273 607Q224 607 179 590T91 535L49 631Q92 669 155 692T289 715Q403 715 464 664T525 518Q525 452 494 393T398 268L203 73V107H553V0H78Z" />
<glyph unicode="3" horiz-adv-x="600" d="M289 -10Q216 -10 149 11T39 71L81 168Q128 132 178 115T285 98Q353 98 388 125T423 204Q423 254 389 279T288 305H174V408H277Q334 408 368 436T402 513Q402 559 371 583T280 607Q174 607 93 535L51 631Q94 671 157 693T291
715Q401 715 463 666T526 528Q526 465 491 420T393 359V371Q466 359 506 312T547 193Q547 99 478 45T289 -10Z" />
<glyph unicode="4" horiz-adv-x="600" d="M356 0V138H41V228L376 705H480V236H581V138H480V0H356ZM356 236V553H380L137 206V236H356Z" />
<glyph unicode="5" horiz-adv-x="600" d="M305 -10Q259 -10 214 0T129 28T61 71L103 168Q150 133 199 116T303 98Q368 98 404 130T441 218Q441 274 406 308T310 343Q267 343 232 327T168 276H83V705H521V599H205V375H174Q200 410 243 429T341 448Q409 448 459
420T537 342T565 223Q565 154 534 102T444 20T305 -10Z" />
<glyph unicode="6" horiz-adv-x="600" d="M325 -10Q192 -10 120 82T47 340Q47 460 84 543T189 671T354 715Q411 715 467 695T563 636L520 540Q483 574 440 590T353 607Q263 607 216 546T169 364V289H157Q165 340 191 376T258 432T349 452Q411 452 459 423T534
343T562 226Q562 158 532 105T448 21T325 -10ZM318 92Q355 92 383 108T426 153T442 221Q442 260 427 289T383 334T318 351Q281 351 253 335T209 289T193 221Q193 183 209 154T253 108T318 92Z" />
<glyph unicode="7" horiz-adv-x="600" d="M86 0L428 642V597H54V705H547V609L227 0H86Z" />
<glyph unicode="8" horiz-adv-x="600" d="M300 -10Q176 -10 107 43T37 190Q37 264 82 313T199 371V350Q134 364 95 411T55 525Q55 614 120 664T300 715Q415 715 480 665T546 525Q546 458 509 410T407 351V371Q478 361 521 313T564 190Q564 96 495 43T300 -10ZM300
90Q373 90 409 117T445 199Q445 253 409 280T300 307Q228 307 192 280T155 199Q155 145 191 118T300 90ZM300 407Q362 407 394 435T427 512Q427 560 395 587T300 615Q239 615 207 588T174 512Q174 463 206 435T300 407Z" />
<glyph unicode="9" horiz-adv-x="600" d="M247 -10Q190 -10 134 11T38 70L81 166Q118 132 161 115T248 98Q337 98 384 159T432 341V416H444Q437 366 410 329T343 273T252 253Q191 253 143 282T67 362T39 479Q39 548 69 601T153 684T275 715Q409 715 481 624T554
365Q554 246 518 162T412 34T247 -10ZM283 355Q320 355 348 371T392 416T408 484Q408 523 392 552T348 597T283 614Q246 614 218 598T175 552T159 484Q159 446 174 417T218 371T283 355Z" />
<glyph unicode=":" horiz-adv-x="248" d="M54 367V505H194V367H54ZM54 0V139H194V0H54Z" />
<glyph unicode=";" horiz-adv-x="248" d="M115 -133L64 -93Q96 -60 108 -32T121 29L153 0H54V139H194V47Q194 -4 177 -46T115 -133ZM54 367V505H194V367H54Z" />
<glyph unicode="&lt;" horiz-adv-x="600" d="M546 32L54 240V335L546 542V445L92 256V318L546 129V32Z" />
<glyph unicode="=" horiz-adv-x="600" d="M54 343V431H546V343H54ZM54 144V231H546V144H54Z" />
<glyph unicode="&gt;" horiz-adv-x="600" d="M55 32V129L508 318V256L55 445V542L546 335V240L55 32Z" />
<glyph unicode="?" horiz-adv-x="464" d="M171 209V249Q171 296 189 336T251 423Q284 458 297 484T311 538Q311 572 286 591T215 610Q176 610 138 598T66 566V674Q101 694 145 704T233 715Q292 715 338 698T411 645T438 554Q438 521 427 491T394 432T342 376Q293
333 274 301T251 237L247 209H171ZM139 0V139H279V0H139Z" />
<glyph unicode="@" horiz-adv-x="965" d="M493 -165Q395 -165 315 -135T176 -47T87 90T55 267Q55 368 87 450T180 592T324 683T510 715Q631 715 721 669T861 539T911 341Q911 255 886 192T817 94T712 59Q651 59 617 92T582 186L612 196Q587 128 541 94T438 59Q357
59 313 109T268 246Q268 320 296 377T373 466T485 499Q540 499 574 473T621 395H604L622 489H715L672 248Q669 232 668 219T666 194Q666 163 679 148T719 133Q752 133 777 159T817 232T832 341Q832 435 793 501T682 602T510 638Q399 638 316 593T188 464T142 267Q142
157 185 77T307 -45T493 -88Q570 -88 633 -67T742 -4L781 -71Q733 -116 658 -140T493 -165ZM456 138Q495 138 525 161T573 225T590 321Q590 370 569 394T502 419Q463 419 432 398T384 337T366 247Q366 194 389 166T456 138Z" />
<glyph unicode="A" horiz-adv-x="750" d="M0 0L319 705H427L750 0H619L533 198L585 163H162L216 198L130 0H0ZM372 567L231 233L205 264H541L520 233L376 567H372Z" />
<glyph unicode="B" horiz-adv-x="690" d="M78 0V705H387Q502 705 564 657T626 522Q626 458 588 414T483 355V370Q560 359 602 315T645 197Q645 103 580 52T399 0H78ZM202 98H384Q449 98 485 122T521 203Q521 260 485 284T384 309H202V98ZM202 406H365Q434 406
467 431T501 507Q501 557 468 582T365 608H202V406Z" />
<glyph unicode="C" horiz-adv-x="685" d="M406 -10Q296 -10 218 34T97 160T55 353Q55 464 97 545T217 670T406 715Q480 715 539 694T642 632L600 530Q553 568 510 584T410 601Q303 601 247 537T190 353Q190 234 246 169T410 104Q466 104 509 120T600 176L642 74Q599
34 540 12T406 -10Z" />
<glyph unicode="D" horiz-adv-x="762" d="M78 0V705H334Q455 705 538 664T665 544T708 353Q708 242 665 163T539 42T334 0H78ZM207 107H326Q454 107 516 168T578 353Q578 478 516 538T326 599H207V107Z" />
<glyph unicode="E" horiz-adv-x="595" d="M78 0V705H553V604H202V409H530V307H202V102H553V0H78Z" />
<glyph unicode="F" horiz-adv-x="572" d="M78 0V705H543V604H207V404H520V303H207V0H78Z" />
<glyph unicode="G" horiz-adv-x="740" d="M418 -10Q299 -10 218 34T96 159T55 351Q55 463 99 544T225 670T424 715Q501 715 559 695T661 635L618 535Q586 560 557 575T497 596T425 603Q309 603 250 538T190 350Q190 228 246 164T424 100Q465 100 506 108T588 131L564
77V288H399V382H671V43Q622 18 554 4T418 -10Z" />
<glyph unicode="H" horiz-adv-x="774" d="M78 0V705H207V411H568V705H697V0H568V304H207V0H78Z" />
<glyph unicode="I" horiz-adv-x="284" d="M78 0V705H207V0H78Z" />
<glyph unicode="J" horiz-adv-x="362" d="M90 -187Q73 -187 50 -185T2 -178V-76Q21 -80 38 -82T68 -84Q114 -84 134 -57T155 29V705H284V29Q284 -43 264 -91T202 -163T90 -187Z" />
<glyph unicode="K" horiz-adv-x="666" d="M78 0V705H207V393H209L516 705H672L304 338L305 394L696 0H535L209 326H207V0H78Z" />
<glyph unicode="L" horiz-adv-x="560" d="M78 0V705H207V109H539V0H78Z" />
<glyph unicode="M" horiz-adv-x="870" d="M79 0V705H192L451 122H420L679 705H791V0H674V523H710L473 0H396L159 523H196V0H79Z" />
<glyph unicode="N" horiz-adv-x="755" d="M78 0V705H175L584 176H558V705H678V0H581L173 529H198V0H78Z" />
<glyph unicode="O" horiz-adv-x="787" d="M55 353Q55 464 95 545T212 670T393 715Q497 715 573 671T690 545T732 354Q732 243 691 162T573 35T393 -10Q288 -10 213 35T96 161T55 353ZM190 353Q190 234 241 167T393 100Q491 100 544 167T597 353Q597 473 545 539T393
605Q292 605 241 539T190 353Z" />
<glyph unicode="P" horiz-adv-x="666" d="M78 0V705H391Q507 705 568 649T629 495Q629 398 568 341T391 284H207V0H78ZM207 386H376Q440 386 472 414T504 495Q504 547 472 575T376 604H207V386Z" />
<glyph unicode="Q" horiz-adv-x="787" d="M582 -192Q550 -174 518 -145T457 -78T409 -3L512 41Q537 -11 580 -53T669 -124L582 -192ZM55 353Q55 464 95 545T212 670T393 715Q497 715 573 671T690 545T732 354Q732 243 691 162T573 35T393 -10Q288 -10 213 35T96
161T55 353ZM190 353Q190 234 241 167T393 100Q491 100 544 167T597 353Q597 473 545 539T393 605Q292 605 241 539T190 353Z" />
<glyph unicode="R" horiz-adv-x="702" d="M78 0V705H386Q502 705 565 650T629 497Q629 432 601 386T519 316T394 291L408 310H442Q484 310 517 288T571 221L674 0H532L428 229Q414 264 386 275T317 286H207V0H78ZM207 381H365Q433 381 468 409T504 493Q504 548
469 576T365 604H207V381Z" />
<glyph unicode="S" horiz-adv-x="645" d="M324 -10Q239 -10 168 11T45 71L85 172Q119 148 156 132T235 107T324 98Q403 98 438 124T473 192Q473 229 449 248T363 281L250 304Q153 324 105 371T57 497Q57 563 92 612T190 688T337 715Q412 715 476 694T583 632L543
536Q500 572 449 589T335 607Q264 607 225 580T185 504Q185 467 209 445T293 411L405 389Q505 369 553 324T601 201Q601 138 567 91T471 17T324 -10Z" />
<glyph unicode="T" horiz-adv-x="619" d="M244 0V599H11V705H606V599H373V0H244Z" />
<glyph unicode="U" horiz-adv-x="740" d="M372 -10Q221 -10 148 65T74 289V705H203V290Q203 196 243 148T372 100Q456 100 498 148T541 290V705H668V289Q668 141 594 66T372 -10Z" />
<glyph unicode="V" horiz-adv-x="721" d="M306 0L-8 705H131L384 113H342L595 705H729L415 0H306Z" />
<glyph unicode="W" horiz-adv-x="1121" d="M274 0L25 705H159L351 127H311L518 705H614L806 127H769L970 705H1096L845 0H738L552 542H574L381 0H274Z" />
<glyph unicode="X" horiz-adv-x="671" d="M-8 0L282 386V331L2 705H153L356 424H315L517 705H669L388 331V386L679 0H527L313 294H357L143 0H-8Z" />
<glyph unicode="Y" horiz-adv-x="629" d="M250 0V333L277 256L-26 705H123L331 385H303L511 705H655L353 256L379 333V0H250Z" />
<glyph unicode="Z" horiz-adv-x="608" d="M45 0V95L440 639V598H45V705H563V611L167 67V107H576V0H45Z" />
<glyph unicode="[" horiz-adv-x="354" d="M102 -180V705H341V611H225V-86H341V-180H102Z" />
<glyph unicode="\" horiz-adv-x="316" d="M238 -59L-25 752H78L341 -59H238Z" />
<glyph unicode="]" horiz-adv-x="354" d="M14 -180V-86H129V611H14V705H252V-180H14Z" />
<glyph unicode="^" horiz-adv-x="600" d="M44 141L253 628H347L556 141H460L269 590H330L140 141H44Z" />
<glyph unicode="_" horiz-adv-x="505" d="M12 -75V0H493V-75H12Z" />
<glyph unicode="`" horiz-adv-x="500" d="M208 554L66 757H189L292 554H208Z" />
<glyph unicode="a" horiz-adv-x="620" d="M263 -10Q197 -10 147 21T69 112T41 253Q41 335 69 393T147 483T263 515Q327 515 375 484T440 399H429L440 505H560Q557 474 555 442T552 379V0H428L427 104H439Q423 52 374 21T263 -10ZM298 86Q357 86 393 127T429 253Q429
337 393 378T298 419Q239 419 203 378T167 253Q167 169 202 128T298 86Z" />
<glyph unicode="b" horiz-adv-x="620" d="M357 -10Q293 -10 245 21T181 107H192V0H68V736H193V402H181Q198 454 246 484T357 515Q424 515 474 483T552 393T580 252Q580 170 552 112T474 22T357 -10ZM322 86Q381 86 417 127T454 252Q454 336 418 377T322 419Q263
419 227 378T191 253Q191 169 227 128T322 86Z" />
<glyph unicode="c" horiz-adv-x="504" d="M300 -10Q222 -10 164 22T73 113T41 255Q41 337 73 395T164 484T300 515Q350 515 397 500T475 455L437 368Q410 393 377 405T311 418Q244 418 207 376T169 254Q169 174 206 131T311 88Q342 88 375 100T437 137L475 51Q444
22 397 6T300 -10Z" />
<glyph unicode="d" horiz-adv-x="620" d="M264 -10Q198 -10 148 21T69 112T41 253Q41 335 69 393T147 483T264 515Q327 515 375 485T440 402H427V736H552V0H429V107H441Q425 53 377 22T264 -10ZM299 86Q358 86 394 127T430 253Q430 337 394 378T299 419Q240 419
204 378T167 253Q167 169 203 128T299 86Z" />
<glyph unicode="e" horiz-adv-x="548" d="M312 -10Q185 -10 113 60T41 252Q41 331 72 390T158 482T288 515Q361 515 410 484T484 397T510 266V233H142V299H421L404 285Q404 355 375 392T289 429Q227 429 194 385T160 262V249Q160 167 200 127T315 86Q358 86 395
97T467 135L504 51Q468 22 418 6T312 -10Z" />
<glyph unicode="f" horiz-adv-x="368" d="M102 0V411H5V505H137L102 473V550Q102 644 150 692T293 740Q315 740 339 737T382 726V628Q369 633 351 636T316 639Q290 639 270 629T238 599T226 544V483L208 505H359V411H227V0H102Z" />
<glyph unicode="g" horiz-adv-x="622" d="M302 -224Q232 -224 176 -209T75 -163L102 -73Q131 -92 162 -104T226 -122T293 -128Q363 -128 397 -94T432 5V126H442Q426 74 378 43T266 12Q198 12 148 42T69 130T41 264Q41 341 69 397T147 484T266 515Q330 515 377
485T441 402L432 408L442 505H563Q559 474 557 442T555 379V20Q555 -99 491 -161T302 -224ZM300 108Q360 108 395 148T431 264Q431 339 396 379T300 419Q239 419 203 379T167 264Q167 189 203 149T300 108Z" />
<glyph unicode="h" horiz-adv-x="603" d="M68 0V736H193V404H179Q202 458 250 486T360 515Q450 515 494 465T538 311V0H413V305Q413 364 391 390T319 417Q262 417 228 382T193 287V0H68Z" />
<glyph unicode="i" horiz-adv-x="261" d="M68 0V505H193V0H68ZM61 600V722H200V600H61Z" />
<glyph unicode="j" horiz-adv-x="261" d="M18 -222Q-1 -222 -23 -219T-63 -209V-110Q-50 -114 -35 -117T-6 -120Q30 -120 50 -98T71 -24V505H196V-31Q196 -125 153 -173T18 -222ZM63 600V722H202V600H63Z" />
<glyph unicode="k" horiz-adv-x="552" d="M68 0V736H193V290H195L400 505H551L296 238L297 288L569 0H414L195 226H193V0H68Z" />
<glyph unicode="l" horiz-adv-x="261" d="M68 0V736H193V0H68Z" />
<glyph unicode="m" horiz-adv-x="899" d="M68 0V379Q68 410 66 442T60 505H181L191 405H179Q200 457 243 486T347 515Q407 515 446 487T502 398H486Q507 452 555 483T665 515Q750 515 792 465T834 309V0H709V304Q709 364 689 390T625 417Q573 417 543 381T513
282V0H388V304Q388 364 368 390T304 417Q252 417 223 381T193 282V0H68Z" />
<glyph unicode="n" horiz-adv-x="603" d="M68 0V379Q68 410 66 442T60 505H181L191 405H179Q203 458 250 486T359 515Q448 515 493 465T538 309V0H413V303Q413 364 390 390T319 417Q261 417 227 381T193 285V0H68Z" />
<glyph unicode="o" horiz-adv-x="592" d="M296 -10Q218 -10 161 22T73 113T41 253Q41 334 72 392T161 483T296 515Q374 515 431 483T520 393T552 253Q552 172 521 113T432 22T296 -10ZM296 86Q355 86 390 127T425 253Q425 337 390 378T296 419Q237 419 202 378T167
253Q167 169 202 128T296 86Z" />
<glyph unicode="p" horiz-adv-x="620" d="M68 -216V379Q68 410 66 442T60 505H181L192 399H181Q196 452 244 483T357 515Q424 515 474 484T552 394T580 253Q580 171 552 112T474 22T357 -10Q294 -10 246 21T182 104H193V-216H68ZM322 86Q382 86 418 127T454 253Q454
337 418 378T322 419Q263 419 227 378T191 253Q191 169 227 128T322 86Z" />
<glyph unicode="q" horiz-adv-x="620" d="M427 -216V104H439Q423 52 374 21T263 -10Q197 -10 147 21T69 112T41 253Q41 335 69 393T147 483T263 515Q327 515 375 484T440 399H429L440 505H560Q557 474 555 442T552 379V-216H427ZM298 86Q357 86 393 127T429 253Q429
337 393 378T298 419Q239 419 203 378T167 253Q167 169 202 128T298 86Z" />
<glyph unicode="r" horiz-adv-x="393" d="M67 0V376Q67 408 66 441T60 505H181L195 367H175Q185 417 208 450T266 499T340 515Q358 515 369 514T391 508L390 398Q371 406 358 408T324 410Q281 410 252 392T208 342T193 269V0H67Z" />
<glyph unicode="s" horiz-adv-x="501" d="M248 -10Q183 -10 129 5T37 49L72 133Q110 107 156 93T249 79Q299 79 323 96T348 142Q348 165 333 178T283 199L183 218Q119 232 86 266T52 355Q52 402 77 438T150 494T262 515Q318 515 367 500T451 455L415 374Q384 399
344 413T266 427Q214 427 190 409T166 361Q166 339 180 325T226 303L326 284Q393 271 427 239T462 150Q462 100 435 64T360 9T248 -10Z" />
<glyph unicode="t" horiz-adv-x="379" d="M284 -10Q194 -10 148 37T102 178V411H5V505H102V634L227 666V505H362V411H227V186Q227 134 247 113T302 92Q321 92 334 95T361 103V4Q344 -3 324 -6T284 -10Z" />
<glyph unicode="u" horiz-adv-x="596" d="M250 -10Q157 -10 111 41T65 197V505H190V198Q190 142 213 116T283 89Q336 89 369 125T403 220V505H528V0H406V103H420Q398 49 354 20T250 -10Z" />
<glyph unicode="v" horiz-adv-x="544" d="M216 0L-2 505H131L289 110H258L420 505H545L326 0H216Z" />
<glyph unicode="w" horiz-adv-x="883" d="M208 0L11 505H140L282 112H256L400 505H489L632 112H609L750 505H872L675 0H565L414 402H467L319 0H208Z" />
<glyph unicode="x" horiz-adv-x="549" d="M-10 0L225 289V232L3 505H151L296 318H251L396 505H543L323 232V289L557 0H408L251 201H296L138 0H-10Z" />
<glyph unicode="y" horiz-adv-x="543" d="M58 -227L29 -128Q76 -118 108 -105T161 -71T196 -17L221 42L218 -7L-2 505H131L289 111H260L419 505H545L315 -28Q292 -82 265 -117T207 -174T139 -208T58 -227Z" />
<glyph unicode="z" horiz-adv-x="526" d="M48 0V82L364 441V411H48V505H477V423L158 61L157 94H488V0H48Z" />
<glyph unicode="{" horiz-adv-x="392" d="M267 -180Q209 -180 178 -148T147 -58V135Q147 176 132 193T80 214L41 217V308L80 311Q117 314 132 331T147 390V583Q147 642 178 673T267 705H380V611H313Q291 611 281 600T270 566V375Q270 344 257 318T221 276T171
260V264Q198 264 220 249T256 208T270 150V-41Q270 -63 280 -74T313 -86H380V-180H267Z" />
<glyph unicode="|" horiz-adv-x="282" d="M79 -184V709H204V-184H79Z" />
<glyph unicode="}" horiz-adv-x="392" d="M12 -180V-86H79Q102 -86 112 -75T122 -41V150Q122 182 135 208T171 249T221 265V261Q194 261 172 276T136 318T122 376V566Q122 589 112 600T79 611H12V705H125Q184 705 214 674T245 583V390Q245 350 260 332T312 312L351
309V217L312 214Q275 212 260 195T245 136V-58Q245 -116 215 -148T125 -180H12Z" />
<glyph unicode="~" horiz-adv-x="600" d="M411 209Q387 209 360 217T292 247Q255 267 234 274T197 282Q146 282 121 220L54 261Q72 310 108 338T189 366Q214 366 241 358T308 329Q344 310 365 302T403 293Q454 293 479 355L546 313Q528 264 493 237T411 209Z" />
<glyph unicode="&#xa0;" horiz-adv-x="274" />
<glyph unicode="&#xa1;" horiz-adv-x="248" d="M47 -180L86 297H162L201 -180H47ZM54 367V505H194V367H54Z" />
<glyph unicode="&#xa2;" horiz-adv-x="600" d="M266 -115V25L290 -5Q227 5 180 38T108 125T82 245Q82 309 108 361T180 447T290 491L266 459V609H366V466L340 495Q392 495 440 479T518 434L483 348Q455 371 420 384T349 398Q284 398 247 356T210 247Q210 179 246
136T348 93Q384 93 419 106T483 143L518 57Q487 29 440 12T338 -8L366 19V-115H266Z" />
<glyph unicode="&#xa3;" horiz-adv-x="600" d="M43 0V86Q84 101 106 123T129 183V315H42V392H129V497Q129 564 155 613T235 688T369 715Q431 715 484 696T578 642L533 549Q497 582 458 597T375 612Q315 612 287 584T258 501V392H427V315H259V213Q259 168 241 141T188
100V105H568V0H43Z" />
<glyph unicode="&#xa4;" horiz-adv-x="600" d="M82 -30L31 22L104 97Q82 128 70 166T57 245Q57 287 69 325T104 394L31 469L82 520L156 445Q186 468 222 480T299 493Q339 493 375 481T441 446L514 522L568 467L494 392Q517 361 528 324T540 245Q540 204 528 167T493
97L567 22L516 -29L443 46Q413 23 377 10T299 -3Q259 -3 222 10T155 45L82 -30ZM299 98Q337 98 368 118T418 171T437 245Q437 286 419 319T369 373T299 393Q261 393 229 373T179 320T160 245Q160 205 178 172T228 118T299 98Z" />
<glyph unicode="&#xa5;" horiz-adv-x="600" d="M236 0V166H68V240H236V322H68V396H209V381L-16 705H124L314 421H286L477 705H616L392 381V396H532V322H364V240H532V166H364V0H236Z" />
<glyph unicode="&#xa6;" horiz-adv-x="282" d="M79 372V709H204V372H79ZM79 -184V154H204V-184H79Z" />
<glyph unicode="&#xa7;" horiz-adv-x="570" d="M264 -190Q195 -190 138 -174T43 -128L80 -44Q102 -61 132 -74T198 -94T266 -102Q319 -102 350 -80T381 -14Q381 15 364 36T303 78L173 135Q121 159 90 184T45 240T31 308Q31 355 55 395T123 463L113 429Q94 447
84 472T73 530Q73 588 102 629T185 692T308 715Q373 715 426 700T514 656L479 574Q445 598 398 612T306 626Q255 626 224 604T193 539Q193 510 211 489T272 447L401 390Q453 367 484 341T529 285T543 217Q543 170 520 130T452 62L462 96Q480 78 490 53T501 -6Q501
-63 472 -104T389 -168T264 -190ZM143 330Q143 299 163 274T236 225L347 175Q375 162 395 149T429 121L398 118Q432 152 432 195Q432 227 411 252T339 300L227 350Q200 363 180 377T146 404L176 407Q160 391 152 371T143 330Z" />
<glyph unicode="&#xa8;" horiz-adv-x="500" d="M287 597V712H402V597H287ZM98 597V712H213V597H98Z" />
<glyph unicode="&#xa9;" horiz-adv-x="815" d="M408 -10Q331 -10 265 17T150 94T73 210T45 353Q45 430 72 496T149 611T265 687T408 715Q485 715 551 688T666 611T742 496T770 353Q770 276 743 210T666 95T551 18T408 -10ZM426 137Q326 137 268 196T209 355Q209
454 267 511T426 568Q466 568 505 556T570 520L539 445Q517 465 490 475T434 485Q379 485 347 451T315 354Q315 292 347 257T434 221Q462 221 489 231T539 261L570 186Q545 164 505 151T426 137ZM408 43Q474 43 530 66T627 132T691 230T714 353Q714 419 691 475T627
573T530 638T408 662Q342 662 286 639T189 574T124 476T101 353Q101 287 124 231T188 132T286 67T408 43Z" />
<glyph unicode="&#xaa;" horiz-adv-x="341" d="M134 408Q84 408 53 435T21 502Q21 549 62 569T184 589H236V545H187Q142 545 122 535T102 504Q102 487 114 475T155 463Q186 463 206 484T227 542V600Q227 628 211 641T161 654Q136 654 108 648T55 627L35 684Q60
699 96 707T167 715Q307 715 307 596V414H230V469H228Q212 438 190 423T134 408Z" />
<glyph unicode="&#xab;" horiz-adv-x="498" d="M155 86L24 268L155 450H259L136 268L259 86H155ZM363 86L232 268L363 450H467L344 268L467 86H363Z" />
<glyph unicode="&#xac;" horiz-adv-x="600" d="M455 140V344H54V432H546V140H455Z" />
<glyph unicode="&#xad;" horiz-adv-x="438" d="M67 226V325H371V226H67Z" />
<glyph unicode="&#xae;" horiz-adv-x="815" d="M408 -10Q331 -10 265 17T150 94T73 210T45 353Q45 430 72 496T149 611T265 687T408 715Q485 715 551 688T666 611T742 496T770 353Q770 276 743 210T666 95T551 18T408 -10ZM408 43Q474 43 530 66T627 132T691 230T714
353Q714 419 691 475T627 573T530 638T408 662Q342 662 286 639T189 574T124 476T101 353Q101 287 124 231T188 132T286 67T408 43ZM253 142V565H436Q507 565 544 531T582 440Q582 382 545 352T441 321L463 332Q495 332 516 317T549 257L587 142H489L450 267Q443
289 428 296T393 304H333L349 315V142H253ZM348 376H423Q457 376 474 390T491 435Q491 465 474 479T423 493H348V376Z" />
<glyph unicode="&#xaf;" horiz-adv-x="500" d="M92 616V690H408V616H92Z" />
<glyph unicode="&#xb0;" horiz-adv-x="379" d="M190 406Q145 406 110 426T54 482T33 561Q33 605 53 639T109 694T190 715Q235 715 270 695T325 640T346 561Q346 517 326 482T270 426T190 406ZM190 477Q225 477 247 501T269 561Q269 596 247 620T190 644Q155 644
133 620T110 561Q110 525 132 501T190 477Z" />
<glyph unicode="&#xb1;" horiz-adv-x="600" d="M255 139V291H54V379H255V531H346V379H546V291H346V139H255ZM54 0V88H546V0H54Z" />
<glyph unicode="&#xb2;" horiz-adv-x="380" d="M46 282V355L177 485Q202 511 213 531T225 574Q225 626 163 626Q138 626 109 616T58 589L36 665Q63 685 101 697T186 709Q254 709 293 677T333 588Q333 554 317 522T263 455L161 356V366H349V282H46Z" />
<glyph unicode="&#xb3;" horiz-adv-x="380" d="M187 277Q138 277 98 287T28 318L48 391Q74 374 107 365T177 356Q212 356 232 369T252 410Q252 435 233 446T182 458H98V532H170Q203 532 221 545T239 583Q239 606 222 618T171 631Q140 631 109 621T55 593L33 667Q60
687 100 698T188 709Q257 709 297 679T337 598Q337 557 311 530T245 494V505Q292 500 320 473T348 399Q348 342 303 310T187 277Z" />
<glyph unicode="&#xb4;" horiz-adv-x="500" d="M208 554L311 757H434L292 554H208Z" />
<glyph unicode="&#xb5;" d="M61 -198V505H186V193Q186 140 208 115T276 90Q329 90 361 124T394 217V505H519V0H397V102H401Q388 48 353 19T274 -10Q238 -10 212 3T170 51H176L186 -198H61Z" />
<glyph unicode="&#xb6;" horiz-adv-x="632" d="M252 -180V282Q187 282 139 309T63 383T36 494Q36 557 63 604T139 678T255 705H554V-180H463V616H343V-180H252Z" />
<glyph unicode="&#xb7;" horiz-adv-x="251" d="M55 206V345H196V206H55Z" />
<glyph unicode="&#xb8;" horiz-adv-x="500" d="M251 -195Q221 -195 195 -190T148 -174L166 -118Q184 -126 202 -130T240 -135Q267 -135 281 -128T295 -105Q295 -82 258 -82Q248 -82 239 -83T216 -88L197 -70L211 20H278L265 -56L233 -45Q244 -41 256 -39T279 -37Q320
-37 345 -56T370 -109Q370 -148 337 -171T251 -195Z" />
<glyph unicode="&#xb9;" horiz-adv-x="380" d="M61 282V366H160V618H202L71 547V642L187 705H261V366H346V282H61Z" />
<glyph unicode="&#xba;" horiz-adv-x="356" d="M178 409Q133 409 98 428T42 481T21 563Q21 610 41 644T97 696T179 715Q224 715 259 697T315 644T336 563Q336 516 316 482T260 428T178 409ZM178 472Q213 472 233 495T253 563Q253 607 233 630T178 653Q144 653
124 631T104 563Q104 518 124 495T178 472Z" />
<glyph unicode="&#xbb;" horiz-adv-x="498" d="M135 86H31L154 268L31 450H136L266 268L135 86ZM343 86H239L362 268L239 450H344L474 268L343 86Z" />
<glyph unicode="&#xbc;" horiz-adv-x="914" d="M61 282V366H160V618H202L71 547V642L187 705H261V366H346V282H61ZM326 -10H219L646 715H752L326 -10ZM751 0V75H556V144L759 423H843V151H902V75H843V0H751ZM754 151V324H764L628 136V151H754Z" />
<glyph unicode="&#xbd;" horiz-adv-x="962" d="M61 282V366H160V618H202L71 547V642L187 705H261V366H346V282H61ZM326 -10H219L646 715H752L326 -10ZM628 0V73L759 203Q784 229 795 249T807 292Q807 344 745 344Q720 344 691 334T640 307L618 383Q645 403 683
415T768 427Q836 427 875 395T915 306Q915 272 899 240T845 173L743 74V84H931V0H628Z" />
<glyph unicode="&#xbe;" horiz-adv-x="914" d="M187 277Q138 277 98 287T28 318L48 391Q74 374 107 365T177 356Q212 356 232 369T252 410Q252 435 233 446T182 458H98V532H170Q203 532 221 545T239 583Q239 606 222 618T171 631Q140 631 109 621T55 593L33 667Q60
687 100 698T188 709Q257 709 297 679T337 598Q337 557 311 530T245 494V505Q292 500 320 473T348 399Q348 342 303 310T187 277ZM326 -10H219L646 715H752L326 -10ZM751 0V75H556V144L759 423H843V151H902V75H843V0H751ZM754 151V324H764L628 136V151H754Z" />
<glyph unicode="&#xbf;" horiz-adv-x="464" d="M231 -203Q172 -203 126 -185T53 -129T26 -39Q26 -6 35 21T65 77T122 136Q171 180 189 212T213 276L217 296H293V263Q293 217 275 177T213 90Q180 55 167 29T153 -26Q153 -60 178 -79T249 -98Q288 -98 326 -86T398
-54V-162Q364 -181 320 -192T231 -203ZM325 505V366H185V505H325Z" />
<glyph unicode="&#xc0;" horiz-adv-x="750" d="M0 0L319 705H427L750 0H619L533 198L585 163H162L216 198L130 0H0ZM372 567L231 233L205 264H541L520 233L376 567H372ZM329 765L170 939H300L419 765H329Z" />
<glyph unicode="&#xc1;" horiz-adv-x="750" d="M0 0L319 705H427L750 0H619L533 198L585 163H162L216 198L130 0H0ZM372 567L231 233L205 264H541L520 233L376 567H372ZM329 765L448 939H578L419 765H329Z" />
<glyph unicode="&#xc2;" horiz-adv-x="750" d="M0 0L319 705H427L750 0H619L533 198L585 163H162L216 198L130 0H0ZM372 567L231 233L205 264H541L520 233L376 567H372ZM196 765L320 939H428L552 765H465L374 869L283 765H196Z" />
<glyph unicode="&#xc3;" horiz-adv-x="750" d="M0 0L319 705H427L750 0H619L533 198L585 163H162L216 198L130 0H0ZM372 567L231 233L205 264H541L520 233L376 567H372ZM213 772L151 776Q156 847 193 885T285 924Q308 924 332 916T389 888Q418 872 435 865T466
858Q495 858 512 876T535 928L597 924Q592 853 556 815T464 776Q440 776 416 785T356 814Q329 830 313 836T282 842Q253 842 236 825T213 772Z" />
<glyph unicode="&#xc4;" horiz-adv-x="750" d="M0 0L319 705H427L750 0H619L533 198L585 163H162L216 198L130 0H0ZM372 567L231 233L205 264H541L520 233L376 567H372ZM411 790V905H526V790H411ZM222 790V905H337V790H222Z" />
<glyph unicode="&#xc5;" horiz-adv-x="750" d="M0 0L319 705H427L750 0H619L533 198L585 163H162L216 198L130 0H0ZM372 567L231 233L205 264H541L520 233L376 567H372ZM374 755Q339 755 310 771T265 816T248 878Q248 913 264 940T310 984T374 1000Q410 1000 438
984T483 941T500 878Q500 844 484 816T439 772T374 755ZM374 812Q403 812 421 831T439 878Q439 906 421 924T374 943Q346 943 328 925T309 878Q309 850 327 831T374 812Z" />
<glyph unicode="&#xc6;" horiz-adv-x="1017" d="M-20 0L420 705H975V604H598L621 625L642 374L624 409H953V307H627L646 317L667 74L651 102H975V0H556L540 194L568 163H199L238 197L119 0H-20ZM482 603L260 234L250 265H548L538 230L506 603H482Z" />
<glyph unicode="&#xc7;" horiz-adv-x="685" d="M406 -10Q296 -10 218 34T97 160T55 353Q55 464 97 545T217 670T406 715Q480 715 539 694T642 632L600 530Q553 568 510 584T410 601Q303 601 247 537T190 353Q190 234 246 169T410 104Q466 104 509 120T600 176L642
74Q599 34 540 12T406 -10ZM399 -195Q369 -195 343 -190T296 -174L314 -118Q332 -126 350 -130T388 -135Q415 -135 429 -128T443 -105Q443 -82 406 -82Q396 -82 387 -83T364 -88L345 -70L359 20H426L413 -56L381 -45Q392 -41 404 -39T427 -37Q468 -37 493 -56T518
-109Q518 -148 485 -171T399 -195Z" />
<glyph unicode="&#xc8;" horiz-adv-x="595" d="M78 0V705H553V604H202V409H530V307H202V102H553V0H78ZM288 765L129 939H259L378 765H288Z" />
<glyph unicode="&#xc9;" horiz-adv-x="595" d="M78 0V705H553V604H202V409H530V307H202V102H553V0H78ZM288 765L407 939H537L378 765H288Z" />
<glyph unicode="&#xca;" horiz-adv-x="595" d="M78 0V705H553V604H202V409H530V307H202V102H553V0H78ZM155 765L279 939H387L511 765H424L333 869L242 765H155Z" />
<glyph unicode="&#xcb;" horiz-adv-x="595" d="M78 0V705H553V604H202V409H530V307H202V102H553V0H78ZM370 790V905H485V790H370ZM181 790V905H296V790H181Z" />
<glyph unicode="&#xcc;" horiz-adv-x="284" d="M78 0V705H207V0H78ZM97 765L-62 939H68L187 765H97Z" />
<glyph unicode="&#xcd;" horiz-adv-x="284" d="M78 0V705H207V0H78ZM97 765L216 939H346L187 765H97Z" />
<glyph unicode="&#xce;" horiz-adv-x="284" d="M78 0V705H207V0H78ZM-36 765L88 939H196L320 765H233L142 869L51 765H-36Z" />
<glyph unicode="&#xcf;" horiz-adv-x="284" d="M78 0V705H207V0H78ZM179 790V905H294V790H179ZM-10 790V905H105V790H-10Z" />
<glyph unicode="&#xd0;" horiz-adv-x="762" d="M78 0V705H334Q455 705 538 664T665 544T708 353Q708 242 665 163T539 42T334 0H78ZM207 107H326Q454 107 516 168T578 353Q578 478 516 538T326 599H207V107ZM-6 310V404H399V310H-6Z" />
<glyph unicode="&#xd1;" horiz-adv-x="755" d="M78 0V705H175L584 176H558V705H678V0H581L173 529H198V0H78ZM219 772L157 776Q162 847 199 885T291 924Q314 924 338 916T395 888Q424 872 441 865T472 858Q501 858 518 876T541 928L603 924Q598 853 562 815T470
776Q446 776 422 785T362 814Q335 830 319 836T288 842Q259 842 242 825T219 772Z" />
<glyph unicode="&#xd2;" horiz-adv-x="787" d="M55 353Q55 464 95 545T212 670T393 715Q497 715 573 671T690 545T732 354Q732 243 691 162T573 35T393 -10Q288 -10 213 35T96 161T55 353ZM190 353Q190 234 241 167T393 100Q491 100 544 167T597 353Q597 473 545
539T393 605Q292 605 241 539T190 353ZM348 765L189 939H319L438 765H348Z" />
<glyph unicode="&#xd3;" horiz-adv-x="787" d="M55 353Q55 464 95 545T212 670T393 715Q497 715 573 671T690 545T732 354Q732 243 691 162T573 35T393 -10Q288 -10 213 35T96 161T55 353ZM190 353Q190 234 241 167T393 100Q491 100 544 167T597 353Q597 473 545
539T393 605Q292 605 241 539T190 353ZM348 765L467 939H597L438 765H348Z" />
<glyph unicode="&#xd4;" horiz-adv-x="787" d="M55 353Q55 464 95 545T212 670T393 715Q497 715 573 671T690 545T732 354Q732 243 691 162T573 35T393 -10Q288 -10 213 35T96 161T55 353ZM190 353Q190 234 241 167T393 100Q491 100 544 167T597 353Q597 473 545
539T393 605Q292 605 241 539T190 353ZM215 765L339 939H447L571 765H484L393 869L302 765H215Z" />
<glyph unicode="&#xd5;" horiz-adv-x="787" d="M55 353Q55 464 95 545T212 670T393 715Q497 715 573 671T690 545T732 354Q732 243 691 162T573 35T393 -10Q288 -10 213 35T96 161T55 353ZM190 353Q190 234 241 167T393 100Q491 100 544 167T597 353Q597 473 545
539T393 605Q292 605 241 539T190 353ZM232 772L170 776Q175 847 212 885T304 924Q327 924 351 916T408 888Q437 872 454 865T485 858Q514 858 531 876T554 928L616 924Q611 853 575 815T483 776Q459 776 435 785T375 814Q348 830 332 836T301 842Q272 842 255
825T232 772Z" />
<glyph unicode="&#xd6;" horiz-adv-x="787" d="M55 353Q55 464 95 545T212 670T393 715Q497 715 573 671T690 545T732 354Q732 243 691 162T573 35T393 -10Q288 -10 213 35T96 161T55 353ZM190 353Q190 234 241 167T393 100Q491 100 544 167T597 353Q597 473 545
539T393 605Q292 605 241 539T190 353ZM430 790V905H545V790H430ZM241 790V905H356V790H241Z" />
<glyph unicode="&#xd7;" horiz-adv-x="600" d="M128 51L66 113L238 286L66 458L128 520L300 348L473 520L535 458L362 286L535 113L473 51L300 223L128 51Z" />
<glyph unicode="&#xd8;" horiz-adv-x="787" d="M55 353Q55 464 95 545T212 670T393 715Q497 715 573 671T690 545T732 354Q732 243 691 162T573 35T393 -10Q288 -10 213 35T96 161T55 353ZM190 353Q190 234 241 167T393 100Q491 100 544 167T597 353Q597 473 545
539T393 605Q292 605 241 539T190 353ZM277 49L214 -60L131 -11L194 98L235 152L499 603L520 657L583 765L666 716L603 607L562 554L298 102L277 49Z" />
<glyph unicode="&#xd9;" horiz-adv-x="740" d="M372 -10Q221 -10 148 65T74 289V705H203V290Q203 196 243 148T372 100Q456 100 498 148T541 290V705H668V289Q668 141 594 66T372 -10ZM327 765L168 939H298L417 765H327Z" />
<glyph unicode="&#xda;" horiz-adv-x="740" d="M372 -10Q221 -10 148 65T74 289V705H203V290Q203 196 243 148T372 100Q456 100 498 148T541 290V705H668V289Q668 141 594 66T372 -10ZM327 765L446 939H576L417 765H327Z" />
<glyph unicode="&#xdb;" horiz-adv-x="740" d="M372 -10Q221 -10 148 65T74 289V705H203V290Q203 196 243 148T372 100Q456 100 498 148T541 290V705H668V289Q668 141 594 66T372 -10ZM194 765L318 939H426L550 765H463L372 869L281 765H194Z" />
<glyph unicode="&#xdc;" horiz-adv-x="740" d="M372 -10Q221 -10 148 65T74 289V705H203V290Q203 196 243 148T372 100Q456 100 498 148T541 290V705H668V289Q668 141 594 66T372 -10ZM409 790V905H524V790H409ZM220 790V905H335V790H220Z" />
<glyph unicode="&#xdd;" horiz-adv-x="629" d="M250 0V333L277 256L-26 705H123L331 385H303L511 705H655L353 256L379 333V0H250ZM270 765L389 939H519L360 765H270Z" />
<glyph unicode="&#xde;" horiz-adv-x="667" d="M78 0V705H207V582H387Q502 582 565 526T629 372Q629 275 566 218T387 161H207V0H78ZM207 263H377Q439 263 471 291T504 372Q504 424 472 452T377 481H207V263Z" />
<glyph unicode="&#xdf;" horiz-adv-x="674" d="M68 0V474Q68 607 136 675T337 744Q406 744 456 723T533 661T561 562Q561 501 525 450T393 361V384Q479 361 535 332T620 262T648 166Q648 112 622 73T549 12T437 -10Q395 -10 362 -3T301 16T248 48L281 132Q319
107 355 94T434 81Q480 81 504 102T529 162Q529 193 509 220T438 271T298 318V413Q353 432 385 454T430 501T444 558Q444 600 416 625T337 651Q264 651 229 612T193 490V0H68Z" />
<glyph unicode="&#xe0;" horiz-adv-x="620" d="M263 -10Q197 -10 147 21T69 112T41 253Q41 335 69 393T147 483T263 515Q327 515 375 484T440 399H429L440 505H560Q557 474 555 442T552 379V0H428L427 104H439Q423 52 374 21T263 -10ZM298 86Q357 86 393 127T429
253Q429 337 393 378T298 419Q239 419 203 378T167 253Q167 169 202 128T298 86ZM263 554L121 757H244L347 554H263Z" />
<glyph unicode="&#xe1;" horiz-adv-x="620" d="M263 -10Q197 -10 147 21T69 112T41 253Q41 335 69 393T147 483T263 515Q327 515 375 484T440 399H429L440 505H560Q557 474 555 442T552 379V0H428L427 104H439Q423 52 374 21T263 -10ZM298 86Q357 86 393 127T429
253Q429 337 393 378T298 419Q239 419 203 378T167 253Q167 169 202 128T298 86ZM263 554L366 757H489L347 554H263Z" />
<glyph unicode="&#xe2;" horiz-adv-x="620" d="M263 -10Q197 -10 147 21T69 112T41 253Q41 335 69 393T147 483T263 515Q327 515 375 484T440 399H429L440 505H560Q557 474 555 442T552 379V0H428L427 104H439Q423 52 374 21T263 -10ZM298 86Q357 86 393 127T429
253Q429 337 393 378T298 419Q239 419 203 378T167 253Q167 169 202 128T298 86ZM140 554L250 757H360L470 554H391L305 686L219 554H140Z" />
<glyph unicode="&#xe3;" horiz-adv-x="620" d="M263 -10Q197 -10 147 21T69 112T41 253Q41 335 69 393T147 483T263 515Q327 515 375 484T440 399H429L440 505H560Q557 474 555 442T552 379V0H428L427 104H439Q423 52 374 21T263 -10ZM298 86Q357 86 393 127T429
253Q429 337 393 378T298 419Q239 419 203 378T167 253Q167 169 202 128T298 86ZM173 584L111 588Q116 659 149 697T231 736Q253 736 272 727T315 700Q336 684 349 677T376 670Q426 670 437 740L499 736Q495 665 462 627T380 588Q358 588 339 597T294 625Q275 641
262 647T234 654Q207 654 193 636T173 584Z" />
<glyph unicode="&#xe4;" horiz-adv-x="620" d="M263 -10Q197 -10 147 21T69 112T41 253Q41 335 69 393T147 483T263 515Q327 515 375 484T440 399H429L440 505H560Q557 474 555 442T552 379V0H428L427 104H439Q423 52 374 21T263 -10ZM298 86Q357 86 393 127T429
253Q429 337 393 378T298 419Q239 419 203 378T167 253Q167 169 202 128T298 86ZM342 597V712H457V597H342ZM153 597V712H268V597H153Z" />
<glyph unicode="&#xe5;" horiz-adv-x="620" d="M263 -10Q197 -10 147 21T69 112T41 253Q41 335 69 393T147 483T263 515Q327 515 375 484T440 399H429L440 505H560Q557 474 555 442T552 379V0H428L427 104H439Q423 52 374 21T263 -10ZM298 86Q357 86 393 127T429
253Q429 337 393 378T298 419Q239 419 203 378T167 253Q167 169 202 128T298 86ZM305 546Q270 546 241 562T196 606T179 668Q179 703 195 730T241 774T305 791Q341 791 369 775T414 731T431 668Q431 634 415 606T370 562T305 546ZM305 603Q334 603 352 622T370
668Q370 697 352 715T305 733Q277 733 259 715T240 669Q240 640 258 622T305 603Z" />
<glyph unicode="&#xe6;" horiz-adv-x="872" d="M233 -10Q176 -10 134 12T68 70T45 150Q45 207 71 240T160 288T331 303H381V237H330Q265 237 227 229T173 203T157 155Q157 121 182 99T250 77Q285 77 312 92T354 136T370 203V324Q370 375 345 397T268 420Q224 420
185 409T102 373L66 459Q105 485 160 500T273 515Q347 515 393 489T458 408H427Q460 461 506 488T616 515Q717 515 775 450T834 269V237H476V303H745L728 287Q728 355 699 392T615 429Q556 429 523 389T489 269V261Q489 174 526 130T639 86Q680 86 718 97T791 136L828
52Q792 21 741 6T635 -10Q547 -10 489 26T405 132H430Q412 65 361 28T233 -10Z" />
<glyph unicode="&#xe7;" horiz-adv-x="504" d="M300 -10Q222 -10 164 22T73 113T41 255Q41 337 73 395T164 484T300 515Q350 515 397 500T475 455L437 368Q410 393 377 405T311 418Q244 418 207 376T169 254Q169 174 206 131T311 88Q342 88 375 100T437 137L475
51Q444 22 397 6T300 -10ZM294 -195Q264 -195 238 -190T191 -174L209 -118Q227 -126 245 -130T283 -135Q310 -135 324 -128T338 -105Q338 -82 301 -82Q291 -82 282 -83T259 -88L240 -70L254 20H321L308 -56L276 -45Q287 -41 299 -39T322 -37Q363 -37 388 -56T413
-109Q413 -148 380 -171T294 -195Z" />
<glyph unicode="&#xe8;" horiz-adv-x="548" d="M312 -10Q185 -10 113 60T41 252Q41 331 72 390T158 482T288 515Q361 515 410 484T484 397T510 266V233H142V299H421L404 285Q404 355 375 392T289 429Q227 429 194 385T160 262V249Q160 167 200 127T315 86Q358
86 395 97T467 135L504 51Q468 22 418 6T312 -10ZM246 554L104 757H227L330 554H246Z" />
<glyph unicode="&#xe9;" horiz-adv-x="548" d="M312 -10Q185 -10 113 60T41 252Q41 331 72 390T158 482T288 515Q361 515 410 484T484 397T510 266V233H142V299H421L404 285Q404 355 375 392T289 429Q227 429 194 385T160 262V249Q160 167 200 127T315 86Q358
86 395 97T467 135L504 51Q468 22 418 6T312 -10ZM246 554L349 757H472L330 554H246Z" />
<glyph unicode="&#xea;" horiz-adv-x="548" d="M312 -10Q185 -10 113 60T41 252Q41 331 72 390T158 482T288 515Q361 515 410 484T484 397T510 266V233H142V299H421L404 285Q404 355 375 392T289 429Q227 429 194 385T160 262V249Q160 167 200 127T315 86Q358
86 395 97T467 135L504 51Q468 22 418 6T312 -10ZM123 554L233 757H343L453 554H374L288 686L202 554H123Z" />
<glyph unicode="&#xeb;" horiz-adv-x="548" d="M312 -10Q185 -10 113 60T41 252Q41 331 72 390T158 482T288 515Q361 515 410 484T484 397T510 266V233H142V299H421L404 285Q404 355 375 392T289 429Q227 429 194 385T160 262V249Q160 167 200 127T315 86Q358
86 395 97T467 135L504 51Q468 22 418 6T312 -10ZM325 597V712H440V597H325ZM136 597V712H251V597H136Z" />
<glyph unicode="&#xec;" horiz-adv-x="261" d="M68 0V505H193V0H68ZM89 554L-53 757H70L173 554H89Z" />
<glyph unicode="&#xed;" horiz-adv-x="261" d="M68 0V505H193V0H68ZM89 554L192 757H315L173 554H89Z" />
<glyph unicode="&#xee;" horiz-adv-x="261" d="M68 0V505H193V0H68ZM-34 554L76 757H186L296 554H217L131 686L45 554H-34Z" />
<glyph unicode="&#xef;" horiz-adv-x="261" d="M68 0V505H193V0H68ZM168 597V712H283V597H168ZM-21 597V712H94V597H-21Z" />
<glyph unicode="&#xf0;" horiz-adv-x="599" d="M294 -10Q218 -10 161 19T73 101T41 224Q41 292 71 344T156 425T283 454Q354 454 400 422T469 318H441Q441 395 408 464T313 583L336 580L137 492L111 550L277 622L275 608Q245 628 210 642T134 665L157 745Q226
735 282 712T382 656L358 659L479 712L505 655L406 611L411 632Q462 587 494 530T542 411T558 284Q558 192 527 126T438 25T294 -10ZM297 87Q358 87 392 123T427 223Q427 286 393 322T297 359Q237 359 202 323T167 223Q167 159 201 123T297 87Z" />
<glyph unicode="&#xf1;" horiz-adv-x="603" d="M68 0V379Q68 410 66 442T60 505H181L191 405H179Q203 458 250 486T359 515Q448 515 493 465T538 309V0H413V303Q413 364 390 390T319 417Q261 417 227 381T193 285V0H68ZM170 584L108 588Q113 659 146 697T228 736Q250
736 269 727T312 700Q333 684 346 677T373 670Q423 670 434 740L496 736Q492 665 459 627T377 588Q355 588 336 597T291 625Q272 641 259 647T231 654Q204 654 190 636T170 584Z" />
<glyph unicode="&#xf2;" horiz-adv-x="592" d="M296 -10Q218 -10 161 22T73 113T41 253Q41 334 72 392T161 483T296 515Q374 515 431 483T520 393T552 253Q552 172 521 113T432 22T296 -10ZM296 86Q355 86 390 127T425 253Q425 337 390 378T296 419Q237 419 202
378T167 253Q167 169 202 128T296 86ZM255 554L113 757H236L339 554H255Z" />
<glyph unicode="&#xf3;" horiz-adv-x="592" d="M296 -10Q218 -10 161 22T73 113T41 253Q41 334 72 392T161 483T296 515Q374 515 431 483T520 393T552 253Q552 172 521 113T432 22T296 -10ZM296 86Q355 86 390 127T425 253Q425 337 390 378T296 419Q237 419 202
378T167 253Q167 169 202 128T296 86ZM255 554L358 757H481L339 554H255Z" />
<glyph unicode="&#xf4;" horiz-adv-x="592" d="M296 -10Q218 -10 161 22T73 113T41 253Q41 334 72 392T161 483T296 515Q374 515 431 483T520 393T552 253Q552 172 521 113T432 22T296 -10ZM296 86Q355 86 390 127T425 253Q425 337 390 378T296 419Q237 419 202
378T167 253Q167 169 202 128T296 86ZM132 554L242 757H352L462 554H383L297 686L211 554H132Z" />
<glyph unicode="&#xf5;" horiz-adv-x="592" d="M296 -10Q218 -10 161 22T73 113T41 253Q41 334 72 392T161 483T296 515Q374 515 431 483T520 393T552 253Q552 172 521 113T432 22T296 -10ZM296 86Q355 86 390 127T425 253Q425 337 390 378T296 419Q237 419 202
378T167 253Q167 169 202 128T296 86ZM165 584L103 588Q108 659 141 697T223 736Q245 736 264 727T307 700Q328 684 341 677T368 670Q418 670 429 740L491 736Q487 665 454 627T372 588Q350 588 331 597T286 625Q267 641 254 647T226 654Q199 654 185 636T165 584Z"
/>
<glyph unicode="&#xf6;" horiz-adv-x="592" d="M296 -10Q218 -10 161 22T73 113T41 253Q41 334 72 392T161 483T296 515Q374 515 431 483T520 393T552 253Q552 172 521 113T432 22T296 -10ZM296 86Q355 86 390 127T425 253Q425 337 390 378T296 419Q237 419 202
378T167 253Q167 169 202 128T296 86ZM334 597V712H449V597H334ZM145 597V712H260V597H145Z" />
<glyph unicode="&#xf7;" horiz-adv-x="600" d="M54 243V331H546V243H54ZM243 38V142H347V38H243ZM243 432V536H347V432H243Z" />
<glyph unicode="&#xf8;" horiz-adv-x="592" d="M296 -10Q218 -10 161 22T73 113T41 253Q41 334 72 392T161 483T296 515Q374 515 431 483T520 393T552 253Q552 172 521 113T432 22T296 -10ZM296 86Q363 86 399 129T435 253Q435 333 399 376T296 419Q229 419 193
376T157 253Q157 173 193 130T296 86ZM161 -49L102 -13L433 555L493 519L161 -49Z" />
<glyph unicode="&#xf9;" horiz-adv-x="596" d="M250 -10Q157 -10 111 41T65 197V505H190V198Q190 142 213 116T283 89Q336 89 369 125T403 220V505H528V0H406V103H420Q398 49 354 20T250 -10ZM256 555L114 758H237L340 555H256Z" />
<glyph unicode="&#xfa;" horiz-adv-x="596" d="M250 -10Q157 -10 111 41T65 197V505H190V198Q190 142 213 116T283 89Q336 89 369 125T403 220V505H528V0H406V103H420Q398 49 354 20T250 -10ZM256 555L359 758H482L340 555H256Z" />
<glyph unicode="&#xfb;" horiz-adv-x="596" d="M250 -10Q157 -10 111 41T65 197V505H190V198Q190 142 213 116T283 89Q336 89 369 125T403 220V505H528V0H406V103H420Q398 49 354 20T250 -10ZM133 555L243 758H353L463 555H384L298 687L212 555H133Z" />
<glyph unicode="&#xfc;" horiz-adv-x="596" d="M250 -10Q157 -10 111 41T65 197V505H190V198Q190 142 213 116T283 89Q336 89 369 125T403 220V505H528V0H406V103H420Q398 49 354 20T250 -10ZM335 598V713H450V598H335ZM146 598V713H261V598H146Z" />
<glyph unicode="&#xfd;" horiz-adv-x="543" d="M58 -227L29 -128Q76 -118 108 -105T161 -71T196 -17L221 42L218 -7L-2 505H131L289 111H260L419 505H545L315 -28Q292 -82 265 -117T207 -174T139 -208T58 -227ZM229 554L332 757H455L313 554H229Z" />
<glyph unicode="&#xfe;" horiz-adv-x="620" d="M68 -216V736H193V399H181Q196 452 244 483T357 515Q424 515 474 484T552 394T580 253Q580 171 552 112T475 22T358 -10Q294 -10 246 21T182 104H193V-216H68ZM323 86Q382 86 418 127T454 253Q454 337 418 378T323
419Q264 419 228 378T191 253Q191 169 227 128T323 86Z" />
<glyph unicode="&#xff;" horiz-adv-x="543" d="M58 -227L29 -128Q76 -118 108 -105T161 -71T196 -17L221 42L218 -7L-2 505H131L289 111H260L419 505H545L315 -28Q292 -82 265 -117T207 -174T139 -208T58 -227ZM308 597V712H423V597H308ZM119 597V712H234V597H119Z" />
<glyph unicode="&#x2013;" horiz-adv-x="505" d="M0 238V313H505V238H0Z" />
<glyph unicode="&#x2014;" horiz-adv-x="1010" d="M0 238V313H1010V238H0Z" />
<glyph unicode="&#x2018;" horiz-adv-x="248" d="M54 441V532Q54 583 72 626T133 713L185 672Q153 639 140 611T127 551L96 580H194V441H54Z" />
<glyph unicode="&#x2019;" horiz-adv-x="248" d="M116 434L65 474Q97 507 109 535T122 595L153 567H55V705H195V614Q195 563 178 521T116 434Z" />
<glyph unicode="&#x201a;" horiz-adv-x="248" d="M116 -133L65 -93Q95 -62 108 -34T122 29L153 0H55V139H195V47Q195 -6 177 -48T116 -133Z" />
<glyph unicode="&#x201c;" horiz-adv-x="447" d="M54 441V532Q54 583 72 626T133 713L185 672Q153 639 140 611T127 551L96 580H194V441H54ZM253 441V532Q253 583 271 626T332 713L384 672Q352 639 339 611T326 551L295 580H393V441H253Z" />
<glyph unicode="&#x201d;" horiz-adv-x="447" d="M116 434L65 474Q97 507 109 535T122 595L153 567H55V705H195V614Q195 563 178 521T116 434ZM315 434L264 474Q296 507 308 535T321 595L352 567H254V705H394V614Q394 563 377 521T315 434Z" />
<glyph unicode="&#x201e;" horiz-adv-x="447" d="M116 -133L65 -93Q95 -62 108 -34T122 29L153 0H55V139H195V47Q195 -6 177 -48T116 -133ZM315 -133L264 -93Q294 -62 307 -34T321 29L352 0H254V139H394V47Q394 -6 376 -48T315 -133Z" />
<glyph unicode="&#x2022;" horiz-adv-x="529" d="M265 89Q216 89 174 112T107 177T82 268Q82 314 105 355T170 421T265 447Q314 447 355 424T421 360T447 268Q447 219 423 178T357 113T265 89Z" />
<glyph unicode="&#x2039;" horiz-adv-x="290" d="M155 86L24 268L155 450H259L136 268L259 86H155Z" />
<glyph unicode="&#x203a;" horiz-adv-x="290" d="M135 86H31L154 268L31 450H136L266 268L135 86Z" />
</font>
</defs>
</svg>
