<?xml version="1.0" standalone="no"?>
<!DOCTYPE svg PUBLIC "-//W3C//DTD SVG 1.1//EN" "http://www.w3.org/Graphics/SVG/1.1/DTD/svg11.dtd">
<svg xmlns="http://www.w3.org/2000/svg">
<defs >
<font id="Mulish" horiz-adv-x="581" ><font-face
    font-family="Mulish ExtraLight ExtraBold"
    units-per-em="1000"
    panose-1="0 0 0 0 0 0 0 0 0 0"
    ascent="1005"
    descent="-250"
    alphabetic="0" />
<glyph unicode=" " horiz-adv-x="282" />
<glyph unicode="!" horiz-adv-x="260" d="M80 223L109 705H295L172 223H80ZM9 0L34 160H196L171 0H9Z" />
<glyph unicode="&quot;" horiz-adv-x="481" d="M102 407L113 705H287L203 407H102ZM327 407L338 705H512L428 407H327Z" />
<glyph unicode="#" horiz-adv-x="600" d="M33 0L92 166H27L42 259H124L195 454H97L111 548H229L286 705H387L330 548H441L498 705H598L541 548H605L590 454H508L436 259H537L522 166H403L344 0H243L302 166H193L135 0H33ZM226 259H335L406 454H296L226 259Z" />
<glyph unicode="$" horiz-adv-x="600" d="M192 -115L213 18L242 -6Q199 -3 154 5T70 29T4 65L62 185Q102 157 158 140T280 122Q346 122 379 143T417 197Q422 225 404 244T335 272L241 292Q186 305 146 333T88 403T78 498Q89 562 124 606T215 676T347 709L319 693L340
820H459L438 693L417 711Q469 707 520 689T602 641L549 527Q517 554 472 568T374 583Q308 583 271 560T227 500Q222 470 239 452T305 422L399 402Q499 381 539 330T567 196Q553 109 483 59T308 -4L332 19L311 -115H192Z" />
<glyph unicode="%" horiz-adv-x="958" d="M301 0H168L688 705H822L301 0ZM234 285Q142 285 101 345T75 511Q91 608 147 662T284 716Q376 716 417 656T442 491Q427 395 372 340T234 285ZM241 378Q272 378 292 406T322 494Q332 565 320 593T277 621Q246 621 227
596T197 508Q185 437 197 408T241 378ZM706 -11Q614 -11 573 49T547 216Q563 314 618 367T755 420Q847 420 889 361T914 196Q898 99 844 44T706 -11ZM713 84Q744 84 764 111T793 200Q805 269 792 298T749 327Q718 327 698 301T668 213Q658 141 670 113T713 84Z"
/>
<glyph unicode="&amp;" horiz-adv-x="698" d="M620 -11Q576 2 535 28T462 86L501 85Q456 41 390 15T252 -11Q172 -11 116 15T33 87T17 197Q27 258 72 303T190 384L233 406L201 378Q167 417 154 461T147 552Q154 598 181 635T257 694T373 716Q431 716 473 696T534
638T546 547Q541 512 520 479T462 417T368 361L373 391L512 227H483Q515 268 537 320T572 429H700Q684 347 650 274T566 143L562 177Q586 149 616 129T684 97L620 -11ZM276 105Q320 105 357 121T428 168L413 135L239 336L305 334L271 316Q225 293 200 268T167 205Q161
160 188 133T276 105ZM367 616Q333 616 312 597T286 550Q283 529 286 512T300 478T332 435L300 434Q362 462 392 488T428 548Q434 580 417 598T367 616Z" />
<glyph unicode="&apos;" horiz-adv-x="256" d="M102 407L113 705H287L203 407H102Z" />
<glyph unicode="(" horiz-adv-x="378" d="M167 -180Q129 -100 112 -15T94 151Q94 257 121 357T195 546T302 705H424Q349 571 300 419T250 97Q250 37 260 -34T286 -180H167Z" />
<glyph unicode=")" horiz-adv-x="378" d="M79 -180H-43Q33 -46 82 106T132 428Q132 488 122 559T95 705H215Q252 625 269 541T287 374Q287 269 260 169T186 -20T79 -180Z" />
<glyph unicode="*" horiz-adv-x="459" d="M185 345L107 402L209 514L69 553L105 644L239 591L242 736H339L319 592L461 644L485 553L338 514L423 402L345 345L275 467L185 345Z" />
<glyph unicode="+" horiz-adv-x="600" d="M213 40L244 235H51L68 339H260L290 528H397L367 339H559L542 235H351L320 40H213Z" />
<glyph unicode="," horiz-adv-x="260" d="M64 -144L13 -88Q51 -55 68 -29T92 36L122 0H9L34 160H195L177 44Q172 7 160 -24T125 -85T64 -144Z" />
<glyph unicode="-" horiz-adv-x="444" d="M59 217L78 335H392L374 217H59Z" />
<glyph unicode="." horiz-adv-x="260" d="M9 0L34 160H196L170 0H9Z" />
<glyph unicode="/" horiz-adv-x="334" d="M53 -61H-76L325 755H453L53 -61Z" />
<glyph unicode="0" horiz-adv-x="600" d="M271 -11Q134 -11 81 89T55 371Q83 549 160 632T360 716Q493 716 550 621T577 339Q549 162 470 76T271 -11ZM281 115Q338 115 374 170T431 349Q445 439 441 492T413 567T351 590Q294 590 258 538T202 362Q188 272 192
218T220 139T281 115Z" />
<glyph unicode="1" horiz-adv-x="600" d="M61 0L82 128H242L312 575L384 571L149 445L172 595L378 705H489L397 128H547L527 0H61Z" />
<glyph unicode="2" horiz-adv-x="600" d="M33 0L51 115L316 354Q363 396 386 428T415 494Q423 540 397 563T318 587Q273 587 227 572T133 522L87 637Q137 674 206 695T344 716Q429 716 483 689T559 614T571 499Q561 435 522 382T415 271L203 88V128H537L517 0H33Z" />
<glyph unicode="3" horiz-adv-x="600" d="M258 -11Q185 -11 120 10T18 68L72 184Q112 151 159 135T260 118Q320 118 354 138T396 205Q409 294 297 294H175L194 417H298Q349 417 382 438T421 501Q428 542 403 564T325 587Q273 587 226 571T134 521L88 636Q138 674
206 695T346 716Q470 716 529 662T573 515Q564 456 522 414T417 358L418 371Q484 360 518 311T542 188Q526 90 451 40T258 -11Z" />
<glyph unicode="4" horiz-adv-x="600" d="M298 0L319 129H13L31 237L432 705H560L486 246H583L564 129H467L448 0H298ZM337 246L381 521H409L145 210L146 246H337Z" />
<glyph unicode="5" horiz-adv-x="600" d="M273 -11Q227 -11 182 -1T100 26T40 68L92 184Q132 152 179 135T276 118Q334 118 370 144T415 218Q422 269 395 298T314 327Q276 327 242 313T178 270H78L147 705H597L576 578H272L242 386H206Q236 418 277 435T372 452Q436
452 483 423T552 340T562 210Q552 144 515 95T417 17T273 -11Z" />
<glyph unicode="6" horiz-adv-x="600" d="M295 -11Q202 -11 143 33T63 160T60 363Q79 481 128 559T251 677T417 716Q476 716 528 699T617 645L562 529Q529 559 491 573T409 587Q327 587 276 534T206 372L196 307H183Q206 378 256 418T380 458Q442 458 486 428T552
342T561 212Q550 140 513 91T420 15T295 -11ZM299 110Q352 110 381 140T419 219Q428 274 403 306T328 338Q279 338 248 307T208 227Q199 173 224 142T299 110Z" />
<glyph unicode="7" horiz-adv-x="600" d="M25 0L462 625L459 575H97L119 705H626L608 589L201 0H25Z" />
<glyph unicode="8" horiz-adv-x="600" d="M271 -11Q137 -11 72 48T22 208Q34 279 86 323T210 376L207 350Q145 364 114 415T93 534Q107 622 179 669T370 716Q449 716 502 691T579 620T594 514Q583 446 538 402T429 348L432 372Q478 364 509 338T554 273T559 182Q544
88 468 39T271 -11ZM278 108Q340 108 376 131T419 202Q427 249 399 273T306 297Q244 297 209 275T165 206Q158 161 186 135T278 108ZM327 416Q379 416 411 438T450 504Q456 547 432 572T355 597Q302 597 271 574T233 511Q227 470 250 443T327 416Z" />
<glyph unicode="9" horiz-adv-x="600" d="M215 -11Q157 -11 105 6T15 61L70 176Q103 147 141 133T223 118Q305 118 357 171T425 333L435 398H450Q427 327 377 287T252 247Q192 247 147 277T80 363T71 494Q82 566 119 615T212 690T338 716Q431 716 490 672T570
545T572 342Q554 224 505 146T381 28T215 -11ZM303 368Q353 368 385 399T425 479Q433 532 408 564T333 596Q281 596 251 566T213 486Q204 432 229 400T303 368Z" />
<glyph unicode=":" horiz-adv-x="260" d="M64 347L89 507H251L225 347H64ZM9 0L34 160H195L170 0H9Z" />
<glyph unicode=";" horiz-adv-x="260" d="M59 -144L8 -97Q49 -62 68 -31T93 36L120 0H10L35 160H197L179 48Q170 -9 144 -54T59 -144ZM64 346L89 506H251L225 346H64Z" />
<glyph unicode="&lt;" horiz-adv-x="600" d="M509 31L51 231L69 344L591 543L572 424L95 244L106 317L527 138L509 31Z" />
<glyph unicode="=" horiz-adv-x="600" d="M67 335L84 439H574L557 335H67ZM36 136L53 239H542L526 136H36Z" />
<glyph unicode="&gt;" horiz-adv-x="600" d="M20 31L39 150L516 330L504 256L84 436L102 543L560 344L542 231L20 31Z" />
<glyph unicode="?" horiz-adv-x="473" d="M166 223L174 270Q178 299 188 324T220 376T274 431Q293 448 308 465T333 502T343 540Q343 564 324 577T268 591Q228 591 187 578T109 544L129 671Q167 692 217 704T312 716Q368 716 410 698T475 647T499 570Q499 529
483 494T438 431T374 378Q319 338 296 309T266 253L256 223H166ZM94 0L120 160H282L257 0H94Z" />
<glyph unicode="@" horiz-adv-x="962" d="M500 -166Q403 -166 323 -136T184 -48T93 89T60 265Q60 367 93 450T187 592T332 684T519 716Q609 716 682 690T809 614T892 495T921 340Q921 254 895 191T824 93T720 59Q658 59 623 92T582 185L620 204Q595 131 549 95T447
59Q365 59 321 110T276 249Q276 322 303 379T378 468T488 501Q541 501 574 475T621 397H600L618 491H727L686 260Q683 242 682 228T680 202Q680 172 691 159T727 145Q755 145 778 169T816 238T830 340Q830 409 809 462T747 552T649 608T518 627Q438 627 372 602T260
529T187 415T161 265Q161 159 203 82T321 -36T500 -77Q572 -77 631 -58T736 -2L780 -79Q733 -120 661 -143T500 -166ZM470 151Q504 151 530 172T571 231T586 320Q586 363 568 385T509 408Q475 408 448 388T406 333T391 250Q391 202 411 177T470 151Z" />
<glyph unicode="A" horiz-adv-x="759" d="M-51 0L385 705H514L730 0H578L523 196L578 153H159L228 196L112 0H-51ZM429 541L251 235L230 273H545L516 235L433 541H429Z" />
<glyph unicode="B" horiz-adv-x="696" d="M32 0L144 705H466Q584 705 639 655T681 514Q671 454 627 412T515 354L517 370Q591 357 625 309T648 189Q634 100 563 50T375 0H32ZM200 116H369Q428 116 461 137T501 201Q507 238 497 259T461 290T398 300H228L200 116ZM247
415H397Q458 415 489 436T527 497Q535 545 511 567T427 590H275L247 415Z" />
<glyph unicode="C" horiz-adv-x="685" d="M389 -11Q266 -11 189 38T82 174T69 370Q87 480 140 557T279 676T475 716Q544 715 599 697T692 646L639 522Q598 553 560 566T468 579Q373 579 311 523T231 362Q220 290 236 237T295 155T409 126Q456 126 502 141T596
192L638 69Q588 31 524 10T389 -11Z" />
<glyph unicode="D" horiz-adv-x="771" d="M32 0L144 705H399Q530 705 610 660T721 533T734 336Q707 169 598 85T308 0H32ZM208 128H312Q431 128 496 181T580 343Q598 465 549 521T381 578H279L208 128Z" />
<glyph unicode="E" horiz-adv-x="599" d="M32 0L144 705H634L615 584H274L248 419H565L546 297H229L201 121H541L522 0H32Z" />
<glyph unicode="F" horiz-adv-x="578" d="M32 0L144 705H623L604 584H280L253 412H553L534 292H234L188 0H32Z" />
<glyph unicode="G" horiz-adv-x="745" d="M397 -11Q267 -11 188 36T80 169T69 367Q87 479 143 556T289 675T493 716Q570 716 625 699T718 653L664 532Q622 559 584 570T487 581Q378 581 313 523T231 356Q214 245 256 183T414 121Q457 121 494 128T573 149L528
89L558 279H403L421 390H705L650 45Q615 27 572 15T484 -4T397 -11Z" />
<glyph unicode="H" horiz-adv-x="779" d="M32 0L144 705H300L255 422H578L623 705H780L668 0H511L558 293H234L188 0H32Z" />
<glyph unicode="I" horiz-adv-x="299" d="M32 0L144 705H300L188 0H32Z" />
<glyph unicode="J" horiz-adv-x="381" d="M26 -187Q8 -187 -16 -185T-66 -175L-47 -53Q-28 -60 -11 -62T19 -64Q65 -64 88 -38T121 46L225 705H381L275 33Q262 -45 233 -93T154 -164T26 -187Z" />
<glyph unicode="K" horiz-adv-x="685" d="M32 0L144 705H300L251 398H253L586 705H776L371 336L366 400L686 0H502L241 322H239L188 0H32Z" />
<glyph unicode="L" horiz-adv-x="569" d="M32 0L144 705H300L208 131H526L506 0H32Z" />
<glyph unicode="M" horiz-adv-x="877" d="M33 0L145 705H282L439 155H407L740 705H876L764 0H622L698 479H738L443 0H354L209 479H251L175 0H33Z" />
<glyph unicode="N" horiz-adv-x="760" d="M32 0L144 705H260L564 209L538 218L616 705H761L649 0H533L229 496L255 487L177 0H32Z" />
<glyph unicode="O" horiz-adv-x="795" d="M69 370Q87 480 138 557T271 675T455 716Q570 716 643 667T746 532T758 336Q741 226 689 149T556 30T372 -11Q257 -11 184 38T81 174T69 370ZM231 360Q219 284 233 231T285 150T384 121Q473 121 526 182T596 346Q608 422
594 475T541 556T441 584Q352 584 300 524T231 360Z" />
<glyph unicode="P" horiz-adv-x="675" d="M32 0L144 705H458Q583 705 639 643T678 474Q669 415 636 370T545 299T408 274H231L188 0H32ZM251 395H404Q461 395 491 418T529 485Q537 533 513 558T431 584H280L251 395Z" />
<glyph unicode="Q" horiz-adv-x="795" d="M515 -192Q485 -175 456 -146T404 -80T367 -4L497 50Q514 -1 551 -43T632 -113L515 -192ZM69 370Q87 480 138 557T271 675T455 716Q570 716 643 667T746 532T758 336Q741 226 689 149T556 30T372 -11Q257 -11 184 38T81
174T69 370ZM231 360Q219 284 233 231T285 150T384 121Q473 121 526 182T596 346Q608 422 594 475T541 556T441 584Q352 584 300 524T231 360Z" />
<glyph unicode="R" horiz-adv-x="708" d="M32 0L144 705H449Q579 705 636 647T677 481Q667 419 631 374T538 304T408 279L412 301H449Q492 301 521 278T567 211L643 0H480L401 227Q392 256 368 265T309 275H231L188 0H32ZM249 387H394Q453 387 486 411T526 482Q534
534 507 559T418 584H280L249 387Z" />
<glyph unicode="S" horiz-adv-x="658" d="M294 -11Q214 -11 144 8T28 57L79 179Q125 153 182 136T308 118Q380 118 413 140T452 196Q457 227 440 246T375 273L265 292Q173 307 128 361T95 501Q105 567 146 615T256 689T412 716Q481 716 542 699T641 649L589 531Q553
556 505 571T396 587Q331 587 293 565T248 504Q243 473 260 451T328 421L437 403Q532 388 576 336T606 198Q597 137 557 90T451 16T294 -11Z" />
<glyph unicode="T" horiz-adv-x="628" d="M195 0L287 578H63L83 705H687L667 578H443L351 0H195Z" />
<glyph unicode="U" horiz-adv-x="746" d="M344 -11Q248 -11 182 23T87 125T75 300L140 705H296L231 292Q217 208 246 165T360 121Q435 121 476 163T533 294L598 705H752L685 288Q669 188 628 122T517 22T344 -11Z" />
<glyph unicode="V" horiz-adv-x="735" d="M263 0L59 705H221L372 141H324L653 705H821L392 0H263Z" />
<glyph unicode="W" horiz-adv-x="1126" d="M230 0L92 705H248L339 161H297L579 705H693L785 161H745L1021 705H1178L814 0H687L594 501H615L358 0H230Z" />
<glyph unicode="X" horiz-adv-x="682" d="M-61 0L296 392L291 323L65 705H241L391 436H341L577 705H767L418 323L422 392L656 0H479L322 279H374L128 0H-61Z" />
<glyph unicode="Y" horiz-adv-x="642" d="M203 0L256 335L273 246L39 705H212L358 403H326L568 705H748L366 239L413 335L359 0H203Z" />
<glyph unicode="Z" horiz-adv-x="615" d="M6 0L24 115L474 623L467 577H97L118 705H643L625 591L174 83L181 128H566L545 0H6Z" />
<glyph unicode="[" horiz-adv-x="376" d="M30 -180L170 705H431L413 593H301L197 -68H309L291 -180H30Z" />
<glyph unicode="\" horiz-adv-x="334" d="M196 -61L53 755H173L316 -61H196Z" />
<glyph unicode="]" horiz-adv-x="376" d="M-52 -180L-35 -68H77L181 593H70L88 705H347L207 -180H-52Z" />
<glyph unicode="^" horiz-adv-x="600" d="M25 140L303 628H415L539 140H430L321 587H394L142 140H25Z" />
<glyph unicode="_" horiz-adv-x="505" d="M-40 -88L-25 0H450L436 -88H-40Z" />
<glyph unicode="`" horiz-adv-x="500" d="M275 555L133 760H276L374 555H275Z" />
<glyph unicode="a" horiz-adv-x="632" d="M232 -11Q163 -11 115 24T46 122T39 270Q59 393 130 455T299 517Q360 517 403 489T456 412L446 408L473 507H618Q610 474 603 441T589 375L530 0H380L396 99H412Q388 49 343 19T232 -11ZM285 103Q336 103 372 138T420
247Q433 329 406 366T325 403Q274 403 238 368T190 260Q177 178 204 141T285 103Z" />
<glyph unicode="b" horiz-adv-x="632" d="M333 -11Q273 -11 230 18T177 95L187 99L171 0H22L139 736H290L238 412L220 408Q244 458 290 487T400 517Q470 517 518 482T586 385T593 237Q573 114 502 52T333 -11ZM308 103Q360 103 395 138T442 247Q455 329 429 366T348
403Q297 403 261 368T212 260Q200 178 227 141T308 103Z" />
<glyph unicode="c" horiz-adv-x="509" d="M280 -11Q193 -11 135 24T51 123T39 270Q59 393 139 455T338 517Q385 517 430 504T503 465L457 363Q434 382 403 392T343 402Q285 402 245 368T193 261Q181 191 210 149T306 106Q333 106 365 116T427 149L467 47Q437 21
386 5T280 -11Z" />
<glyph unicode="d" horiz-adv-x="632" d="M232 -11Q163 -11 115 24T46 122T39 270Q59 393 130 455T299 517Q360 517 403 489T456 412H444L496 736H647L530 0H381L397 99H412Q388 49 343 19T232 -11ZM285 103Q336 103 372 138T420 247Q433 329 406 366T325 403Q274
403 238 368T190 260Q177 178 204 141T285 103Z" />
<glyph unicode="e" horiz-adv-x="550" d="M292 -11Q199 -11 138 25T52 125T40 273Q52 349 89 403T183 487T316 517Q391 517 440 484T509 394T518 263L512 230H158L169 304H415L395 288Q405 352 383 384T311 416Q275 416 249 400T207 354T186 288L180 249Q170 179
201 141T313 103Q349 103 383 113T453 147L493 47Q452 18 400 4T292 -11Z" />
<glyph unicode="f" horiz-adv-x="386" d="M60 0L123 394H27L44 507H183L134 468L147 544Q162 642 222 691T389 740Q413 740 436 737T477 725L458 609Q445 614 431 616T400 619Q377 619 355 611T316 585T295 535L286 482L269 507H418L401 394H274L211 0H60Z" />
<glyph unicode="g" horiz-adv-x="633" d="M237 -224Q165 -224 110 -210T13 -166L53 -57Q78 -75 107 -86T168 -104T234 -110Q304 -110 340 -78T386 13L403 118H413Q393 72 346 43T236 13Q168 13 119 45T49 137T41 282Q60 397 130 457T301 517Q362 517 405 489T457
413L450 417L474 507H620Q611 474 604 441T591 375L536 30Q517 -93 442 -158T237 -224ZM288 126Q342 126 378 161T424 263Q434 332 408 367T328 403Q274 403 238 368T191 267Q180 198 207 162T288 126Z" />
<glyph unicode="h" horiz-adv-x="613" d="M22 0L139 736H290L238 412H223Q253 464 302 490T412 517Q503 517 541 463T561 298L514 0H363L410 298Q419 353 401 376T343 400Q292 400 259 369T218 286L173 0H22Z" />
<glyph unicode="i" horiz-adv-x="274" d="M22 0L102 507H253L173 0H22ZM109 590L132 731H295L272 590H109Z" />
<glyph unicode="j" horiz-adv-x="274" d="M-55 -223Q-77 -223 -99 -220T-140 -209L-121 -92Q-108 -96 -95 -99T-66 -102Q-34 -102 -11 -83T20 -15L103 507H254L170 -22Q154 -121 100 -172T-55 -223ZM110 590L132 731H295L272 590H110Z" />
<glyph unicode="k" horiz-adv-x="574" d="M22 0L139 736H290L220 296H222L438 507H623L342 237V292L556 0H377L210 220H208L173 0H22Z" />
<glyph unicode="l" horiz-adv-x="274" d="M22 0L139 736H290L173 0H22Z" />
<glyph unicode="m" horiz-adv-x="911" d="M22 0L81 375Q86 407 89 440T94 507H240L235 413H223Q252 465 297 491T402 517Q461 517 498 489T542 404H523Q553 456 605 486T715 517Q804 517 840 464T860 296L812 0H661L709 301Q717 353 703 376T650 400Q604 400 575
368T537 280L492 0H341L388 301Q397 353 383 376T331 400Q284 400 255 368T217 280L173 0H22Z" />
<glyph unicode="n" horiz-adv-x="613" d="M22 0L81 375Q86 407 89 440T94 507H240L235 413L223 412Q253 464 302 490T412 517Q503 517 541 463T561 298L514 0H363L410 298Q419 353 401 376T343 400Q292 400 259 369T218 286L173 0H22Z" />
<glyph unicode="o" horiz-adv-x="604" d="M274 -11Q188 -11 131 23T50 120T39 270Q52 352 92 407T195 489T332 517Q419 517 475 484T555 387T565 237Q552 156 512 101T410 18T274 -11ZM282 103Q332 103 367 138T415 247Q428 329 402 366T322 403Q272 403 237 368T190
260Q177 178 203 141T282 103Z" />
<glyph unicode="p" horiz-adv-x="632" d="M-12 -216L81 375Q86 407 89 440T94 507H240L235 408H220Q244 458 290 487T400 517Q470 517 518 482T586 385T593 237Q573 114 502 52T333 -11Q273 -11 230 18T177 95H188L139 -216H-12ZM308 103Q360 103 395 138T442
247Q455 329 429 366T348 403Q297 403 261 368T212 260Q200 178 227 141T308 103Z" />
<glyph unicode="q" horiz-adv-x="632" d="M345 -216L394 95L412 99Q388 49 343 19T232 -11Q163 -11 115 24T46 122T39 270Q59 393 130 455T299 517Q360 517 403 489T456 412L446 408L473 507H618Q610 474 603 441T589 375L496 -216H345ZM285 103Q336 103 372 138T420
247Q433 329 406 366T325 403Q274 403 238 368T190 260Q177 178 204 141T285 103Z" />
<glyph unicode="r" horiz-adv-x="411" d="M21 0L80 373Q85 406 89 440T94 507H240L234 359H208Q226 413 254 448T320 500T400 517Q414 517 426 516T450 512L428 379Q410 387 396 389T359 391Q322 391 292 376T242 330T214 253L173 0H21Z" />
<glyph unicode="s" horiz-adv-x="504" d="M219 -11Q154 -11 100 3T12 41L54 141Q90 120 135 107T226 94Q269 94 292 107T320 145Q323 166 311 178T272 195L185 209Q113 221 83 261T62 363Q71 412 102 446T184 499T294 517Q351 517 399 505T480 467L435 370Q408
389 370 401T294 414Q248 414 225 399T197 360Q194 341 204 327T241 309L329 295Q403 283 433 245T454 145Q446 94 414 59T331 7T219 -11Z" />
<glyph unicode="t" horiz-adv-x="396" d="M261 -11Q159 -11 117 41T90 187L123 394H27L44 507H140L160 631L317 668L291 507H421L403 394H274L242 195Q235 148 252 130T303 111Q319 111 332 113T360 121L341 4Q320 -4 300 -7T261 -11Z" />
<glyph unicode="u" horiz-adv-x="607" d="M213 -11Q119 -11 77 44T51 204L99 507H250L202 205Q194 154 211 131T272 107Q321 107 350 138T389 223L434 507H585L505 0H358L373 97H388Q359 46 315 18T213 -11Z" />
<glyph unicode="v" horiz-adv-x="551" d="M169 0L31 507H185L271 139H238L446 507H601L299 0H169Z" />
<glyph unicode="w" horiz-adv-x="891" d="M165 0L42 507H190L267 142H241L434 507H535L610 142H589L779 507H930L647 0H517L432 374H493L295 0H165Z" />
<glyph unicode="x" horiz-adv-x="557" d="M-67 0L220 295L218 228L35 507H205L312 330H258L422 507H606L335 227L341 296L534 0H359L241 190H297L118 0H-67Z" />
<glyph unicode="y" horiz-adv-x="550" d="M-18 -227L-41 -109Q8 -100 42 -88T100 -57T143 -6L177 53L170 -5L30 507H185L271 140H240L445 507H601L289 -20Q254 -77 220 -114T149 -174T71 -208T-18 -227Z" />
<glyph unicode="z" horiz-adv-x="530" d="M7 0L23 98L371 430L365 394H70L87 507H525L509 408L157 73L163 112H473L455 0H7Z" />
<glyph unicode="{" horiz-adv-x="414" d="M231 -180Q180 -180 147 -163T101 -115T93 -47L121 127Q127 166 118 183T74 203L32 208L48 316L91 321Q126 324 141 341T164 397L192 572Q203 640 239 672T334 705H470L452 593H387Q368 593 355 584T337 550L310 379Q305
343 286 317T241 276T193 262L192 266Q215 266 235 251T266 208T272 145L246 -25Q242 -49 251 -58T280 -68H348L330 -180H231Z" />
<glyph unicode="|" horiz-adv-x="293" d="M2 -180L142 705H293L153 -180H2Z" />
<glyph unicode="}" horiz-adv-x="414" d="M-54 -180L-36 -68H30Q49 -68 62 -59T80 -25L106 146Q112 183 131 209T176 249T224 264L225 260Q203 260 183 275T151 317T145 381L172 550Q176 574 167 583T137 593H69L86 705H186Q237 705 270 688T316 640T324 572L296
398Q290 359 299 342T343 322L385 318L368 209L326 205Q292 201 276 184T253 128L225 -47Q214 -115 177 -147T83 -180H-54Z" />
<glyph unicode="~" horiz-adv-x="600" d="M415 204Q383 204 352 216T292 242Q268 255 247 264T206 273Q181 273 162 258T126 213L57 263Q81 314 116 342T196 371Q229 371 261 358T321 332Q346 320 366 311T404 302Q430 302 450 317T486 362L555 310Q531 261 496
233T415 204Z" />
<glyph unicode="&#xa0;" horiz-adv-x="282" />
<glyph unicode="&#xa1;" horiz-adv-x="260" d="M-32 -180L89 284H180L154 -180H-32ZM64 347L89 507H251L226 347H64Z" />
<glyph unicode="&#xa2;" horiz-adv-x="600" d="M199 -115L222 30L245 -2Q154 17 108 83T77 254Q93 353 155 415T323 493L289 456L314 610H432L409 465L382 497Q432 496 474 483T543 446L496 344Q474 363 443 372T382 382Q325 382 284 349T232 251Q225 209 235
176T274 125T345 106Q373 106 405 116T466 147L506 46Q472 19 416 3T301 -10L339 22L317 -115H199Z" />
<glyph unicode="&#xa3;" horiz-adv-x="600" d="M1 0L17 103Q56 115 79 134T107 188L127 308H49L63 398H141L155 489Q173 598 242 657T426 716Q490 716 542 699T629 649L575 540Q540 568 507 580T435 593Q379 593 349 568T312 490L297 398H456L442 308H284L270
221Q263 182 243 157T191 121L192 125H551L531 0H1Z" />
<glyph unicode="&#xa4;" horiz-adv-x="600" d="M118 -32L62 24L135 99Q113 130 101 167T89 245Q89 286 101 323T135 392L62 466L118 523L192 448Q222 469 257 481T332 493Q371 493 406 482T471 449L545 525L605 464L530 389Q552 358 562 322T573 245Q573 205 562
168T529 100L603 24L547 -31L474 44Q444 22 408 10T332 -3Q293 -3 257 9T191 42L118 -32ZM332 116Q365 116 393 133T437 180T453 245Q453 281 437 310T393 357T332 375Q299 375 271 358T227 311T210 245Q210 210 226 181T269 134T332 116Z" />
<glyph unicode="&#xa5;" horiz-adv-x="600" d="M182 0L207 159H51L64 245H221L232 317H76L89 403H218L215 385L49 705H212L340 439H307L522 705H695L426 385L429 403H558L545 317H388L376 245H533L520 159H363L337 0H182Z" />
<glyph unicode="&#xa6;" horiz-adv-x="293" d="M89 372L142 705H293L240 372H89ZM2 -180L55 154H206L153 -180H2Z" />
<glyph unicode="&#xa7;" horiz-adv-x="586" d="M232 -191Q169 -191 109 -174T-2 -123L47 -26Q70 -44 100 -58T163 -79T227 -87Q274 -87 302 -66T330 -8Q330 19 317 36T273 69L150 136Q95 166 67 205T38 291Q38 346 63 386T138 454L133 440Q124 457 119 475T114
516Q114 580 147 624T235 692T357 716Q413 716 468 701T569 653L527 558Q492 582 447 597T360 612Q314 612 286 591T258 532Q258 505 271 488T315 454L437 388Q493 357 521 318T550 233Q550 178 524 138T448 68L451 90Q463 72 468 53T474 11Q474 -54 441 -99T354
-168T232 -191ZM171 319Q171 293 188 273T238 234L351 175Q367 164 380 155T403 135L387 134Q403 152 410 170T417 206Q417 231 400 251T349 291L237 349Q221 359 208 368T185 389L204 396Q186 377 179 357T171 319Z" />
<glyph unicode="&#xa8;" horiz-adv-x="500" d="M337 590L356 722H488L468 590H337ZM139 590L159 722H291L271 590H139Z" />
<glyph unicode="&#xa9;" horiz-adv-x="815" d="M428 -11Q352 -11 286 17T170 94T93 209T65 353Q65 430 92 496T169 611T285 688T429 716Q506 716 572 688T687 611T763 496T791 353Q791 276 764 210T687 94T572 17T428 -11ZM449 137Q347 137 287 195T227 354Q227
454 287 511T449 568Q489 568 529 556T594 523L559 434Q539 452 514 461T460 471Q411 471 383 440T354 353Q354 298 382 267T460 235Q488 235 513 244T559 272L594 183Q569 162 529 150T449 137ZM429 48Q494 48 548 71T644 135T707 232T729 353Q729 418 707 473T644
570T549 634T429 657Q363 657 308 634T213 570T150 474T127 353Q127 288 149 233T212 136T308 71T429 48Z" />
<glyph unicode="&#xaa;" horiz-adv-x="349" d="M160 406Q128 406 104 419T67 455T59 510Q64 540 84 557T142 582T234 590H288L280 541H222Q159 541 154 507Q152 490 161 480T193 469Q221 469 242 488T270 540L279 598Q282 620 269 632T223 645Q200 645 171 639T115
619L95 685Q122 699 162 707T237 716Q316 716 349 683T371 583L344 413H254L263 468H260Q241 437 217 422T160 406Z" />
<glyph unicode="&#xab;" horiz-adv-x="529" d="M126 85L24 267L184 451H316L152 259L247 85H126ZM349 85L247 267L407 451H539L375 259L470 85H349Z" />
<glyph unicode="&#xac;" horiz-adv-x="600" d="M419 135L452 336H68L85 439H574L526 135H419Z" />
<glyph unicode="&#xad;" horiz-adv-x="444" d="M59 217L78 335H392L374 217H59Z" />
<glyph unicode="&#xae;" horiz-adv-x="815" d="M428 -11Q352 -11 286 17T170 94T93 209T65 353Q65 430 92 496T169 611T285 688T429 716Q506 716 572 688T687 611T763 496T791 353Q791 276 764 210T687 94T572 17T428 -11ZM429 48Q494 48 548 71T644 135T707 232T729
353Q729 418 707 473T644 570T549 634T429 657Q363 657 308 634T213 570T150 474T127 353Q127 288 149 233T212 136T308 71T429 48ZM266 142V565H457Q529 565 567 530T606 439Q606 381 569 351T463 320L491 331Q525 331 545 315T578 249L610 142H496L461 264Q455
284 443 291T413 298H363L381 310V142H266ZM379 381H440Q470 381 484 393T499 432Q499 459 485 471T440 483H379V381Z" />
<glyph unicode="&#xaf;" horiz-adv-x="500" d="M144 611L157 696H483L470 611H144Z" />
<glyph unicode="&#xb0;" horiz-adv-x="384" d="M242 398Q195 398 159 418T101 475T80 556Q80 601 101 637T159 693T242 714Q289 714 325 694T382 638T403 556Q403 511 382 475T325 419T242 398ZM242 479Q274 479 294 501T315 556Q315 589 295 611T242 633Q210
633 189 611T168 556Q168 523 189 501T242 479Z" />
<glyph unicode="&#xb1;" horiz-adv-x="600" d="M229 146L252 287H60L77 391H268L291 532H398L375 391H566L550 287H359L336 146H229ZM15 0L31 103H521L504 0H15Z" />
<glyph unicode="&#xb2;" horiz-adv-x="380" d="M48 282L62 369L203 489Q230 512 243 530T259 564Q263 588 251 600T212 612Q188 612 160 604T109 579L93 669Q123 688 162 698T247 709Q323 709 362 674T391 578Q386 548 366 520T306 457L203 371L200 380H374L358 282H48Z" />
<glyph unicode="&#xb3;" horiz-adv-x="380" d="M201 277Q151 277 111 285T44 312L69 399Q92 383 124 376T193 368Q226 368 245 379T268 413Q271 433 257 442T217 451H129L143 537H217Q244 537 260 547T280 578Q283 597 270 607T224 618Q194 618 161 609T107 585L91
672Q125 690 166 699T253 709Q331 709 369 677T398 592Q392 553 361 526T286 491L289 504Q338 500 362 472T379 395Q370 339 320 308T201 277Z" />
<glyph unicode="&#xb4;" horiz-adv-x="500" d="M248 555L380 760H528L348 555H248Z" />
<glyph unicode="&#xb5;" horiz-adv-x="587" d="M-20 -216L93 507H244L199 203Q191 155 206 131T261 107Q308 107 338 140T378 230L419 507H570L492 0H345L360 96H362Q345 46 316 18T246 -11Q216 -11 194 1T160 36V37L132 -216H-20Z" />
<glyph unicode="&#xb6;" horiz-adv-x="651" d="M187 -180L257 262Q200 262 157 287T90 356T66 455Q66 530 99 586T191 674T325 705H650L510 -180H404L527 597H416L293 -180H187Z" />
<glyph unicode="&#xb7;" horiz-adv-x="263" d="M41 196L66 356H228L204 196H41Z" />
<glyph unicode="&#xb8;" horiz-adv-x="500" d="M179 -197Q149 -197 121 -191T72 -175L98 -111Q115 -119 133 -124T172 -129Q199 -129 212 -122T226 -101Q226 -92 218 -88T191 -83Q183 -83 174 -83T152 -88L134 -68L161 20H236L212 -56L177 -42Q189 -38 201 -36T223
-34Q265 -34 288 -51T312 -102Q312 -145 274 -171T179 -197Z" />
<glyph unicode="&#xb9;" horiz-adv-x="380" d="M54 282L70 380H170L204 601H253L104 530L122 642L254 705H341L289 380H374L359 282H54Z" />
<glyph unicode="&#xba;" horiz-adv-x="365" d="M215 408Q139 408 99 451T69 571Q80 638 126 677T248 716Q324 716 365 674T394 554Q384 488 337 448T215 408ZM219 481Q249 481 270 502T298 563Q304 603 290 623T244 644Q214 644 193 624T166 563Q159 522 173 502T219
481Z" />
<glyph unicode="&#xbb;" horiz-adv-x="529" d="M132 85H1L164 277L69 451H190L292 269L132 85ZM354 85H223L386 277L291 451H412L514 269L354 85Z" />
<glyph unicode="&#xbc;" horiz-adv-x="925" d="M54 282L70 380H170L204 601H253L104 530L122 642L254 705H341L289 380H374L359 282H54ZM304 -11H176L715 716H843L304 -11ZM712 0L723 69H530L543 149L787 423H888L846 157H901L888 69H832L821 0H712ZM741 157L764
310H777L630 142L629 157H741Z" />
<glyph unicode="&#xbd;" horiz-adv-x="975" d="M54 282L70 380H170L204 601H253L104 530L122 642L254 705H341L289 380H374L359 282H54ZM304 -11H176L715 716H843L304 -11ZM598 0L612 87L753 207Q780 230 793 248T809 282Q813 306 801 318T762 330Q738 330 710
322T659 297L643 387Q673 406 712 416T797 427Q873 427 912 392T941 296Q936 266 916 238T856 175L753 89L750 98H924L908 0H598Z" />
<glyph unicode="&#xbe;" horiz-adv-x="925" d="M201 277Q151 277 111 285T44 312L69 399Q92 383 124 376T193 368Q226 368 245 379T268 413Q271 433 257 442T217 451H129L143 537H217Q244 537 260 547T280 578Q283 597 270 607T224 618Q194 618 161 609T107 585L91
672Q125 690 166 699T253 709Q331 709 369 677T398 592Q392 553 361 526T286 491L289 504Q338 500 362 472T379 395Q370 339 320 308T201 277ZM304 -11H176L715 716H843L304 -11ZM712 0L723 69H530L543 149L787 423H888L846 157H901L888 69H832L821 0H712ZM741
157L764 310H777L630 142L629 157H741Z" />
<glyph unicode="&#xbf;" horiz-adv-x="473" d="M163 -200Q109 -200 67 -182T0 -130T-24 -54Q-24 -12 -7 23T38 86T101 139Q157 179 178 208T210 263L219 284H310L303 247Q298 218 287 193T256 141T202 86Q184 69 168 52T143 15T133 -24Q133 -48 152 -61T207 -75Q247
-75 288 -62T367 -28L347 -154Q309 -176 259 -188T163 -200ZM382 507L356 347H193L218 507H382Z" />
<glyph unicode="&#xc0;" horiz-adv-x="759" d="M-51 0L385 705H514L730 0H578L523 196L578 153H159L228 196L112 0H-51ZM429 541L251 235L230 273H545L516 235L433 541H429ZM408 765L256 940H408L513 765H408Z" />
<glyph unicode="&#xc1;" horiz-adv-x="759" d="M-51 0L385 705H514L730 0H578L523 196L578 153H159L228 196L112 0H-51ZM429 541L251 235L230 273H545L516 235L433 541H429ZM409 765L539 940H696L514 765H409Z" />
<glyph unicode="&#xc2;" horiz-adv-x="759" d="M-51 0L385 705H514L730 0H578L523 196L578 153H159L228 196L112 0H-51ZM429 541L251 235L230 273H545L516 235L433 541H429ZM267 765L409 940H535L643 765H540L465 860L370 765H267Z" />
<glyph unicode="&#xc3;" horiz-adv-x="759" d="M-51 0L385 705H514L730 0H578L523 196L578 153H159L228 196L112 0H-51ZM429 541L251 235L230 273H545L516 235L433 541H429ZM299 766L228 770Q239 846 278 886T377 927Q407 927 433 917T483 893Q503 883 521 875T558
867Q613 867 630 931L702 927Q691 851 652 811T553 770Q523 770 497 781T447 804Q427 814 409 822T372 830Q316 830 299 766Z" />
<glyph unicode="&#xc4;" horiz-adv-x="759" d="M-51 0L385 705H514L730 0H578L523 196L578 153H159L228 196L112 0H-51ZM429 541L251 235L230 273H545L516 235L433 541H429ZM495 781L516 913H648L626 781H495ZM298 781L319 913H450L429 781H298Z" />
<glyph unicode="&#xc5;" horiz-adv-x="759" d="M-51 0L385 705H514L730 0H578L523 196L578 153H159L228 196L112 0H-51ZM429 541L251 235L230 273H545L516 235L433 541H429ZM472 753Q436 753 406 770T359 816T342 880Q342 916 359 944T406 989T472 1006Q510 1006
539 990T585 945T603 880Q603 845 586 816T539 770T472 753ZM472 818Q499 818 516 836T533 880Q533 907 516 924T472 941Q446 941 429 924T411 880Q411 854 428 836T472 818Z" />
<glyph unicode="&#xc6;" horiz-adv-x="1023" d="M-71 0L482 705H1058L1038 584H674L702 604L684 376L672 419H990L971 297H654L678 307L661 91L647 121H965L946 0H513L528 192L552 153H193L248 194L102 0H-71ZM542 584L280 237L272 274H551L533 232L561 584H542Z" />
<glyph unicode="&#xc7;" horiz-adv-x="685" d="M389 -11Q266 -11 189 38T82 174T69 370Q87 480 140 557T279 676T475 716Q544 715 599 697T692 646L639 522Q598 553 560 566T468 579Q373 579 311 523T231 362Q220 290 236 237T295 155T409 126Q456 126 502 141T596
192L638 69Q588 31 524 10T389 -11ZM338 -197Q308 -197 280 -191T231 -175L257 -111Q274 -119 292 -124T331 -129Q358 -129 371 -122T385 -101Q385 -92 377 -88T350 -83Q342 -83 333 -83T311 -88L293 -68L320 20H395L371 -56L336 -42Q348 -38 360 -36T382 -34Q424
-34 447 -51T471 -102Q471 -145 433 -171T338 -197Z" />
<glyph unicode="&#xc8;" horiz-adv-x="599" d="M32 0L144 705H634L615 584H274L248 419H565L546 297H229L201 121H541L522 0H32ZM365 765L213 940H365L470 765H365Z" />
<glyph unicode="&#xc9;" horiz-adv-x="599" d="M32 0L144 705H634L615 584H274L248 419H565L546 297H229L201 121H541L522 0H32ZM366 765L496 940H653L471 765H366Z" />
<glyph unicode="&#xca;" horiz-adv-x="599" d="M32 0L144 705H634L615 584H274L248 419H565L546 297H229L201 121H541L522 0H32ZM224 765L366 940H492L600 765H497L422 860L327 765H224Z" />
<glyph unicode="&#xcb;" horiz-adv-x="599" d="M32 0L144 705H634L615 584H274L248 419H565L546 297H229L201 121H541L522 0H32ZM452 781L473 913H605L583 781H452ZM255 781L276 913H407L386 781H255Z" />
<glyph unicode="&#xcc;" horiz-adv-x="299" d="M32 0L144 705H300L188 0H32ZM179 765L27 940H179L284 765H179Z" />
<glyph unicode="&#xcd;" horiz-adv-x="299" d="M32 0L144 705H300L188 0H32ZM180 765L310 940H467L285 765H180Z" />
<glyph unicode="&#xce;" horiz-adv-x="299" d="M32 0L144 705H300L188 0H32ZM37 765L179 940H305L413 765H310L235 860L140 765H37Z" />
<glyph unicode="&#xcf;" horiz-adv-x="299" d="M32 0L144 705H300L188 0H32ZM266 781L287 913H419L397 781H266ZM69 781L90 913H221L200 781H69Z" />
<glyph unicode="&#xd0;" horiz-adv-x="771" d="M32 0L144 705H399Q530 705 610 660T721 533T734 336Q707 169 598 85T308 0H32ZM208 128H312Q431 128 496 181T580 343Q598 465 549 521T381 578H279L208 128ZM-3 301L15 412H442L424 301H-3Z" />
<glyph unicode="&#xd1;" horiz-adv-x="760" d="M32 0L144 705H260L564 209L538 218L616 705H761L649 0H533L229 496L255 487L177 0H32ZM303 766L232 770Q243 846 282 886T381 927Q411 927 437 917T487 893Q507 883 525 875T562 867Q617 867 634 931L706 927Q695
851 656 811T557 770Q527 770 501 781T451 804Q431 814 413 822T376 830Q320 830 303 766Z" />
<glyph unicode="&#xd2;" horiz-adv-x="795" d="M69 370Q87 480 138 557T271 675T455 716Q570 716 643 667T746 532T758 336Q741 226 689 149T556 30T372 -11Q257 -11 184 38T81 174T69 370ZM231 360Q219 284 233 231T285 150T384 121Q473 121 526 182T596 346Q608
422 594 475T541 556T441 584Q352 584 300 524T231 360ZM427 765L275 940H427L532 765H427Z" />
<glyph unicode="&#xd3;" horiz-adv-x="795" d="M69 370Q87 480 138 557T271 675T455 716Q570 716 643 667T746 532T758 336Q741 226 689 149T556 30T372 -11Q257 -11 184 38T81 174T69 370ZM231 360Q219 284 233 231T285 150T384 121Q473 121 526 182T596 346Q608
422 594 475T541 556T441 584Q352 584 300 524T231 360ZM427 765L557 940H714L532 765H427Z" />
<glyph unicode="&#xd4;" horiz-adv-x="795" d="M69 370Q87 480 138 557T271 675T455 716Q570 716 643 667T746 532T758 336Q741 226 689 149T556 30T372 -11Q257 -11 184 38T81 174T69 370ZM231 360Q219 284 233 231T285 150T384 121Q473 121 526 182T596 346Q608
422 594 475T541 556T441 584Q352 584 300 524T231 360ZM285 765L427 940H553L661 765H558L483 860L388 765H285Z" />
<glyph unicode="&#xd5;" horiz-adv-x="795" d="M69 370Q87 480 138 557T271 675T455 716Q570 716 643 667T746 532T758 336Q741 226 689 149T556 30T372 -11Q257 -11 184 38T81 174T69 370ZM231 360Q219 284 233 231T285 150T384 121Q473 121 526 182T596 346Q608
422 594 475T541 556T441 584Q352 584 300 524T231 360ZM317 766L246 770Q257 846 296 886T395 927Q425 927 451 917T501 893Q521 883 539 875T576 867Q631 867 648 931L720 927Q709 851 670 811T571 770Q541 770 515 781T465 804Q445 814 427 822T390 830Q334
830 317 766Z" />
<glyph unicode="&#xd6;" horiz-adv-x="795" d="M69 370Q87 480 138 557T271 675T455 716Q570 716 643 667T746 532T758 336Q741 226 689 149T556 30T372 -11Q257 -11 184 38T81 174T69 370ZM231 360Q219 284 233 231T285 150T384 121Q473 121 526 182T596 346Q608
422 594 475T541 556T441 584Q352 584 300 524T231 360ZM513 781L534 913H666L644 781H513ZM316 781L337 913H468L447 781H316Z" />
<glyph unicode="&#xd7;" horiz-adv-x="600" d="M138 52L67 124L243 287L96 447L171 520L319 359L494 520L564 447L388 286L535 124L461 52L313 213L138 52Z" />
<glyph unicode="&#xd8;" horiz-adv-x="795" d="M69 370Q87 480 138 557T271 675T455 716Q570 716 643 667T746 532T758 336Q741 226 689 149T556 30T372 -11Q257 -11 184 38T81 174T69 370ZM231 360Q219 284 233 231T285 150T384 121Q473 121 526 182T596 346Q608
422 594 475T541 556T441 584Q352 584 300 524T231 360ZM272 64L185 -54L92 10L180 128L239 191L534 579L567 643L655 760L748 696L660 579L600 515L306 127L272 64Z" />
<glyph unicode="&#xd9;" horiz-adv-x="746" d="M344 -11Q248 -11 182 23T87 125T75 300L140 705H296L231 292Q217 208 246 165T360 121Q435 121 476 163T533 294L598 705H752L685 288Q669 188 628 122T517 22T344 -11ZM404 765L252 940H404L509 765H404Z" />
<glyph unicode="&#xda;" horiz-adv-x="746" d="M344 -11Q248 -11 182 23T87 125T75 300L140 705H296L231 292Q217 208 246 165T360 121Q435 121 476 163T533 294L598 705H752L685 288Q669 188 628 122T517 22T344 -11ZM405 765L535 940H692L510 765H405Z" />
<glyph unicode="&#xdb;" horiz-adv-x="746" d="M344 -11Q248 -11 182 23T87 125T75 300L140 705H296L231 292Q217 208 246 165T360 121Q435 121 476 163T533 294L598 705H752L685 288Q669 188 628 122T517 22T344 -11ZM263 765L405 940H531L639 765H536L461 860L366
765H263Z" />
<glyph unicode="&#xdc;" horiz-adv-x="746" d="M344 -11Q248 -11 182 23T87 125T75 300L140 705H296L231 292Q217 208 246 165T360 121Q435 121 476 163T533 294L598 705H752L685 288Q669 188 628 122T517 22T344 -11ZM491 781L512 913H644L622 781H491ZM294 781L315
913H446L425 781H294Z" />
<glyph unicode="&#xdd;" horiz-adv-x="642" d="M203 0L256 335L273 246L39 705H212L358 403H326L568 705H748L366 239L413 335L359 0H203ZM351 765L481 940H638L456 765H351Z" />
<glyph unicode="&#xde;" horiz-adv-x="676" d="M32 0L144 705H300L281 589H439Q565 589 620 527T660 359Q651 299 617 254T527 183T390 158H213L188 0H32ZM232 279H385Q442 279 473 302T511 369Q518 418 494 443T413 468H262L232 279Z" />
<glyph unicode="&#xdf;" horiz-adv-x="697" d="M22 0L95 462Q118 604 195 674T416 745Q488 745 541 722T619 655T633 545Q628 511 609 478T549 414T440 359L443 387Q521 365 572 335T647 263T661 160Q652 103 620 65T539 8T432 -11Q366 -11 321 2T240 40L281 139Q316
119 351 108T425 96Q466 96 490 114T519 165Q523 193 507 218T447 266T320 309L338 422Q395 438 427 456T473 497T492 543Q499 586 476 611T402 636Q340 636 302 601T249 483L173 0H22Z" />
<glyph unicode="&#xe0;" horiz-adv-x="632" d="M232 -11Q163 -11 115 24T46 122T39 270Q59 393 130 455T299 517Q360 517 403 489T456 412L446 408L473 507H618Q610 474 603 441T589 375L530 0H380L396 99H412Q388 49 343 19T232 -11ZM285 103Q336 103 372 138T420
247Q433 329 406 366T325 403Q274 403 238 368T190 260Q177 178 204 141T285 103ZM309 555L167 760H310L408 555H309Z" />
<glyph unicode="&#xe1;" horiz-adv-x="632" d="M232 -11Q163 -11 115 24T46 122T39 270Q59 393 130 455T299 517Q360 517 403 489T456 412L446 408L473 507H618Q610 474 603 441T589 375L530 0H380L396 99H412Q388 49 343 19T232 -11ZM285 103Q336 103 372 138T420
247Q433 329 406 366T325 403Q274 403 238 368T190 260Q177 178 204 141T285 103ZM309 555L441 760H589L409 555H309Z" />
<glyph unicode="&#xe2;" horiz-adv-x="632" d="M232 -11Q163 -11 115 24T46 122T39 270Q59 393 130 455T299 517Q360 517 403 489T456 412L446 408L473 507H618Q610 474 603 441T589 375L530 0H380L396 99H412Q388 49 343 19T232 -11ZM285 103Q336 103 372 138T420
247Q433 329 406 366T325 403Q274 403 238 368T190 260Q177 178 204 141T285 103ZM178 555L310 760H438L529 555H436L368 678L272 555H178Z" />
<glyph unicode="&#xe3;" horiz-adv-x="632" d="M232 -11Q163 -11 115 24T46 122T39 270Q59 393 130 455T299 517Q360 517 403 489T456 412L446 408L473 507H618Q610 474 603 441T589 375L530 0H380L396 99H412Q388 49 343 19T232 -11ZM285 103Q336 103 372 138T420
247Q433 329 406 366T325 403Q274 403 238 368T190 260Q177 178 204 141T285 103ZM233 581L162 585Q171 661 207 701T298 742Q326 742 344 732T379 709Q394 698 408 690T441 682Q490 682 506 746L578 742Q568 666 532 626T442 585Q414 585 394 596T358 619Q344
629 330 637T299 645Q249 645 233 581Z" />
<glyph unicode="&#xe4;" horiz-adv-x="632" d="M232 -11Q163 -11 115 24T46 122T39 270Q59 393 130 455T299 517Q360 517 403 489T456 412L446 408L473 507H618Q610 474 603 441T589 375L530 0H380L396 99H412Q388 49 343 19T232 -11ZM285 103Q336 103 372 138T420
247Q433 329 406 366T325 403Q274 403 238 368T190 260Q177 178 204 141T285 103ZM399 590L418 722H550L530 590H399ZM201 590L221 722H353L333 590H201Z" />
<glyph unicode="&#xe5;" horiz-adv-x="632" d="M232 -11Q163 -11 115 24T46 122T39 270Q59 393 130 455T299 517Q360 517 403 489T456 412L446 408L473 507H618Q610 474 603 441T589 375L530 0H380L396 99H412Q388 49 343 19T232 -11ZM285 103Q336 103 372 138T420
247Q433 329 406 366T325 403Q274 403 238 368T190 260Q177 178 204 141T285 103ZM378 545Q341 545 311 561T264 607T247 672Q247 708 264 736T311 781T377 798Q415 798 444 782T491 736T508 671Q508 636 491 607T445 562T378 545ZM377 610Q404 610 421 627T439
671Q439 699 422 715T378 732Q352 732 335 716T317 672Q317 645 334 628T377 610Z" />
<glyph unicode="&#xe6;" horiz-adv-x="866" d="M207 -11Q137 -11 94 15T33 83T23 169Q32 218 66 247T164 290T326 304H377L366 230H307Q260 230 227 223T177 201T155 162Q149 131 168 111T228 91Q277 91 309 121T349 201L366 309Q374 358 350 381T280 404Q235
404 197 395T113 362L76 464Q105 480 142 492T220 510T296 517Q377 517 420 493T477 421H436Q476 471 525 494T634 517Q708 517 757 484T826 394T834 263L829 230H481L493 304H731L712 288Q722 352 700 384T629 416Q594 416 568 400T526 354T505 288L499 249Q489
179 521 141T631 103Q667 103 701 113T770 147L809 47Q768 18 717 4T610 -11Q523 -11 466 23T382 122H413Q384 59 332 24T207 -11Z" />
<glyph unicode="&#xe7;" horiz-adv-x="509" d="M280 -11Q193 -11 135 24T51 123T39 270Q59 393 139 455T338 517Q385 517 430 504T503 465L457 363Q434 382 403 392T343 402Q285 402 245 368T193 261Q181 191 210 149T306 106Q333 106 365 116T427 149L467 47Q437
21 386 5T280 -11ZM233 -197Q203 -197 175 -191T126 -175L152 -111Q169 -119 187 -124T226 -129Q253 -129 266 -122T280 -101Q280 -92 272 -88T245 -83Q237 -83 228 -83T206 -88L188 -68L215 20H290L266 -56L231 -42Q243 -38 255 -36T277 -34Q319 -34 342 -51T366
-102Q366 -145 328 -171T233 -197Z" />
<glyph unicode="&#xe8;" horiz-adv-x="550" d="M292 -11Q199 -11 138 25T52 125T40 273Q52 349 89 403T183 487T316 517Q391 517 440 484T509 394T518 263L512 230H158L169 304H415L395 288Q405 352 383 384T311 416Q275 416 249 400T207 354T186 288L180 249Q170
179 201 141T313 103Q349 103 383 113T453 147L493 47Q452 18 400 4T292 -11ZM287 555L145 760H288L386 555H287Z" />
<glyph unicode="&#xe9;" horiz-adv-x="550" d="M292 -11Q199 -11 138 25T52 125T40 273Q52 349 89 403T183 487T316 517Q391 517 440 484T509 394T518 263L512 230H158L169 304H415L395 288Q405 352 383 384T311 416Q275 416 249 400T207 354T186 288L180 249Q170
179 201 141T313 103Q349 103 383 113T453 147L493 47Q452 18 400 4T292 -11ZM287 555L419 760H567L387 555H287Z" />
<glyph unicode="&#xea;" horiz-adv-x="550" d="M292 -11Q199 -11 138 25T52 125T40 273Q52 349 89 403T183 487T316 517Q391 517 440 484T509 394T518 263L512 230H158L169 304H415L395 288Q405 352 383 384T311 416Q275 416 249 400T207 354T186 288L180 249Q170
179 201 141T313 103Q349 103 383 113T453 147L493 47Q452 18 400 4T292 -11ZM156 555L288 760H416L507 555H414L346 678L250 555H156Z" />
<glyph unicode="&#xeb;" horiz-adv-x="550" d="M292 -11Q199 -11 138 25T52 125T40 273Q52 349 89 403T183 487T316 517Q391 517 440 484T509 394T518 263L512 230H158L169 304H415L395 288Q405 352 383 384T311 416Q275 416 249 400T207 354T186 288L180 249Q170
179 201 141T313 103Q349 103 383 113T453 147L493 47Q452 18 400 4T292 -11ZM377 590L396 722H528L508 590H377ZM179 590L199 722H331L311 590H179Z" />
<glyph unicode="&#xec;" horiz-adv-x="274" d="M22 0L102 507H253L173 0H22ZM136 555L-6 760H137L235 555H136Z" />
<glyph unicode="&#xed;" horiz-adv-x="274" d="M22 0L102 507H253L173 0H22ZM136 555L268 760H416L236 555H136Z" />
<glyph unicode="&#xee;" horiz-adv-x="274" d="M22 0L102 507H253L173 0H22ZM5 555L137 760H265L356 555H263L195 678L99 555H5Z" />
<glyph unicode="&#xef;" horiz-adv-x="274" d="M22 0L102 507H253L173 0H22ZM226 590L245 722H377L357 590H226ZM28 590L48 722H180L160 590H28Z" />
<glyph unicode="&#xf0;" horiz-adv-x="612" d="M272 -11Q190 -11 133 20T49 109T35 239Q45 305 82 352T177 425T304 451Q372 451 418 422T477 326H446Q457 396 435 459T363 569H394L178 479L152 541L326 613L323 599Q295 617 262 630T193 652L231 746Q305 738
362 714T460 656L433 659L564 714L592 653L485 608L489 628Q532 582 555 524T584 403T580 277Q558 135 477 62T272 -11ZM283 104Q334 104 369 135T412 219Q422 275 397 307T316 339Q263 339 229 309T185 224Q176 167 202 136T283 104Z" />
<glyph unicode="&#xf1;" horiz-adv-x="613" d="M22 0L81 375Q86 407 89 440T94 507H240L235 413L223 412Q253 464 302 490T412 517Q503 517 541 463T561 298L514 0H363L410 298Q419 353 401 376T343 400Q292 400 259 369T218 286L173 0H22ZM230 581L159 585Q168
661 204 701T295 742Q323 742 341 732T376 709Q391 698 405 690T438 682Q487 682 503 746L575 742Q565 666 529 626T439 585Q411 585 391 596T355 619Q341 629 327 637T296 645Q246 645 230 581Z" />
<glyph unicode="&#xf2;" horiz-adv-x="604" d="M274 -11Q188 -11 131 23T50 120T39 270Q52 352 92 407T195 489T332 517Q419 517 475 484T555 387T565 237Q552 156 512 101T410 18T274 -11ZM282 103Q332 103 367 138T415 247Q428 329 402 366T322 403Q272 403
237 368T190 260Q177 178 203 141T282 103ZM301 555L159 760H302L400 555H301Z" />
<glyph unicode="&#xf3;" horiz-adv-x="604" d="M274 -11Q188 -11 131 23T50 120T39 270Q52 352 92 407T195 489T332 517Q419 517 475 484T555 387T565 237Q552 156 512 101T410 18T274 -11ZM282 103Q332 103 367 138T415 247Q428 329 402 366T322 403Q272 403
237 368T190 260Q177 178 203 141T282 103ZM301 555L433 760H581L401 555H301Z" />
<glyph unicode="&#xf4;" horiz-adv-x="604" d="M274 -11Q188 -11 131 23T50 120T39 270Q52 352 92 407T195 489T332 517Q419 517 475 484T555 387T565 237Q552 156 512 101T410 18T274 -11ZM282 103Q332 103 367 138T415 247Q428 329 402 366T322 403Q272 403
237 368T190 260Q177 178 203 141T282 103ZM170 555L302 760H430L521 555H428L360 678L264 555H170Z" />
<glyph unicode="&#xf5;" horiz-adv-x="604" d="M274 -11Q188 -11 131 23T50 120T39 270Q52 352 92 407T195 489T332 517Q419 517 475 484T555 387T565 237Q552 156 512 101T410 18T274 -11ZM282 103Q332 103 367 138T415 247Q428 329 402 366T322 403Q272 403
237 368T190 260Q177 178 203 141T282 103ZM225 581L154 585Q163 661 199 701T290 742Q318 742 336 732T371 709Q386 698 400 690T433 682Q482 682 498 746L570 742Q560 666 524 626T434 585Q406 585 386 596T350 619Q336 629 322 637T291 645Q241 645 225 581Z"
/>
<glyph unicode="&#xf6;" horiz-adv-x="604" d="M274 -11Q188 -11 131 23T50 120T39 270Q52 352 92 407T195 489T332 517Q419 517 475 484T555 387T565 237Q552 156 512 101T410 18T274 -11ZM282 103Q332 103 367 138T415 247Q428 329 402 366T322 403Q272 403
237 368T190 260Q177 178 203 141T282 103ZM391 590L410 722H542L522 590H391ZM193 590L213 722H345L325 590H193Z" />
<glyph unicode="&#xf7;" horiz-adv-x="600" d="M51 235L68 339H559L542 235H51ZM202 34L221 149H335L317 34H202ZM264 425L282 540H397L379 425H264Z" />
<glyph unicode="&#xf8;" horiz-adv-x="604" d="M274 -11Q188 -11 131 23T50 120T39 270Q52 352 92 407T195 489T332 517Q419 517 475 484T555 387T565 237Q552 156 512 101T410 18T274 -11ZM282 103Q341 103 378 139T428 249Q441 326 412 364T323 403Q263 403
226 368T177 259Q165 185 191 144T282 103ZM131 -47L65 -2L477 552L541 507L131 -47Z" />
<glyph unicode="&#xf9;" horiz-adv-x="607" d="M213 -11Q119 -11 77 44T51 204L99 507H250L202 205Q194 154 211 131T272 107Q321 107 350 138T389 223L434 507H585L505 0H358L373 97H388Q359 46 315 18T213 -11ZM301 556L159 761H302L400 556H301Z" />
<glyph unicode="&#xfa;" horiz-adv-x="607" d="M213 -11Q119 -11 77 44T51 204L99 507H250L202 205Q194 154 211 131T272 107Q321 107 350 138T389 223L434 507H585L505 0H358L373 97H388Q359 46 315 18T213 -11ZM301 556L433 761H581L401 556H301Z" />
<glyph unicode="&#xfb;" horiz-adv-x="607" d="M213 -11Q119 -11 77 44T51 204L99 507H250L202 205Q194 154 211 131T272 107Q321 107 350 138T389 223L434 507H585L505 0H358L373 97H388Q359 46 315 18T213 -11ZM170 556L302 761H430L521 556H428L360 679L264 556H170Z" />
<glyph unicode="&#xfc;" horiz-adv-x="607" d="M213 -11Q119 -11 77 44T51 204L99 507H250L202 205Q194 154 211 131T272 107Q321 107 350 138T389 223L434 507H585L505 0H358L373 97H388Q359 46 315 18T213 -11ZM391 591L410 723H542L522 591H391ZM193 591L213
723H345L325 591H193Z" />
<glyph unicode="&#xfd;" horiz-adv-x="550" d="M-18 -227L-41 -109Q8 -100 42 -88T100 -57T143 -6L177 53L170 -5L30 507H185L271 140H240L445 507H601L289 -20Q254 -77 220 -114T149 -174T71 -208T-18 -227ZM273 555L405 760H553L373 555H273Z" />
<glyph unicode="&#xfe;" horiz-adv-x="632" d="M-12 -216L139 736H290L238 412L220 408Q244 458 290 487T400 517Q470 517 518 482T586 385T593 237Q573 114 502 52T333 -11Q273 -11 230 18T177 95H188L139 -216H-12ZM308 103Q360 103 395 138T442 247Q455 329
429 366T348 403Q297 403 261 368T212 260Q200 178 227 141T308 103Z" />
<glyph unicode="&#xff;" horiz-adv-x="550" d="M-18 -227L-41 -109Q8 -100 42 -88T100 -57T143 -6L177 53L170 -5L30 507H185L271 140H240L445 507H601L289 -20Q254 -77 220 -114T149 -174T71 -208T-18 -227ZM362 590L381 722H513L493 590H362ZM164 590L184 722H316L296
590H164Z" />
<glyph unicode="&#x2013;" horiz-adv-x="505" d="M-3 232L11 320H515L502 232H-3Z" />
<glyph unicode="&#x2014;" horiz-adv-x="1010" d="M-3 232L11 320H1020L1007 232H-3Z" />
<glyph unicode="&#x2018;" horiz-adv-x="260" d="M73 409L92 525Q98 563 109 594T144 654T205 713L256 658Q219 625 202 599T177 534L147 570H260L235 409H73Z" />
<glyph unicode="&#x2019;" horiz-adv-x="260" d="M150 402L99 457Q137 490 154 516T178 581L208 545H95L121 705H283L264 590Q258 552 246 521T212 461T150 402Z" />
<glyph unicode="&#x201a;" horiz-adv-x="260" d="M64 -144L13 -88Q51 -55 68 -29T93 36L122 0H9L34 160H196L177 44Q172 7 160 -24T126 -85T64 -144Z" />
<glyph unicode="&#x201c;" horiz-adv-x="477" d="M73 409L92 525Q98 563 109 594T144 654T205 713L256 658Q219 625 202 599T177 534L147 570H260L235 409H73ZM290 409L309 525Q315 563 326 594T361 654T422 713L473 658Q436 625 419 599T394 534L364 570H477L452
409H290Z" />
<glyph unicode="&#x201d;" horiz-adv-x="477" d="M150 402L99 457Q137 490 154 516T178 581L208 545H95L121 705H283L264 590Q258 552 246 521T212 461T150 402ZM367 402L316 457Q354 490 371 516T395 581L425 545H312L338 705H500L481 590Q475 552 463 521T429
461T367 402Z" />
<glyph unicode="&#x201e;" horiz-adv-x="477" d="M64 -144L13 -88Q51 -55 68 -29T93 36L122 0H9L34 160H196L177 44Q172 7 160 -24T126 -85T64 -144ZM281 -144L230 -88Q268 -55 285 -29T310 36L339 0H226L251 160H413L394 44Q389 7 377 -24T343 -85T281 -144Z" />
<glyph unicode="&#x2022;" horiz-adv-x="529" d="M268 89Q219 89 178 112T111 176T86 267Q86 313 109 354T174 420T268 446Q317 446 358 423T424 359T450 267Q450 218 425 178T359 113T268 89Z" />
<glyph unicode="&#x2039;" horiz-adv-x="306" d="M126 85L24 267L184 451H316L152 259L247 85H126Z" />
<glyph unicode="&#x203a;" horiz-adv-x="306" d="M132 85H1L164 277L69 451H190L292 269L132 85Z" />
</font>
</defs>
</svg>
