<?xml version="1.0" standalone="no"?>
<!DOCTYPE svg PUBLIC "-//W3C//DTD SVG 1.1//EN" "http://www.w3.org/Graphics/SVG/1.1/DTD/svg11.dtd">
<svg xmlns="http://www.w3.org/2000/svg">
<defs >
<font id="Mulish" horiz-adv-x="581" ><font-face
    font-family="Mulish ExtraLight Black"
    units-per-em="1000"
    panose-1="0 0 0 0 0 0 0 0 0 0"
    ascent="1005"
    descent="-250"
    alphabetic="0" />
<glyph unicode=" " horiz-adv-x="289" />
<glyph unicode="!" horiz-adv-x="272" d="M82 238L27 705H245L189 238H82ZM43 0V182H228V0H43Z" />
<glyph unicode="&quot;" horiz-adv-x="515" d="M75 398L32 705H236L194 398H75ZM322 398L279 705H483L441 398H322Z" />
<glyph unicode="#" horiz-adv-x="600" d="M68 0L99 159H46V265H119L157 448H69V554H178L209 705H324L293 554H387L418 705H532L502 554H554V448H480L443 265H532V159H422L390 0H275L307 159H214L184 0H68ZM235 265H328L364 448H272L235 265Z" />
<glyph unicode="$" horiz-adv-x="600" d="M240 -115V20L270 -7Q197 -3 131 16T19 68L70 211Q115 180 175 162T296 144Q359 144 384 161T409 203Q409 224 392 238T329 262L216 287Q122 307 77 357T32 486Q32 546 61 593T144 671T270 709L240 692V820H379V692L349
711Q410 708 466 688T557 636L508 502Q472 530 423 545T318 561Q265 561 236 542T206 493Q206 473 223 459T285 435L398 410Q493 390 539 342T585 216Q585 156 556 110T476 35T356 -3L379 21V-115H240Z" />
<glyph unicode="%" horiz-adv-x="965" d="M351 0H203L615 705H763L351 0ZM218 285Q128 285 78 344T28 502Q28 601 78 658T218 716Q307 716 357 657T407 502Q407 404 357 345T218 285ZM218 393Q241 393 253 417T266 502Q266 562 253 585T218 608Q194 608 182 586T170
502Q170 440 182 417T218 393ZM748 -11Q659 -11 609 48T559 206Q559 305 609 362T748 420Q838 420 887 361T937 206Q937 108 888 49T748 -11ZM748 97Q772 97 784 121T796 206Q796 266 784 289T748 312Q725 312 713 290T700 206Q700 144 712 121T748 97Z" />
<glyph unicode="&amp;" horiz-adv-x="708" d="M666 -11Q620 -2 575 22T488 80L524 78Q475 37 415 13T287 -11Q204 -11 143 14T49 85T16 192Q16 260 56 307T161 390L197 408L169 374Q130 408 110 449T89 534Q89 588 117 629T195 693T313 716Q402 716 455 671T509
548Q509 508 494 473T445 409T363 357L367 389L520 243H484Q510 284 523 333T541 435H686Q682 354 657 280T588 147L587 184Q616 157 649 141T720 115L666 -11ZM299 123Q337 123 367 136T425 175L421 137L220 326L294 325L268 313Q245 301 228 285T201 249T192
205Q192 167 220 145T299 123ZM313 601Q283 601 266 584T249 538Q249 522 255 508T275 477T310 440L271 439Q324 463 348 486T373 543Q373 572 357 586T313 601Z" />
<glyph unicode="&apos;" horiz-adv-x="269" d="M75 398L32 705H236L194 398H75Z" />
<glyph unicode="(" horiz-adv-x="401" d="M244 -179Q190 -107 158 -37T112 108T98 263Q98 345 112 418T158 562T244 705H384Q331 586 307 479T282 263Q282 155 306 48T384 -179H244Z" />
<glyph unicode=")" horiz-adv-x="401" d="M157 -180H17Q70 -61 95 47T120 263Q120 371 95 478T17 705H157Q211 633 243 563T289 419T303 263Q303 182 289 108T243 -37T157 -180Z" />
<glyph unicode="*" horiz-adv-x="460" d="M158 331L63 402L149 505L17 538L55 652L180 601L171 736H291L281 602L406 652L443 538L312 507L399 402L302 331L230 445L158 331Z" />
<glyph unicode="+" horiz-adv-x="600" d="M238 40V228H55V346H238V529H362V346H545V228H362V40H238Z" />
<glyph unicode="," horiz-adv-x="272" d="M127 -155L60 -102Q99 -64 115 -30T132 43L170 0H43V182H228V67Q228 4 206 -47T127 -155Z" />
<glyph unicode="-" horiz-adv-x="449" d="M61 207V345H388V207H61Z" />
<glyph unicode="." horiz-adv-x="272" d="M43 0V182H228V0H43Z" />
<glyph unicode="/" horiz-adv-x="352" d="M114 -63H-28L237 757H379L114 -63Z" />
<glyph unicode="0" horiz-adv-x="600" d="M300 -11Q170 -11 101 84T31 355Q31 532 100 624T300 716Q431 716 500 624T569 356Q569 180 500 85T300 -11ZM300 136Q348 136 371 188T395 355Q395 471 372 520T300 570Q252 570 229 521T205 356Q205 240 228 188T300 136Z" />
<glyph unicode="1" horiz-adv-x="600" d="M91 0V150H249V552H333L108 424V594L302 705H433V150H580V0H91Z" />
<glyph unicode="2" horiz-adv-x="600" d="M68 0V135L282 358Q321 398 338 428T355 489Q355 527 330 546T256 565Q216 565 175 551T91 504L34 638Q81 674 147 695T283 716Q406 716 470 663T535 510Q535 446 506 388T408 263L244 103V150H561V0H68Z" />
<glyph unicode="3" horiz-adv-x="600" d="M280 -11Q205 -11 136 9T24 65L80 201Q124 170 173 155T274 140Q328 140 355 158T382 214Q382 249 358 266T285 283H161V427H267Q310 427 335 445T360 498Q360 531 336 548T266 565Q170 565 92 504L36 638Q81 675 147
695T284 716Q402 716 469 665T536 522Q536 461 502 417T407 359V373Q477 362 517 315T557 196Q557 100 483 45T280 -11Z" />
<glyph unicode="4" horiz-adv-x="600" d="M320 0V119H30V247L348 705H495V256H587V119H495V0H320ZM320 256V487H346L159 214V256H320Z" />
<glyph unicode="5" horiz-adv-x="600" d="M295 -11Q248 -11 201 -2T114 25T46 65L102 201Q146 171 194 156T291 140Q342 140 370 162T399 224Q399 264 372 287T299 310Q265 310 236 299T181 264H67V705H529V556H239V399H198Q222 427 261 441T347 456Q415 456 466
428T545 348T574 229Q574 157 540 103T444 19T295 -11Z" />
<glyph unicode="6" horiz-adv-x="600" d="M328 -11Q188 -11 112 82T36 346Q36 463 75 545T187 672T362 716Q420 716 476 698T576 644L519 509Q483 538 442 551T360 565Q285 565 247 519T208 379V327H193Q202 370 226 400T286 447T367 463Q426 463 472 434T545
352T573 234Q573 162 542 107T455 21T328 -11ZM318 129Q344 129 364 141T394 175T405 226Q405 256 395 277T364 311T318 324Q292 324 272 312T242 278T231 226Q231 197 241 175T272 141T318 129Z" />
<glyph unicode="7" horiz-adv-x="600" d="M54 0L389 608V552H39V705H562V567L255 0H54Z" />
<glyph unicode="8" horiz-adv-x="600" d="M300 -11Q172 -11 99 43T25 193Q25 269 70 318T184 376V347Q122 360 83 407T44 523Q44 613 113 664T300 716Q419 716 488 665T557 523Q557 454 519 406T420 348V376Q489 366 532 317T575 193Q575 97 502 43T300 -11ZM300
127Q354 127 381 147T409 207Q409 247 382 267T300 287Q247 287 219 267T191 207Q191 168 219 148T300 127ZM300 426Q343 426 366 446T390 502Q390 537 367 557T300 578Q257 578 234 558T210 502Q210 467 233 447T300 426Z" />
<glyph unicode="9" horiz-adv-x="600" d="M239 -11Q180 -11 124 8T24 62L81 196Q117 168 158 154T240 140Q316 140 354 186T392 326V378H408Q399 336 375 305T314 258T233 242Q176 242 129 271T55 353T28 471Q28 543 59 598T145 684T272 716Q412 716 488 623T564
359Q564 243 526 160T414 33T239 -11ZM282 382Q309 382 328 394T359 428T370 479Q370 508 359 530T329 564T282 576Q256 576 237 564T206 530T195 479Q195 450 206 428T236 394T282 382Z" />
<glyph unicode=":" horiz-adv-x="272" d="M43 326V508H228V326H43ZM43 0V182H228V0H43Z" />
<glyph unicode=";" horiz-adv-x="272" d="M127 -155L60 -102Q99 -64 115 -30T132 43L172 0H43V182H228V67Q228 4 206 -47T127 -155ZM43 326V508H228V326H43Z" />
<glyph unicode="&lt;" horiz-adv-x="600" d="M545 29L55 221V354L545 545V414L99 243V330L545 160V29Z" />
<glyph unicode="=" horiz-adv-x="600" d="M55 328V446H545V328H55ZM55 128V246H545V128H55Z" />
<glyph unicode="&gt;" horiz-adv-x="600" d="M56 29V160L501 330V243L56 414V545L545 354V221L56 29Z" />
<glyph unicode="?" horiz-adv-x="483" d="M170 238V292Q170 334 185 368T239 440Q264 465 274 484T285 522Q285 545 267 557T214 570Q175 570 135 557T60 521V668Q97 691 147 703T244 716Q307 716 357 700T436 646T465 548Q465 514 452 483T418 426T368 379Q319
344 302 319T280 270L275 238H170ZM129 0V182H315V0H129Z" />
<glyph unicode="@" horiz-adv-x="960" d="M490 -167Q392 -167 311 -136T170 -48T78 87T46 261Q46 365 79 448T173 592T320 684T511 716Q634 716 724 670T864 539T914 338Q914 253 889 190T819 93T714 58Q652 58 615 90T568 184L613 213Q588 135 542 97T437 58Q353
58 308 110T262 252Q262 325 289 381T364 470T474 503Q527 503 560 478T607 399H583L602 492H727L688 273Q684 253 683 238T681 210Q681 182 691 170T723 157Q748 157 768 179T799 243T811 338Q811 429 776 490T674 583T511 615Q404 615 326 572T205 450T162 261Q162
160 202 87T316 -26T490 -66Q559 -66 616 -49T721 2L768 -86Q722 -124 650 -145T490 -167ZM466 164Q496 164 519 182T555 236T568 318Q568 356 552 376T501 397Q469 397 446 379T409 329T395 254Q395 209 413 187T466 164Z" />
<glyph unicode="A" horiz-adv-x="769" d="M-22 0L308 705H458L790 0H605L520 194L591 143H177L247 194L163 0H-22ZM382 515L265 236L237 283H530L505 236L387 515H382Z" />
<glyph unicode="B" horiz-adv-x="701" d="M65 0V705H407Q525 705 588 656T652 523Q652 461 616 417T516 357V373Q591 360 631 316T672 200Q672 107 604 54T418 0H65ZM242 135H394Q446 135 471 154T497 213Q497 254 472 272T394 290H242V135ZM242 425H373Q426 425
450 443T475 498Q475 535 451 552T373 570H242V425Z" />
<glyph unicode="C" horiz-adv-x="685" d="M419 -11Q304 -11 221 34T92 161T46 353Q46 463 91 544T220 671T419 716Q492 716 552 697T653 641L598 496Q552 529 514 542T426 556Q336 556 288 504T239 353Q239 254 287 202T426 149Q475 149 513 162T598 209L653 64Q612
28 552 9T419 -11Z" />
<glyph unicode="D" horiz-adv-x="781" d="M65 0V705H349Q474 705 560 663T690 542T735 353Q735 244 691 165T560 43T349 0H65ZM250 150H337Q446 150 498 200T551 353Q551 457 499 506T337 556H250V150Z" />
<glyph unicode="E" horiz-adv-x="603" d="M65 0V705H571V564H242V429H547V287H242V142H571V0H65Z" />
<glyph unicode="F" horiz-adv-x="583" d="M65 0V705H560V564H250V421H537V280H250V0H65Z" />
<glyph unicode="G" horiz-adv-x="750" d="M425 -11Q302 -11 218 34T90 160T46 349Q46 461 93 543T230 671T444 716Q521 716 580 698T683 646L626 505Q595 526 568 537T512 554T446 559Q342 559 291 506T239 349Q239 247 286 195T435 143Q466 143 502 149T577 167L544
101V269H398V397H695V44Q638 17 568 3T425 -11Z" />
<glyph unicode="H" horiz-adv-x="784" d="M65 0V705H250V433H534V705H719V0H534V282H250V0H65Z" />
<glyph unicode="I" horiz-adv-x="315" d="M65 0V705H250V0H65Z" />
<glyph unicode="J" horiz-adv-x="401" d="M102 -187Q84 -187 57 -185T3 -177V-36Q22 -40 41 -41T71 -43Q116 -43 133 -18T151 63V705H336V63Q336 -21 313 -77T238 -160T102 -187Z" />
<glyph unicode="K" horiz-adv-x="704" d="M65 0V705H250V403H252L522 705H738L396 334V407L757 0H534L252 318H250V0H65Z" />
<glyph unicode="L" horiz-adv-x="578" d="M65 0V705H250V153H552V0H65Z" />
<glyph unicode="M" horiz-adv-x="884" d="M68 0V705H228L459 188H426L656 705H817V0H650V432H693L493 0H389L188 432H234V0H68Z" />
<glyph unicode="N" horiz-adv-x="765" d="M65 0V705H201L558 262H529V705H700V0H564L209 443H238V0H65Z" />
<glyph unicode="O" horiz-adv-x="804" d="M46 353Q46 463 89 544T212 671T401 716Q511 716 591 671T714 545T758 353Q758 244 715 162T591 35T401 -11Q292 -11 213 34T90 162T46 353ZM239 353Q239 254 279 199T401 143Q483 143 524 198T565 353Q565 452 524 507T401
562Q319 562 279 508T239 353Z" />
<glyph unicode="P" horiz-adv-x="684" d="M65 0V705H411Q533 705 595 646T657 484Q657 383 595 323T411 263H250V0H65ZM250 405H387Q434 405 457 425T480 484Q480 522 457 543T387 564H250V405Z" />
<glyph unicode="Q" horiz-adv-x="804" d="M589 -193Q554 -175 520 -147T456 -81T407 -5L547 60Q571 9 616 -33T712 -102L589 -193ZM46 353Q46 463 89 544T212 671T401 716Q511 716 591 671T714 545T758 353Q758 244 715 162T591 35T401 -11Q292 -11 213 34T90
162T46 353ZM239 353Q239 254 279 199T401 143Q483 143 524 198T565 353Q565 452 524 507T401 562Q319 562 279 508T239 353Z" />
<glyph unicode="R" horiz-adv-x="713" d="M65 0V705H398Q520 705 586 647T653 486Q653 417 623 369T536 294T400 267L409 292H459Q503 292 537 268T593 201L700 0H498L383 225Q372 247 351 255T302 263H250V0H65ZM250 394H366Q420 394 448 415T476 480Q476 522
448 543T366 564H250V394Z" />
<glyph unicode="S" horiz-adv-x="671" d="M330 -11Q245 -11 169 9T40 65L92 208Q125 187 164 172T245 149T332 140Q398 140 423 157T449 201Q449 225 432 238T368 262L246 287Q149 307 101 356T53 486Q53 556 90 607T196 687T355 716Q430 716 496 696T604 639L552
505Q512 534 462 549T351 565Q293 565 264 548T234 498Q234 476 251 461T316 435L436 411Q533 392 581 343T630 215Q630 147 593 96T488 17T330 -11Z" />
<glyph unicode="T" horiz-adv-x="638" d="M226 0V556H12V705H625V556H411V0H226Z" />
<glyph unicode="U" horiz-adv-x="751" d="M378 -11Q220 -11 141 67T62 300V705H246V299Q246 222 278 183T378 143Q446 143 478 182T510 299V705H692V300Q692 145 614 67T378 -11Z" />
<glyph unicode="V" horiz-adv-x="749" d="M300 0L-20 705H178L406 169H351L578 705H769L449 0H300Z" />
<glyph unicode="W" horiz-adv-x="1131" d="M266 0L14 705H204L369 195H323L507 705H639L805 195H761L939 705H1117L864 0H716L556 459H579L415 0H266Z" />
<glyph unicode="X" horiz-adv-x="693" d="M-28 0L272 397V314L-22 705H193L375 448H316L498 705H714L419 314V397L721 0H505L316 263H375L186 0H-28Z" />
<glyph unicode="Y" horiz-adv-x="656" d="M236 0V337L273 235L-43 705H170L349 422H313L492 705H698L384 235L421 337V0H236Z" />
<glyph unicode="Z" horiz-adv-x="623" d="M47 0V135L404 606V555H47V705H580V570L222 99V150H595V0H47Z" />
<glyph unicode="[" horiz-adv-x="399" d="M97 -180V705H379V574H272V-49H379V-180H97Z" />
<glyph unicode="\" horiz-adv-x="352" d="M237 -63L-28 757H114L379 -63H237Z" />
<glyph unicode="]" horiz-adv-x="399" d="M20 -180V-49H127V574H20V705H302V-180H20Z" />
<glyph unicode="^" horiz-adv-x="600" d="M42 140L234 628H366L558 140H427L257 584H343L173 140H42Z" />
<glyph unicode="_" horiz-adv-x="505" d="M17 -101V0H488V-101H17Z" />
<glyph unicode="`" horiz-adv-x="500" d="M193 557L39 762H206L307 557H193Z" />
<glyph unicode="a" horiz-adv-x="644" d="M255 -11Q189 -11 139 20T61 112T32 254Q32 337 60 396T139 487T255 519Q314 519 361 491T424 418H414L425 508H596Q593 474 591 439T588 370V0H412L410 86H422Q407 42 360 16T255 -11ZM312 121Q357 121 385 152T413 254Q413
324 385 355T312 387Q267 387 239 356T211 254Q211 184 238 153T312 121Z" />
<glyph unicode="b" horiz-adv-x="644" d="M388 -11Q330 -11 283 17T220 91H231V0H55V736H233V422H221Q238 466 284 492T388 519Q454 519 504 487T583 395T612 253Q612 170 584 111T505 21T388 -11ZM332 121Q376 121 404 152T433 253Q433 323 405 355T332 387Q287
387 259 356T231 254Q231 184 259 153T332 121Z" />
<glyph unicode="c" horiz-adv-x="514" d="M312 -11Q228 -11 165 21T67 112T32 255Q32 338 67 397T165 487T312 519Q364 519 414 505T495 465L445 344Q421 364 391 374T331 385Q276 385 246 352T215 255Q215 191 245 158T331 124Q359 124 390 134T445 164L495 43Q463
18 414 4T312 -11Z" />
<glyph unicode="d" horiz-adv-x="644" d="M257 -11Q192 -11 141 20T61 112T32 254Q32 337 60 396T140 487T257 519Q315 519 362 493T425 422H410V736H588V0H413V91H426Q412 45 365 17T257 -11ZM314 121Q358 121 386 152T415 254Q415 324 387 355T314 387Q269 387
241 356T212 254Q212 184 240 153T314 121Z" />
<glyph unicode="e" horiz-adv-x="552" d="M323 -11Q185 -11 109 60T32 255Q32 332 64 392T154 485T290 519Q367 519 418 486T496 394T522 258V220H181V304H391L374 290Q374 347 353 374T292 402Q247 402 224 369T200 268V250Q200 183 233 152T328 121Q368 121
403 130T471 159L517 43Q479 17 429 3T323 -11Z" />
<glyph unicode="f" horiz-adv-x="404" d="M98 0V377H3V508H148L98 462V531Q98 636 153 688T319 740Q344 740 372 737T422 725V589Q408 594 390 596T355 599Q335 599 317 593T287 570T275 526V481L250 508H398V377H276V0H98Z" />
<glyph unicode="g" horiz-adv-x="644" d="M304 -224Q228 -224 171 -211T67 -169L98 -43Q125 -59 157 -70T223 -86T289 -92Q353 -92 384 -63T415 21V110H425Q409 66 362 40T258 13Q190 13 140 43T61 131T32 266Q32 344 60 401T139 488T258 519Q317 519 362 493T423
424L415 426L426 508H597Q593 474 591 439T589 370V41Q589 -87 516 -155T304 -224ZM313 145Q359 145 386 176T413 266Q413 326 386 356T313 387Q266 387 239 357T212 266Q212 207 239 176T313 145Z" />
<glyph unicode="h" horiz-adv-x="623" d="M55 0V736H233V419H218Q243 468 289 493T394 519Q483 519 527 466T571 305V0H393V297Q393 343 377 363T327 383Q284 383 259 356T233 285V0H55Z" />
<glyph unicode="i" horiz-adv-x="288" d="M55 0V508H233V0H55ZM51 580V740H238V580H51Z" />
<glyph unicode="j" horiz-adv-x="288" d="M23 -225Q-1 -225 -25 -222T-71 -210V-73Q-56 -78 -43 -80T-14 -82Q15 -82 34 -66T54 -6V508H232V-12Q232 -117 183 -171T23 -225ZM49 580V740H236V580H49Z" />
<glyph unicode="k" horiz-adv-x="596" d="M55 0V736H233V303H235L405 508H615L385 236V297L624 0H409L235 213H233V0H55Z" />
<glyph unicode="l" horiz-adv-x="288" d="M55 0V736H233V0H55Z" />
<glyph unicode="m" horiz-adv-x="924" d="M55 0V370Q55 404 53 439T47 508H219L229 420H218Q240 466 283 492T384 519Q440 519 479 493T537 409H520Q545 461 592 490T699 519Q786 519 829 467T872 303V0H693V297Q693 344 679 363T634 383Q595 383 574 355T552
278V0H374V297Q374 344 360 363T315 383Q276 383 255 355T233 278V0H55Z" />
<glyph unicode="n" horiz-adv-x="623" d="M55 0V370Q55 404 53 439T47 508H219L229 420H218Q243 468 289 493T393 519Q482 519 526 467T571 303V0H393V295Q393 344 376 363T327 383Q285 383 259 356T233 283V0H55Z" />
<glyph unicode="o" horiz-adv-x="617" d="M309 -11Q224 -11 162 21T66 112T32 254Q32 337 66 396T162 487T309 519Q393 519 455 487T551 396T585 254Q585 173 551 113T455 21T309 -11ZM309 121Q353 121 379 152T405 254Q405 324 379 355T309 387Q264 387 238 356T212
254Q212 184 238 153T309 121Z" />
<glyph unicode="p" horiz-adv-x="644" d="M55 -216V370Q55 404 53 439T47 508H219L230 418H220Q234 463 282 491T389 519Q455 519 505 488T583 397T612 254Q612 172 584 112T505 21T389 -11Q331 -11 284 15T222 86H233V-216H55ZM332 121Q378 121 405 152T433 254Q433
324 406 355T332 387Q287 387 259 356T231 254Q231 184 259 153T332 121Z" />
<glyph unicode="q" horiz-adv-x="644" d="M410 -216V86H422Q407 42 360 16T255 -11Q189 -11 139 20T61 112T32 254Q32 337 60 396T139 487T255 519Q314 519 361 491T424 418H414L425 508H596Q593 474 591 439T588 370V-216H410ZM312 121Q357 121 385 152T413 254Q413
324 385 355T312 387Q267 387 239 356T211 254Q211 184 238 153T312 121Z" />
<glyph unicode="r" horiz-adv-x="429" d="M55 0V369Q55 404 53 439T47 508H219L238 352H211Q221 409 243 446T298 501T376 519Q397 519 407 518T430 511V355Q405 366 390 369T351 372Q310 372 284 358T247 313T235 236V0H55Z" />
<glyph unicode="s" horiz-adv-x="506" d="M250 -11Q179 -11 122 3T24 43L67 159Q106 137 154 123T251 109Q289 109 306 120T324 151Q324 166 313 175T280 188L172 207Q108 219 73 254T37 347Q37 399 65 437T145 497T268 519Q326 519 378 506T470 465L424 352Q393
373 352 386T274 400Q231 400 213 388T195 357Q195 343 205 334T237 320L345 301Q411 290 446 256T482 162Q482 107 453 69T371 10T250 -11Z" />
<glyph unicode="t" horiz-adv-x="414" d="M315 -11Q207 -11 153 40T98 197V377H3V508H98V628L276 670V508H400V377H276V204Q276 160 296 146T344 131Q361 131 373 133T400 141V4Q378 -5 357 -8T315 -11Z" />
<glyph unicode="u" horiz-adv-x="618" d="M242 -11Q145 -11 99 42T52 205V508H230V204Q230 164 246 145T297 125Q335 125 359 152T384 225V508H562V0H389V91H404Q380 42 339 16T242 -11Z" />
<glyph unicode="v" horiz-adv-x="559" d="M203 0L-18 508H169L300 170H264L401 508H576L353 0H203Z" />
<glyph unicode="w" horiz-adv-x="900" d="M202 0L-9 508H172L298 174H273L397 508H510L635 174H614L738 508H908L699 0H550L413 345H481L351 0H202Z" />
<glyph unicode="x" horiz-adv-x="566" d="M-35 0L211 300V223L-21 508H187L313 343H249L376 508H583L351 222V302L598 0H388L249 179H313L173 0H-35Z" />
<glyph unicode="y" horiz-adv-x="558" d="M57 -227L15 -89Q63 -80 95 -70T149 -41T182 6L207 64L203 -3L-19 508H169L299 171H266L400 508H576L348 -11Q321 -72 291 -111T225 -173T148 -207T57 -227Z" />
<glyph unicode="z" horiz-adv-x="534" d="M46 0V115L334 418V377H46V508H492V393L200 85V130H503V0H46Z" />
<glyph unicode="{" horiz-adv-x="436" d="M288 -180Q219 -180 182 -142T145 -35V118Q145 157 133 174T86 194L35 198V325L86 330Q120 333 132 349T145 406V560Q145 629 182 667T288 705H419V574H362Q340 574 330 564T320 530V384Q320 352 305 323T267 277T214
259V263Q243 263 266 246T305 201T320 140V-5Q320 -27 330 -38T362 -49H419V-180H288Z" />
<glyph unicode="|" horiz-adv-x="304" d="M63 -181V706H241V-181H63Z" />
<glyph unicode="}" horiz-adv-x="436" d="M17 -180V-49H75Q98 -49 107 -38T116 -5V141Q116 174 131 202T170 248T222 266V262Q194 262 170 279T131 324T116 386V530Q116 553 107 563T75 574H17V705H148Q217 705 254 667T291 560V407Q291 368 304 351T350 331L401
327V200L350 195Q317 193 304 176T291 119V-35Q291 -103 254 -141T148 -180H17Z" />
<glyph unicode="~" horiz-adv-x="600" d="M403 199Q382 199 357 205T295 232Q262 248 242 255T207 263Q163 263 142 205L55 263Q71 313 109 344T196 376Q219 376 245 368T307 342Q340 326 360 319T392 312Q437 312 457 369L545 310Q530 261 491 230T403 199Z" />
<glyph unicode="&#xa0;" horiz-adv-x="289" />
<glyph unicode="&#xa1;" horiz-adv-x="272" d="M27 -180L82 270H189L245 -180H27ZM43 326V508H228V326H43Z" />
<glyph unicode="&#xa2;" horiz-adv-x="600" d="M247 -115V36L280 -4Q215 9 168 43T96 129T71 246Q71 308 97 359T169 444T280 492L247 453V612H385V464L348 498Q405 498 455 483T537 440L492 319Q466 338 432 351T365 364Q311 364 282 332T253 250Q253 199 281
165T365 131Q397 131 431 144T492 176L537 56Q504 30 455 12T346 -9L385 26V-115H247Z" />
<glyph unicode="&#xa3;" horiz-adv-x="600" d="M39 0V120Q72 130 89 146T106 193V302H38V405H106V481Q106 551 134 604T221 686T369 716Q434 716 490 699T587 650L529 521Q489 549 454 561T384 574Q334 574 312 552T290 486V405H440V302H292V230Q292 197 279 175T237
142V147H574V0H39Z" />
<glyph unicode="&#xa4;" horiz-adv-x="600" d="M86 -34L26 26L98 101Q78 132 66 168T54 245Q54 286 66 322T98 390L26 464L87 525L160 451Q190 471 225 482T297 493Q335 493 370 483T433 451L508 528L574 461L498 385Q519 355 529 320T539 245Q539 206 528 170T497
103L571 26L511 -33L438 42Q408 20 373 9T297 -3Q259 -3 224 8T159 40L86 -34ZM298 134Q326 134 349 149T387 190T401 245Q401 276 387 301T350 340T298 356Q269 357 245 342T207 301T193 245Q193 215 207 190T244 150T298 134Z" />
<glyph unicode="&#xa5;" horiz-adv-x="600" d="M208 0V151H63V250H208V311H63V409H179V389L-29 705H167L318 458H281L433 705H629L420 389V409H537V311H391V250H537V151H391V0H208Z" />
<glyph unicode="&#xa6;" horiz-adv-x="304" d="M63 371V706H241V371H63ZM63 -181V154H241V-181H63Z" />
<glyph unicode="&#xa7;" horiz-adv-x="603" d="M284 -191Q211 -191 149 -175T46 -131L92 -15Q115 -30 147 -43T216 -63T285 -71Q327 -71 350 -57T373 -13Q373 5 359 19T313 49L163 113Q116 134 86 160T41 217T26 286Q26 340 53 382T135 455L122 409Q95 432 82
460T68 525Q68 585 99 627T187 693T324 716Q394 716 450 703T543 662L499 550Q462 571 414 583T323 596Q282 596 259 581T236 538Q236 520 250 506T296 476L446 412Q493 391 523 365T568 308T583 239Q583 185 557 143T474 70L488 116Q514 94 527 64T541 0Q541 -59
510 -102T422 -168T284 -191ZM182 320Q182 295 199 274T255 236L385 179Q400 172 414 164T440 148L402 142Q428 174 428 205Q428 231 410 252T354 289L224 346Q210 353 196 361T170 377L207 383Q194 367 188 352T182 320Z" />
<glyph unicode="&#xa8;" horiz-adv-x="500" d="M279 582V732H428V582H279ZM72 582V732H221V582H72Z" />
<glyph unicode="&#xa9;" horiz-adv-x="815" d="M408 -11Q330 -11 264 16T149 93T72 209T44 353Q44 430 71 496T148 612T264 688T408 716Q485 716 551 689T667 612T743 497T771 353Q771 276 744 210T667 94T552 17T408 -11ZM431 137Q327 137 266 195T204 353Q204
453 265 510T431 568Q471 568 512 557T578 525L538 423Q520 438 496 447T445 456Q402 456 377 429T351 353Q351 304 376 277T445 250Q472 250 496 258T538 283L578 180Q553 160 512 149T431 137ZM408 53Q472 53 526 75T620 139T681 234T703 353Q703 417 682 471T620
566T526 629T408 652Q343 652 289 630T195 567T134 472T112 353Q112 289 133 235T195 139T289 76T408 53Z" />
<glyph unicode="&#xaa;" horiz-adv-x="358" d="M135 404Q81 404 49 432T17 503Q17 551 58 571T190 592H233V537H194Q155 537 141 530T126 505Q126 493 136 484T166 475Q189 475 205 491T221 538V596Q221 617 208 626T164 636Q141 636 112 630T58 611L32 686Q58
700 98 708T174 716Q331 716 331 590V411H227V467H224Q210 437 189 421T135 404Z" />
<glyph unicode="&#xab;" horiz-adv-x="561" d="M156 84L20 267L155 452H299L170 268L299 84H156ZM395 84L259 267L394 452H538L409 268L538 84H395Z" />
<glyph unicode="&#xac;" horiz-adv-x="600" d="M421 129V327H55V446H545V129H421Z" />
<glyph unicode="&#xad;" horiz-adv-x="449" d="M61 207V345H388V207H61Z" />
<glyph unicode="&#xae;" horiz-adv-x="815" d="M408 -11Q330 -11 264 16T149 93T72 209T44 353Q44 430 71 496T148 612T264 688T408 716Q485 716 551 689T667 612T743 497T771 353Q771 276 744 210T667 94T552 17T408 -11ZM408 53Q472 53 526 75T620 139T681 234T703
353Q703 417 682 471T620 566T526 629T408 652Q343 652 289 630T195 567T134 472T112 353Q112 289 133 235T195 139T289 76T408 53ZM240 142V566H437Q510 566 550 529T590 438Q590 380 552 349T445 318L479 330Q514 330 535 313T568 242L593 142H461L432 261Q428
279 418 285T394 292H352L371 304V142H240ZM370 386H418Q442 386 454 396T466 429Q466 452 454 462T418 472H370V386Z" />
<glyph unicode="&#xaf;" horiz-adv-x="500" d="M81 605V702H419V605H81Z" />
<glyph unicode="&#xb0;" horiz-adv-x="389" d="M194 391Q146 391 109 412T49 471T27 554Q27 601 49 637T109 694T194 716Q242 716 280 695T339 638T361 554Q361 507 340 470T280 412T194 391ZM194 482Q224 482 243 503T262 553Q262 583 243 604T194 625Q165 625
146 604T127 553Q127 524 146 503T194 482Z" />
<glyph unicode="&#xb1;" horiz-adv-x="600" d="M238 153V283H55V403H238V532H362V403H545V283H362V153H238ZM55 0V119H545V0H55Z" />
<glyph unicode="&#xb2;" horiz-adv-x="380" d="M39 282V383L154 493Q175 513 184 529T194 561Q194 597 148 597Q127 597 101 590T54 569L33 674Q60 689 98 699T183 709Q258 709 301 675T344 583Q344 550 328 519T273 454L198 386V395H357V282H39Z" />
<glyph unicode="&#xb3;" horiz-adv-x="380" d="M188 276Q137 276 96 283T22 305L42 406Q68 393 101 387T171 381Q202 381 217 390T232 417Q232 431 220 438T187 445H96V543H173Q196 543 207 551T218 573Q218 588 205 596T163 605Q133 605 102 596T52 576L30 677Q57
693 98 701T189 709Q265 709 308 679T352 595Q352 555 324 527T252 492V507Q304 504 333 477T363 400Q363 343 315 310T188 276Z" />
<glyph unicode="&#xb4;" horiz-adv-x="500" d="M193 557L294 762H461L307 557H193Z" />
<glyph unicode="&#xb5;" horiz-adv-x="593" d="M46 -187V508H224V198Q224 162 239 144T286 126Q323 126 346 152T370 221V508H548V0H374V90H373Q366 41 339 15T282 -11Q256 -11 239 -1T210 31V31L224 -187H46Z" />
<glyph unicode="&#xb6;" horiz-adv-x="671" d="M256 -180V248Q187 248 135 276T54 356T25 477Q25 547 54 598T136 677T259 705H606V-180H483V583H378V-180H256Z" />
<glyph unicode="&#xb7;" horiz-adv-x="275" d="M44 186V368H230V186H44Z" />
<glyph unicode="&#xb8;" horiz-adv-x="500" d="M248 -198Q215 -198 184 -193T130 -175L154 -105Q171 -113 190 -117T229 -122Q255 -122 266 -117T278 -101Q278 -83 242 -83Q234 -83 226 -84T207 -87L186 -66L198 20H283L271 -57L230 -40Q241 -35 253 -33T276 -31Q323
-31 349 -51T375 -107Q375 -149 340 -173T248 -198Z" />
<glyph unicode="&#xb9;" horiz-adv-x="380" d="M36 282V395H137V584H192L48 514V641L177 705H277V395H361V282H36Z" />
<glyph unicode="&#xba;" horiz-adv-x="374" d="M187 406Q138 406 100 425T39 480T17 562Q17 610 39 644T99 697T187 716Q236 716 275 698T336 645T358 562Q358 515 336 480T275 426T187 406ZM187 490Q214 490 229 508T245 562Q245 598 230 616T187 634Q161 634
146 617T130 562Q130 526 145 508T187 490Z" />
<glyph unicode="&#xbb;" horiz-adv-x="561" d="M168 84H23L153 268L23 452H169L302 267L168 84ZM407 84H262L392 268L262 452H408L541 267L407 84Z" />
<glyph unicode="&#xbc;" horiz-adv-x="936" d="M36 282V395H137V584H192L48 514V641L177 705H277V395H361V282H36ZM364 -11H216L640 716H787L364 -11ZM752 0V63H565V155L762 423H878V163H931V63H878V0H752ZM757 163V295H767L661 149V163H757Z" />
<glyph unicode="&#xbd;" horiz-adv-x="988" d="M36 282V395H137V584H192L48 514V641L177 705H277V395H361V282H36ZM364 -11H216L640 716H787L364 -11ZM647 0V101L762 211Q783 231 792 247T802 279Q802 315 756 315Q735 315 709 308T662 287L641 392Q668 407 706
417T791 427Q866 427 909 393T952 301Q952 268 936 237T881 172L806 104V113H965V0H647Z" />
<glyph unicode="&#xbe;" horiz-adv-x="936" d="M188 276Q137 276 96 283T22 305L42 406Q68 393 101 387T171 381Q202 381 217 390T232 417Q232 431 220 438T187 445H96V543H173Q196 543 207 551T218 573Q218 588 205 596T163 605Q133 605 102 596T52 576L30 677Q57
693 98 701T189 709Q265 709 308 679T352 595Q352 555 324 527T252 492V507Q304 504 333 477T363 400Q363 343 315 310T188 276ZM364 -11H216L640 716H787L364 -11ZM752 0V63H565V155L762 423H878V163H931V63H878V0H752ZM757 163V295H767L661 149V163H757Z" />
<glyph unicode="&#xbf;" horiz-adv-x="483" d="M239 -196Q176 -196 126 -178T47 -121T18 -23Q18 9 27 36T58 89T115 141Q164 177 180 202T203 250L208 270H313V229Q313 187 298 153T244 81Q219 56 209 37T198 -2Q198 -24 216 -37T269 -50Q308 -50 348 -36T424
0V-147Q388 -170 337 -183T239 -196ZM354 508V326H168V508H354Z" />
<glyph unicode="&#xc0;" horiz-adv-x="769" d="M-22 0L308 705H458L790 0H605L520 194L591 143H177L247 194L163 0H-22ZM382 515L265 236L237 283H530L505 236L387 515H382ZM323 765L149 941H327L445 765H323Z" />
<glyph unicode="&#xc1;" horiz-adv-x="769" d="M-22 0L308 705H458L790 0H605L520 194L591 143H177L247 194L163 0H-22ZM382 515L265 236L237 283H530L505 236L387 515H382ZM323 765L441 941H619L445 765H323Z" />
<glyph unicode="&#xc2;" horiz-adv-x="769" d="M-22 0L308 705H458L790 0H605L520 194L591 143H177L247 194L163 0H-22ZM382 515L265 236L237 283H530L505 236L387 515H382ZM185 765L311 941H457L583 765H464L384 851L304 765H185Z" />
<glyph unicode="&#xc3;" horiz-adv-x="769" d="M-22 0L308 705H458L790 0H605L520 194L591 143H177L247 194L163 0H-22ZM382 515L265 236L237 283H530L505 236L387 515H382ZM225 759L144 765Q149 844 190 887T295 930Q319 930 343 923T400 900Q427 887 445 882T476
876Q505 876 521 890T543 935L624 930Q620 850 578 808T473 765Q448 765 424 772T365 795Q339 808 324 813T292 818Q264 818 248 804T225 759Z" />
<glyph unicode="&#xc4;" horiz-adv-x="769" d="M-22 0L308 705H458L790 0H605L520 194L591 143H177L247 194L163 0H-22ZM382 515L265 236L237 283H530L505 236L387 515H382ZM413 771V920H562V771H413ZM206 771V920H355V771H206Z" />
<glyph unicode="&#xc5;" horiz-adv-x="769" d="M-22 0L308 705H458L790 0H605L520 194L591 143H177L247 194L163 0H-22ZM382 515L265 236L237 283H530L505 236L387 515H382ZM384 752Q346 752 316 769T267 816T249 883Q249 920 267 949T315 996T384 1013Q423 1013
453 996T501 950T519 882Q519 846 501 816T453 769T384 752ZM384 825Q409 825 425 841T441 882Q441 907 425 923T384 939Q360 939 344 923T327 882Q327 858 343 842T384 825Z" />
<glyph unicode="&#xc6;" horiz-adv-x="1030" d="M-42 0L409 705H997V564H647L672 583L687 378L669 429H975V287H667L693 297L707 108L685 142H997V0H551L537 191L568 143H218L269 190L153 0H-42ZM495 563L299 240L288 284H547L535 233L510 563H495Z" />
<glyph unicode="&#xc7;" horiz-adv-x="685" d="M419 -11Q304 -11 221 34T92 161T46 353Q46 463 91 544T220 671T419 716Q492 716 552 697T653 641L598 496Q552 529 514 542T426 556Q336 556 288 504T239 353Q239 254 287 202T426 149Q475 149 513 162T598 209L653
64Q612 28 552 9T419 -11ZM404 -198Q371 -198 340 -193T286 -175L310 -105Q327 -113 346 -117T385 -122Q411 -122 422 -117T434 -101Q434 -83 398 -83Q390 -83 382 -84T363 -87L342 -66L354 20H439L427 -57L386 -40Q397 -35 409 -33T432 -31Q479 -31 505 -51T531
-107Q531 -149 496 -173T404 -198Z" />
<glyph unicode="&#xc8;" horiz-adv-x="603" d="M65 0V705H571V564H242V429H547V287H242V142H571V0H65ZM278 765L104 941H282L400 765H278Z" />
<glyph unicode="&#xc9;" horiz-adv-x="603" d="M65 0V705H571V564H242V429H547V287H242V142H571V0H65ZM278 765L396 941H574L400 765H278Z" />
<glyph unicode="&#xca;" horiz-adv-x="603" d="M65 0V705H571V564H242V429H547V287H242V142H571V0H65ZM140 765L266 941H412L538 765H419L339 851L259 765H140Z" />
<glyph unicode="&#xcb;" horiz-adv-x="603" d="M65 0V705H571V564H242V429H547V287H242V142H571V0H65ZM368 771V920H517V771H368ZM161 771V920H310V771H161Z" />
<glyph unicode="&#xcc;" horiz-adv-x="315" d="M65 0V705H250V0H65ZM96 765L-78 941H100L218 765H96Z" />
<glyph unicode="&#xcd;" horiz-adv-x="315" d="M65 0V705H250V0H65ZM96 765L214 941H392L218 765H96Z" />
<glyph unicode="&#xce;" horiz-adv-x="315" d="M65 0V705H250V0H65ZM-42 765L84 941H230L356 765H237L157 851L77 765H-42Z" />
<glyph unicode="&#xcf;" horiz-adv-x="315" d="M65 0V705H250V0H65ZM186 771V920H335V771H186ZM-21 771V920H128V771H-21Z" />
<glyph unicode="&#xd0;" horiz-adv-x="781" d="M65 0V705H349Q474 705 560 663T690 542T735 353Q735 244 691 165T560 43T349 0H65ZM250 150H337Q446 150 498 200T551 353Q551 457 499 506T337 556H250V150ZM-16 291V421H434V291H-16Z" />
<glyph unicode="&#xd1;" horiz-adv-x="765" d="M65 0V705H201L558 262H529V705H700V0H564L209 443H238V0H65ZM227 759L146 765Q151 844 192 887T297 930Q321 930 345 923T402 900Q429 887 447 882T478 876Q507 876 523 890T545 935L626 930Q622 850 580 808T475
765Q450 765 426 772T367 795Q341 808 326 813T294 818Q266 818 250 804T227 759Z" />
<glyph unicode="&#xd2;" horiz-adv-x="804" d="M46 353Q46 463 89 544T212 671T401 716Q511 716 591 671T714 545T758 353Q758 244 715 162T591 35T401 -11Q292 -11 213 34T90 162T46 353ZM239 353Q239 254 279 199T401 143Q483 143 524 198T565 353Q565 452 524
507T401 562Q319 562 279 508T239 353ZM341 765L167 941H345L463 765H341Z" />
<glyph unicode="&#xd3;" horiz-adv-x="804" d="M46 353Q46 463 89 544T212 671T401 716Q511 716 591 671T714 545T758 353Q758 244 715 162T591 35T401 -11Q292 -11 213 34T90 162T46 353ZM239 353Q239 254 279 199T401 143Q483 143 524 198T565 353Q565 452 524
507T401 562Q319 562 279 508T239 353ZM341 765L459 941H637L463 765H341Z" />
<glyph unicode="&#xd4;" horiz-adv-x="804" d="M46 353Q46 463 89 544T212 671T401 716Q511 716 591 671T714 545T758 353Q758 244 715 162T591 35T401 -11Q292 -11 213 34T90 162T46 353ZM239 353Q239 254 279 199T401 143Q483 143 524 198T565 353Q565 452 524
507T401 562Q319 562 279 508T239 353ZM203 765L329 941H475L601 765H482L402 851L322 765H203Z" />
<glyph unicode="&#xd5;" horiz-adv-x="804" d="M46 353Q46 463 89 544T212 671T401 716Q511 716 591 671T714 545T758 353Q758 244 715 162T591 35T401 -11Q292 -11 213 34T90 162T46 353ZM239 353Q239 254 279 199T401 143Q483 143 524 198T565 353Q565 452 524
507T401 562Q319 562 279 508T239 353ZM243 759L162 765Q167 844 208 887T313 930Q337 930 361 923T418 900Q445 887 463 882T494 876Q523 876 539 890T561 935L642 930Q638 850 596 808T491 765Q466 765 442 772T383 795Q357 808 342 813T310 818Q282 818 266
804T243 759Z" />
<glyph unicode="&#xd6;" horiz-adv-x="804" d="M46 353Q46 463 89 544T212 671T401 716Q511 716 591 671T714 545T758 353Q758 244 715 162T591 35T401 -11Q292 -11 213 34T90 162T46 353ZM239 353Q239 254 279 199T401 143Q483 143 524 198T565 353Q565 452 524
507T401 562Q319 562 279 508T239 353ZM431 771V920H580V771H431ZM224 771V920H373V771H224Z" />
<glyph unicode="&#xd7;" horiz-adv-x="600" d="M150 52L66 136L216 287L66 436L150 521L300 370L451 521L534 436L384 287L534 136L451 52L300 202L150 52Z" />
<glyph unicode="&#xd8;" horiz-adv-x="804" d="M46 353Q46 463 89 544T212 671T401 716Q511 716 591 671T714 545T758 353Q758 244 715 162T591 35T401 -11Q292 -11 213 34T90 162T46 353ZM239 353Q239 254 279 199T401 143Q483 143 524 198T565 353Q565 452 524
507T401 562Q319 562 279 508T239 353ZM313 52L240 -75L124 -7L198 121L257 195L482 579L508 653L582 780L697 712L623 584L564 511L340 126L313 52Z" />
<glyph unicode="&#xd9;" horiz-adv-x="751" d="M378 -11Q220 -11 141 67T62 300V705H246V299Q246 222 278 183T378 143Q446 143 478 182T510 299V705H692V300Q692 145 614 67T378 -11ZM317 765L143 941H321L439 765H317Z" />
<glyph unicode="&#xda;" horiz-adv-x="751" d="M378 -11Q220 -11 141 67T62 300V705H246V299Q246 222 278 183T378 143Q446 143 478 182T510 299V705H692V300Q692 145 614 67T378 -11ZM317 765L435 941H613L439 765H317Z" />
<glyph unicode="&#xdb;" horiz-adv-x="751" d="M378 -11Q220 -11 141 67T62 300V705H246V299Q246 222 278 183T378 143Q446 143 478 182T510 299V705H692V300Q692 145 614 67T378 -11ZM179 765L305 941H451L577 765H458L378 851L298 765H179Z" />
<glyph unicode="&#xdc;" horiz-adv-x="751" d="M378 -11Q220 -11 141 67T62 300V705H246V299Q246 222 278 183T378 143Q446 143 478 182T510 299V705H692V300Q692 145 614 67T378 -11ZM407 771V920H556V771H407ZM200 771V920H349V771H200Z" />
<glyph unicode="&#xdd;" horiz-adv-x="656" d="M236 0V337L273 235L-43 705H170L349 422H313L492 705H698L384 235L421 337V0H236ZM267 765L385 941H563L389 765H267Z" />
<glyph unicode="&#xde;" horiz-adv-x="686" d="M65 0V705H250V597H404Q524 597 590 538T657 376Q657 275 591 215T404 155H250V0H65ZM250 296H388Q433 296 457 317T481 376Q481 414 457 434T388 455H250V296Z" />
<glyph unicode="&#xdf;" horiz-adv-x="721" d="M55 0V450Q55 597 133 671T360 746Q437 746 494 723T583 656T615 549Q615 493 580 444T454 358V390Q531 369 587 343T673 276T703 174Q703 118 675 76T595 12T474 -11Q428 -11 394 -5T332 13T277 42L317 158Q355
137 390 125T467 112Q501 112 518 127T536 168Q536 194 517 216T452 260T324 300V431Q370 445 397 461T436 496T448 540Q448 576 424 597T360 619Q298 619 266 585T233 476V0H55Z" />
<glyph unicode="&#xe0;" horiz-adv-x="644" d="M255 -11Q189 -11 139 20T61 112T32 254Q32 337 60 396T139 487T255 519Q314 519 361 491T424 418H414L425 508H596Q593 474 591 439T588 370V0H412L410 86H422Q407 42 360 16T255 -11ZM312 121Q357 121 385 152T413
254Q413 324 385 355T312 387Q267 387 239 356T211 254Q211 184 238 153T312 121ZM260 557L106 762H273L374 557H260Z" />
<glyph unicode="&#xe1;" horiz-adv-x="644" d="M255 -11Q189 -11 139 20T61 112T32 254Q32 337 60 396T139 487T255 519Q314 519 361 491T424 418H414L425 508H596Q593 474 591 439T588 370V0H412L410 86H422Q407 42 360 16T255 -11ZM312 121Q357 121 385 152T413
254Q413 324 385 355T312 387Q267 387 239 356T211 254Q211 184 238 153T312 121ZM260 557L361 762H528L374 557H260Z" />
<glyph unicode="&#xe2;" horiz-adv-x="644" d="M255 -11Q189 -11 139 20T61 112T32 254Q32 337 60 396T139 487T255 519Q314 519 361 491T424 418H414L425 508H596Q593 474 591 439T588 370V0H412L410 86H422Q407 42 360 16T255 -11ZM312 121Q357 121 385 152T413
254Q413 324 385 355T312 387Q267 387 239 356T211 254Q211 184 238 153T312 121ZM132 557L243 762H391L502 557H395L317 670L239 557H132Z" />
<glyph unicode="&#xe3;" horiz-adv-x="644" d="M255 -11Q189 -11 139 20T61 112T32 254Q32 337 60 396T139 487T255 519Q314 519 361 491T424 418H414L425 508H596Q593 474 591 439T588 370V0H412L410 86H422Q407 42 360 16T255 -11ZM312 121Q357 121 385 152T413
254Q413 324 385 355T312 387Q267 387 239 356T211 254Q211 184 238 153T312 121ZM188 577L106 582Q111 662 148 704T242 747Q264 747 284 740T326 718Q347 705 360 700T387 694Q436 694 446 753L528 747Q524 668 486 625T393 582Q370 582 350 590T306 613Q288
626 275 631T247 636Q220 636 207 620T188 577Z" />
<glyph unicode="&#xe4;" horiz-adv-x="644" d="M255 -11Q189 -11 139 20T61 112T32 254Q32 337 60 396T139 487T255 519Q314 519 361 491T424 418H414L425 508H596Q593 474 591 439T588 370V0H412L410 86H422Q407 42 360 16T255 -11ZM312 121Q357 121 385 152T413
254Q413 324 385 355T312 387Q267 387 239 356T211 254Q211 184 238 153T312 121ZM346 582V732H495V582H346ZM139 582V732H288V582H139Z" />
<glyph unicode="&#xe5;" horiz-adv-x="644" d="M255 -11Q189 -11 139 20T61 112T32 254Q32 337 60 396T139 487T255 519Q314 519 361 491T424 418H414L425 508H596Q593 474 591 439T588 370V0H412L410 86H422Q407 42 360 16T255 -11ZM312 121Q357 121 385 152T413
254Q413 324 385 355T312 387Q267 387 239 356T211 254Q211 184 238 153T312 121ZM317 545Q279 545 249 562T200 609T182 675Q182 712 200 741T248 788T317 806Q356 806 386 789T434 742T452 675Q452 638 434 609T386 562T317 545ZM317 618Q342 618 358 634T374
675Q374 700 358 716T317 732Q293 732 277 716T260 675Q260 650 276 634T317 618Z" />
<glyph unicode="&#xe6;" horiz-adv-x="861" d="M223 -11Q162 -11 118 12T51 74T28 156Q28 211 54 244T141 293T306 309H355V225H303Q261 225 234 218T195 196T182 162Q182 138 199 122T250 106Q276 106 297 117T330 150T342 199V321Q342 357 322 372T257 388Q215
388 177 379T94 347L48 465Q88 489 147 504T267 519Q336 519 385 499T460 435H421Q459 478 502 498T601 519Q707 519 768 452T830 262V225H496V309H699L682 291Q682 347 660 374T601 402Q557 402 533 370T509 270V261Q509 187 539 154T634 120Q673 120 710 129T779
160L825 44Q787 16 735 3T627 -11Q540 -11 482 20T393 112H422Q401 54 350 22T223 -11Z" />
<glyph unicode="&#xe7;" horiz-adv-x="514" d="M312 -11Q228 -11 165 21T67 112T32 255Q32 338 67 397T165 487T312 519Q364 519 414 505T495 465L445 344Q421 364 391 374T331 385Q276 385 246 352T215 255Q215 191 245 158T331 124Q359 124 390 134T445 164L495
43Q463 18 414 4T312 -11ZM298 -198Q265 -198 234 -193T180 -175L204 -105Q221 -113 240 -117T279 -122Q305 -122 316 -117T328 -101Q328 -83 292 -83Q284 -83 276 -84T257 -87L236 -66L248 20H333L321 -57L280 -40Q291 -35 303 -33T326 -31Q373 -31 399 -51T425
-107Q425 -149 390 -173T298 -198Z" />
<glyph unicode="&#xe8;" horiz-adv-x="552" d="M323 -11Q185 -11 109 60T32 255Q32 332 64 392T154 485T290 519Q367 519 418 486T496 394T522 258V220H181V304H391L374 290Q374 347 353 374T292 402Q247 402 224 369T200 268V250Q200 183 233 152T328 121Q368
121 403 130T471 159L517 43Q479 17 429 3T323 -11ZM233 557L79 762H246L347 557H233Z" />
<glyph unicode="&#xe9;" horiz-adv-x="552" d="M323 -11Q185 -11 109 60T32 255Q32 332 64 392T154 485T290 519Q367 519 418 486T496 394T522 258V220H181V304H391L374 290Q374 347 353 374T292 402Q247 402 224 369T200 268V250Q200 183 233 152T328 121Q368
121 403 130T471 159L517 43Q479 17 429 3T323 -11ZM233 557L334 762H501L347 557H233Z" />
<glyph unicode="&#xea;" horiz-adv-x="552" d="M323 -11Q185 -11 109 60T32 255Q32 332 64 392T154 485T290 519Q367 519 418 486T496 394T522 258V220H181V304H391L374 290Q374 347 353 374T292 402Q247 402 224 369T200 268V250Q200 183 233 152T328 121Q368
121 403 130T471 159L517 43Q479 17 429 3T323 -11ZM105 557L216 762H364L475 557H368L290 670L212 557H105Z" />
<glyph unicode="&#xeb;" horiz-adv-x="552" d="M323 -11Q185 -11 109 60T32 255Q32 332 64 392T154 485T290 519Q367 519 418 486T496 394T522 258V220H181V304H391L374 290Q374 347 353 374T292 402Q247 402 224 369T200 268V250Q200 183 233 152T328 121Q368
121 403 130T471 159L517 43Q479 17 429 3T323 -11ZM319 582V732H468V582H319ZM112 582V732H261V582H112Z" />
<glyph unicode="&#xec;" horiz-adv-x="288" d="M55 0V508H233V0H55ZM87 557L-67 762H100L201 557H87Z" />
<glyph unicode="&#xed;" horiz-adv-x="288" d="M55 0V508H233V0H55ZM87 557L188 762H355L201 557H87Z" />
<glyph unicode="&#xee;" horiz-adv-x="288" d="M55 0V508H233V0H55ZM-41 557L70 762H218L329 557H222L144 670L66 557H-41Z" />
<glyph unicode="&#xef;" horiz-adv-x="288" d="M55 0V508H233V0H55ZM173 582V732H322V582H173ZM-34 582V732H115V582H-34Z" />
<glyph unicode="&#xf0;" horiz-adv-x="626" d="M304 -11Q223 -11 162 18T67 100T32 221Q32 288 64 339T153 419T284 448Q350 448 394 422T462 334H428Q428 396 398 453T312 555L340 551L137 458L103 531L262 604L260 589Q230 606 195 618T122 638L151 747Q232
740 297 716T411 656L381 659L506 716L541 644L441 598L449 624Q500 578 532 521T579 405T594 289Q594 197 560 130T461 26T304 -11ZM310 122Q357 122 382 149T408 220Q408 266 383 292T310 318Q264 318 238 292T212 220Q212 174 238 148T310 122Z" />
<glyph unicode="&#xf1;" horiz-adv-x="623" d="M55 0V370Q55 404 53 439T47 508H219L229 420H218Q243 468 289 493T393 519Q482 519 526 467T571 303V0H393V295Q393 344 376 363T327 383Q285 383 259 356T233 283V0H55ZM184 577L102 582Q107 662 144 704T238 747Q260
747 280 740T322 718Q343 705 356 700T383 694Q432 694 442 753L524 747Q520 668 482 625T389 582Q366 582 346 590T302 613Q284 626 271 631T243 636Q216 636 203 620T184 577Z" />
<glyph unicode="&#xf2;" horiz-adv-x="617" d="M309 -11Q224 -11 162 21T66 112T32 254Q32 337 66 396T162 487T309 519Q393 519 455 487T551 396T585 254Q585 173 551 113T455 21T309 -11ZM309 121Q353 121 379 152T405 254Q405 324 379 355T309 387Q264 387
238 356T212 254Q212 184 238 153T309 121ZM252 557L98 762H265L366 557H252Z" />
<glyph unicode="&#xf3;" horiz-adv-x="617" d="M309 -11Q224 -11 162 21T66 112T32 254Q32 337 66 396T162 487T309 519Q393 519 455 487T551 396T585 254Q585 173 551 113T455 21T309 -11ZM309 121Q353 121 379 152T405 254Q405 324 379 355T309 387Q264 387
238 356T212 254Q212 184 238 153T309 121ZM252 557L353 762H520L366 557H252Z" />
<glyph unicode="&#xf4;" horiz-adv-x="617" d="M309 -11Q224 -11 162 21T66 112T32 254Q32 337 66 396T162 487T309 519Q393 519 455 487T551 396T585 254Q585 173 551 113T455 21T309 -11ZM309 121Q353 121 379 152T405 254Q405 324 379 355T309 387Q264 387
238 356T212 254Q212 184 238 153T309 121ZM124 557L235 762H383L494 557H387L309 670L231 557H124Z" />
<glyph unicode="&#xf5;" horiz-adv-x="617" d="M309 -11Q224 -11 162 21T66 112T32 254Q32 337 66 396T162 487T309 519Q393 519 455 487T551 396T585 254Q585 173 551 113T455 21T309 -11ZM309 121Q353 121 379 152T405 254Q405 324 379 355T309 387Q264 387
238 356T212 254Q212 184 238 153T309 121ZM180 577L98 582Q103 662 140 704T234 747Q256 747 276 740T318 718Q339 705 352 700T379 694Q428 694 438 753L520 747Q516 668 478 625T385 582Q362 582 342 590T298 613Q280 626 267 631T239 636Q212 636 199 620T180
577Z" />
<glyph unicode="&#xf6;" horiz-adv-x="617" d="M309 -11Q224 -11 162 21T66 112T32 254Q32 337 66 396T162 487T309 519Q393 519 455 487T551 396T585 254Q585 173 551 113T455 21T309 -11ZM309 121Q353 121 379 152T405 254Q405 324 379 355T309 387Q264 387
238 356T212 254Q212 184 238 153T309 121ZM338 582V732H487V582H338ZM131 582V732H280V582H131Z" />
<glyph unicode="&#xf7;" horiz-adv-x="600" d="M55 228V346H545V228H55ZM232 29V155H357V29H232ZM232 419V545H357V419H232Z" />
<glyph unicode="&#xf8;" horiz-adv-x="617" d="M309 -11Q224 -11 162 21T66 112T32 254Q32 337 66 396T162 487T309 519Q393 519 455 487T551 396T585 254Q585 173 551 113T455 21T309 -11ZM308 121Q366 121 394 155T422 254Q422 318 394 352T308 387Q251 387
223 353T195 254Q195 190 223 156T308 121ZM177 -61L99 -14L441 570L520 523L177 -61Z" />
<glyph unicode="&#xf9;" horiz-adv-x="618" d="M242 -11Q145 -11 99 42T52 205V508H230V204Q230 164 246 145T297 125Q335 125 359 152T384 225V508H562V0H389V91H404Q380 42 339 16T242 -11ZM251 557L97 762H264L365 557H251Z" />
<glyph unicode="&#xfa;" horiz-adv-x="618" d="M242 -11Q145 -11 99 42T52 205V508H230V204Q230 164 246 145T297 125Q335 125 359 152T384 225V508H562V0H389V91H404Q380 42 339 16T242 -11ZM251 557L352 762H519L365 557H251Z" />
<glyph unicode="&#xfb;" horiz-adv-x="618" d="M242 -11Q145 -11 99 42T52 205V508H230V204Q230 164 246 145T297 125Q335 125 359 152T384 225V508H562V0H389V91H404Q380 42 339 16T242 -11ZM123 557L234 762H382L493 557H386L308 670L230 557H123Z" />
<glyph unicode="&#xfc;" horiz-adv-x="618" d="M242 -11Q145 -11 99 42T52 205V508H230V204Q230 164 246 145T297 125Q335 125 359 152T384 225V508H562V0H389V91H404Q380 42 339 16T242 -11ZM337 582V732H486V582H337ZM130 582V732H279V582H130Z" />
<glyph unicode="&#xfd;" horiz-adv-x="558" d="M57 -227L15 -89Q63 -80 95 -70T149 -41T182 6L207 64L203 -3L-19 508H169L299 171H266L400 508H576L348 -11Q321 -72 291 -111T225 -173T148 -207T57 -227ZM221 557L322 762H489L335 557H221Z" />
<glyph unicode="&#xfe;" horiz-adv-x="644" d="M55 -216V736H233V418H220Q234 463 281 491T388 519Q454 519 504 488T583 397T612 254Q612 172 584 112T506 21T389 -11Q331 -11 284 15T222 86H233V-216H55ZM332 121Q378 121 405 152T433 254Q433 324 406 355T332
387Q287 387 259 356T231 254Q231 184 259 153T332 121Z" />
<glyph unicode="&#xff;" horiz-adv-x="558" d="M57 -227L15 -89Q63 -80 95 -70T149 -41T182 6L207 64L203 -3L-19 508H169L299 171H266L400 508H576L348 -11Q321 -72 291 -111T225 -173T148 -207T57 -227ZM307 582V732H456V582H307ZM100 582V732H249V582H100Z" />
<glyph unicode="&#x2013;" horiz-adv-x="505" d="M0 226V327H505V226H0Z" />
<glyph unicode="&#x2014;" horiz-adv-x="1010" d="M0 226V327H1010V226H0Z" />
<glyph unicode="&#x2018;" horiz-adv-x="272" d="M43 377V491Q43 554 66 606T144 714L212 661Q173 622 156 589T139 515L100 559H228V377H43Z" />
<glyph unicode="&#x2019;" horiz-adv-x="272" d="M127 368L61 421Q99 459 116 493T133 566L172 523H44V705H229V590Q229 527 207 476T127 368Z" />
<glyph unicode="&#x201a;" horiz-adv-x="272" d="M127 -155L61 -102Q98 -65 115 -31T133 43L172 0H44V182H229V67Q229 4 206 -48T127 -155Z" />
<glyph unicode="&#x201c;" horiz-adv-x="508" d="M43 377V491Q43 554 66 606T144 714L212 661Q173 622 156 589T139 515L100 559H228V377H43ZM280 377V491Q280 554 303 606T381 714L449 661Q410 622 393 589T376 515L337 559H465V377H280Z" />
<glyph unicode="&#x201d;" horiz-adv-x="508" d="M127 368L61 421Q99 459 116 493T133 566L172 523H44V705H229V590Q229 527 207 476T127 368ZM364 368L298 421Q336 459 353 493T370 566L409 523H281V705H466V590Q466 527 444 476T364 368Z" />
<glyph unicode="&#x201e;" horiz-adv-x="508" d="M127 -155L61 -102Q98 -65 115 -31T133 43L172 0H44V182H229V67Q229 4 206 -48T127 -155ZM364 -155L298 -102Q335 -65 352 -31T370 43L409 0H281V182H466V67Q466 4 443 -48T364 -155Z" />
<glyph unicode="&#x2022;" horiz-adv-x="529" d="M265 89Q216 89 174 112T107 177T82 268Q82 314 105 355T170 421T265 447Q314 447 355 424T421 360T447 268Q447 219 423 178T357 113T265 89Z" />
<glyph unicode="&#x2039;" horiz-adv-x="323" d="M156 84L20 267L155 452H299L170 268L299 84H156Z" />
<glyph unicode="&#x203a;" horiz-adv-x="323" d="M168 84H23L153 268L23 452H169L302 267L168 84Z" />
</font>
</defs>
</svg>
