<?xml version="1.0" standalone="no"?>
<!DOCTYPE svg PUBLIC "-//W3C//DTD SVG 1.1//EN" "http://www.w3.org/Graphics/SVG/1.1/DTD/svg11.dtd">
<svg xmlns="http://www.w3.org/2000/svg">
<defs >
<font id="Nunito" horiz-adv-x="566" ><font-face
    font-family="Nunito ExtraLight Light"
    units-per-em="1000"
    panose-1="0 0 0 0 0 0 0 0 0 0"
    ascent="1011"
    descent="-353"
    alphabetic="0" />
<glyph unicode=" " horiz-adv-x="252" />
<glyph unicode="!" horiz-adv-x="219" d="M110 168Q101 168 96 174T89 193L74 672Q73 690 82 700T110 711Q128 711 137 701T146 672L130 193Q130 181 125 175T110 168ZM110 -3Q90 -3 77 10T64 43Q64 63 77 76T110 89Q131 89 143 76T156 43Q156 23 144 10T110 -3Z" />
<glyph unicode="&quot;" horiz-adv-x="366" d="M107 428Q98 428 92 434T84 452L71 674Q70 690 80 700T106 711Q117 711 124 707T136 694T140 674L129 452Q128 440 122 434T107 428ZM262 428Q253 428 247 434T239 452L226 674Q225 690 235 700T261 711Q272 711
279 707T291 694T295 674L284 452Q283 440 277 434T262 428Z" />
<glyph unicode="#" horiz-adv-x="600" d="M118 -6Q105 -6 100 3T97 28L129 193L153 187H61Q52 187 45 190T34 198T30 211Q30 224 38 230T61 236H161L136 229L186 486L206 477H81Q71 477 64 480T53 488T49 502Q49 514 57 520T81 526H215L191 520L223 683Q226 698
234 704T255 711Q267 711 272 703T274 677L246 526H420L449 683Q452 698 460 704T482 711Q494 711 499 703T501 677L471 520L451 526H539Q549 526 556 523T566 515T570 502Q570 490 562 484T539 477H441L465 486L415 228L394 236H519Q530 236 537 233T547 225T551
211Q551 199 543 193T519 187H385L409 193L375 22Q372 7 364 1T343 -6Q331 -6 326 2T323 28L353 187H180L149 22Q146 7 139 1T118 -6ZM189 236H363L410 477H236L189 236Z" />
<glyph unicode="$" horiz-adv-x="600" d="M310 -121Q299 -121 291 -114T283 -95V11L298 -4Q228 -4 168 15T68 68Q59 75 56 84T55 101T63 116T78 122T98 115Q134 89 181 71T302 52Q363 52 403 68T462 115T482 184Q482 216 468 239T424 278T342 305L244 325Q154
345 111 389T67 508Q67 565 95 610T174 681T292 709L283 696V800Q283 811 291 818T310 826Q321 826 329 819T337 800V696L327 708Q376 707 429 687T519 629Q526 622 527 614T527 598T518 586T502 581T483 589Q448 620 406 636T304 653Q223 653 175 614T127 508Q127
457 157 427T256 382L354 361Q452 341 498 300T545 187Q545 130 516 89T438 24T322 -4L337 12V-95Q337 -106 330 -113T310 -121Z" />
<glyph unicode="%" horiz-adv-x="923" d="M287 -5Q281 -16 273 -19T257 -21T244 -13T237 2T242 21L635 708Q641 719 649 722T665 724T678 716T685 700T680 681L287 -5ZM227 282Q150 282 106 338T61 498Q61 566 81 614T138 687T227 713Q304 713 349 657T394 498Q394
429 374 381T317 308T227 282ZM227 329Q262 329 287 348T325 405T338 498Q338 580 309 622T227 665Q193 665 168 646T130 590T117 498Q117 414 146 372T227 329ZM695 -8Q618 -8 574 48T529 208Q529 276 549 324T606 397T695 423Q773 423 817 367T862 208Q862 139
842 91T785 17T695 -8ZM695 39Q730 39 755 58T793 115T806 208Q806 290 777 332T695 375Q661 375 636 356T598 300T585 208Q585 124 614 82T695 39Z" />
<glyph unicode="&amp;" horiz-adv-x="678" d="M281 -8Q213 -8 164 13T90 73T64 165Q64 198 73 226T100 279T147 330T214 381L246 403L238 390Q187 446 168 484T148 563Q148 608 168 641T226 694T313 713Q376 713 418 677T461 576Q461 541 448 511T401 449T307
378L309 395L504 173H490Q504 198 515 231T534 303T543 386Q545 401 552 408T573 415Q586 415 593 407T598 384Q596 332 586 286T561 201T526 129L525 150L626 35Q636 25 636 15T628 0T608 -6Q597 -6 591 -3T575 11L492 106H509Q469 52 410 22T281 -8ZM283 44Q344
44 392 70T474 148V125L259 366L281 364L250 343Q203 311 176 285T137 231T125 168Q125 110 165 77T283 44ZM313 663Q266 663 237 636T207 564Q207 542 214 523T239 479T289 417L270 414Q321 448 350 473T393 522T406 571Q406 613 380 638T313 663Z" />
<glyph unicode="&apos;" horiz-adv-x="211" d="M107 428Q98 428 92 434T84 452L71 674Q70 690 80 700T106 711Q117 711 124 707T136 694T140 674L129 452Q128 440 122 434T107 428Z" />
<glyph unicode="(" horiz-adv-x="299" d="M206 -171Q154 -66 129 42T103 263Q103 338 114 411T148 555T206 697Q212 709 222 711T240 710T253 697T252 672Q224 605 206 537T178 401T168 263Q168 194 177 126T206 -10T252 -146Q258 -161 254 -170T241 -183T222
-185T206 -171Z" />
<glyph unicode=")" horiz-adv-x="299" d="M92 -171Q87 -182 78 -184T59 -184T45 -171T46 -146Q75 -78 93 -11T121 125T131 263Q131 333 121 401T93 536T46 672Q41 687 45 696T58 710T77 712T92 697Q146 593 171 485T196 263Q196 188 185 115T151 -31T92 -171Z" />
<glyph unicode="*" horiz-adv-x="449" d="M128 372Q118 378 117 389T124 413L196 528L204 517L67 513Q52 513 43 519T34 537Q34 549 43 555T67 561L204 557L196 546L124 662Q116 675 117 686T129 703Q139 709 149 704T166 685L229 569H221L283 685Q290 699 300
704T321 703Q331 696 331 686T324 662L253 546L244 557L382 561Q398 561 407 555T416 537Q416 525 407 519T382 513L244 517L253 528L324 413Q332 400 332 390T321 373Q310 367 300 372T283 390L221 506H229L165 389Q158 376 149 371T128 372Z" />
<glyph unicode="+" horiz-adv-x="600" d="M300 34Q287 34 281 41T274 60V262H76Q64 262 57 268T50 287Q50 299 57 305T76 312H274V508Q274 520 280 527T300 534Q313 534 319 527T326 508V312H524Q537 312 543 306T550 287Q550 274 544 268T524 262H326V60Q326
48 320 41T300 34Z" />
<glyph unicode="," horiz-adv-x="219" d="M116 -90Q107 -101 98 -102T83 -99T76 -85T84 -64Q97 -46 103 -26T109 11L113 -3Q91 -3 78 10T64 43Q64 63 76 76T109 89Q130 89 142 75T155 31Q155 13 152 -8T139 -51T116 -90Z" />
<glyph unicode="-" horiz-adv-x="420" d="M95 240Q84 240 76 247T68 266Q68 277 76 284T95 292H326Q337 292 344 285T352 266Q352 255 345 248T326 240H95Z" />
<glyph unicode="." horiz-adv-x="219" d="M110 -3Q90 -3 77 10T64 43Q64 63 77 76T110 89Q131 89 143 76T156 43Q156 23 144 10T110 -3Z" />
<glyph unicode="/" horiz-adv-x="269" d="M39 -37Q36 -47 29 -52T14 -57T-2 -53T-11 -40T-11 -22L230 725Q233 736 240 741T255 746T271 741T280 729T280 711L39 -37Z" />
<glyph unicode="0" horiz-adv-x="600" d="M300 -8Q181 -8 120 84T58 352Q58 471 85 551T167 672T300 713Q420 713 481 622T542 353Q542 236 515 155T433 33T300 -8ZM300 47Q391 47 435 122T479 353Q479 511 436 584T300 658Q209 658 165 584T121 353Q121 197 165
122T300 47Z" />
<glyph unicode="1" horiz-adv-x="600" d="M154 0Q141 0 133 7T125 28Q125 41 133 47T154 54H293V656H328L183 557Q173 550 164 550T149 557T141 571T141 588T154 603L292 699Q302 705 310 708T328 711Q339 711 346 705T354 683V54H483Q497 54 504 48T512 28Q512
14 505 7T483 0H154Z" />
<glyph unicode="2" horiz-adv-x="600" d="M127 0Q109 0 101 8T92 31Q92 39 96 47T107 62L341 315Q395 373 419 422T443 524Q443 589 404 623T290 657Q240 657 198 641T116 592Q106 584 98 584T83 589T75 603T74 621T85 637Q124 671 179 692T293 713Q361 713 408
692T481 628T506 527Q506 485 492 444T451 361T380 273L155 35V54H512Q526 54 533 48T541 28Q541 14 534 7T512 0H127Z" />
<glyph unicode="3" horiz-adv-x="600" d="M294 -8Q234 -8 176 10T75 64Q65 71 63 80T62 97T70 111T85 117T105 110Q150 78 196 63T294 48Q348 48 385 64T441 113T461 192Q461 260 417 295T288 331H213Q199 331 191 338T183 358Q183 371 191 378T213 385H283Q332
385 367 403T421 453T441 532Q441 592 403 624T291 657Q242 657 199 642T117 592Q108 584 99 584T84 588T74 601T74 619T87 637Q126 674 180 693T293 713Q359 713 406 692T478 631T504 535Q504 491 488 455T441 394T369 358V369Q442 356 482 309T523 189Q523 129
496 85T417 16T294 -8Z" />
<glyph unicode="4" horiz-adv-x="600" d="M421 -6Q406 -6 398 2T390 25V159H85Q70 159 62 166T53 188Q53 196 56 204T68 225L387 691Q394 701 402 706T422 711Q435 711 443 704T452 680V213H536Q551 213 558 206T566 186Q566 173 559 166T536 159H452V25Q452 10
444 2T421 -6ZM390 213V635H412L111 196V213H390Z" />
<glyph unicode="5" horiz-adv-x="600" d="M319 -8Q260 -8 203 10T99 67Q91 74 89 82T88 99T97 113T112 119T132 112Q174 79 221 64T319 48Q371 48 408 68T466 125T487 210Q487 286 444 334T326 382Q277 382 239 364T169 306Q164 298 157 293T139 288Q125 288 118
296T110 317V675Q110 690 118 697T140 705H484Q499 705 506 698T514 678Q514 665 507 658T484 651H171V345H153Q179 389 227 413T334 438Q400 438 448 410T522 332T549 215Q549 149 521 99T442 21T319 -8Z" />
<glyph unicode="6" horiz-adv-x="600" d="M324 -8Q242 -8 185 32T99 148T69 333Q69 425 87 496T142 615T229 688T346 713Q393 713 443 694T529 637Q537 630 539 621T538 604T529 591T514 585T496 594Q462 627 423 642T345 657Q276 657 228 623T155 519T130 345V244H123Q128
304 156 347T229 414T329 438Q392 438 440 410T516 332T544 217Q544 152 516 101T438 21T324 -8ZM319 47Q367 47 404 68T461 127T482 215Q482 265 462 302T404 361T319 383Q271 383 234 362T177 303T156 215Q156 165 176 127T234 68T319 47Z" />
<glyph unicode="7" horiz-adv-x="600" d="M166 -6Q156 -6 149 -1T139 13T142 35L472 682V650H96Q82 650 74 657T66 678Q66 691 74 698T96 705H497Q512 705 520 698T528 678Q528 668 526 660T518 642L200 15Q195 4 187 -1T166 -6Z" />
<glyph unicode="8" horiz-adv-x="600" d="M300 -8Q223 -8 168 14T83 80T53 185Q53 235 73 273T130 335T213 365V353Q147 367 109 414T70 527Q70 586 98 627T179 691T300 713Q370 713 421 691T501 628T530 527Q530 484 513 448T464 388T387 353V365Q459 355 503
307T547 185Q547 124 518 81T433 15T300 -8ZM300 45Q392 45 438 80T485 188Q485 260 439 295T300 330Q209 330 162 295T115 188Q115 116 162 81T300 45ZM300 384Q353 384 390 400T448 448T469 523Q469 588 425 624T300 660Q221 660 176 624T131 523Q131 458 176
421T300 384Z" />
<glyph unicode="9" horiz-adv-x="600" d="M254 -8Q207 -8 157 12T71 69Q63 76 61 85T62 102T71 115T86 121T104 112Q138 79 177 64T255 48Q324 48 372 82T445 186T470 360V461H477Q472 402 444 358T372 291T271 267Q208 267 160 295T84 373T56 488Q56 554 84 605T162
684T276 713Q358 713 415 673T501 557T531 372Q531 280 513 209T458 90T371 17T254 -8ZM281 322Q330 322 366 343T424 403T445 490Q445 540 424 578T367 637T281 659Q233 659 197 638T139 578T118 490Q118 441 139 403T196 344T281 322Z" />
<glyph unicode=":" horiz-adv-x="219" d="M110 -3Q90 -3 77 10T64 43Q64 63 77 76T110 89Q131 89 143 76T156 43Q156 23 144 10T110 -3ZM110 396Q90 396 77 409T64 442Q64 463 77 476T110 489Q131 489 143 476T156 442Q156 423 144 410T110 396Z" />
<glyph unicode=";" horiz-adv-x="219" d="M116 -90Q107 -101 98 -102T83 -99T76 -85T84 -64Q97 -46 103 -26T109 11L113 -3Q91 -3 78 10T64 43Q64 63 76 76T109 89Q130 89 142 75T155 31Q155 13 152 -8T139 -51T116 -90ZM110 396Q90 396 77 409T64 442Q64 463
77 476T110 489Q131 489 143 476T156 442Q156 423 144 410T110 396Z" />
<glyph unicode="&lt;" horiz-adv-x="600" d="M519 48L82 251Q55 263 55 287Q55 299 62 308T82 323L519 527Q529 531 537 529T550 521T555 507T553 492T539 480L86 271V303L539 94Q549 89 552 82T556 67T550 53T537 45T519 48Z" />
<glyph unicode="=" horiz-adv-x="600" d="M76 362Q64 362 57 368T50 387Q50 399 57 405T76 412H524Q537 412 543 406T550 387Q550 374 544 368T524 362H76ZM76 163Q64 163 57 169T50 188Q50 200 57 206T76 212H524Q537 212 543 206T550 188Q550 175 544 169T524 163H76Z" />
<glyph unicode="&gt;" horiz-adv-x="600" d="M81 48Q71 43 63 45T50 53T45 67T48 82T61 94L514 303V271L61 480Q52 485 48 492T44 507T50 521T63 529T81 527L518 323Q545 311 545 287Q545 275 539 266T518 251L81 48Z" />
<glyph unicode="?" horiz-adv-x="436" d="M202 169Q192 169 187 176T181 195Q181 232 190 264T218 329T272 402Q299 435 315 460T338 508T345 557Q345 603 313 630T223 657Q173 657 132 642T54 596Q42 587 32 587T15 591T6 604T8 623T23 642Q61 674 114 693T224
713Q279 713 320 694T385 641T408 560Q408 528 399 500T371 441T316 372Q285 337 266 308T237 251T224 194Q223 183 218 176T202 169ZM202 -3Q182 -3 169 10T155 43Q155 63 168 76T202 89Q223 89 235 76T247 43Q247 23 235 10T202 -3Z" />
<glyph unicode="@" horiz-adv-x="945" d="M484 -163Q389 -163 312 -133T179 -45T94 93T64 275Q64 372 95 452T184 591T321 681T496 713Q610 713 696 667T832 538T881 345Q881 258 857 194T791 95T691 59Q633 59 604 94T581 188L595 175Q569 120 524 90T428 59Q352
59 310 106T268 238Q268 312 296 370T373 461T485 494Q540 494 575 467T620 390H611L623 463Q628 490 654 490Q667 490 673 483T677 460L635 218Q633 206 632 195T631 174Q631 139 647 122T695 104Q736 104 767 134T815 218T833 345Q833 441 790 513T671 625T495
666Q382 666 297 617T164 480T116 275Q116 153 161 66T289 -68T484 -115Q561 -115 623 -92T727 -30Q739 -20 749 -20T765 -28T772 -45T760 -67Q713 -111 643 -137T484 -163ZM433 107Q480 107 517 135T576 213T598 326Q598 386 571 415T489 445Q442 445 405 419T345
346T323 239Q323 175 352 141T433 107Z" />
<glyph unicode="A" horiz-adv-x="722" d="M67 -6Q54 -6 47 -1T39 15T43 37L324 683Q331 698 341 704T361 711Q373 711 382 705T398 683L679 37Q685 25 685 15T678 0T658 -6Q644 -6 636 1T621 22L544 203L577 188H144L178 203L101 22Q95 7 87 1T67 -6ZM360 629L190
229L167 241H554L533 229L362 629H360Z" />
<glyph unicode="B" horiz-adv-x="671" d="M126 0Q110 0 101 9T92 35V670Q92 687 101 696T126 705H361Q434 705 484 684T561 621T588 520Q588 454 549 410T442 352V366Q517 358 560 313T604 192Q604 98 544 49T374 0H126ZM152 52H369Q456 52 499 86T542 191Q542
263 499 297T369 331H152V52ZM152 383H354Q438 383 482 417T526 518Q526 584 482 618T354 653H152V383Z" />
<glyph unicode="C" horiz-adv-x="670" d="M386 -8Q285 -8 213 35T103 160T64 353Q64 437 85 503T148 616T250 688T386 713Q452 713 509 694T607 638Q617 629 620 619T621 601T611 587T595 581T574 591Q536 624 490 640T387 656Q304 656 247 621T160 517T130 353Q130
256 159 188T246 85T387 49Q442 49 489 65T575 115Q586 124 595 124T611 119T621 105T622 87T610 70Q567 31 511 12T386 -8Z" />
<glyph unicode="D" horiz-adv-x="733" d="M126 0Q110 0 101 9T92 35V670Q92 687 101 696T126 705H319Q487 705 578 615T670 353Q670 267 647 201T578 91T468 23T319 0H126ZM153 54H314Q387 54 441 73T532 129T586 222T604 353Q604 502 532 576T314 651H153V54Z" />
<glyph unicode="E" horiz-adv-x="576" d="M126 0Q110 0 101 9T92 35V670Q92 687 101 696T126 705H504Q518 705 525 698T532 679Q532 665 525 659T504 652H152V384H484Q498 384 505 378T512 358Q512 345 505 338T484 331H152V53H504Q518 53 525 47T532 27Q532 14
525 7T504 0H126Z" />
<glyph unicode="F" horiz-adv-x="542" d="M126 -6Q110 -6 101 3T92 28V670Q92 687 101 696T126 705H495Q508 705 515 698T523 679Q523 665 516 659T495 652H153V383H475Q488 383 495 377T503 357Q503 344 496 337T475 330H153V28Q153 -6 126 -6Z" />
<glyph unicode="G" horiz-adv-x="722" d="M405 -8Q294 -8 218 34T103 158T64 353Q64 437 86 503T149 616T251 688T389 713Q456 713 516 694T620 634Q629 626 631 618T630 601T621 587T606 581T587 587Q546 624 497 640T388 656Q305 656 247 621T159 517T129 353Q129
204 198 126T406 48Q458 48 506 58T596 86L581 44V309H423Q409 309 402 316T394 336Q394 348 401 354T423 361H608Q622 361 629 354T636 333V64Q636 52 633 44T620 32Q580 15 521 4T405 -8Z" />
<glyph unicode="H" horiz-adv-x="756" d="M122 -6Q108 -6 100 2T92 26V679Q92 695 100 703T122 711Q137 711 145 703T153 679V385H603V679Q603 695 611 703T634 711Q648 711 656 703T664 679V26Q664 11 656 3T634 -6Q619 -6 611 2T603 26V330H153V26Q153 11 146
3T122 -6Z" />
<glyph unicode="I" horiz-adv-x="245" d="M122 -6Q108 -6 100 2T92 26V679Q92 695 100 703T122 711Q137 711 145 703T153 679V26Q153 11 146 3T122 -6Z" />
<glyph unicode="J" horiz-adv-x="310" d="M20 -5Q5 -6 -3 2T-12 23Q-12 32 -6 39T13 48L46 51Q99 55 128 90T157 183V680Q157 695 165 703T188 711Q203 711 211 703T219 680V182Q219 127 200 87T144 25T52 -3L20 -5Z" />
<glyph unicode="K" horiz-adv-x="607" d="M122 -6Q108 -6 100 2T92 26V680Q92 695 100 703T122 711Q137 711 145 703T153 680V381H155L498 693Q509 702 519 706T540 711Q554 711 560 705T566 689T555 670L191 341L193 379L572 41Q584 30 585 19T579 1T557 -6Q545
-6 537 -1T517 13L155 335H153V26Q153 11 146 3T122 -6Z" />
<glyph unicode="L" horiz-adv-x="535" d="M123 0Q109 0 101 8T92 32V678Q92 694 100 702T122 710Q137 710 145 702T153 678V55H497Q512 55 519 48T527 28Q527 14 520 7T497 0H123Z" />
<glyph unicode="M" horiz-adv-x="849" d="M122 -6Q109 -6 102 2T94 24V681Q94 696 101 703T121 711Q134 711 141 706T154 690L440 147H412L696 690Q703 701 709 706T729 711Q741 711 748 704T756 681V24Q756 10 749 2T728 -6Q714 -6 707 2T699 24V631H723L455
123Q450 113 444 108T427 103Q415 103 409 108T397 123L126 632H150V24Q150 10 143 2T122 -6Z" />
<glyph unicode="N" horiz-adv-x="736" d="M121 -6Q107 -6 100 2T92 25V679Q92 695 99 703T118 711Q131 711 137 707T150 692L610 73H587V681Q587 696 594 703T616 711Q629 711 636 704T644 681V25Q644 10 638 2T619 -6Q608 -6 601 -2T586 13L127 632H149V25Q149
10 142 2T121 -6Z" />
<glyph unicode="O" horiz-adv-x="759" d="M379 -8Q283 -8 212 36T103 161T64 353Q64 437 85 503T148 616T247 688T379 713Q477 713 548 670T657 546T695 354Q695 270 673 203T610 89T511 17T379 -8ZM379 48Q459 48 515 84T600 188T630 353Q630 498 565 577T379
657Q300 657 244 621T159 517T129 353Q129 209 195 129T379 48Z" />
<glyph unicode="P" horiz-adv-x="624" d="M122 -6Q108 -6 100 2T92 26V673Q92 689 100 697T123 705H358Q470 705 530 651T590 497Q590 398 530 344T358 289H153V26Q153 11 146 3T122 -6ZM153 343H353Q440 343 484 382T528 497Q528 573 484 612T353 652H153V343Z" />
<glyph unicode="Q" horiz-adv-x="759" d="M611 -142Q618 -154 618 -163T611 -180T596 -189T577 -187T560 -170L498 -70Q480 -40 450 -24T379 -8L432 16Q480 16 507 0T561 -63L611 -142ZM379 -8Q283 -8 212 36T103 161T64 353Q64 437 85 503T148 616T247 688T379
713Q477 713 548 670T657 546T695 354Q695 270 673 203T610 89T511 17T379 -8ZM379 48Q459 48 515 84T600 188T630 353Q630 498 565 577T379 657Q300 657 244 621T159 517T129 353Q129 209 195 129T379 48Z" />
<glyph unicode="R" horiz-adv-x="661" d="M122 -6Q108 -6 100 2T92 26V673Q92 689 100 697T123 705H358Q470 705 530 653T590 505Q590 443 563 399T484 331T358 308L369 321H383Q421 321 449 301T501 236L607 39Q614 28 614 18T606 1T588 -6Q575 -6 567 0T552
17L440 226Q414 274 382 289T296 305H153V26Q153 11 146 3T122 -6ZM153 357H350Q439 357 483 394T528 505Q528 577 484 614T350 652H153V357Z" />
<glyph unicode="S" horiz-adv-x="607" d="M312 -8Q264 -8 219 0T136 24T66 65Q56 72 53 81T51 99T60 114T76 120T95 114Q141 80 192 64T312 48Q407 48 454 85T502 182Q502 232 468 260T354 304L253 325Q158 344 112 389T66 509Q66 555 84 592T135 657T213 698T314
713Q379 713 433 695T533 638Q542 631 545 622T545 604T536 590T521 585T502 592Q460 626 415 641T314 657Q258 657 217 639T152 588T129 510Q129 458 161 427T264 382L366 361Q467 340 516 299T565 185Q565 142 548 107T497 45T418 6T312 -8Z" />
<glyph unicode="T" horiz-adv-x="594" d="M297 -6Q282 -6 274 2T266 26V650H27Q13 650 5 658T-3 678Q-3 691 5 698T27 705H568Q582 705 589 698T597 678Q597 665 590 658T568 650H328V26Q328 11 321 3T297 -6Z" />
<glyph unicode="U" horiz-adv-x="724" d="M362 -8Q295 -8 243 10T157 64T105 153T87 275V680Q87 696 95 703T117 711Q132 711 140 704T148 680V280Q148 163 202 106T362 48Q468 48 522 105T576 280V680Q576 696 584 703T607 711Q621 711 629 704T637 680V275Q637
183 606 120T514 24T362 -8Z" />
<glyph unicode="V" horiz-adv-x="678" d="M339 -6Q325 -6 316 1T299 23L18 672Q14 685 16 693T26 706T44 711Q58 711 65 705T78 687L354 45H326L602 687Q607 699 615 705T636 711Q647 711 654 706T662 693T659 672L378 23Q373 9 364 2T339 -6Z" />
<glyph unicode="W" horiz-adv-x="1096" d="M308 -6Q294 -6 286 1T271 24L45 674Q40 690 47 700T72 711Q85 711 93 705T106 684L325 44H293L514 681Q520 696 527 703T549 711Q562 711 569 704T582 681L802 44H772L993 684Q997 698 1005 704T1027 711Q1043 711 1050
701T1051 674L825 24Q819 9 811 2T788 -6Q774 -6 766 1T751 24L538 641H558L344 24Q338 9 331 2T308 -6Z" />
<glyph unicode="X" horiz-adv-x="640" d="M67 -6Q54 -6 47 0T38 16T44 36L292 371V351L60 666Q52 678 52 688T61 704T80 711Q91 711 98 707T114 691L331 395H312L527 691Q534 702 542 706T561 711Q573 711 580 705T588 689T581 666L348 351V371L596 36Q604 26
603 17T594 1T573 -6Q564 -6 556 -1T539 14L307 331H333L101 14Q94 4 85 -1T67 -6Z" />
<glyph unicode="Y" horiz-adv-x="586" d="M293 -6Q278 -6 270 2T262 27V366L277 318L21 667Q13 678 13 688T21 705T40 711Q51 711 59 707T75 691L303 379H285L514 691Q522 702 529 706T548 711Q559 711 566 705T573 689T565 666L310 318L324 366V27Q324 -6 293 -6Z" />
<glyph unicode="Z" horiz-adv-x="582" d="M77 0Q66 0 58 5T47 18T46 38T58 62L490 678V650H73Q58 650 50 657T42 678Q42 691 50 698T73 705H516Q528 705 536 700T547 687T547 667T536 643L104 28V55H535Q550 55 558 48T566 28Q566 14 558 7T535 0H77Z" />
<glyph unicode="[" horiz-adv-x="298" d="M138 -180Q127 -180 119 -172T111 -153V678Q111 689 119 697T138 705H272Q283 705 290 698T298 680Q298 670 291 663T272 655H172V-130H272Q283 -130 290 -137T298 -155Q298 -165 291 -172T272 -180H138Z" />
<glyph unicode="\" horiz-adv-x="269" d="M230 -37L-11 711Q-14 721 -11 729T-2 741T13 745T29 741T39 725L280 -22Q283 -32 281 -40T271 -52T256 -57T240 -52T230 -37Z" />
<glyph unicode="]" horiz-adv-x="298" d="M26 -180Q15 -180 7 -173T-1 -155Q-1 -145 7 -138T26 -130H126V655H26Q15 655 7 662T-1 680Q-1 691 7 698T26 705H160Q171 705 179 697T187 678V-153Q187 -164 179 -172T160 -180H26Z" />
<glyph unicode="^" horiz-adv-x="600" d="M84 134Q67 134 62 144T63 171L269 614Q274 625 282 629T300 634Q321 634 331 614L537 171Q544 155 539 145T516 134Q507 134 501 138T490 154L285 597H316L110 154Q105 143 100 139T84 134Z" />
<glyph unicode="_" horiz-adv-x="500" d="M38 -43Q28 -43 21 -37T14 -22Q14 -13 21 -7T38 0H462Q472 0 479 -6T486 -22Q486 -31 479 -37T462 -43H38Z" />
<glyph unicode="`" horiz-adv-x="347" d="M207 554L105 718Q98 728 99 737T107 752T123 761T141 760T156 744L244 575Q249 565 246 558T236 547T220 544T207 554Z" />
<glyph unicode="a" horiz-adv-x="522" d="M230 -8Q181 -8 143 11T82 63T59 137Q59 191 86 222T177 265T353 278H396V233H354Q264 233 214 226T143 198T123 142Q123 97 154 69T238 41Q281 41 313 61T365 118T384 200V314Q384 381 357 411T271 442Q233 442 198 432T122
400Q111 394 103 396T90 404T84 418T86 435T100 448Q142 471 185 482T270 494Q329 494 367 474T424 414T443 311V25Q443 10 436 2T415 -6Q401 -6 393 2T385 25V117H395Q386 78 363 50T306 7T230 -8Z" />
<glyph unicode="b" horiz-adv-x="575" d="M311 -8Q243 -8 195 27T130 121L141 127V25Q141 10 133 2T111 -6Q96 -6 88 2T80 25V680Q80 696 88 703T111 711Q125 711 133 704T141 680V365H130Q147 424 195 459T311 494Q377 494 425 463T499 376T526 243Q526 166 500
110T425 23T311 -8ZM302 43Q351 43 387 66T444 135T464 243Q464 338 420 390T302 442Q253 442 217 419T160 351T140 243Q140 147 184 95T302 43Z" />
<glyph unicode="c" horiz-adv-x="459" d="M278 -8Q207 -8 156 23T78 112T50 246Q50 304 65 349T110 427T182 476T278 494Q315 494 354 482T425 440Q432 434 434 426T433 411T424 399T410 394T392 401Q364 424 336 432T280 441Q239 441 208 428T156 390T123 329T112
245Q112 151 155 98T280 44Q307 44 335 52T392 84Q401 92 409 92T424 87T432 75T433 59T424 45Q393 16 354 4T278 -8Z" />
<glyph unicode="d" horiz-adv-x="575" d="M265 -8Q200 -8 152 22T77 109T50 243Q50 320 76 376T150 463T265 494Q333 494 381 459T445 365H434V680Q434 696 442 703T464 711Q479 711 487 704T495 680V25Q495 10 487 2T465 -6Q450 -6 442 2T434 25V128L445 121Q429
62 381 27T265 -8ZM273 43Q323 43 359 66T415 135T435 243Q435 338 392 390T273 442Q224 442 188 419T132 351T112 243Q112 147 156 95T273 43Z" />
<glyph unicode="e" horiz-adv-x="527" d="M291 -8Q216 -8 162 22T79 108T50 241Q50 317 79 373T159 462T278 494Q327 494 364 478T428 431T469 357T483 258Q483 244 476 237T455 230H94V275H445L429 262Q429 320 412 360T362 423T279 445Q224 445 186 420T129
350T110 247V242Q110 146 157 95T289 43Q326 43 360 53T428 87Q438 94 447 94T463 89T472 77T472 61T458 45Q426 19 381 6T291 -8Z" />
<glyph unicode="f" horiz-adv-x="319" d="M134 -6Q119 -6 111 2T103 25V436H32Q19 436 12 442T4 461Q4 472 11 478T32 485H119L103 469V509Q103 601 147 650T278 707L305 709Q316 710 322 706T331 694T332 680T325 667T311 660L283 657Q221 652 193 617T164 514V471L155
485H283Q297 485 304 479T311 461Q311 449 304 443T283 436H164V25Q164 -6 134 -6Z" />
<glyph unicode="g" horiz-adv-x="578" d="M291 -188Q237 -188 187 -175T95 -131Q87 -126 85 -118T84 -103T91 -89T104 -82T120 -85Q164 -114 204 -125T289 -137Q362 -137 400 -97T438 19V143H448Q433 81 384 46T268 11Q201 11 152 41T77 126T50 253Q50 307 65
351T108 427T177 476T268 494Q335 494 384 459T447 363L437 357V460Q437 476 445 484T467 492Q482 492 489 484T497 460V28Q497 -79 445 -133T291 -188ZM275 63Q325 63 361 86T418 152T438 253Q438 340 394 391T275 442Q225 442 188 419T132 354T112 253Q112 166
156 115T275 63Z" />
<glyph unicode="h" horiz-adv-x="560" d="M111 -6Q96 -6 88 2T80 25V680Q80 696 88 703T111 711Q125 711 133 704T141 680V372H129Q149 432 197 463T309 494Q367 494 405 473T463 410T482 306V25Q482 10 474 2T452 -6Q437 -6 429 2T421 25V301Q421 374 392 407T300
441Q228 441 185 397T141 277V25Q141 -6 111 -6Z" />
<glyph unicode="i" horiz-adv-x="222" d="M111 -4Q96 -4 88 5T80 29V457Q80 473 88 481T111 489Q125 489 133 481T141 457V29Q141 14 134 5T111 -4ZM111 610Q90 610 79 621T67 652Q67 672 78 682T111 693Q132 693 143 683T155 652Q155 632 144 621T111 610Z" />
<glyph unicode="j" horiz-adv-x="225" d="M-27 -191Q-39 -192 -46 -187T-56 -175T-58 -160T-51 -147T-34 -141Q26 -139 55 -111T84 -19V460Q84 476 92 484T114 492Q129 492 137 484T145 460V-15Q145 -75 125 -113T66 -171T-27 -191ZM114 610Q94 610 82 621T70
652Q70 672 82 682T114 693Q135 693 146 683T158 652Q158 632 147 621T114 610Z" />
<glyph unicode="k" horiz-adv-x="484" d="M111 -6Q96 -6 88 2T80 25V680Q80 696 88 703T111 711Q125 711 133 704T141 680V265H143L367 470Q378 480 386 486T409 492Q421 492 428 485T435 469T424 448L186 231V270L445 40Q457 29 457 19T451 1T432 -6Q419 -6 410
-1T388 17L143 233H141V25Q141 -6 111 -6Z" />
<glyph unicode="l" horiz-adv-x="285" d="M220 -8Q153 -8 117 34T80 153V680Q80 696 88 703T111 711Q125 711 133 704T141 680V160Q141 102 164 74T231 45Q241 45 248 46T262 47Q271 48 275 44T280 25Q280 11 273 4T250 -6Q243 -7 236 -7T220 -8Z" />
<glyph unicode="m" horiz-adv-x="847" d="M113 -6Q98 -6 90 2T82 25V460Q82 476 90 484T113 492Q127 492 134 484T142 460V365L131 372Q149 431 192 462T295 494Q359 494 397 463T448 370H433Q450 426 496 460T606 494Q660 494 695 473T749 411T767 306V25Q767
10 759 2T736 -6Q722 -6 714 2T706 25V301Q706 374 681 407T595 441Q531 441 493 397T455 276V25Q455 10 447 2T425 -6Q410 -6 402 2T394 25V301Q394 374 369 407T284 441Q219 441 181 397T143 276V25Q143 -6 113 -6Z" />
<glyph unicode="n" horiz-adv-x="560" d="M111 -6Q96 -6 88 2T80 25V460Q80 476 88 484T111 492Q125 492 132 484T140 460V366L129 372Q149 432 197 463T309 494Q367 494 405 474T463 411T482 306V25Q482 10 474 2T452 -6Q437 -6 429 2T421 25V301Q421 374 392
407T300 441Q228 441 185 397T141 277V25Q141 -6 111 -6Z" />
<glyph unicode="o" horiz-adv-x="547" d="M273 -8Q205 -8 155 23T78 110T50 243Q50 300 65 346T110 425T181 476T273 494Q342 494 392 463T469 376T497 243Q497 185 482 139T437 60T366 10T273 -8ZM273 43Q323 43 359 66T415 135T435 243Q435 338 392 390T273
442Q224 442 188 419T132 351T112 243Q112 147 156 95T273 43Z" />
<glyph unicode="p" horiz-adv-x="575" d="M111 -186Q96 -186 88 -178T80 -155V460Q80 476 88 484T111 492Q125 492 133 484T141 460V358L130 364Q147 424 195 459T311 494Q376 494 424 463T499 376T526 243Q526 166 500 110T425 23T311 -8Q243 -8 195 27T130 120H141V-155Q141
-170 133 -178T111 -186ZM302 43Q351 43 387 66T444 135T464 243Q464 338 420 390T302 442Q253 442 217 419T160 351T140 243Q140 147 184 95T302 43Z" />
<glyph unicode="q" horiz-adv-x="575" d="M464 -186Q450 -186 442 -178T434 -155V120H445Q429 62 381 27T265 -8Q199 -8 151 22T76 109T50 243Q50 320 76 376T151 463T265 494Q333 494 381 459T445 364L434 358V460Q434 476 442 484T465 492Q479 492 487 484T495
460V-155Q495 -170 487 -178T464 -186ZM273 43Q323 43 359 66T415 135T435 243Q435 338 392 390T273 442Q224 442 188 419T132 351T112 243Q112 147 156 95T273 43Z" />
<glyph unicode="r" horiz-adv-x="342" d="M111 -6Q96 -6 88 2T80 25V460Q80 476 88 484T111 492Q125 492 132 484T140 460V371H130Q148 430 194 462T306 495Q318 496 326 490T334 471Q335 457 328 450T305 440L291 439Q220 432 181 392T142 284V25Q142 10 135 2T111 -6Z" />
<glyph unicode="s" horiz-adv-x="478" d="M238 -8Q193 -8 149 4T64 45Q56 50 54 57T52 73T59 86T73 93T90 88Q129 62 166 52T240 42Q301 42 333 65T365 127Q365 159 345 176T278 205L191 225Q128 239 98 270T68 352Q68 395 90 427T154 476T250 494Q294 494 334
481T404 441Q412 435 414 427T415 412T406 399T392 394T375 400Q346 422 314 432T249 443Q191 443 160 419T128 354Q128 323 147 304T209 275L296 255Q361 240 393 211T425 131Q425 67 375 30T238 -8Z" />
<glyph unicode="t" horiz-adv-x="335" d="M263 -8Q209 -8 173 12T119 69T101 162V436H27Q14 436 6 442T-2 461Q-2 472 6 478T27 485H101V610Q101 626 109 633T132 641Q146 641 154 634T162 610V485H297Q311 485 318 479T325 461Q325 449 318 443T297 436H162V170Q162
109 187 77T270 45Q290 45 303 49T326 54Q333 54 338 48T344 29Q344 21 341 13T328 3Q317 -1 298 -4T263 -8Z" />
<glyph unicode="u" horiz-adv-x="553" d="M251 -8Q193 -8 155 13T97 76T78 180V460Q78 476 86 484T109 492Q123 492 131 484T139 460V183Q139 113 168 79T259 44Q327 44 369 89T411 209V460Q411 476 419 484T442 492Q456 492 464 484T472 460V25Q472 -6 443 -6Q429
-6 421 2T413 25V124L425 117Q406 56 359 24T251 -8Z" />
<glyph unicode="v" horiz-adv-x="509" d="M255 -6Q240 -6 230 2T212 26L32 446Q27 458 28 468T37 485T59 492Q72 492 78 486T90 467L268 37H243L422 467Q427 480 434 486T454 492Q467 492 473 486T481 469T477 447L297 26Q291 10 280 2T255 -6Z" />
<glyph unicode="w" horiz-adv-x="835" d="M239 -6Q226 -6 216 1T198 25L47 446Q42 460 44 470T54 486T73 492Q85 492 92 487T104 466L252 36H227L381 463Q386 478 396 485T419 492Q433 492 443 485T458 463L608 36H583L735 467Q740 482 747 487T766 492Q780 492
786 485T792 468T789 446L637 25Q631 9 621 2T596 -6Q583 -6 572 1T555 25L400 457H437L281 25Q275 9 265 2T239 -6Z" />
<glyph unicode="x" horiz-adv-x="515" d="M69 -7Q59 -7 52 -1T44 15T53 39L235 267V234L65 446Q54 459 55 469T63 486T80 492Q92 492 100 488T115 473L269 279H247L402 473Q409 483 417 487T436 492Q446 492 453 486T461 469T451 446L283 236V264L463 39Q473 26
473 16T465 0T447 -7Q436 -7 428 -2T411 12L247 219H269L104 12Q97 3 89 -2T69 -7Z" />
<glyph unicode="y" horiz-adv-x="509" d="M182 -186Q170 -186 163 -180T156 -163T159 -141L228 16V-12L32 446Q27 458 28 468T37 485T59 492Q72 492 78 486T90 467L268 36H243L421 467Q427 481 434 486T454 492Q467 492 473 486T481 469T477 447L216 -162Q210
-176 203 -181T182 -186Z" />
<glyph unicode="z" horiz-adv-x="459" d="M81 0Q71 0 65 4T56 16T55 33T66 52L359 453V436H77Q64 436 58 442T51 461Q51 472 57 478T77 485H389Q401 485 408 481T418 469T419 453T410 435L113 31V49H408Q434 49 434 25Q434 13 427 7T408 0H81Z" />
<glyph unicode="{" horiz-adv-x="335" d="M239 -180Q209 -180 189 -170T159 -138T148 -87V156Q148 198 131 217T69 237Q59 237 52 245T45 263Q45 274 52 281T69 289Q113 290 130 309T148 370V612Q148 657 171 681T239 705H308Q319 705 327 698T335 680Q335 670
328 663T310 655H252Q231 655 220 644T209 609V364Q209 335 198 311T167 274T120 261V265Q147 265 166 252T197 215T209 162V-84Q209 -107 220 -118T252 -130H310Q321 -130 328 -137T335 -155Q335 -165 327 -172T308 -180H239Z" />
<glyph unicode="|" horiz-adv-x="254" d="M127 -187Q112 -187 105 -179T97 -155V680Q97 696 104 703T127 711Q142 711 150 704T158 680V-155Q158 -187 127 -187Z" />
<glyph unicode="}" horiz-adv-x="335" d="M27 -180Q15 -180 7 -173T-1 -155Q-1 -145 6 -138T25 -130H82Q105 -130 115 -119T126 -84V162Q126 192 137 215T169 251T214 265V261Q189 261 169 274T138 311T126 364V609Q126 632 116 643T82 655H25Q14 655 7 662T-1
680Q-1 691 7 698T27 705H96Q126 705 146 695T177 663T187 612V370Q187 328 204 309T266 289Q276 288 283 281T290 263Q290 253 283 245T266 237Q222 237 205 218T187 156V-87Q187 -132 164 -156T96 -180H27Z" />
<glyph unicode="~" horiz-adv-x="600" d="M417 221Q392 221 361 231T288 265Q247 289 225 296T186 304Q162 304 143 293T107 254Q101 243 91 241T74 243T63 256T65 276Q85 316 115 335T183 354Q209 354 237 345T308 312Q347 291 370 281T414 270Q438 270 457 282T493
320Q500 331 509 333T527 332T538 318T535 298Q516 259 486 240T417 221Z" />
<glyph unicode="&#xa0;" horiz-adv-x="252" />
<glyph unicode="&#xa1;" horiz-adv-x="219" d="M110 -186Q92 -186 83 -176T74 -147L89 294Q90 307 95 313T110 319Q119 319 124 313T131 294L145 -147Q146 -165 137 -175T110 -186ZM110 396Q90 396 77 409T64 442Q64 463 77 476T110 489Q131 489 143 476T156 442Q156
423 144 410T110 396Z" />
<glyph unicode="&#xa2;" horiz-adv-x="600" d="M317 -121Q306 -121 298 -114T290 -94V12L302 -6Q241 -1 195 31T122 119T95 243Q95 294 109 337T151 413T217 466T302 490L290 466V584Q290 596 298 604T317 612Q328 612 336 604T344 584V468L330 491Q370 491 411
478T480 440Q488 434 490 426T491 411T482 398T467 393T447 401Q422 420 392 429T329 439Q290 439 258 425T204 385T170 323T158 243Q158 153 203 100T328 47Q360 47 390 56T448 84Q460 91 469 91T483 87T491 74T490 58T479 45Q450 21 409 7T328 -7L344 11V-94Q344
-106 337 -113T317 -121Z" />
<glyph unicode="&#xa3;" horiz-adv-x="600" d="M70 0Q59 0 51 8T43 28Q43 39 51 46T70 54H165L154 42V342L165 329H69Q58 329 51 336T43 353Q43 364 50 370T69 377H165L154 367V516Q154 579 177 623T246 690T361 713Q412 713 462 696T548 645Q557 638 559 629T558
612T547 599T531 594T514 601Q480 632 442 645T357 658Q287 658 252 623T216 519V368L209 377H382Q393 377 400 371T408 353Q408 343 401 336T382 329H216V54H528Q539 54 547 47T555 28Q555 16 547 8T528 0H70Z" />
<glyph unicode="&#xa4;" horiz-adv-x="600" d="M51 -10Q42 -2 42 9T51 30L111 92Q87 123 74 162T60 245Q60 289 73 328T111 399L51 461Q43 470 43 481T51 500Q58 509 70 509T91 499L150 438Q181 464 219 478T301 493Q343 493 381 479T449 440L506 499Q515 508
527 508T547 501Q556 492 556 481T547 460L488 400Q513 368 527 329T541 245Q541 201 527 162T488 90L547 30Q555 21 555 10T547 -10Q539 -18 527 -18T506 -9L449 51Q418 25 381 11T301 -3Q258 -3 220 11T150 51L90 -9Q81 -18 70 -18T51 -10ZM300 53Q350 53 391
79T455 148T479 245Q479 298 456 341T391 411T300 437Q250 437 209 411T144 342T120 245Q120 192 144 149T209 79T300 53Z" />
<glyph unicode="&#xa5;" horiz-adv-x="600" d="M300 -6Q285 -6 277 2T269 27V182H95Q82 182 75 188T68 206Q68 217 75 223T95 230H269V334H95Q82 334 75 340T68 357Q68 368 75 374T95 381H244V371L28 668Q20 679 20 689T28 705T47 711Q58 711 65 707T80 692L309
376H291L520 691Q527 702 535 706T554 711Q566 711 572 705T580 689T572 667L357 371V381H505Q518 381 525 375T532 357Q532 346 525 340T505 334H331V230H505Q518 230 525 224T532 206Q532 195 525 189T505 182H331V27Q331 -6 300 -6Z" />
<glyph unicode="&#xa6;" horiz-adv-x="254" d="M127 366Q112 366 105 374T97 397V680Q97 696 104 703T127 711Q142 711 150 704T158 680V397Q158 366 127 366ZM127 -186Q112 -186 105 -178T97 -155V128Q97 144 104 152T127 160Q142 160 150 152T158 128V-155Q158
-186 127 -186Z" />
<glyph unicode="&#xa7;" horiz-adv-x="534" d="M241 -188Q186 -188 140 -175T62 -135Q54 -130 52 -123T52 -107T60 -94T74 -88T91 -93Q121 -115 161 -126T243 -138Q285 -138 318 -124T369 -82T387 -15Q387 27 366 57T290 113L188 161Q133 188 102 213T58 269T45
335Q45 374 64 411T113 471L107 453Q99 465 92 484T85 536Q85 592 112 631T185 691T288 713Q339 713 383 700T461 660Q469 654 471 646T472 630T463 617T449 611T432 617Q404 639 365 650T285 662Q246 662 215 648T165 607T147 539Q147 498 168 468T244 412L346
363Q402 337 432 311T476 256T489 189Q489 150 470 113T420 53L426 71Q434 60 441 40T449 -12Q449 -67 422 -106T347 -167T241 -188ZM102 342Q102 304 126 274T215 212L303 170Q345 151 371 130T411 89H389Q410 106 421 130T432 183Q432 222 409 251T319 312L231
354Q190 374 164 394T123 435L144 436Q124 418 113 394T102 342Z" />
<glyph unicode="&#xa8;" horiz-adv-x="447" d="M308 612Q289 612 279 622T268 651Q268 670 278 680T308 691Q327 691 337 681T348 651Q348 632 338 622T308 612ZM141 612Q122 612 111 622T100 651Q100 670 111 680T141 691Q160 691 170 681T180 651Q180 632 170
622T141 612Z" />
<glyph unicode="&#xa9;" horiz-adv-x="815" d="M408 -8Q332 -8 266 19T151 96T75 211T47 353Q47 430 74 495T151 609T265 685T408 713Q485 713 550 686T664 610T740 496T768 353Q768 277 741 211T665 96T551 20T408 -8ZM408 31Q476 31 534 55T635 124T703 226T727
353Q727 421 703 479T636 581T534 649T408 674Q340 674 282 650T180 582T112 480T88 353Q88 285 112 227T179 124T281 56T408 31ZM419 137Q324 137 270 197T215 356Q215 454 269 511T419 568Q455 568 490 556T551 522Q558 516 560 509T560 495T553 484T540 479T522
485Q497 504 471 511T420 519Q350 519 311 476T271 355Q271 277 310 232T420 186Q445 186 471 194T523 221Q535 229 543 227T557 217T561 200T551 184Q524 162 489 150T419 137Z" />
<glyph unicode="&#xaa;" horiz-adv-x="321" d="M137 412Q90 412 60 437T30 501Q30 546 71 566T180 586H244V553H182Q129 553 103 541T76 502Q76 479 92 464T145 448Q172 448 193 460T225 494T237 547V605Q237 640 218 658T162 676Q140 676 118 671T76 656Q65 651
58 654T48 664T48 679T60 692Q84 703 110 708T163 713Q203 713 229 701T268 665T282 603V435Q282 412 260 412Q249 412 244 418T238 435V471H236Q219 440 195 426T137 412Z" />
<glyph unicode="&#xab;" horiz-adv-x="417" d="M179 91Q170 88 161 90T148 102L63 244Q57 255 57 265T63 286L146 428Q152 437 160 440T178 439Q189 435 192 425T189 402L120 265L189 129Q195 117 193 107T179 91ZM348 91Q339 88 330 90T317 102L232 244Q226 255
226 265T232 286L315 428Q321 437 329 440T347 439Q358 435 361 425T358 402L289 265L358 129Q364 117 362 107T348 91Z" />
<glyph unicode="&#xac;" horiz-adv-x="600" d="M518 147Q505 147 499 154T492 174V364H76Q64 364 57 371T50 390Q50 401 57 407T76 414H517Q530 414 537 407T544 387V174Q544 147 518 147Z" />
<glyph unicode="&#xad;" horiz-adv-x="420" d="M95 240Q84 240 76 247T68 266Q68 277 76 284T95 292H326Q337 292 344 285T352 266Q352 255 345 248T326 240H95Z" />
<glyph unicode="&#xae;" horiz-adv-x="815" d="M408 -8Q332 -8 266 19T151 96T75 211T47 353Q47 430 74 495T151 609T265 685T408 713Q485 713 550 686T664 610T740 496T768 353Q768 277 741 211T665 96T551 20T408 -8ZM408 31Q476 31 534 55T635 124T703 226T727
353Q727 421 703 479T636 581T534 649T408 674Q340 674 282 650T180 582T112 480T88 353Q88 285 112 227T179 124T281 56T408 31ZM296 136Q268 136 268 164V531Q268 547 276 555T301 563H435Q502 563 537 532T573 442Q573 385 537 355T436 324L443 334Q472 334
492 322T525 277L567 173Q573 156 566 146T544 136Q534 136 528 142T518 157L471 274Q461 301 441 310T391 319H310L322 328V164Q322 136 296 136ZM322 364H428Q475 364 497 382T520 441Q520 480 498 499T428 518H322V364Z" />
<glyph unicode="&#xaf;" horiz-adv-x="490" d="M125 629Q100 629 100 652Q100 663 106 669T125 675H365Q390 675 390 652Q390 641 384 635T365 629H125Z" />
<glyph unicode="&#xb0;" horiz-adv-x="367" d="M184 424Q143 424 110 443T58 495T39 569Q39 610 58 642T110 694T184 713Q225 713 257 695T308 643T327 569Q327 528 309 495T258 443T184 424ZM184 471Q226 471 251 498T277 569Q277 611 252 638T184 666Q143 666
117 639T90 569Q90 526 116 499T184 471Z" />
<glyph unicode="&#xb1;" horiz-adv-x="600" d="M300 116Q287 116 281 123T274 143V300H76Q64 300 57 307T50 326Q50 337 57 343T76 350H274V508Q274 521 280 528T300 535Q313 535 319 528T326 508V350H524Q537 350 543 344T550 326Q550 313 544 307T524 300H326V143Q326
130 320 123T300 116ZM76 0Q64 0 57 7T50 25Q50 37 57 43T76 50H524Q537 50 543 44T550 25Q550 13 544 7T524 0H76Z" />
<glyph unicode="&#xb2;" horiz-adv-x="380" d="M82 282Q70 282 63 288T55 304Q55 314 59 321T69 335L197 475Q228 509 241 535T254 589Q254 624 235 642T179 661Q155 661 130 653T83 627Q71 619 62 620T47 630T43 647T55 665Q81 687 116 698T185 709Q225 709 253
695T296 655T311 593Q311 560 296 527T245 457L118 320V330H311Q336 330 336 306Q336 295 330 289T311 282H82Z" />
<glyph unicode="&#xb3;" horiz-adv-x="380" d="M187 279Q148 279 114 290T54 322Q45 329 43 339T46 357T60 366T82 360Q104 343 130 335T185 326Q221 326 246 344T271 401Q271 440 245 456T176 472H123Q111 472 105 478T98 497Q98 507 104 513T123 520H165Q209
520 234 538T260 594Q260 626 239 643T180 661Q157 661 132 653T84 628Q72 620 62 621T47 630T43 647T55 665Q81 687 116 698T186 709Q244 709 279 679T315 600Q315 559 291 533T235 495V503Q275 496 300 469T326 397Q326 359 308 333T258 293T187 279Z" />
<glyph unicode="&#xb4;" horiz-adv-x="347" d="M139 554Q134 546 126 545T111 546T100 557T102 575L190 744Q196 756 205 759T223 761T238 753T246 737T242 718L139 554Z" />
<glyph unicode="&#xb5;" horiz-adv-x="600" d="M134 -186Q119 -186 112 -178T104 -155V460Q104 476 111 484T134 492Q148 492 156 484T165 460V183Q165 113 193 80T284 46Q352 46 394 90T437 209V460Q437 476 445 484T467 492Q482 492 490 484T498 460V25Q498
-6 468 -6Q454 -6 446 2T438 23V117H448Q431 56 386 24T283 -8Q236 -8 200 9T144 74H159L164 -155Q164 -170 157 -178T134 -186Z" />
<glyph unicode="&#xb6;" horiz-adv-x="572" d="M268 -186Q255 -186 248 -179T241 -159V323Q183 323 140 347T73 415T49 514Q49 569 73 612T140 680T243 705H447Q463 705 471 697T480 672V-159Q480 -186 453 -186Q441 -186 434 -179T427 -159V655H295V-159Q295
-186 268 -186Z" />
<glyph unicode="&#xb7;" horiz-adv-x="219" d="M110 219Q90 219 77 232T64 266Q64 286 77 299T110 312Q131 312 143 299T156 266Q156 246 144 233T110 219Z" />
<glyph unicode="&#xb8;" horiz-adv-x="394" d="M185 -191Q168 -191 149 -188T115 -179Q105 -174 102 -166T101 -151T111 -140T129 -140Q140 -145 154 -147T186 -150Q213 -150 229 -140T246 -110Q246 -96 237 -88T208 -80Q200 -80 192 -80T174 -84Q164 -87 159
-87T149 -84Q145 -81 145 -76T145 -61L157 20H202L189 -55L168 -51Q180 -48 191 -46T213 -44Q247 -44 270 -61T294 -111Q294 -146 264 -168T185 -191Z" />
<glyph unicode="&#xb9;" horiz-adv-x="380" d="M118 282Q93 282 93 306Q93 317 99 323T118 330H188V658H213L130 603Q117 596 108 598T93 609T90 627T104 644L184 696Q192 701 199 704T216 707Q224 707 229 704T237 695T241 680V330H298Q324 330 324 306Q324 295
318 289T298 282H118Z" />
<glyph unicode="&#xba;" horiz-adv-x="332" d="M166 412Q125 412 94 430T43 483T24 563Q24 609 43 642T93 694T166 713Q207 713 239 695T289 643T308 563Q308 518 290 484T239 431T166 412ZM166 450Q210 450 235 479T261 563Q261 618 236 646T166 675Q123 675
97 647T71 563Q71 508 97 479T166 450Z" />
<glyph unicode="&#xbb;" horiz-adv-x="417" d="M69 91Q58 96 56 106T59 129L128 265L59 402Q53 414 56 424T70 439Q79 443 87 440T102 428L184 286Q191 275 191 265T184 244L100 102Q96 93 87 91T69 91ZM238 91Q227 96 225 106T228 129L297 265L228 402Q222 414
225 424T239 439Q248 443 256 440T271 428L353 286Q360 275 360 265T353 244L269 102Q265 93 256 91T238 91Z" />
<glyph unicode="&#xbc;" horiz-adv-x="885" d="M118 282Q93 282 93 306Q93 317 99 323T118 330H188V658H213L130 603Q117 596 108 598T93 609T90 627T104 644L184 696Q192 701 199 704T216 707Q224 707 229 704T237 695T241 680V330H298Q324 330 324 306Q324 295
318 289T298 282H118ZM287 -3Q282 -12 274 -15T259 -17T247 -10T240 4T245 22L641 708Q647 717 654 720T669 722T681 715T688 701T683 683L287 -3ZM767 -3Q755 -3 748 3T741 23V89H570Q557 89 551 96T544 113Q544 122 547 129T557 146L735 406Q740 414 748 420T767
426Q779 426 786 419T793 398V136H836Q847 136 853 131T860 113Q860 101 854 95T836 89H793V23Q793 10 786 4T767 -3ZM741 136V357H753L590 120V136H741Z" />
<glyph unicode="&#xbd;" horiz-adv-x="927" d="M118 282Q93 282 93 306Q93 317 99 323T118 330H188V658H213L130 603Q117 596 108 598T93 609T90 627T104 644L184 696Q192 701 199 704T216 707Q224 707 229 704T237 695T241 680V330H298Q324 330 324 306Q324 295
318 289T298 282H118ZM287 -3Q282 -12 274 -15T259 -17T247 -10T240 4T245 22L641 708Q647 717 654 720T669 722T681 715T688 701T683 683L287 -3ZM629 0Q617 0 610 6T602 22Q602 32 606 39T616 53L744 193Q775 227 788 253T801 307Q801 342 782 360T726 379Q702
379 677 371T630 345Q618 337 609 338T594 348T590 365T602 383Q628 405 663 416T732 427Q772 427 800 413T843 373T858 311Q858 278 843 245T792 175L665 38V48H858Q883 48 883 24Q883 13 877 7T858 0H629Z" />
<glyph unicode="&#xbe;" horiz-adv-x="885" d="M187 279Q148 279 114 290T54 322Q45 329 43 339T46 357T60 366T82 360Q104 343 130 335T185 326Q221 326 246 344T271 401Q271 440 245 456T176 472H123Q111 472 105 478T98 497Q98 507 104 513T123 520H165Q209
520 234 538T260 594Q260 626 239 643T180 661Q157 661 132 653T84 628Q72 620 62 621T47 630T43 647T55 665Q81 687 116 698T186 709Q244 709 279 679T315 600Q315 559 291 533T235 495V503Q275 496 300 469T326 397Q326 359 308 333T258 293T187 279ZM287 -3Q282
-12 274 -15T259 -17T247 -10T240 4T245 22L641 708Q647 717 654 720T669 722T681 715T688 701T683 683L287 -3ZM767 -3Q755 -3 748 3T741 23V89H570Q557 89 551 96T544 113Q544 122 547 129T557 146L735 406Q740 414 748 420T767 426Q779 426 786 419T793 398V136H836Q847
136 853 131T860 113Q860 101 854 95T836 89H793V23Q793 10 786 4T767 -3ZM741 136V357H753L590 120V136H741Z" />
<glyph unicode="&#xbf;" horiz-adv-x="436" d="M212 -188Q157 -188 116 -170T51 -119T28 -42Q28 0 47 38T120 130Q152 162 170 187T198 238T211 293Q213 305 218 311T234 317Q243 317 248 311T254 292Q254 258 247 229T220 170T165 102Q122 58 107 27T91 -36Q91
-80 123 -106T213 -132Q263 -132 306 -118T386 -72Q398 -63 408 -63T425 -67T434 -81T432 -99T417 -118Q379 -149 327 -168T212 -188ZM234 396Q214 396 201 409T188 442Q188 463 201 476T234 489Q255 489 267 476T280 442Q280 422 268 409T234 396Z" />
<glyph unicode="&#xc0;" horiz-adv-x="722" d="M67 -6Q54 -6 47 -1T39 15T43 37L324 683Q331 698 341 704T361 711Q373 711 382 705T398 683L679 37Q685 25 685 15T678 0T658 -6Q644 -6 636 1T621 22L544 203L577 188H144L178 203L101 22Q95 7 87 1T67 -6ZM360
629L190 229L167 241H554L533 229L362 629H360ZM334 769L227 899Q219 909 219 917T225 932T240 942T258 942T274 928L369 792Q375 783 373 776T365 764T350 760T334 769Z" />
<glyph unicode="&#xc1;" horiz-adv-x="722" d="M67 -6Q54 -6 47 -1T39 15T43 37L324 683Q331 698 341 704T361 711Q373 711 382 705T398 683L679 37Q685 25 685 15T678 0T658 -6Q644 -6 636 1T621 22L544 203L577 188H144L178 203L101 22Q95 7 87 1T67 -6ZM360
629L190 229L167 241H554L533 229L362 629H360ZM390 769Q383 761 375 760T361 763T352 775T356 792L450 928Q457 939 466 942T484 942T499 933T505 918T497 899L390 769Z" />
<glyph unicode="&#xc2;" horiz-adv-x="722" d="M67 -6Q54 -6 47 -1T39 15T43 37L324 683Q331 698 341 704T361 711Q373 711 382 705T398 683L679 37Q685 25 685 15T678 0T658 -6Q644 -6 636 1T621 22L544 203L577 188H144L178 203L101 22Q95 7 87 1T67 -6ZM360
629L190 229L167 241H554L533 229L362 629H360ZM260 767Q253 759 245 758T230 761T222 772T226 788L321 921Q329 934 339 938T362 943Q374 943 384 939T404 921L498 788Q504 780 503 773T495 761T480 758T464 767L362 891L260 767Z" />
<glyph unicode="&#xc3;" horiz-adv-x="722" d="M67 -6Q54 -6 47 -1T39 15T43 37L324 683Q331 698 341 704T361 711Q373 711 382 705T398 683L679 37Q685 25 685 15T678 0T658 -6Q644 -6 636 1T621 22L544 203L577 188H144L178 203L101 22Q95 7 87 1T67 -6ZM360
629L190 229L167 241H554L533 229L362 629H360ZM181 784Q172 785 167 791T162 809Q171 860 201 888T273 917Q300 917 324 905T370 877T413 849T454 836Q481 836 498 854T522 905Q525 914 530 918T543 923Q552 922 558 916T562 898Q553 848 524 819T452 790Q425
790 401 802T354 830T311 858T270 871Q243 871 226 853T202 802Q200 794 195 789T181 784Z" />
<glyph unicode="&#xc4;" horiz-adv-x="722" d="M67 -6Q54 -6 47 -1T39 15T43 37L324 683Q331 698 341 704T361 711Q373 711 382 705T398 683L679 37Q685 25 685 15T678 0T658 -6Q644 -6 636 1T621 22L544 203L577 188H144L178 203L101 22Q95 7 87 1T67 -6ZM360
629L190 229L167 241H554L533 229L362 629H360ZM446 810Q427 810 417 820T406 850Q406 869 416 879T446 889Q465 889 475 879T486 850Q486 830 476 820T446 810ZM279 810Q260 810 249 820T238 850Q238 869 249 879T279 889Q298 889 308 879T318 850Q318 830 308
820T279 810Z" />
<glyph unicode="&#xc5;" horiz-adv-x="722" d="M67 -6Q54 -6 47 -1T39 15T43 37L324 683Q331 698 341 704T361 711Q373 711 382 705T398 683L679 37Q685 25 685 15T678 0T658 -6Q644 -6 636 1T621 22L544 203L577 188H144L178 203L101 22Q95 7 87 1T67 -6ZM360
629L190 229L167 241H554L533 229L362 629H360ZM362 759Q330 759 304 774T262 815T247 872Q247 904 262 929T303 969T362 985Q395 985 421 970T462 929T477 872Q477 841 462 816T421 775T362 759ZM362 797Q396 797 416 818T437 872Q437 904 417 925T362 947Q329
947 308 926T287 872Q287 840 308 819T362 797Z" />
<glyph unicode="&#xc6;" horiz-adv-x="976" d="M36 -6Q23 -6 16 -1T8 14T14 33L405 685Q412 695 420 700T441 705H902Q917 705 924 698T932 679Q932 665 925 659T902 652H469L481 678L547 368L524 384H882Q896 384 904 378T912 358Q912 345 904 338T882 331H535L552
347L618 30L592 53H902Q917 53 924 47T932 27Q932 14 925 7T902 0H595Q569 0 562 26L525 206L550 188H157L182 205L70 15Q64 5 56 0T36 -6ZM433 628L195 226L186 241H530L520 226L435 628H433Z" />
<glyph unicode="&#xc7;" horiz-adv-x="670" d="M386 -8Q285 -8 213 35T103 160T64 353Q64 437 85 503T148 616T250 688T386 713Q452 713 509 694T607 638Q617 629 620 619T621 601T611 587T595 581T574 591Q536 624 490 640T387 656Q304 656 247 621T160 517T130
353Q130 256 159 188T246 85T387 49Q442 49 489 65T575 115Q586 124 595 124T611 119T621 105T622 87T610 70Q567 31 511 12T386 -8ZM387 -191Q370 -191 351 -188T317 -179Q307 -174 304 -166T303 -151T313 -140T331 -140Q342 -145 356 -147T388 -150Q415 -150
431 -140T448 -110Q448 -96 439 -88T410 -80Q402 -80 394 -80T376 -84Q366 -87 361 -87T351 -84Q347 -81 347 -76T347 -61L359 20H404L391 -55L370 -51Q382 -48 393 -46T415 -44Q449 -44 472 -61T496 -111Q496 -146 466 -168T387 -191Z" />
<glyph unicode="&#xc8;" horiz-adv-x="576" d="M126 0Q110 0 101 9T92 35V670Q92 687 101 696T126 705H504Q518 705 525 698T532 679Q532 665 525 659T504 652H152V384H484Q498 384 505 378T512 358Q512 345 505 338T484 331H152V53H504Q518 53 525 47T532 27Q532
14 525 7T504 0H126ZM294 769L187 899Q179 909 179 917T185 932T200 942T218 942T234 928L329 792Q335 783 333 776T325 764T310 760T294 769Z" />
<glyph unicode="&#xc9;" horiz-adv-x="576" d="M126 0Q110 0 101 9T92 35V670Q92 687 101 696T126 705H504Q518 705 525 698T532 679Q532 665 525 659T504 652H152V384H484Q498 384 505 378T512 358Q512 345 505 338T484 331H152V53H504Q518 53 525 47T532 27Q532
14 525 7T504 0H126ZM350 769Q343 761 335 760T321 763T312 775T316 792L410 928Q417 939 426 942T444 942T459 933T465 918T457 899L350 769Z" />
<glyph unicode="&#xca;" horiz-adv-x="576" d="M126 0Q110 0 101 9T92 35V670Q92 687 101 696T126 705H504Q518 705 525 698T532 679Q532 665 525 659T504 652H152V384H484Q498 384 505 378T512 358Q512 345 505 338T484 331H152V53H504Q518 53 525 47T532 27Q532
14 525 7T504 0H126ZM220 767Q213 759 205 758T190 761T182 772T186 788L281 921Q289 934 299 938T322 943Q334 943 344 939T364 921L458 788Q464 780 463 773T455 761T440 758T424 767L322 891L220 767Z" />
<glyph unicode="&#xcb;" horiz-adv-x="576" d="M126 0Q110 0 101 9T92 35V670Q92 687 101 696T126 705H504Q518 705 525 698T532 679Q532 665 525 659T504 652H152V384H484Q498 384 505 378T512 358Q512 345 505 338T484 331H152V53H504Q518 53 525 47T532 27Q532
14 525 7T504 0H126ZM406 810Q387 810 377 820T366 850Q366 869 376 879T406 889Q425 889 435 879T446 850Q446 830 436 820T406 810ZM239 810Q220 810 209 820T198 850Q198 869 209 879T239 889Q258 889 268 879T278 850Q278 830 268 820T239 810Z" />
<glyph unicode="&#xcc;" horiz-adv-x="245" d="M122 -6Q108 -6 100 2T92 26V679Q92 695 100 703T122 711Q137 711 145 703T153 679V26Q153 11 146 3T122 -6ZM94 769L-13 899Q-21 909 -21 917T-15 932T0 942T18 942T34 928L129 792Q135 783 133 776T125 764T110
760T94 769Z" />
<glyph unicode="&#xcd;" horiz-adv-x="245" d="M122 -6Q108 -6 100 2T92 26V679Q92 695 100 703T122 711Q137 711 145 703T153 679V26Q153 11 146 3T122 -6ZM150 769Q143 761 135 760T121 763T112 775T116 792L210 928Q217 939 226 942T244 942T259 933T265 918T257
899L150 769Z" />
<glyph unicode="&#xce;" horiz-adv-x="245" d="M122 -6Q108 -6 100 2T92 26V679Q92 695 100 703T122 711Q137 711 145 703T153 679V26Q153 11 146 3T122 -6ZM20 767Q13 759 5 758T-10 761T-18 772T-14 788L81 921Q89 934 99 938T122 943Q134 943 144 939T164 921L258
788Q264 780 263 773T255 761T240 758T224 767L122 891L20 767Z" />
<glyph unicode="&#xcf;" horiz-adv-x="245" d="M122 -6Q108 -6 100 2T92 26V679Q92 695 100 703T122 711Q137 711 145 703T153 679V26Q153 11 146 3T122 -6ZM206 810Q187 810 177 820T166 850Q166 869 176 879T206 889Q225 889 235 879T246 850Q246 830 236 820T206
810ZM39 810Q20 810 9 820T-2 850Q-2 869 9 879T39 889Q58 889 68 879T78 850Q78 830 68 820T39 810Z" />
<glyph unicode="&#xd0;" horiz-adv-x="733" d="M126 0Q110 0 101 9T92 35V670Q92 687 101 696T126 705H319Q487 705 578 615T670 353Q670 267 647 201T578 91T468 23T319 0H126ZM153 54H314Q387 54 441 73T532 129T586 222T604 353Q604 502 532 576T314 651H153V54ZM22
333Q9 333 3 340T-4 359Q-4 370 2 376T22 383H333Q346 383 352 377T359 359Q359 347 353 340T333 333H22Z" />
<glyph unicode="&#xd1;" horiz-adv-x="736" d="M121 -6Q107 -6 100 2T92 25V679Q92 695 99 703T118 711Q131 711 137 707T150 692L610 73H587V681Q587 696 594 703T616 711Q629 711 636 704T644 681V25Q644 10 638 2T619 -6Q608 -6 601 -2T586 13L127 632H149V25Q149
10 142 2T121 -6ZM187 784Q178 785 173 791T168 809Q177 860 207 888T279 917Q306 917 330 905T376 877T419 849T460 836Q487 836 504 854T528 905Q531 914 536 918T549 923Q558 922 564 916T568 898Q559 848 530 819T458 790Q431 790 407 802T360 830T317 858T276
871Q249 871 232 853T208 802Q206 794 201 789T187 784Z" />
<glyph unicode="&#xd2;" horiz-adv-x="759" d="M379 -8Q283 -8 212 36T103 161T64 353Q64 437 85 503T148 616T247 688T379 713Q477 713 548 670T657 546T695 354Q695 270 673 203T610 89T511 17T379 -8ZM379 48Q459 48 515 84T600 188T630 353Q630 498 565 577T379
657Q300 657 244 621T159 517T129 353Q129 209 195 129T379 48ZM351 769L244 899Q236 909 236 917T242 932T257 942T275 942T291 928L386 792Q392 783 390 776T382 764T367 760T351 769Z" />
<glyph unicode="&#xd3;" horiz-adv-x="759" d="M379 -8Q283 -8 212 36T103 161T64 353Q64 437 85 503T148 616T247 688T379 713Q477 713 548 670T657 546T695 354Q695 270 673 203T610 89T511 17T379 -8ZM379 48Q459 48 515 84T600 188T630 353Q630 498 565 577T379
657Q300 657 244 621T159 517T129 353Q129 209 195 129T379 48ZM407 769Q400 761 392 760T378 763T369 775T373 792L467 928Q474 939 483 942T501 942T516 933T522 918T514 899L407 769Z" />
<glyph unicode="&#xd4;" horiz-adv-x="759" d="M379 -8Q283 -8 212 36T103 161T64 353Q64 437 85 503T148 616T247 688T379 713Q477 713 548 670T657 546T695 354Q695 270 673 203T610 89T511 17T379 -8ZM379 48Q459 48 515 84T600 188T630 353Q630 498 565 577T379
657Q300 657 244 621T159 517T129 353Q129 209 195 129T379 48ZM277 767Q270 759 262 758T247 761T239 772T243 788L338 921Q346 934 356 938T379 943Q391 943 401 939T421 921L515 788Q521 780 520 773T512 761T497 758T481 767L379 891L277 767Z" />
<glyph unicode="&#xd5;" horiz-adv-x="759" d="M379 -8Q283 -8 212 36T103 161T64 353Q64 437 85 503T148 616T247 688T379 713Q477 713 548 670T657 546T695 354Q695 270 673 203T610 89T511 17T379 -8ZM379 48Q459 48 515 84T600 188T630 353Q630 498 565 577T379
657Q300 657 244 621T159 517T129 353Q129 209 195 129T379 48ZM198 784Q189 785 184 791T179 809Q188 860 218 888T290 917Q317 917 341 905T387 877T430 849T471 836Q498 836 515 854T539 905Q542 914 547 918T560 923Q569 922 575 916T579 898Q570 848 541 819T469
790Q442 790 418 802T371 830T328 858T287 871Q260 871 243 853T219 802Q217 794 212 789T198 784Z" />
<glyph unicode="&#xd6;" horiz-adv-x="759" d="M379 -8Q283 -8 212 36T103 161T64 353Q64 437 85 503T148 616T247 688T379 713Q477 713 548 670T657 546T695 354Q695 270 673 203T610 89T511 17T379 -8ZM379 48Q459 48 515 84T600 188T630 353Q630 498 565 577T379
657Q300 657 244 621T159 517T129 353Q129 209 195 129T379 48ZM463 810Q444 810 434 820T423 850Q423 869 433 879T463 889Q482 889 492 879T503 850Q503 830 493 820T463 810ZM296 810Q277 810 266 820T255 850Q255 869 266 879T296 889Q315 889 325 879T335
850Q335 830 325 820T296 810Z" />
<glyph unicode="&#xd7;" horiz-adv-x="600" d="M117 66Q108 57 98 57T81 64T73 81T81 101L264 284L78 470Q71 478 70 486T72 501T83 512T98 515T114 506L300 320L485 506Q495 516 504 515T521 507T530 489T521 469L336 284L519 101Q526 93 527 85T525 70T514 60T499
57T483 66L300 249L117 66Z" />
<glyph unicode="&#xd8;" horiz-adv-x="759" d="M379 -8Q283 -8 212 36T103 161T64 353Q64 437 85 503T148 616T247 688T379 713Q477 713 548 670T657 546T695 354Q695 270 673 203T610 89T511 17T379 -8ZM379 48Q459 48 515 84T600 188T630 353Q630 498 565 577T379
657Q300 657 244 621T159 517T129 353Q129 209 195 129T379 48ZM189 -24Q184 -34 177 -36T161 -37T148 -30T141 -16T146 3L185 70L204 101L514 633L530 661L570 729Q575 739 582 741T598 742T611 735T618 721T614 702L574 635L556 604L246 72L230 44L189 -24Z"
/>
<glyph unicode="&#xd9;" horiz-adv-x="724" d="M362 -8Q295 -8 243 10T157 64T105 153T87 275V680Q87 696 95 703T117 711Q132 711 140 704T148 680V280Q148 163 202 106T362 48Q468 48 522 105T576 280V680Q576 696 584 703T607 711Q621 711 629 704T637 680V275Q637
183 606 120T514 24T362 -8ZM334 769L227 899Q219 909 219 917T225 932T240 942T258 942T274 928L369 792Q375 783 373 776T365 764T350 760T334 769Z" />
<glyph unicode="&#xda;" horiz-adv-x="724" d="M362 -8Q295 -8 243 10T157 64T105 153T87 275V680Q87 696 95 703T117 711Q132 711 140 704T148 680V280Q148 163 202 106T362 48Q468 48 522 105T576 280V680Q576 696 584 703T607 711Q621 711 629 704T637 680V275Q637
183 606 120T514 24T362 -8ZM390 769Q383 761 375 760T361 763T352 775T356 792L450 928Q457 939 466 942T484 942T499 933T505 918T497 899L390 769Z" />
<glyph unicode="&#xdb;" horiz-adv-x="724" d="M362 -8Q295 -8 243 10T157 64T105 153T87 275V680Q87 696 95 703T117 711Q132 711 140 704T148 680V280Q148 163 202 106T362 48Q468 48 522 105T576 280V680Q576 696 584 703T607 711Q621 711 629 704T637 680V275Q637
183 606 120T514 24T362 -8ZM260 767Q253 759 245 758T230 761T222 772T226 788L321 921Q329 934 339 938T362 943Q374 943 384 939T404 921L498 788Q504 780 503 773T495 761T480 758T464 767L362 891L260 767Z" />
<glyph unicode="&#xdc;" horiz-adv-x="724" d="M362 -8Q295 -8 243 10T157 64T105 153T87 275V680Q87 696 95 703T117 711Q132 711 140 704T148 680V280Q148 163 202 106T362 48Q468 48 522 105T576 280V680Q576 696 584 703T607 711Q621 711 629 704T637 680V275Q637
183 606 120T514 24T362 -8ZM446 810Q427 810 417 820T406 850Q406 869 416 879T446 889Q465 889 475 879T486 850Q486 830 476 820T446 810ZM279 810Q260 810 249 820T238 850Q238 869 249 879T279 889Q298 889 308 879T318 850Q318 830 308 820T279 810Z" />
<glyph unicode="&#xdd;" horiz-adv-x="586" d="M293 -6Q278 -6 270 2T262 27V366L277 318L21 667Q13 678 13 688T21 705T40 711Q51 711 59 707T75 691L303 379H285L514 691Q522 702 529 706T548 711Q559 711 566 705T573 689T565 666L310 318L324 366V27Q324 -6
293 -6ZM321 769Q314 761 306 760T292 763T283 775T287 792L381 928Q388 939 397 942T415 942T430 933T436 918T428 899L321 769Z" />
<glyph unicode="&#xde;" horiz-adv-x="625" d="M122 -5Q108 -5 100 3T92 27V678Q92 694 100 702T123 710Q138 710 145 703T153 680V573H359Q471 573 531 519T591 365Q591 266 531 212T359 158H153V27Q153 12 146 4T122 -5ZM153 211H353Q441 211 484 250T528 365Q528
441 485 480T353 520H153V211Z" />
<glyph unicode="&#xdf;" horiz-adv-x="597" d="M388 -8Q345 -8 302 4T225 42Q216 49 213 57T212 73T220 86T234 91T252 86Q285 64 321 54T389 43Q443 43 474 66T505 130Q505 162 480 183T393 224Q312 249 280 280T248 358Q248 379 255 398T280 438T329 485Q362
513 376 536T390 585Q390 621 365 642T293 663Q220 663 181 619T141 495V25Q141 10 133 2T111 -6Q96 -6 88 2T80 25V490Q80 596 136 654T292 713Q341 713 376 698T430 655T450 590Q450 551 432 521T370 454Q346 434 333 419T314 391T308 363Q308 334 332 314T420
274Q498 250 531 217T565 130Q565 89 543 58T481 10T388 -8Z" />
<glyph unicode="&#xe0;" horiz-adv-x="522" d="M230 -8Q181 -8 143 11T82 63T59 137Q59 191 86 222T177 265T353 278H396V233H354Q264 233 214 226T143 198T123 142Q123 97 154 69T238 41Q281 41 313 61T365 118T384 200V314Q384 381 357 411T271 442Q233 442
198 432T122 400Q111 394 103 396T90 404T84 418T86 435T100 448Q142 471 185 482T270 494Q329 494 367 474T424 414T443 311V25Q443 10 436 2T415 -6Q401 -6 393 2T385 25V117H395Q386 78 363 50T306 7T230 -8ZM242 554L140 718Q133 728 134 737T142 752T158 761T176
760T191 744L279 575Q284 565 281 558T271 547T255 544T242 554Z" />
<glyph unicode="&#xe1;" horiz-adv-x="522" d="M230 -8Q181 -8 143 11T82 63T59 137Q59 191 86 222T177 265T353 278H396V233H354Q264 233 214 226T143 198T123 142Q123 97 154 69T238 41Q281 41 313 61T365 118T384 200V314Q384 381 357 411T271 442Q233 442
198 432T122 400Q111 394 103 396T90 404T84 418T86 435T100 448Q142 471 185 482T270 494Q329 494 367 474T424 414T443 311V25Q443 10 436 2T415 -6Q401 -6 393 2T385 25V117H395Q386 78 363 50T306 7T230 -8ZM294 554Q289 546 281 545T266 546T255 557T257 575L345
744Q351 756 360 759T378 761T393 753T401 737T397 718L294 554Z" />
<glyph unicode="&#xe2;" horiz-adv-x="522" d="M230 -8Q181 -8 143 11T82 63T59 137Q59 191 86 222T177 265T353 278H396V233H354Q264 233 214 226T143 198T123 142Q123 97 154 69T238 41Q281 41 313 61T365 118T384 200V314Q384 381 357 411T271 442Q233 442
198 432T122 400Q111 394 103 396T90 404T84 418T86 435T100 448Q142 471 185 482T270 494Q329 494 367 474T424 414T443 311V25Q443 10 436 2T415 -6Q401 -6 393 2T385 25V117H395Q386 78 363 50T306 7T230 -8ZM395 575Q400 565 398 558T388 547T374 544T361 554L268
705L175 554Q170 546 163 545T148 546T139 557T141 575L229 736Q236 750 246 756T268 762Q280 762 290 756T307 736L395 575Z" />
<glyph unicode="&#xe3;" horiz-adv-x="522" d="M230 -8Q181 -8 143 11T82 63T59 137Q59 191 86 222T177 265T353 278H396V233H354Q264 233 214 226T143 198T123 142Q123 97 154 69T238 41Q281 41 313 61T365 118T384 200V314Q384 381 357 411T271 442Q233 442
198 432T122 400Q111 394 103 396T90 404T84 418T86 435T100 448Q142 471 185 482T270 494Q329 494 367 474T424 414T443 311V25Q443 10 436 2T415 -6Q401 -6 393 2T385 25V117H395Q386 78 363 50T306 7T230 -8ZM114 589Q105 590 100 596T97 614Q101 638 109 658T129
692T158 714T196 722Q220 722 238 710T273 682T306 654T340 641Q363 641 378 659T401 711Q403 720 408 724T422 728Q431 727 436 722T439 703Q434 671 421 647T388 609T340 595Q316 595 298 607T263 635T230 663T196 676Q173 676 158 658T135 606Q134 598 129 594T114
589Z" />
<glyph unicode="&#xe4;" horiz-adv-x="522" d="M230 -8Q181 -8 143 11T82 63T59 137Q59 191 86 222T177 265T353 278H396V233H354Q264 233 214 226T143 198T123 142Q123 97 154 69T238 41Q281 41 313 61T365 118T384 200V314Q384 381 357 411T271 442Q233 442
198 432T122 400Q111 394 103 396T90 404T84 418T86 435T100 448Q142 471 185 482T270 494Q329 494 367 474T424 414T443 311V25Q443 10 436 2T415 -6Q401 -6 393 2T385 25V117H395Q386 78 363 50T306 7T230 -8ZM352 612Q333 612 323 622T312 651Q312 670 322 680T352
691Q371 691 381 681T392 651Q392 632 382 622T352 612ZM185 612Q166 612 155 622T144 651Q144 670 155 680T185 691Q204 691 214 681T224 651Q224 632 214 622T185 612Z" />
<glyph unicode="&#xe5;" horiz-adv-x="522" d="M230 -8Q181 -8 143 11T82 63T59 137Q59 191 86 222T177 265T353 278H396V233H354Q264 233 214 226T143 198T123 142Q123 97 154 69T238 41Q281 41 313 61T365 118T384 200V314Q384 381 357 411T271 442Q233 442
198 432T122 400Q111 394 103 396T90 404T84 418T86 435T100 448Q142 471 185 482T270 494Q329 494 367 474T424 414T443 311V25Q443 10 436 2T415 -6Q401 -6 393 2T385 25V117H395Q386 78 363 50T306 7T230 -8ZM268 547Q236 547 210 562T168 603T153 660Q153 692
168 717T209 757T268 772Q301 772 327 757T368 717T383 660Q383 629 368 603T327 562T268 547ZM268 584Q302 584 322 606T343 660Q343 692 323 713T268 735Q235 735 214 714T193 660Q193 628 214 606T268 584Z" />
<glyph unicode="&#xe6;" horiz-adv-x="859" d="M234 -8Q183 -8 144 11T82 63T59 137Q59 191 86 222T178 265T353 278H398V233H354Q264 233 214 226T143 198T123 142Q123 97 154 69T240 41Q285 41 318 62T369 121T388 206V312Q388 380 360 411T273 442Q234 442
198 432T123 400Q111 394 103 396T90 404T84 418T86 435T100 448Q142 471 186 482T272 494Q346 494 387 461T440 364H418Q444 427 495 460T614 494Q661 494 697 479T760 433T800 359T814 260V256Q814 245 807 239T786 233H439V278H776L760 266Q760 322 743 361T694
423T612 445Q562 445 525 421T468 354T448 252V245Q448 148 493 96T623 43Q656 43 691 53T760 87Q770 94 779 94T795 89T804 77T804 61T790 45Q758 20 715 6T626 -8Q540 -8 483 33T404 153H423Q410 79 360 36T234 -8Z" />
<glyph unicode="&#xe7;" horiz-adv-x="459" d="M278 -8Q207 -8 156 23T78 112T50 246Q50 304 65 349T110 427T182 476T278 494Q315 494 354 482T425 440Q432 434 434 426T433 411T424 399T410 394T392 401Q364 424 336 432T280 441Q239 441 208 428T156 390T123
329T112 245Q112 151 155 98T280 44Q307 44 335 52T392 84Q401 92 409 92T424 87T432 75T433 59T424 45Q393 16 354 4T278 -8ZM280 -191Q263 -191 244 -188T210 -179Q200 -174 197 -166T196 -151T206 -140T224 -140Q235 -145 249 -147T281 -150Q308 -150 324 -140T341
-110Q341 -96 332 -88T303 -80Q295 -80 287 -80T269 -84Q259 -87 254 -87T244 -84Q240 -81 240 -76T240 -61L252 20H297L284 -55L263 -51Q275 -48 286 -46T308 -44Q342 -44 365 -61T389 -111Q389 -146 359 -168T280 -191Z" />
<glyph unicode="&#xe8;" horiz-adv-x="527" d="M291 -8Q216 -8 162 22T79 108T50 241Q50 317 79 373T159 462T278 494Q327 494 364 478T428 431T469 357T483 258Q483 244 476 237T455 230H94V275H445L429 262Q429 320 412 360T362 423T279 445Q224 445 186 420T129
350T110 247V242Q110 146 157 95T289 43Q326 43 360 53T428 87Q438 94 447 94T463 89T472 77T472 61T458 45Q426 19 381 6T291 -8ZM253 554L151 718Q144 728 145 737T153 752T169 761T187 760T202 744L290 575Q295 565 292 558T282 547T266 544T253 554Z" />
<glyph unicode="&#xe9;" horiz-adv-x="527" d="M291 -8Q216 -8 162 22T79 108T50 241Q50 317 79 373T159 462T278 494Q327 494 364 478T428 431T469 357T483 258Q483 244 476 237T455 230H94V275H445L429 262Q429 320 412 360T362 423T279 445Q224 445 186 420T129
350T110 247V242Q110 146 157 95T289 43Q326 43 360 53T428 87Q438 94 447 94T463 89T472 77T472 61T458 45Q426 19 381 6T291 -8ZM305 554Q300 546 292 545T277 546T266 557T268 575L356 744Q362 756 371 759T389 761T404 753T412 737T408 718L305 554Z" />
<glyph unicode="&#xea;" horiz-adv-x="527" d="M291 -8Q216 -8 162 22T79 108T50 241Q50 317 79 373T159 462T278 494Q327 494 364 478T428 431T469 357T483 258Q483 244 476 237T455 230H94V275H445L429 262Q429 320 412 360T362 423T279 445Q224 445 186 420T129
350T110 247V242Q110 146 157 95T289 43Q326 43 360 53T428 87Q438 94 447 94T463 89T472 77T472 61T458 45Q426 19 381 6T291 -8ZM406 575Q411 565 409 558T399 547T385 544T372 554L279 705L186 554Q181 546 174 545T159 546T150 557T152 575L240 736Q247 750
257 756T279 762Q291 762 301 756T318 736L406 575Z" />
<glyph unicode="&#xeb;" horiz-adv-x="527" d="M291 -8Q216 -8 162 22T79 108T50 241Q50 317 79 373T159 462T278 494Q327 494 364 478T428 431T469 357T483 258Q483 244 476 237T455 230H94V275H445L429 262Q429 320 412 360T362 423T279 445Q224 445 186 420T129
350T110 247V242Q110 146 157 95T289 43Q326 43 360 53T428 87Q438 94 447 94T463 89T472 77T472 61T458 45Q426 19 381 6T291 -8ZM363 612Q344 612 334 622T323 651Q323 670 333 680T363 691Q382 691 392 681T403 651Q403 632 393 622T363 612ZM196 612Q177 612
166 622T155 651Q155 670 166 680T196 691Q215 691 225 681T235 651Q235 632 225 622T196 612Z" />
<glyph unicode="&#xec;" horiz-adv-x="222" d="M111 -4Q96 -4 88 5T80 29V457Q80 473 88 481T111 489Q125 489 133 481T141 457V29Q141 14 134 5T111 -4ZM85 554L-17 718Q-24 728 -23 737T-15 752T1 761T19 760T34 744L122 575Q127 565 124 558T114 547T98 544T85 554Z" />
<glyph unicode="&#xed;" horiz-adv-x="222" d="M111 -4Q96 -4 88 5T80 29V457Q80 473 88 481T111 489Q125 489 133 481T141 457V29Q141 14 134 5T111 -4ZM137 554Q132 546 124 545T109 546T98 557T100 575L188 744Q194 756 203 759T221 761T236 753T244 737T240
718L137 554Z" />
<glyph unicode="&#xee;" horiz-adv-x="222" d="M111 -4Q96 -4 88 5T80 29V457Q80 473 88 481T111 489Q125 489 133 481T141 457V29Q141 14 134 5T111 -4ZM238 575Q243 565 241 558T231 547T217 544T204 554L111 705L18 554Q13 546 6 545T-9 546T-18 557T-16 575L72
736Q79 750 89 756T111 762Q123 762 133 756T150 736L238 575Z" />
<glyph unicode="&#xef;" horiz-adv-x="222" d="M111 -4Q96 -4 88 5T80 29V457Q80 473 88 481T111 489Q125 489 133 481T141 457V29Q141 14 134 5T111 -4ZM195 612Q176 612 166 622T155 651Q155 670 165 680T195 691Q214 691 224 681T235 651Q235 632 225 622T195
612ZM28 612Q9 612 -2 622T-13 651Q-13 670 -2 680T28 691Q47 691 57 681T67 651Q67 632 57 622T28 612Z" />
<glyph unicode="&#xf0;" horiz-adv-x="550" d="M272 -8Q205 -8 155 20T78 101T50 223Q50 292 78 344T156 424T272 453Q322 453 360 436T424 383T462 293H441Q442 398 402 478T284 607L308 608L153 542Q141 537 132 540T119 551T118 569T135 584L254 635L255 624Q234
636 212 645T165 662Q151 666 146 675T143 692T155 705T179 706Q216 695 247 681T309 649L290 650L414 703Q426 709 435 706T449 694T450 677T433 662L333 619L337 630Q391 592 427 540T482 424T501 283Q501 211 486 157T442 66T371 11T272 -8ZM272 44Q323 44 359
65T415 127T435 223Q435 306 392 353T273 401Q224 401 188 380T132 318T112 223Q112 138 154 91T272 44Z" />
<glyph unicode="&#xf1;" horiz-adv-x="560" d="M111 -6Q96 -6 88 2T80 25V460Q80 476 88 484T111 492Q125 492 132 484T140 460V366L129 372Q149 432 197 463T309 494Q367 494 405 474T463 411T482 306V25Q482 10 474 2T452 -6Q437 -6 429 2T421 25V301Q421 374
392 407T300 441Q228 441 185 397T141 277V25Q141 -6 111 -6ZM127 589Q118 590 113 596T110 614Q114 638 122 658T142 692T171 714T209 722Q233 722 251 710T286 682T319 654T353 641Q376 641 391 659T414 711Q416 720 421 724T435 728Q444 727 449 722T452 703Q447
671 434 647T401 609T353 595Q329 595 311 607T276 635T243 663T209 676Q186 676 171 658T148 606Q147 598 142 594T127 589Z" />
<glyph unicode="&#xf2;" horiz-adv-x="547" d="M273 -8Q205 -8 155 23T78 110T50 243Q50 300 65 346T110 425T181 476T273 494Q342 494 392 463T469 376T497 243Q497 185 482 139T437 60T366 10T273 -8ZM273 43Q323 43 359 66T415 135T435 243Q435 338 392 390T273
442Q224 442 188 419T132 351T112 243Q112 147 156 95T273 43ZM247 554L145 718Q138 728 139 737T147 752T163 761T181 760T196 744L284 575Q289 565 286 558T276 547T260 544T247 554Z" />
<glyph unicode="&#xf3;" horiz-adv-x="547" d="M273 -8Q205 -8 155 23T78 110T50 243Q50 300 65 346T110 425T181 476T273 494Q342 494 392 463T469 376T497 243Q497 185 482 139T437 60T366 10T273 -8ZM273 43Q323 43 359 66T415 135T435 243Q435 338 392 390T273
442Q224 442 188 419T132 351T112 243Q112 147 156 95T273 43ZM299 554Q294 546 286 545T271 546T260 557T262 575L350 744Q356 756 365 759T383 761T398 753T406 737T402 718L299 554Z" />
<glyph unicode="&#xf4;" horiz-adv-x="547" d="M273 -8Q205 -8 155 23T78 110T50 243Q50 300 65 346T110 425T181 476T273 494Q342 494 392 463T469 376T497 243Q497 185 482 139T437 60T366 10T273 -8ZM273 43Q323 43 359 66T415 135T435 243Q435 338 392 390T273
442Q224 442 188 419T132 351T112 243Q112 147 156 95T273 43ZM400 575Q405 565 403 558T393 547T379 544T366 554L273 705L180 554Q175 546 168 545T153 546T144 557T146 575L234 736Q241 750 251 756T273 762Q285 762 295 756T312 736L400 575Z" />
<glyph unicode="&#xf5;" horiz-adv-x="547" d="M273 -8Q205 -8 155 23T78 110T50 243Q50 300 65 346T110 425T181 476T273 494Q342 494 392 463T469 376T497 243Q497 185 482 139T437 60T366 10T273 -8ZM273 43Q323 43 359 66T415 135T435 243Q435 338 392 390T273
442Q224 442 188 419T132 351T112 243Q112 147 156 95T273 43ZM119 589Q110 590 105 596T102 614Q106 638 114 658T134 692T163 714T201 722Q225 722 243 710T278 682T311 654T345 641Q368 641 383 659T406 711Q408 720 413 724T427 728Q436 727 441 722T444 703Q439
671 426 647T393 609T345 595Q321 595 303 607T268 635T235 663T201 676Q178 676 163 658T140 606Q139 598 134 594T119 589Z" />
<glyph unicode="&#xf6;" horiz-adv-x="547" d="M273 -8Q205 -8 155 23T78 110T50 243Q50 300 65 346T110 425T181 476T273 494Q342 494 392 463T469 376T497 243Q497 185 482 139T437 60T366 10T273 -8ZM273 43Q323 43 359 66T415 135T435 243Q435 338 392 390T273
442Q224 442 188 419T132 351T112 243Q112 147 156 95T273 43ZM357 612Q338 612 328 622T317 651Q317 670 327 680T357 691Q376 691 386 681T397 651Q397 632 387 622T357 612ZM190 612Q171 612 160 622T149 651Q149 670 160 680T190 691Q209 691 219 681T229 651Q229
632 219 622T190 612Z" />
<glyph unicode="&#xf7;" horiz-adv-x="600" d="M76 262Q64 262 57 268T50 287Q50 299 57 305T76 312H524Q537 312 543 306T550 287Q550 274 544 268T524 262H76ZM294 47Q276 47 265 58T254 87Q254 106 265 116T294 126Q313 126 323 116T334 87Q334 69 324 58T294
47ZM294 447Q276 447 265 457T254 486Q254 505 265 515T294 526Q313 526 323 516T334 486Q334 468 324 458T294 447Z" />
<glyph unicode="&#xf8;" horiz-adv-x="547" d="M273 -8Q205 -8 155 23T78 110T50 243Q50 300 65 346T110 425T181 476T273 494Q342 494 392 463T469 376T497 243Q497 185 482 139T437 60T366 10T273 -8ZM273 43Q323 43 359 66T415 135T435 243Q435 338 392 390T273
442Q224 442 188 419T132 351T112 243Q112 147 156 95T273 43ZM143 -28Q137 -38 128 -39T112 -37T102 -23T106 -3L404 513Q410 523 419 524T435 522T445 508T442 488L143 -28Z" />
<glyph unicode="&#xf9;" horiz-adv-x="553" d="M251 -8Q193 -8 155 13T97 76T78 180V460Q78 476 86 484T109 492Q123 492 131 484T139 460V183Q139 113 168 79T259 44Q327 44 369 89T411 209V460Q411 476 419 484T442 492Q456 492 464 484T472 460V25Q472 -6 443
-6Q429 -6 421 2T413 25V124L425 117Q406 56 359 24T251 -8ZM251 555L149 719Q142 729 143 738T151 753T167 762T185 761T200 745L288 576Q293 566 290 559T280 548T264 545T251 555Z" />
<glyph unicode="&#xfa;" horiz-adv-x="553" d="M251 -8Q193 -8 155 13T97 76T78 180V460Q78 476 86 484T109 492Q123 492 131 484T139 460V183Q139 113 168 79T259 44Q327 44 369 89T411 209V460Q411 476 419 484T442 492Q456 492 464 484T472 460V25Q472 -6 443
-6Q429 -6 421 2T413 25V124L425 117Q406 56 359 24T251 -8ZM303 555Q298 547 290 546T275 547T264 558T266 576L354 745Q360 757 369 760T387 762T402 754T410 738T406 719L303 555Z" />
<glyph unicode="&#xfb;" horiz-adv-x="553" d="M251 -8Q193 -8 155 13T97 76T78 180V460Q78 476 86 484T109 492Q123 492 131 484T139 460V183Q139 113 168 79T259 44Q327 44 369 89T411 209V460Q411 476 419 484T442 492Q456 492 464 484T472 460V25Q472 -6 443
-6Q429 -6 421 2T413 25V124L425 117Q406 56 359 24T251 -8ZM404 576Q409 566 407 559T397 548T383 545T370 555L277 706L184 555Q179 547 172 546T157 547T148 558T150 576L238 737Q245 751 255 757T277 763Q289 763 299 757T316 737L404 576Z" />
<glyph unicode="&#xfc;" horiz-adv-x="553" d="M251 -8Q193 -8 155 13T97 76T78 180V460Q78 476 86 484T109 492Q123 492 131 484T139 460V183Q139 113 168 79T259 44Q327 44 369 89T411 209V460Q411 476 419 484T442 492Q456 492 464 484T472 460V25Q472 -6 443
-6Q429 -6 421 2T413 25V124L425 117Q406 56 359 24T251 -8ZM361 613Q342 613 332 623T321 652Q321 671 331 681T361 692Q380 692 390 682T401 652Q401 633 391 623T361 613ZM194 613Q175 613 164 623T153 652Q153 671 164 681T194 692Q213 692 223 682T233 652Q233
633 223 623T194 613Z" />
<glyph unicode="&#xfd;" horiz-adv-x="509" d="M182 -186Q170 -186 163 -180T156 -163T159 -141L228 16V-12L32 446Q27 458 28 468T37 485T59 492Q72 492 78 486T90 467L268 36H243L421 467Q427 481 434 486T454 492Q467 492 473 486T481 469T477 447L216 -162Q210
-176 203 -181T182 -186ZM281 554Q276 546 268 545T253 546T242 557T244 575L332 744Q338 756 347 759T365 761T380 753T388 737T384 718L281 554Z" />
<glyph unicode="&#xfe;" horiz-adv-x="575" d="M111 -186Q96 -186 88 -178T80 -155V680Q80 696 88 703T111 711Q125 711 133 704T141 680V364H130Q147 424 195 459T311 494Q376 494 424 463T499 376T526 243Q526 166 500 110T425 23T311 -8Q243 -8 195 27T130
120H141V-155Q141 -170 133 -178T111 -186ZM302 43Q351 43 387 66T444 135T464 243Q464 338 420 390T302 442Q253 442 217 419T160 351T140 243Q140 147 184 95T302 43Z" />
<glyph unicode="&#xff;" horiz-adv-x="509" d="M182 -186Q170 -186 163 -180T156 -163T159 -141L228 16V-12L32 446Q27 458 28 468T37 485T59 492Q72 492 78 486T90 467L268 36H243L421 467Q427 481 434 486T454 492Q467 492 473 486T481 469T477 447L216 -162Q210
-176 203 -181T182 -186ZM339 612Q320 612 310 622T299 651Q299 670 309 680T339 691Q358 691 368 681T379 651Q379 632 369 622T339 612ZM172 612Q153 612 142 622T131 651Q131 670 142 680T172 691Q191 691 201 681T211 651Q211 632 201 622T172 612Z" />
<glyph unicode="&#x2013;" horiz-adv-x="500" d="M18 245Q8 245 1 251T-6 266Q-6 276 1 281T18 287H482Q492 287 499 282T506 266Q506 257 499 251T482 245H18Z" />
<glyph unicode="&#x2014;" horiz-adv-x="1000" d="M18 245Q8 245 1 251T-6 266Q-6 276 1 281T18 287H982Q992 287 999 282T1006 266Q1006 257 999 251T982 245H18Z" />
<glyph unicode="&#x2018;" horiz-adv-x="219" d="M103 694Q112 705 121 707T136 704T143 690T135 669Q121 650 116 630T110 593L106 608Q128 608 141 596T155 562Q155 542 143 529T110 516Q89 516 77 530T64 573Q64 592 67 613T80 656T103 694Z" />
<glyph unicode="&#x2019;" horiz-adv-x="219" d="M116 529Q107 519 98 518T83 520T76 534T84 555Q97 574 103 594T109 630L113 616Q91 616 78 629T64 662Q64 683 76 695T109 708Q130 708 142 694T155 651Q155 632 152 611T139 569T116 529Z" />
<glyph unicode="&#x201a;" horiz-adv-x="219" d="M116 -90Q107 -101 98 -102T83 -99T76 -85T84 -64Q97 -46 103 -26T109 11L113 -3Q91 -3 78 10T64 43Q64 63 76 76T109 89Q130 89 142 75T155 31Q155 13 152 -8T139 -51T116 -90Z" />
<glyph unicode="&#x201c;" horiz-adv-x="372" d="M103 694Q112 705 121 707T136 704T143 690T135 669Q121 650 116 630T110 593L106 608Q128 608 141 596T155 562Q155 542 143 529T110 516Q89 516 77 530T64 573Q64 592 67 613T80 656T103 694ZM256 694Q265 705
274 707T289 704T296 690T288 669Q274 650 269 630T263 593L259 608Q281 608 294 596T308 562Q308 542 296 529T263 516Q242 516 230 530T217 573Q217 592 220 613T233 656T256 694Z" />
<glyph unicode="&#x201d;" horiz-adv-x="372" d="M116 529Q107 519 98 518T83 520T76 534T84 555Q97 574 103 594T109 630L113 616Q91 616 78 629T64 662Q64 683 76 695T109 708Q130 708 142 694T155 651Q155 632 152 611T139 569T116 529ZM269 529Q260 519 251
518T236 520T229 534T237 555Q250 574 256 594T262 630L266 616Q244 616 231 629T217 662Q217 683 229 695T262 708Q283 708 295 694T308 651Q308 632 305 611T292 569T269 529Z" />
<glyph unicode="&#x201e;" horiz-adv-x="372" d="M116 -90Q107 -101 98 -102T83 -99T76 -85T84 -64Q97 -46 103 -26T109 11L113 -3Q91 -3 78 10T64 43Q64 63 76 76T109 89Q130 89 142 75T155 31Q155 13 152 -8T139 -51T116 -90ZM269 -90Q260 -101 251 -102T236
-99T229 -85T237 -64Q250 -46 256 -26T262 11L266 -3Q244 -3 231 10T217 43Q217 63 229 76T262 89Q283 89 295 75T308 31Q308 13 305 -8T292 -51T269 -90Z" />
<glyph unicode="&#x2022;" horiz-adv-x="524" d="M262 88Q213 88 172 111T106 175T81 265Q81 311 104 351T169 417T262 443Q310 443 351 420T418 357T443 265Q443 216 419 176T353 112T262 88Z" />
<glyph unicode="&#x2039;" horiz-adv-x="248" d="M179 91Q170 88 161 90T148 102L63 244Q57 255 57 265T63 286L146 428Q152 437 160 440T178 439Q189 435 192 425T189 402L120 265L189 129Q195 117 193 107T179 91Z" />
<glyph unicode="&#x203a;" horiz-adv-x="248" d="M69 91Q58 96 56 106T59 129L128 265L59 402Q53 414 56 424T70 439Q79 443 87 440T102 428L184 286Q191 275 191 265T184 244L100 102Q96 93 87 91T69 91Z" />
</font>
</defs>
</svg>
