<?xml version="1.0" standalone="no"?>
<!DOCTYPE svg PUBLIC "-//W3C//DTD SVG 1.1//EN" "http://www.w3.org/Graphics/SVG/1.1/DTD/svg11.dtd">
<svg xmlns="http://www.w3.org/2000/svg">
<defs >
<font id="Raleway" horiz-adv-x="566" ><font-face
    font-family="Raleway Thin ExtraLight"
    units-per-em="1000"
    panose-1="0 0 0 0 0 0 0 0 0 0"
    ascent="940"
    descent="-234"
    alphabetic="0" />
<glyph unicode=" " horiz-adv-x="259" />
<glyph unicode="!" horiz-adv-x="235" d="M100 208V717H135V208H100ZM100 0V92H135V0H100Z" />
<glyph unicode="&quot;" horiz-adv-x="238" d="M72 556V712H103V556H72ZM135 556V712H166V556H135Z" />
<glyph unicode="#" horiz-adv-x="659" d="M621 474H500L445 247H580V217H437L385 0H353L407 217H182L129 0H98L151 217H38V247H158L213 474H79V503H220L271 710H302L251 503H476L526 710H558L507 503H621V474ZM414 247L469 474H244L189 247H414Z" />
<glyph unicode="$" horiz-adv-x="615" d="M297 9L324 8V-96H297V9ZM298 14V696L323 699V13L298 14ZM297 815H324V697L297 694V815ZM514 605Q495 626 474 641T429 665T378 678T319 683Q206 683 155 640T103 525Q103 476 125 448T196 404T320 371Q398 355 455 334T543
277T574 178Q574 133 557 99T506 41T427 7T322 -5Q266 -5 217 6T125 42T44 103L65 129Q89 103 117 84T178 51T247 32T324 25Q423 25 480 62T538 173Q538 224 514 254T438 304T308 340Q231 356 178 375T96 428T68 520Q68 583 99 626T186 692T318 715Q363 715 401
706T472 679T533 631L514 605Z" />
<glyph unicode="%" horiz-adv-x="683" d="M187 441Q148 441 116 459T65 510T46 580Q46 619 65 651T116 701T187 720Q226 720 258 702T309 651T328 580Q328 542 309 510T258 460T187 441ZM187 466Q218 466 244 482T284 524T299 580Q299 612 284 638T243 679T187
694Q156 694 131 678T90 636T75 580Q75 549 90 523T131 482T187 466ZM497 -10Q458 -10 426 8T374 59T355 130Q355 168 374 200T425 250T497 269Q536 269 568 251T619 200T638 130Q638 91 619 59T568 9T497 -10ZM497 16Q528 16 553 32T594 74T609 130Q609 161 594
187T552 228T497 244Q465 244 440 228T400 186T385 130Q385 98 400 73T440 32T497 16ZM53 16L332 363L609 712L630 695L350 346L74 -2L53 16Z" />
<glyph unicode="&amp;" horiz-adv-x="644" d="M590 0L225 382Q182 428 156 461T119 520T107 571Q107 611 129 644T190 698T277 719Q322 719 357 702T411 655T431 587Q431 545 405 510T338 443T249 380Q206 351 168 320T108 254T85 172Q85 120 114 87T187 36T275
19Q335 19 383 45T466 117T520 220T539 340H570Q570 273 549 211T488 98T394 19T271 -10Q215 -10 165 11T83 74T51 174Q51 226 76 265T142 337T230 402Q281 436 319 465T378 523T399 585Q399 630 364 659T277 689Q238 689 207 673T158 630T140 571Q140 553 148
533T179 481T248 403L636 0H590Z" />
<glyph unicode="&apos;" horiz-adv-x="175" d="M72 555V712H103V555H72Z" />
<glyph unicode="(" horiz-adv-x="244" d="M48 345Q48 447 87 542T183 730L210 714Q187 680 164 635T122 540T92 439T80 342Q80 266 114 172T210 -13L183 -29Q141 34 111 97T64 222T48 345Z" />
<glyph unicode=")" horiz-adv-x="243" d="M196 345Q196 284 180 222T134 97T61 -29L35 -13Q96 77 130 171T164 342Q164 388 153 439T122 540T80 635T34 714L61 730Q117 637 156 542T196 345Z" />
<glyph unicode="*" horiz-adv-x="308" d="M92 559L134 617L66 639L74 663L141 640V711H167L166 640L234 663L241 639L174 617L217 559L195 544L154 603L112 544L92 559Z" />
<glyph unicode="+" horiz-adv-x="413" d="M358 370V340H223V194H190V340H55V370H190V516H223V370H358Z" />
<glyph unicode="," horiz-adv-x="250" d="M107 -81L119 -6H106V74H144V-6L127 -81H107Z" />
<glyph unicode="-" horiz-adv-x="421" d="M68 255V288H353V255H68Z" />
<glyph unicode="." horiz-adv-x="167" d="M68 0V74H99V0H68Z" />
<glyph unicode="/" horiz-adv-x="556" d="M528 710L67 0H27L487 710H528Z" />
<glyph unicode="0" horiz-adv-x="609" d="M551 293Q551 205 520 137T432 29T305 -10Q233 -10 178 29T90 136T58 293Q58 381 90 449T177 557T305 597Q376 597 432 558T519 450T551 293ZM517 293Q517 373 490 434T416 529T305 564Q242 564 194 530T119 434T92 293Q92
213 119 152T194 57T305 23Q368 23 415 57T490 152T517 293Z" />
<glyph unicode="1" horiz-adv-x="390" d="M371 32V0H68V32H210V524Q202 512 183 498T140 470T90 449T45 440V476Q71 476 99 489T152 521T192 554T210 571H244V32H371Z" />
<glyph unicode="2" horiz-adv-x="496" d="M46 0Q46 23 51 56T72 128T123 201T216 263Q244 276 276 289T336 321T383 366T401 428Q401 458 385 485T334 531T248 549Q212 549 184 538T134 513T99 484T80 464L56 486Q57 488 71 502T110 535T171 567T251 581Q311 581
352 559T415 503T437 430Q437 387 417 356T367 305T304 269T244 243Q193 221 162 192T113 131T88 75T80 32H448V0H46Z" />
<glyph unicode="3" horiz-adv-x="525" d="M318 236Q365 230 399 204T453 139T472 50Q472 -9 445 -53T368 -122T255 -147Q180 -147 124 -114T44 -23L71 -5Q89 -55 138 -85T256 -115Q339 -115 388 -70T438 52Q438 130 388 175T249 221H226V252H250Q335 252 380 289T425
390Q425 438 403 472T343 525T255 544Q194 544 148 515T80 436L55 453Q70 490 99 518T169 561T257 576Q316 576 361 553T433 489T460 396Q460 354 443 320T394 264T318 236Z" />
<glyph unicode="4" horiz-adv-x="526" d="M376 -127V66H20V95L386 571H410V98H498V66H410V-127H376ZM61 98H378V514L61 98Z" />
<glyph unicode="5" horiz-adv-x="539" d="M263 -149Q188 -149 128 -110T38 -6L67 4Q94 -50 146 -83T263 -117Q320 -117 366 -92T439 -21T467 83Q467 140 441 183T369 251T268 276Q215 276 167 252T87 183H51L130 571H468V538H157L96 234Q129 270 175 289T271 308Q334
308 386 279T470 200T501 83Q501 14 469 -38T382 -120T263 -149Z" />
<glyph unicode="6" horiz-adv-x="597" d="M554 233Q554 300 522 354T434 442T311 475Q261 475 216 456T138 401T90 319Q90 435 117 516T194 640T310 683Q373 683 422 648T491 556L518 572Q493 638 438 676T310 715Q235 715 177 668T87 523T55 272Q55 185 88 122T178
24T306 -10Q376 -10 432 22T521 110T554 233ZM308 22Q250 22 202 51T124 128T94 233Q94 291 123 338T201 415T307 444Q365 444 413 415T491 338T521 232Q521 175 492 127T415 51T308 22Z" />
<glyph unicode="7" horiz-adv-x="535" d="M459 550H45V583H514L152 -127H113L459 550Z" />
<glyph unicode="8" horiz-adv-x="585" d="M532 191Q532 131 499 87T410 18T289 -7Q218 -7 165 21T82 94T52 193Q52 242 75 280T135 344T210 381Q174 394 144 416T96 468T78 537Q78 579 96 611T146 666T215 699T293 710Q332 710 370 699T439 666T488 612T507 538Q507
499 489 469T440 416T374 381Q418 368 454 341T511 276T532 191ZM498 194Q498 235 480 267T431 320T364 353T291 365Q241 365 195 344T118 284T87 193Q87 152 105 121T154 67T221 34T294 23Q343 23 390 44T467 103T498 194ZM112 535Q112 491 139 459T209 411T292
395Q333 395 375 411T445 460T473 537Q473 582 447 613T379 661T291 678Q246 678 205 661T138 612T112 535Z" />
<glyph unicode="9" horiz-adv-x="581" d="M37 328Q37 261 69 207T157 119T279 86Q330 86 375 105T453 160T501 242Q501 126 474 45T397 -79T280 -122Q219 -122 169 -87T100 5L73 -11Q97 -77 153 -115T281 -154Q356 -154 413 -107T503 39T536 289Q536 377 503 440T414
537T284 571Q216 571 160 539T70 451T37 328ZM283 539Q341 539 389 511T467 434T497 328Q497 271 468 223T391 146T283 117Q226 117 178 146T100 223T70 329Q70 387 99 434T176 510T283 539Z" />
<glyph unicode=":" horiz-adv-x="167" d="M68 443V517H99V443H68ZM68 0V74H99V0H68Z" />
<glyph unicode=";" horiz-adv-x="179" d="M72 443V517H103V443H72ZM72 -81L84 -6H71V74H108V-6L92 -81H72Z" />
<glyph unicode="&lt;" horiz-adv-x="504" d="M34 270L451 520V483L83 259L451 34V-3L34 247V270Z" />
<glyph unicode="=" horiz-adv-x="436" d="M70 220V249H366V220H70ZM70 303V332H366V303H70Z" />
<glyph unicode="&gt;" horiz-adv-x="504" d="M470 247L52 -3V34L420 259L52 483V520L470 270V247Z" />
<glyph unicode="?" horiz-adv-x="470" d="M171 186Q171 244 182 278T212 333T257 368Q279 380 304 392T351 421T387 466T401 534Q401 587 378 621T319 671T243 688Q205 688 169 674T106 635T61 576L35 590Q54 632 86 660T160 704T243 719Q279 719 313 707T374
672T416 613T432 531Q432 487 419 458T383 410T335 377T281 348Q259 336 241 320T213 273T202 186H171ZM171 0V91H203V0H171Z" />
<glyph unicode="@" horiz-adv-x="832" d="M414 603Q488 603 553 574T667 493T745 372T773 222Q773 205 771 176T760 113T737 51T695 3T631 -16Q599 -16 583 -3T562 33T553 82Q528 53 483 32T386 10Q318 10 278 46T238 140Q238 189 266 216T335 255T421 267Q465
267 501 259T554 244Q554 297 543 337T503 401T424 424Q387 424 350 412T281 376L268 399Q303 422 342 436T427 451Q478 451 508 434T554 387T575 321T581 249V103Q581 74 584 53T599 20T633 9Q667 9 689 30T724 85T742 156T748 223Q748 298 723 362T651 475T544
551T414 579Q346 579 285 553T177 481T102 370T74 230Q74 157 100 93T172 -19T280 -94T412 -122Q452 -122 490 -112T564 -84L575 -106Q536 -126 495 -136T411 -146Q337 -146 272 -118T156 -38T78 81T49 230Q49 313 79 381T160 499T278 576T414 603ZM482 59Q514
75 529 93T548 133T553 173V218Q541 219 506 230T416 242Q379 242 345 233T288 202T266 140Q266 107 283 84T327 49T386 37Q412 37 437 43T482 59Z" />
<glyph unicode="A" horiz-adv-x="675" d="M322 710H352L657 0H620L515 245H159L54 0H16L322 710ZM504 275L337 666L169 275H504Z" />
<glyph unicode="B" horiz-adv-x="658" d="M610 184Q610 134 586 92T519 25T427 0H96V710H418Q468 710 504 684T560 616T580 529Q580 475 553 430T478 364Q539 346 574 296T610 184ZM576 187Q576 228 558 263T507 320T434 343H131V32H427Q468 32 502 54T556 112T576
187ZM131 678V374H406Q447 374 478 396T528 453T546 526Q546 567 529 601T482 657T412 678H131Z" />
<glyph unicode="C" horiz-adv-x="694" d="M46 360Q46 424 68 486T134 600T239 683T382 714Q477 714 543 671T642 559L612 545Q586 595 548 625T466 668T378 681Q307 681 252 653T158 578T101 474T81 357Q81 291 104 232T167 127T262 54T381 27Q426 27 473 42T561
89T627 171L658 159Q634 106 588 69T487 13T377 -6Q305 -6 244 25T139 109T70 227T46 360Z" />
<glyph unicode="D" horiz-adv-x="712" d="M96 0V710H328Q440 710 514 663T625 535T663 356Q663 248 622 168T506 44T328 0H96ZM628 356Q628 449 593 522T492 636T328 678H131V32H328Q426 32 493 74T594 191T628 356Z" />
<glyph unicode="E" horiz-adv-x="615" d="M565 32V0H96V710H556V678H131V379H503V347H131V32H565Z" />
<glyph unicode="F" horiz-adv-x="598" d="M96 0V710H556V678H131V378H492V347H131V0H96Z" />
<glyph unicode="G" horiz-adv-x="719" d="M380 -5Q307 -5 246 26T140 109T71 225T46 355Q46 425 70 489T137 605T240 685T371 715Q479 715 543 672T642 560L612 545Q574 618 512 650T370 682Q304 682 251 655T159 580T101 475T81 355Q81 290 104 231T168 126T264
54T382 28Q453 28 517 62T640 172V130Q530 -5 380 -5ZM628 311H464V341H660V0H628V311Z" />
<glyph unicode="H" horiz-adv-x="733" d="M637 710V0H603V347H131V0H96V710H131V379H603V710H637Z" />
<glyph unicode="I" horiz-adv-x="227" d="M96 0V710H131V0H96Z" />
<glyph unicode="J" horiz-adv-x="475" d="M31 61Q58 43 93 33T172 22Q232 22 268 43T323 106T348 208T354 345V710H388V349Q388 268 381 202T353 88T288 15T172 -11Q126 -11 88 0T18 33L31 61Z" />
<glyph unicode="K" horiz-adv-x="627" d="M96 0V710H131V263L565 710H608L309 399L622 0H581L285 377L131 220V0H96Z" />
<glyph unicode="L" horiz-adv-x="580" d="M96 0V710H131V32H566V0H96Z" />
<glyph unicode="M" horiz-adv-x="882" d="M751 0V640L453 137H429L131 640V0H96V710H128L441 182L754 710H786V0H751Z" />
<glyph unicode="N" horiz-adv-x="775" d="M131 645V0H96V710H124L644 55V710H679V0H643L131 645Z" />
<glyph unicode="O" horiz-adv-x="755" d="M378 -5Q304 -5 243 25T138 107T70 222T46 355Q46 426 71 490T141 605T247 685T378 715Q452 715 513 684T617 601T685 485T709 355Q709 283 684 219T614 104T509 24T378 -5ZM81 355Q81 291 103 233T164 128T258 55T378
28Q444 28 499 56T593 131T653 236T674 355Q674 419 652 477T590 582T496 655T378 682Q311 682 257 654T163 579T103 474T81 355Z" />
<glyph unicode="P" horiz-adv-x="620" d="M96 0V710H387Q431 710 468 692T532 642T574 572T590 493Q590 437 565 387T496 306T393 274H131V0H96ZM131 306H392Q443 306 479 333T535 403T555 493Q555 542 532 584T471 652T386 678H131V306Z" />
<glyph unicode="Q" horiz-adv-x="755" d="M378 -5Q304 -5 243 25T138 107T70 222T46 355Q46 426 71 490T141 605T247 685T378 715Q452 715 513 684T617 601T685 485T709 355Q709 283 684 219T614 104T509 24T378 -5ZM378 28Q444 28 499 56T593 131T653 236T674
355Q674 419 652 477T590 582T496 655T378 682Q311 682 257 654T163 579T103 474T81 355Q81 291 103 233T164 128T258 55T378 28ZM481 195H519L678 0H640L481 195Z" />
<glyph unicode="R" horiz-adv-x="645" d="M96 0V710H388Q433 710 470 692T534 642T576 572T591 493Q591 439 569 392T508 314T417 278L595 0H555L379 274H131V0H96ZM131 306H394Q444 306 480 333T537 403T557 493Q557 541 534 583T473 652T387 678H131V306Z" />
<glyph unicode="S" horiz-adv-x="603" d="M508 605Q488 626 467 641T422 665T371 678T312 683Q199 683 148 640T97 525Q97 476 119 448T189 404T313 371Q391 355 448 334T536 277T567 178Q567 133 550 99T499 41T420 7T316 -5Q259 -5 210 6T118 42T37 103L58 129Q82
103 110 84T171 51T240 32T317 25Q417 25 474 62T532 173Q532 224 507 254T431 304T301 340Q224 356 171 375T90 428T62 520Q62 583 93 626T180 692T311 715Q357 715 395 706T465 679T527 631L508 605Z" />
<glyph unicode="T" horiz-adv-x="603" d="M585 678H319V0H284V678H18V710H585V678Z" />
<glyph unicode="U" horiz-adv-x="756" d="M379 -5Q295 -5 238 25T148 107T100 223T85 354V710H120V354Q120 293 132 234T174 129T253 55T378 28Q454 28 504 56T584 131T625 236T637 354V710H671V354Q671 284 656 219T607 104T517 25T379 -5Z" />
<glyph unicode="V" horiz-adv-x="678" d="M53 710L339 43L624 710H661L356 0H322L17 710H53Z" />
<glyph unicode="W" horiz-adv-x="1040" d="M374 704H409L519 442L631 704H666L540 410L700 41L986 710H1024L717 0H683L520 378L357 0H323L17 710H54L341 41L500 410L374 704Z" />
<glyph unicode="X" horiz-adv-x="624" d="M51 710L313 376L574 710H615L332 350L607 0H566L313 324L59 0H17L292 350L9 710H51Z" />
<glyph unicode="Y" horiz-adv-x="644" d="M60 710L321 307L584 710H623L339 272V0H304V274L21 710H60Z" />
<glyph unicode="Z" horiz-adv-x="625" d="M29 30L554 678H35V710H595V680L72 32H592V0H29V30Z" />
<glyph unicode="[" horiz-adv-x="237" d="M94 -40V740H179V709H127V-9H179V-40H94Z" />
<glyph unicode="\" horiz-adv-x="530" d="M68 710L503 0H463L27 710H68Z" />
<glyph unicode="]" horiz-adv-x="237" d="M58 -40V-9H110V709H58V740H142V-40H58Z" />
<glyph unicode="^" horiz-adv-x="515" d="M45 303L243 710H273L470 303H436L258 671L77 303H45Z" />
<glyph unicode="_" horiz-adv-x="525" d="M68 -32V0H457V-32H68Z" />
<glyph unicode="`" horiz-adv-x="205" d="M50 730H94L157 651L133 638L50 730Z" />
<glyph unicode="a" horiz-adv-x="530" d="M37 149Q37 195 65 228T141 281T253 301Q295 301 340 294T421 273V328Q421 404 377 450T257 497Q219 497 177 481T90 434L73 459Q124 494 170 511T259 528Q349 528 402 474T455 326V52Q455 41 459 36T473 30V0Q466 0 462
0T454 1Q440 4 432 16T423 42V87Q387 41 330 16T208 -10Q160 -10 121 11T60 68T37 149ZM403 104Q412 116 416 127T421 148V243Q382 258 341 265T255 273Q172 273 121 240T70 151Q70 115 88 85T139 37T212 19Q274 19 325 42T403 104Z" />
<glyph unicode="b" horiz-adv-x="607" d="M314 -10Q253 -10 199 23T113 106V0H81V730H115V402Q154 457 205 492T323 528Q380 528 424 505T499 442T547 355T563 258Q563 205 544 157T491 72T412 12T314 -10ZM309 22Q357 22 397 41T466 95T512 172T529 258Q529 320
502 374T428 462T318 496Q271 496 232 476T164 423T115 351V170Q118 140 137 113T185 66T247 34T309 22Z" />
<glyph unicode="c" horiz-adv-x="541" d="M298 -10Q245 -10 199 11T118 70T64 157T44 262Q44 337 77 397T167 492T297 528Q365 528 418 497T497 410L464 398Q440 444 395 470T294 496Q234 496 185 465T107 381T78 262Q78 197 107 142T186 55T295 22Q334 22 371
36T435 74T470 125L504 115Q492 79 461 51T387 6T298 -10Z" />
<glyph unicode="d" horiz-adv-x="609" d="M44 258Q44 331 75 392T161 490T284 528Q354 528 408 491T492 402V730H526V52Q526 42 531 36T544 30V0Q532 -1 526 1Q512 5 503 17T494 43V106Q462 54 407 22T294 -10Q240 -10 194 12T115 73T63 160T44 258ZM492 172V351Q478
392 445 424T371 476T289 496Q241 496 203 476T136 422T94 346T79 258Q79 211 95 169T142 93T212 41T298 22Q327 22 359 33T421 66T470 114T492 172Z" />
<glyph unicode="e" horiz-adv-x="579" d="M297 -10Q245 -10 199 11T118 70T64 157T44 263Q44 336 77 396T166 492T293 528Q365 528 421 492T512 395T546 260Q546 256 546 252T545 244H79Q84 181 114 130T193 49T299 19Q356 19 406 48T477 124L508 116Q493 80 461
51T387 6T297 -10ZM78 273H512Q508 339 479 389T401 469T294 498Q236 498 189 469T112 389T78 273Z" />
<glyph unicode="f" horiz-adv-x="308" d="M102 0V490H28V520H102V539Q102 602 119 647T168 716T244 740Q273 740 300 731T343 706L326 683Q313 695 292 702T248 709Q194 709 165 666T136 539V520H288V490H136V0H102Z" />
<glyph unicode="g" horiz-adv-x="607" d="M292 -9Q239 -9 193 13T114 74T63 160T44 258Q44 311 61 359T111 446T188 506T286 528Q355 528 406 491T494 402V520H526V-16Q526 -85 493 -131T406 -200T289 -223Q198 -223 146 -189T62 -101L88 -87Q119 -142 173 -167T289
-193Q345 -193 391 -173T464 -114T492 -16V106Q460 55 406 23T292 -9ZM298 22Q333 22 366 35T427 70T472 118T492 172V351Q476 394 444 426T372 477T289 496Q240 496 201 475T134 420T93 343T79 258Q79 211 95 169T142 93T212 41T298 22Z" />
<glyph unicode="h" horiz-adv-x="570" d="M495 0H461V290Q461 392 426 444T324 496Q279 496 236 474T161 413T115 325V0H81V730H115V390Q147 453 205 490T330 528Q372 528 402 513T453 467T484 393T495 294V0Z" />
<glyph unicode="i" horiz-adv-x="197" d="M81 0V520H115V0H81ZM81 646V730H115V646H81Z" />
<glyph unicode="j" horiz-adv-x="204" d="M-16 -173Q-46 -173 -72 -165T-120 -138L-99 -116Q-82 -131 -61 -136T-19 -141Q8 -141 32 -127T73 -89T89 -33V520H123V-32Q123 -73 102 -105T50 -155T-16 -173ZM89 646V730H123V646H89Z" />
<glyph unicode="k" horiz-adv-x="514" d="M460 0L248 288L115 167V0H81V730H115V208L452 518H493L272 310L499 0H460Z" />
<glyph unicode="l" horiz-adv-x="248" d="M86 730H121V89Q121 57 137 42T181 26Q194 26 210 29T240 36L248 8Q233 3 211 -1T172 -5Q134 -5 110 18T86 82V730Z" />
<glyph unicode="m" horiz-adv-x="911" d="M836 0H802V290Q802 395 770 445T670 496Q600 496 548 448T475 324V0H441V290Q441 396 410 446T310 496Q242 496 190 449T115 325V0H81V520H114V390Q147 456 199 492T314 528Q379 528 421 488T471 382Q509 455 560 491T677
528Q719 528 748 513T797 469T826 395T836 294V0Z" />
<glyph unicode="n" horiz-adv-x="570" d="M495 0H461V290Q461 396 431 446T334 496Q287 496 242 474T164 413T115 325V0H81V520H114V390Q135 431 170 462T250 510T340 528Q381 528 410 513T458 469T486 396T495 294V0Z" />
<glyph unicode="o" horiz-adv-x="589" d="M294 -10Q242 -10 196 11T116 69T63 155T44 258Q44 313 63 362T117 448T197 507T294 528Q346 528 391 507T471 449T525 362T545 258Q545 204 526 156T473 70T393 11T294 -10ZM78 257Q78 192 107 139T185 54T293 22Q353
22 402 54T480 140T510 259Q510 324 481 378T402 464T294 496Q236 496 187 464T108 377T78 257Z" />
<glyph unicode="p" horiz-adv-x="607" d="M323 -10Q255 -10 202 27T115 116V-213H81V520H113V412Q146 463 200 495T314 528Q368 528 413 505T492 444T544 357T563 259Q563 187 533 126T450 28T323 -10ZM318 22Q366 22 405 42T471 96T514 172T529 259Q529 306 512
348T465 424T395 476T309 496Q280 496 248 484T186 451T137 402T115 346V167Q134 126 164 94T234 42T318 22Z" />
<glyph unicode="q" horiz-adv-x="607" d="M284 -10Q229 -10 185 12T110 73T61 159T44 259Q44 312 63 360T117 446T196 506T294 528Q355 528 409 495T494 412V520H526V-213H492V116Q406 -10 284 -10ZM290 22Q337 22 375 42T443 94T492 165V344Q489 374 470 401T423
450T362 484T297 496Q249 496 209 476T140 421T95 345T79 258Q79 196 106 142T181 55T290 22Z" />
<glyph unicode="r" horiz-adv-x="331" d="M314 488Q243 485 190 443T115 327V0H81V520H114V388Q141 443 186 478T282 519Q292 520 300 520T314 520V488Z" />
<glyph unicode="s" horiz-adv-x="475" d="M238 -10Q178 -10 127 10T36 74L54 98Q96 58 140 39T237 20Q310 20 355 51T400 137Q400 173 380 193T321 225T227 251Q173 265 138 278T84 315T66 379Q66 431 91 463T159 512T253 528Q315 528 360 507T425 454L403 435Q381
466 340 482T249 498Q209 498 175 486T120 450T99 384Q99 351 114 333T159 305T235 282Q296 267 340 252T409 211T433 141Q433 71 380 31T238 -10Z" />
<glyph unicode="t" horiz-adv-x="307" d="M297 24Q295 23 281 16T246 2T196 -5Q170 -5 148 5T113 34T100 81V490H26V520H100V699H134V520H257V490H134V86Q136 57 156 42T202 27Q235 27 258 38T284 52L297 24Z" />
<glyph unicode="u" horiz-adv-x="581" d="M76 224V520H110V228Q110 124 144 73T249 22Q296 22 339 43T416 102T464 190V520H498V52Q498 42 503 36T516 30V0Q509 0 505 0T497 1Q484 4 476 15T467 42L466 128Q432 64 372 27T242 -10Q160 -10 118 49T76 224Z" />
<glyph unicode="v" horiz-adv-x="524" d="M245 0L23 520H60L262 40L465 520H501L279 0H245Z" />
<glyph unicode="w" horiz-adv-x="800" d="M742 520H777L551 0H521L400 282L278 0H248L22 520H57L264 41L380 313L293 519H326L400 345L474 519H506L419 313L536 41L742 520Z" />
<glyph unicode="x" horiz-adv-x="488" d="M59 520L236 294L244 281L252 294L429 520H470L265 258L468 0H428L252 224L244 236L236 224L61 0H20L223 258L19 520H59Z" />
<glyph unicode="y" horiz-adv-x="538" d="M121 -190Q137 -191 150 -190T168 -183Q174 -179 182 -166T207 -114T256 0L19 520H56L274 38L479 520H514L217 -176Q212 -188 204 -197T187 -212T162 -219Q153 -221 143 -222T121 -222V-190Z" />
<glyph unicode="z" horiz-adv-x="489" d="M32 28L415 491H38V520H455V492L74 29H452V0H32V28Z" />
<glyph unicode="{" horiz-adv-x="238" d="M129 709V418Q129 411 126 393T106 360Q122 347 125 328T129 302V0H184V-31H119Q111 -31 104 -24T96 -1V297Q96 313 89 328T64 346V376Q78 376 85 385T94 406T96 423V710Q96 730 105 735T119 740H184V709H129Z" />
<glyph unicode="|" horiz-adv-x="216" d="M92 -130V775H124V-130H92Z" />
<glyph unicode="}" horiz-adv-x="238" d="M54 709V740H119Q123 740 132 735T142 710V423Q142 418 144 407T153 386T174 376V346Q156 344 149 329T142 297V-1Q142 -17 134 -24T119 -31H54V0H109V302Q109 309 112 328T132 360Q116 374 113 392T109 418V709H54Z" />
<glyph unicode="~" horiz-adv-x="476" d="M69 248Q69 251 74 264T90 294T118 323T160 336Q188 336 212 321T261 291T312 275Q336 275 351 287T374 313T382 329L408 328Q408 328 404 316T388 288T358 260T312 248Q280 248 254 263T205 293T160 308Q139 308 125
294T103 264T96 248H69Z" />
<glyph unicode="&#xa0;" horiz-adv-x="259" />
<glyph unicode="&#xa1;" horiz-adv-x="235" d="M134 508V-1H100V508H134ZM134 716V624H100V716H134Z" />
<glyph unicode="&#xa2;" horiz-adv-x="547" d="M276 -120V-9Q225 -5 183 19T110 81T62 164T45 258Q45 326 74 386T155 485T276 528V645H301V528Q378 526 425 494T498 410L465 398Q439 447 396 470T301 496V22Q332 22 368 35T434 71T471 125L505 115Q491 74 457
46T381 4T301 -10V-120H276ZM80 258Q80 201 105 150T176 64T276 24V495Q229 492 193 471T131 415T93 340T80 258Z" />
<glyph unicode="&#xa3;" horiz-adv-x="476" d="M49 368H364V338H49V368ZM55 19Q107 74 136 111T176 180T188 245Q188 294 172 332T134 405T96 473T79 548Q79 594 101 632T162 692T247 715Q298 715 343 687T415 610L391 589Q367 633 328 658T245 684Q209 684 179
666T131 617T113 548Q113 511 129 478T166 411T204 337T220 247Q220 212 210 179T174 111T107 29Q124 32 142 34T178 36Q208 36 232 31T278 22T325 17Q345 17 368 21T421 37L430 8Q403 -3 376 -9T323 -15Q294 -15 270 -10T221 1T166 6Q143 6 117 2T68 -7L55 19Z"
/>
<glyph unicode="&#xa4;" horiz-adv-x="534" d="M149 471Q172 493 202 504T266 516Q301 516 331 504T385 469L455 539L476 519L405 449Q423 425 433 396T444 335Q444 304 433 275T403 221L476 150L456 131L384 202Q360 181 330 169T266 156Q232 156 203 168T150
200L80 131L61 150L131 219Q89 269 89 335Q89 368 100 397T129 451L61 519L81 539L149 471ZM121 334Q121 292 140 258T193 204T266 183Q306 183 339 204T392 260T412 336Q412 379 392 413T339 468T266 488Q227 488 194 468T141 413T121 334Z" />
<glyph unicode="&#xa5;" horiz-adv-x="658" d="M394 348H485V320H377L346 272V247H485V219H346V0H311V219H173V247H311V274L282 320H173V348H265L28 710H67L329 307L592 710H630L394 348Z" />
<glyph unicode="&#xa6;" horiz-adv-x="220" d="M126 283V-130H94V283H126ZM126 775V362H94V775H126Z" />
<glyph unicode="&#xa7;" horiz-adv-x="488" d="M394 185Q422 170 434 144T446 79Q446 38 429 7T383 -46T321 -77T255 -88Q223 -88 195 -81T144 -63T101 -36T65 -3L89 18Q128 -18 168 -36T255 -55Q293 -55 328 -39T387 7T411 78Q411 124 389 147T332 178T261 187Q210
189 167 205T99 255T73 341Q73 367 81 392T103 433Q78 449 62 481T46 553Q46 604 74 640T146 695T234 715Q268 715 294 709T341 693T376 667T404 634L376 621Q363 646 340 659T288 678T235 683Q197 683 162 668T103 623T80 553Q80 486 124 459T236 431Q272 431
306 423T369 397T413 351T429 282Q429 254 420 228T394 185ZM106 339Q106 294 124 269T173 233T237 218T305 210T361 197Q377 210 386 233T396 282Q396 328 371 353T309 389T237 400Q209 400 183 404T135 418Q122 405 114 383T106 339Z" />
<glyph unicode="&#xa8;" horiz-adv-x="263" d="M53 647V729H84V647H53ZM179 647V729H210V647H179Z" />
<glyph unicode="&#xa9;" horiz-adv-x="826" d="M413 -7Q335 -7 269 20T154 96T77 211T50 355Q50 432 77 498T153 612T269 688T413 715Q491 715 557 688T672 613T749 498T776 355Q776 277 749 211T673 96T557 20T413 -7ZM414 18Q485 18 546 42T652 110T724 216T750
352Q750 425 725 487T654 594T548 665T414 690Q341 690 280 665T173 595T102 488T76 354Q76 282 101 221T172 114T279 43T414 18ZM420 126Q380 126 341 141T269 186T217 258T197 355Q197 396 210 436T249 511T316 566T413 587Q472 587 520 562T589 484L556 473Q542
508 516 525T462 549T413 555Q366 555 332 538T275 491T242 426T231 355Q231 307 248 271T293 209T353 171T416 157Q444 157 474 167T529 197T566 244L598 235Q592 216 568 190T506 145T420 126Z" />
<glyph unicode="&#xaa;" horiz-adv-x="428" d="M169 350Q120 350 86 381T51 457Q51 503 93 532T200 561Q262 561 311 543V576Q311 623 283 651T204 679Q178 679 149 669T89 638L74 663Q144 709 207 709Q274 709 312 673T350 572V409Q350 401 354 397T366 391V356Q360
355 355 355T345 356Q332 357 325 366T316 387L315 415Q290 384 252 367T169 350ZM178 381Q216 381 249 394T299 431Q311 445 311 458V516Q287 527 260 530T205 534Q153 534 121 514T88 459Q88 427 114 404T178 381Z" />
<glyph unicode="&#xab;" horiz-adv-x="534" d="M42 270L282 442V409L71 259L282 109V76L42 247V270ZM226 270L467 442V409L256 259L467 109V76L226 247V270Z" />
<glyph unicode="&#xac;" horiz-adv-x="567" d="M496 346V136H465V313H83V346H496Z" />
<glyph unicode="&#xad;" horiz-adv-x="549" d="M68 255V288H481V255H68Z" />
<glyph unicode="&#xae;" horiz-adv-x="826" d="M413 -7Q335 -7 269 20T154 96T77 211T50 355Q50 432 77 498T153 612T269 688T413 715Q491 715 557 688T672 613T749 498T776 355Q776 277 749 211T673 96T557 20T413 -7ZM413 18Q508 18 584 60T705 178T750 355Q750
427 725 488T654 594T548 665T413 690Q341 690 280 665T173 595T102 488T77 355Q77 283 102 222T172 114T279 43T413 18ZM266 582H455Q493 582 523 562T569 509T586 441Q586 406 572 376T532 327T473 303L588 123H554L441 301H296V123H266V582ZM458 328Q507 328
532 362T557 441Q557 488 528 520T454 553H296V328H458Z" />
<glyph unicode="&#xaf;" horiz-adv-x="385" d="M51 679V707H334V679H51Z" />
<glyph unicode="&#xb0;" horiz-adv-x="256" d="M55 651Q55 682 76 703T128 724Q159 724 180 703T201 651Q201 621 180 600T128 578Q98 578 77 599T55 651ZM94 685Q81 671 81 651Q81 630 94 618Q109 603 128 603Q148 603 162 618Q168 624 172 632T176 651Q176 661
172 669T162 685Q155 692 147 695T128 698Q108 698 94 685Z" />
<glyph unicode="&#xb1;" horiz-adv-x="469" d="M81 78V109H388V78H81ZM388 373V342H251V195H218V342H81V373H218V520H251V373H388Z" />
<glyph unicode="&#xb2;" horiz-adv-x="375" d="M39 418Q39 469 53 502T95 558T163 594Q193 606 225 617T279 648T302 700Q302 734 275 759T192 785Q157 785 132 775T89 751T63 726L44 744Q47 748 64 764T114 796T195 811Q265 811 298 778T331 699Q331 669 317
649T280 615T233 594T187 578Q137 561 114 537T84 489T77 444H331V418H39Z" />
<glyph unicode="&#xb3;" horiz-adv-x="383" d="M190 413Q128 413 86 439T39 507L58 520Q60 500 77 481T124 451T190 440Q242 440 278 462T314 521Q314 559 273 581T165 604H142V628H165Q229 628 264 647T300 702Q300 739 267 762T183 786Q141 786 110 770T65 727L45
746Q56 766 76 780T125 803T183 811Q225 811 258 797T310 759T329 704Q329 670 307 648T240 617Q286 610 313 583T341 517Q341 487 321 463T266 426T190 413Z" />
<glyph unicode="&#xb4;" horiz-adv-x="205" d="M74 638L50 651L112 730H157L74 638Z" />
<glyph unicode="&#xb5;" horiz-adv-x="607" d="M88 520H122V228Q122 124 157 73T262 22Q309 22 352 43T429 102T477 190V520H511V54Q511 44 516 38T529 32V0Q522 0 518 0T510 1Q496 4 488 16T479 44V128Q459 87 425 56T349 8T261 -10Q227 -10 200 1T153 35T121
88L122 -212H88V520Z" />
<glyph unicode="&#xb6;" horiz-adv-x="576" d="M33 476Q33 585 107 647T315 710H527V680H457V-80H426V243H340V-80H308V243Q223 245 161 273T66 352T33 476ZM64 477Q64 407 97 363T187 298T308 273V680Q190 680 127 626T64 477ZM426 680H340V273H426V680Z" />
<glyph unicode="&#xb7;" horiz-adv-x="167" d="M68 249V340H99V249H68Z" />
<glyph unicode="&#xb8;" horiz-adv-x="261" d="M150 -169Q125 -169 95 -163T39 -143L52 -119Q75 -129 96 -136T144 -143Q182 -143 201 -130T221 -88Q221 -60 202 -40T146 0L169 11Q206 -10 227 -33T249 -91Q249 -131 221 -150T150 -169Z" />
<glyph unicode="&#xb9;" horiz-adv-x="258" d="M236 444V417H49V444H131V778Q124 770 108 758T72 738T35 730V757Q57 757 79 770T116 796T131 811H159V444H236Z" />
<glyph unicode="&#xba;" horiz-adv-x="450" d="M224 350Q174 350 134 374T71 440T48 529Q48 578 71 619T134 684T224 709Q275 709 315 685T378 619T402 529Q402 481 379 440T315 375T224 350ZM80 528Q80 486 99 452T151 398T224 377Q265 377 297 398T350 453T370
530Q370 572 350 606T297 660T224 681Q185 681 152 661T100 605T80 528Z" />
<glyph unicode="&#xbb;" horiz-adv-x="534" d="M492 247L252 76V109L463 259L252 409V442L492 270V247ZM308 247L67 76V109L278 259L67 409V442L308 270V247Z" />
<glyph unicode="&#xbc;" horiz-adv-x="745" d="M236 364V337H49V364H131V698Q124 690 108 678T72 658T35 650V677Q57 677 79 690T116 716T131 731H159V364H236ZM34 16L313 363L590 712L612 695L331 346L55 -2L34 16ZM631 0V108H399V132L639 388H658V134H714V108H658V0H631ZM433
134H631V345L433 134Z" />
<glyph unicode="&#xbd;" horiz-adv-x="760" d="M426 0Q426 51 440 84T482 139T549 176Q579 187 611 198T665 229T687 282Q687 316 661 341T578 367Q543 367 518 357T476 333T450 308L431 326Q434 330 451 346T501 378T582 393Q650 393 683 360T716 281Q716 250
702 230T666 197T619 176T573 160Q524 143 501 119T471 71T464 26H717V0H426ZM236 364V337H49V364H131V698Q124 690 108 678T72 658T35 650V677Q57 677 79 690T116 716T131 731H159V364H236ZM34 16L313 363L590 712L611 695L331 346L55 -2L34 16Z" />
<glyph unicode="&#xbe;" horiz-adv-x="870" d="M190 333Q128 333 86 359T39 427L58 440Q60 420 77 401T124 371T190 360Q242 360 278 382T314 441Q314 479 273 501T165 524H142V548H165Q229 548 264 567T300 622Q300 659 267 682T183 706Q141 706 110 690T65 647L45
666Q56 686 76 700T125 723T183 731Q225 731 258 717T310 679T329 624Q329 590 307 568T240 537Q286 530 313 503T341 437Q341 407 321 383T266 346T190 333ZM159 16L438 363L715 712L737 695L456 346L180 -2L159 16ZM756 0V108H524V132L764 388H783V134H839V108H783V0H756ZM558
134H756V345L558 134Z" />
<glyph unicode="&#xbf;" horiz-adv-x="463" d="M295 320Q295 262 285 228T255 173T210 138Q187 126 162 114T115 85T80 40T66 -28Q66 -81 88 -115T147 -165T223 -182Q262 -182 297 -168T361 -129T405 -70L431 -84Q413 -125 380 -154T307 -198T223 -213Q187 -213
153 -201T92 -166T50 -107T34 -25Q34 19 47 48T83 96T132 129T185 158Q208 171 225 186T253 233T264 320H295ZM295 506V415H264V506H295Z" />
<glyph unicode="&#xc0;" horiz-adv-x="675" d="M322 710H352L657 0H620L515 245H159L54 0H16L322 710ZM504 275L337 666L169 275H504ZM262 918H306L369 839L345 826L262 918Z" />
<glyph unicode="&#xc1;" horiz-adv-x="675" d="M322 710H352L657 0H620L515 245H159L54 0H16L322 710ZM504 275L337 666L169 275H504ZM348 826L324 839L386 918H431L348 826Z" />
<glyph unicode="&#xc2;" horiz-adv-x="675" d="M322 710H352L657 0H620L515 245H159L54 0H16L322 710ZM504 275L337 666L169 275H504ZM230 841L324 918H350L445 841L422 826L337 889L252 826L230 841Z" />
<glyph unicode="&#xc3;" horiz-adv-x="675" d="M322 710H352L657 0H620L515 245H159L54 0H16L322 710ZM504 275L337 666L169 275H504ZM396 844Q366 844 346 853T308 872T270 882Q249 882 238 872T223 849T219 834H193Q193 837 195 849T206 874T229 898T271 909Q298
909 316 899T353 880T397 870Q424 870 436 881T451 904T455 918H482Q482 914 479 902T467 877T441 854T396 844Z" />
<glyph unicode="&#xc4;" horiz-adv-x="675" d="M322 710H352L657 0H620L515 245H159L54 0H16L322 710ZM504 275L337 666L169 275H504ZM259 835V917H290V835H259ZM385 835V917H416V835H385Z" />
<glyph unicode="&#xc5;" horiz-adv-x="675" d="M322 710H352L657 0H620L515 245H159L54 0H16L322 710ZM504 275L337 666L169 275H504ZM258 866Q258 899 281 921T337 943Q372 943 394 921T417 866Q417 833 395 811T337 788Q304 788 281 810T258 866ZM338 918Q316
918 301 904T285 866Q285 844 300 829T338 813Q357 813 373 827T390 866Q390 890 375 904T338 918Z" />
<glyph unicode="&#xc6;" horiz-adv-x="962" d="M437 710H904V678H480V379H850V347H480V32H913V0H446V245H171L12 0H-28L437 710ZM444 277V663L189 277H444Z" />
<glyph unicode="&#xc7;" horiz-adv-x="694" d="M46 360Q46 424 68 486T134 600T239 683T382 714Q477 714 543 671T642 559L612 545Q586 595 548 625T466 668T378 681Q307 681 252 653T158 578T101 474T81 357Q81 291 104 232T167 127T262 54T381 27Q426 27 473
42T561 89T627 171L658 159Q634 106 588 69T487 13T377 -6Q305 -6 244 25T139 109T70 227T46 360ZM368 -169Q343 -169 313 -163T257 -143L270 -119Q293 -129 314 -136T362 -143Q400 -143 419 -130T439 -88Q439 -60 420 -40T364 0L387 11Q424 -10 445 -33T467 -91Q467
-131 439 -150T368 -169Z" />
<glyph unicode="&#xc8;" horiz-adv-x="615" d="M565 32V0H96V710H556V678H131V379H503V347H131V32H565ZM267 918H311L374 839L350 826L267 918Z" />
<glyph unicode="&#xc9;" horiz-adv-x="615" d="M565 32V0H96V710H556V678H131V379H503V347H131V32H565ZM353 826L329 839L391 918H436L353 826Z" />
<glyph unicode="&#xca;" horiz-adv-x="615" d="M565 32V0H96V710H556V678H131V379H503V347H131V32H565ZM235 841L329 918H355L450 841L427 826L342 889L257 826L235 841Z" />
<glyph unicode="&#xcb;" horiz-adv-x="615" d="M565 32V0H96V710H556V678H131V379H503V347H131V32H565ZM263 835V917H294V835H263ZM389 835V917H420V835H389Z" />
<glyph unicode="&#xcc;" horiz-adv-x="227" d="M96 0V710H131V0H96ZM38 918H82L145 839L121 826L38 918Z" />
<glyph unicode="&#xcd;" horiz-adv-x="227" d="M96 0V710H131V0H96ZM124 826L100 839L162 918H207L124 826Z" />
<glyph unicode="&#xce;" horiz-adv-x="227" d="M96 0V710H131V0H96ZM6 841L100 918H126L221 841L198 826L113 889L28 826L6 841Z" />
<glyph unicode="&#xcf;" horiz-adv-x="227" d="M96 0V710H131V0H96ZM35 835V917H66V835H35ZM161 835V917H192V835H161Z" />
<glyph unicode="&#xd0;" horiz-adv-x="719" d="M35 342V372H323V342H35ZM103 0V710H335Q447 710 521 663T632 535T670 356Q670 248 629 168T513 44T335 0H103ZM635 356Q635 449 600 522T498 636T335 678H137V32H335Q433 32 500 74T601 191T635 356Z" />
<glyph unicode="&#xd1;" horiz-adv-x="775" d="M131 645V0H96V710H124L644 55V710H679V0H643L131 645ZM450 844Q420 844 400 853T362 872T324 882Q303 882 292 872T277 849T273 834H247Q247 837 249 849T260 874T283 898T325 909Q352 909 370 899T407 880T451
870Q478 870 490 881T505 904T509 918H536Q536 914 533 902T521 877T495 854T450 844Z" />
<glyph unicode="&#xd2;" horiz-adv-x="755" d="M378 -5Q304 -5 243 25T138 107T70 222T46 355Q46 426 71 490T141 605T247 685T378 715Q452 715 513 684T617 601T685 485T709 355Q709 283 684 219T614 104T509 24T378 -5ZM81 355Q81 291 103 233T164 128T258 55T378
28Q444 28 499 56T593 131T653 236T674 355Q674 419 652 477T590 582T496 655T378 682Q311 682 257 654T163 579T103 474T81 355ZM303 918H347L410 839L386 826L303 918Z" />
<glyph unicode="&#xd3;" horiz-adv-x="755" d="M378 -5Q304 -5 243 25T138 107T70 222T46 355Q46 426 71 490T141 605T247 685T378 715Q452 715 513 684T617 601T685 485T709 355Q709 283 684 219T614 104T509 24T378 -5ZM81 355Q81 291 103 233T164 128T258 55T378
28Q444 28 499 56T593 131T653 236T674 355Q674 419 652 477T590 582T496 655T378 682Q311 682 257 654T163 579T103 474T81 355ZM389 826L365 839L427 918H472L389 826Z" />
<glyph unicode="&#xd4;" horiz-adv-x="755" d="M378 -5Q304 -5 243 25T138 107T70 222T46 355Q46 426 71 490T141 605T247 685T378 715Q452 715 513 684T617 601T685 485T709 355Q709 283 684 219T614 104T509 24T378 -5ZM81 355Q81 291 103 233T164 128T258 55T378
28Q444 28 499 56T593 131T653 236T674 355Q674 419 652 477T590 582T496 655T378 682Q311 682 257 654T163 579T103 474T81 355ZM271 841L365 918H391L486 841L463 826L378 889L293 826L271 841Z" />
<glyph unicode="&#xd5;" horiz-adv-x="755" d="M378 -5Q304 -5 243 25T138 107T70 222T46 355Q46 426 71 490T141 605T247 685T378 715Q452 715 513 684T617 601T685 485T709 355Q709 283 684 219T614 104T509 24T378 -5ZM81 355Q81 291 103 233T164 128T258 55T378
28Q444 28 499 56T593 131T653 236T674 355Q674 419 652 477T590 582T496 655T378 682Q311 682 257 654T163 579T103 474T81 355ZM437 844Q407 844 387 853T349 872T311 882Q290 882 279 872T264 849T260 834H234Q234 837 236 849T247 874T270 898T312 909Q339
909 357 899T394 880T438 870Q465 870 477 881T492 904T496 918H523Q523 914 520 902T508 877T482 854T437 844Z" />
<glyph unicode="&#xd6;" horiz-adv-x="755" d="M378 -5Q304 -5 243 25T138 107T70 222T46 355Q46 426 71 490T141 605T247 685T378 715Q452 715 513 684T617 601T685 485T709 355Q709 283 684 219T614 104T509 24T378 -5ZM81 355Q81 291 103 233T164 128T258 55T378
28Q444 28 499 56T593 131T653 236T674 355Q674 419 652 477T590 582T496 655T378 682Q311 682 257 654T163 579T103 474T81 355ZM300 835V917H331V835H300ZM426 835V917H457V835H426Z" />
<glyph unicode="&#xd7;" horiz-adv-x="445" d="M377 140L354 117L222 248L91 117L69 141L199 271L69 402L92 425L222 294L354 426L376 402L245 271L377 140Z" />
<glyph unicode="&#xd8;" horiz-adv-x="755" d="M378 -5Q304 -5 243 25T138 107T70 222T46 355Q46 426 71 490T141 605T247 685T378 715Q452 715 513 684T617 601T685 485T709 355Q709 283 684 219T614 104T509 24T378 -5ZM81 355Q81 291 103 233T164 128T258 55T378
28Q444 28 499 56T593 131T653 236T674 355Q674 419 652 477T590 582T496 655T378 682Q311 682 257 654T163 579T103 474T81 355ZM628 710L167 0H127L587 710H628Z" />
<glyph unicode="&#xd9;" horiz-adv-x="756" d="M379 -5Q295 -5 238 25T148 107T100 223T85 354V710H120V354Q120 293 132 234T174 129T253 55T378 28Q454 28 504 56T584 131T625 236T637 354V710H671V354Q671 284 656 219T607 104T517 25T379 -5ZM304 918H348L411
839L387 826L304 918Z" />
<glyph unicode="&#xda;" horiz-adv-x="756" d="M379 -5Q295 -5 238 25T148 107T100 223T85 354V710H120V354Q120 293 132 234T174 129T253 55T378 28Q454 28 504 56T584 131T625 236T637 354V710H671V354Q671 284 656 219T607 104T517 25T379 -5ZM390 826L366
839L428 918H473L390 826Z" />
<glyph unicode="&#xdb;" horiz-adv-x="756" d="M379 -5Q295 -5 238 25T148 107T100 223T85 354V710H120V354Q120 293 132 234T174 129T253 55T378 28Q454 28 504 56T584 131T625 236T637 354V710H671V354Q671 284 656 219T607 104T517 25T379 -5ZM272 841L366
918H392L487 841L464 826L379 889L294 826L272 841Z" />
<glyph unicode="&#xdc;" horiz-adv-x="756" d="M379 -5Q295 -5 238 25T148 107T100 223T85 354V710H120V354Q120 293 132 234T174 129T253 55T378 28Q454 28 504 56T584 131T625 236T637 354V710H671V354Q671 284 656 219T607 104T517 25T379 -5ZM300 835V917H331V835H300ZM426
835V917H457V835H426Z" />
<glyph unicode="&#xdd;" horiz-adv-x="644" d="M60 710L321 307L584 710H623L339 272V0H304V274L21 710H60ZM332 826L308 839L370 918H415L332 826Z" />
<glyph unicode="&#xde;" horiz-adv-x="600" d="M367 563Q412 563 449 544T513 494T555 425T570 345Q570 289 545 239T477 158T374 127H131V0H96V710H131V563H367ZM373 159Q424 159 460 186T516 256T536 345Q536 394 513 436T452 504T366 530H131V159H373Z" />
<glyph unicode="&#xdf;" horiz-adv-x="547" d="M232 26Q344 28 406 74T469 205Q469 259 445 299T377 363T275 386H258V418H274Q316 418 348 435T400 482T419 550Q419 589 399 619T345 665T269 682Q221 682 186 660T133 599T115 508V0H81V511Q81 572 105 617T172
688T270 714Q322 714 363 694T428 638T452 556Q452 520 437 488T395 434T336 404Q417 387 460 334T504 204Q504 155 486 117T432 53T347 11T232 -6V26Z" />
<glyph unicode="&#xe0;" horiz-adv-x="530" d="M37 149Q37 195 65 228T141 281T253 301Q295 301 340 294T421 273V328Q421 404 377 450T257 497Q219 497 177 481T90 434L73 459Q124 494 170 511T259 528Q349 528 402 474T455 326V52Q455 41 459 36T473 30V0Q466
0 462 0T454 1Q440 4 432 16T423 42V87Q387 41 330 16T208 -10Q160 -10 121 11T60 68T37 149ZM403 104Q412 116 416 127T421 148V243Q382 258 341 265T255 273Q172 273 121 240T70 151Q70 115 88 85T139 37T212 19Q274 19 325 42T403 104ZM184 730H228L291 651L267
638L184 730Z" />
<glyph unicode="&#xe1;" horiz-adv-x="530" d="M37 149Q37 195 65 228T141 281T253 301Q295 301 340 294T421 273V328Q421 404 377 450T257 497Q219 497 177 481T90 434L73 459Q124 494 170 511T259 528Q349 528 402 474T455 326V52Q455 41 459 36T473 30V0Q466
0 462 0T454 1Q440 4 432 16T423 42V87Q387 41 330 16T208 -10Q160 -10 121 11T60 68T37 149ZM403 104Q412 116 416 127T421 148V243Q382 258 341 265T255 273Q172 273 121 240T70 151Q70 115 88 85T139 37T212 19Q274 19 325 42T403 104ZM270 638L246 651L308
730H353L270 638Z" />
<glyph unicode="&#xe2;" horiz-adv-x="530" d="M37 149Q37 195 65 228T141 281T253 301Q295 301 340 294T421 273V328Q421 404 377 450T257 497Q219 497 177 481T90 434L73 459Q124 494 170 511T259 528Q349 528 402 474T455 326V52Q455 41 459 36T473 30V0Q466
0 462 0T454 1Q440 4 432 16T423 42V87Q387 41 330 16T208 -10Q160 -10 121 11T60 68T37 149ZM403 104Q412 116 416 127T421 148V243Q382 258 341 265T255 273Q172 273 121 240T70 151Q70 115 88 85T139 37T212 19Q274 19 325 42T403 104ZM152 653L246 730H272L367
653L344 638L259 701L174 638L152 653Z" />
<glyph unicode="&#xe3;" horiz-adv-x="530" d="M37 149Q37 195 65 228T141 281T253 301Q295 301 340 294T421 273V328Q421 404 377 450T257 497Q219 497 177 481T90 434L73 459Q124 494 170 511T259 528Q349 528 402 474T455 326V52Q455 41 459 36T473 30V0Q466
0 462 0T454 1Q440 4 432 16T423 42V87Q387 41 330 16T208 -10Q160 -10 121 11T60 68T37 149ZM403 104Q412 116 416 127T421 148V243Q382 258 341 265T255 273Q172 273 121 240T70 151Q70 115 88 85T139 37T212 19Q274 19 325 42T403 104ZM317 656Q287 656 267
665T229 684T191 694Q170 694 159 684T144 661T140 646H114Q114 649 116 661T127 686T150 710T192 721Q219 721 237 711T274 692T318 682Q345 682 357 693T372 716T376 730H403Q403 726 400 714T388 689T362 666T317 656Z" />
<glyph unicode="&#xe4;" horiz-adv-x="530" d="M37 149Q37 195 65 228T141 281T253 301Q295 301 340 294T421 273V328Q421 404 377 450T257 497Q219 497 177 481T90 434L73 459Q124 494 170 511T259 528Q349 528 402 474T455 326V52Q455 41 459 36T473 30V0Q466
0 462 0T454 1Q440 4 432 16T423 42V87Q387 41 330 16T208 -10Q160 -10 121 11T60 68T37 149ZM403 104Q412 116 416 127T421 148V243Q382 258 341 265T255 273Q172 273 121 240T70 151Q70 115 88 85T139 37T212 19Q274 19 325 42T403 104ZM180 647V729H211V647H180ZM306
647V729H337V647H306Z" />
<glyph unicode="&#xe5;" horiz-adv-x="530" d="M37 149Q37 195 65 228T141 281T253 301Q295 301 340 294T421 273V328Q421 404 377 450T257 497Q219 497 177 481T90 434L73 459Q124 494 170 511T259 528Q349 528 402 474T455 326V52Q455 41 459 36T473 30V0Q466
0 462 0T454 1Q440 4 432 16T423 42V87Q387 41 330 16T208 -10Q160 -10 121 11T60 68T37 149ZM403 104Q412 116 416 127T421 148V243Q382 258 341 265T255 273Q172 273 121 240T70 151Q70 115 88 85T139 37T212 19Q274 19 325 42T403 104ZM179 678Q179 711 202
733T258 755Q293 755 315 733T338 678Q338 645 316 623T258 600Q225 600 202 622T179 678ZM259 730Q237 730 222 716T206 678Q206 656 221 641T259 625Q278 625 294 639T311 678Q311 702 296 716T259 730Z" />
<glyph unicode="&#xe6;" horiz-adv-x="929" d="M206 -10Q159 -10 121 11T60 68T37 150Q37 195 64 228T140 281T252 301Q288 301 325 296T394 281Q396 304 401 328T415 373Q403 431 362 465T257 499Q219 499 176 483T89 435L74 460Q175 528 259 528Q325 528 371
497T437 410Q469 463 523 495T643 528Q714 528 771 492T862 395T896 259Q896 256 896 252T895 244H427Q432 181 462 130T542 49T649 19Q706 19 756 48T827 124L858 116Q843 80 811 51T737 6T647 -10Q582 -10 527 22T438 109Q417 67 378 41T294 3T206 -10ZM211 19Q274
19 326 42T405 106Q418 124 421 141Q409 166 402 195T394 253Q361 264 326 269T255 274Q172 274 121 241T70 151Q70 114 88 84T139 37T211 19ZM862 272Q858 338 828 389T751 469T643 498Q585 498 537 469T460 389T427 272H862Z" />
<glyph unicode="&#xe7;" horiz-adv-x="541" d="M298 -10Q245 -10 199 11T118 70T64 157T44 262Q44 337 77 397T167 492T297 528Q365 528 418 497T497 410L464 398Q440 444 395 470T294 496Q234 496 185 465T107 381T78 262Q78 197 107 142T186 55T295 22Q334 22
371 36T435 74T470 125L504 115Q492 79 461 51T387 6T298 -10ZM288 -169Q263 -169 233 -163T177 -143L190 -119Q213 -129 234 -136T282 -143Q320 -143 339 -130T359 -88Q359 -60 340 -40T284 0L307 11Q344 -10 365 -33T387 -91Q387 -131 359 -150T288 -169Z" />
<glyph unicode="&#xe8;" horiz-adv-x="579" d="M297 -10Q245 -10 199 11T118 70T64 157T44 263Q44 336 77 396T166 492T293 528Q365 528 421 492T512 395T546 260Q546 256 546 252T545 244H79Q84 181 114 130T193 49T299 19Q356 19 406 48T477 124L508 116Q493
80 461 51T387 6T297 -10ZM78 273H512Q508 339 479 389T401 469T294 498Q236 498 189 469T112 389T78 273ZM218 730H262L325 651L301 638L218 730Z" />
<glyph unicode="&#xe9;" horiz-adv-x="579" d="M297 -10Q245 -10 199 11T118 70T64 157T44 263Q44 336 77 396T166 492T293 528Q365 528 421 492T512 395T546 260Q546 256 546 252T545 244H79Q84 181 114 130T193 49T299 19Q356 19 406 48T477 124L508 116Q493
80 461 51T387 6T297 -10ZM78 273H512Q508 339 479 389T401 469T294 498Q236 498 189 469T112 389T78 273ZM304 638L280 651L342 730H387L304 638Z" />
<glyph unicode="&#xea;" horiz-adv-x="579" d="M297 -10Q245 -10 199 11T118 70T64 157T44 263Q44 336 77 396T166 492T293 528Q365 528 421 492T512 395T546 260Q546 256 546 252T545 244H79Q84 181 114 130T193 49T299 19Q356 19 406 48T477 124L508 116Q493
80 461 51T387 6T297 -10ZM78 273H512Q508 339 479 389T401 469T294 498Q236 498 189 469T112 389T78 273ZM186 653L280 730H306L401 653L378 638L293 701L208 638L186 653Z" />
<glyph unicode="&#xeb;" horiz-adv-x="579" d="M297 -10Q245 -10 199 11T118 70T64 157T44 263Q44 336 77 396T166 492T293 528Q365 528 421 492T512 395T546 260Q546 256 546 252T545 244H79Q84 181 114 130T193 49T299 19Q356 19 406 48T477 124L508 116Q493
80 461 51T387 6T297 -10ZM78 273H512Q508 339 479 389T401 469T294 498Q236 498 189 469T112 389T78 273ZM215 647V729H246V647H215ZM341 647V729H372V647H341Z" />
<glyph unicode="&#xec;" horiz-adv-x="197" d="M81 0V520H115V0H81ZM279 730H323L386 651L362 638L279 730Z" />
<glyph unicode="&#xed;" horiz-adv-x="197" d="M81 0V520H115V0H81ZM109 638L85 651L147 730H192L109 638Z" />
<glyph unicode="&#xee;" horiz-adv-x="197" d="M81 0V520H115V0H81ZM247 653L341 730H367L462 653L439 638L354 701L269 638L247 653Z" />
<glyph unicode="&#xef;" horiz-adv-x="197" d="M81 0V520H115V0H81ZM276 647V729H307V647H276ZM402 647V729H433V647H402Z" />
<glyph unicode="&#xf0;" horiz-adv-x="596" d="M547 255Q547 199 528 151T473 67T393 11T295 -10Q227 -10 170 23T80 111T46 232Q46 282 65 325T119 403T197 456T293 475Q367 475 426 437T513 338Q507 386 491 434T443 532T355 631T211 730H260Q353 675 409 617T496
499T537 378T547 255ZM81 231Q81 174 109 126T187 50T295 22Q355 22 404 52T483 134T513 245Q513 300 484 345T405 417T297 444Q238 444 189 415T110 337T81 231ZM478 694L380 631L369 625L243 544L229 563L353 642L363 647L465 713L478 694Z" />
<glyph unicode="&#xf1;" horiz-adv-x="570" d="M495 0H461V290Q461 396 431 446T334 496Q287 496 242 474T164 413T115 325V0H81V520H114V390Q135 431 170 462T250 510T340 528Q381 528 410 513T458 469T486 396T495 294V0ZM343 656Q313 656 293 665T255 684T217
694Q196 694 185 684T170 661T166 646H140Q140 649 142 661T153 686T176 710T218 721Q245 721 263 711T300 692T344 682Q371 682 383 693T398 716T402 730H429Q429 726 426 714T414 689T388 666T343 656Z" />
<glyph unicode="&#xf2;" horiz-adv-x="589" d="M294 -10Q242 -10 196 11T116 69T63 155T44 258Q44 313 63 362T117 448T197 507T294 528Q346 528 391 507T471 449T525 362T545 258Q545 204 526 156T473 70T393 11T294 -10ZM78 257Q78 192 107 139T185 54T293 22Q353
22 402 54T480 140T510 259Q510 324 481 378T402 464T294 496Q236 496 187 464T108 377T78 257ZM219 730H263L326 651L302 638L219 730Z" />
<glyph unicode="&#xf3;" horiz-adv-x="589" d="M294 -10Q242 -10 196 11T116 69T63 155T44 258Q44 313 63 362T117 448T197 507T294 528Q346 528 391 507T471 449T525 362T545 258Q545 204 526 156T473 70T393 11T294 -10ZM78 257Q78 192 107 139T185 54T293 22Q353
22 402 54T480 140T510 259Q510 324 481 378T402 464T294 496Q236 496 187 464T108 377T78 257ZM305 638L281 651L343 730H388L305 638Z" />
<glyph unicode="&#xf4;" horiz-adv-x="589" d="M294 -10Q242 -10 196 11T116 69T63 155T44 258Q44 313 63 362T117 448T197 507T294 528Q346 528 391 507T471 449T525 362T545 258Q545 204 526 156T473 70T393 11T294 -10ZM78 257Q78 192 107 139T185 54T293 22Q353
22 402 54T480 140T510 259Q510 324 481 378T402 464T294 496Q236 496 187 464T108 377T78 257ZM187 653L281 730H307L402 653L379 638L294 701L209 638L187 653Z" />
<glyph unicode="&#xf5;" horiz-adv-x="589" d="M294 -10Q242 -10 196 11T116 69T63 155T44 258Q44 313 63 362T117 448T197 507T294 528Q346 528 391 507T471 449T525 362T545 258Q545 204 526 156T473 70T393 11T294 -10ZM78 257Q78 192 107 139T185 54T293 22Q353
22 402 54T480 140T510 259Q510 324 481 378T402 464T294 496Q236 496 187 464T108 377T78 257ZM353 656Q323 656 303 665T265 684T227 694Q206 694 195 684T180 661T176 646H150Q150 649 152 661T163 686T186 710T228 721Q255 721 273 711T310 692T354 682Q381
682 393 693T408 716T412 730H439Q439 726 436 714T424 689T398 666T353 656Z" />
<glyph unicode="&#xf6;" horiz-adv-x="589" d="M294 -10Q242 -10 196 11T116 69T63 155T44 258Q44 313 63 362T117 448T197 507T294 528Q346 528 391 507T471 449T525 362T545 258Q545 204 526 156T473 70T393 11T294 -10ZM78 257Q78 192 107 139T185 54T293 22Q353
22 402 54T480 140T510 259Q510 324 481 378T402 464T294 496Q236 496 187 464T108 377T78 257ZM216 647V729H247V647H216ZM342 647V729H373V647H342Z" />
<glyph unicode="&#xf7;" horiz-adv-x="543" d="M256 389V461H287V389H256ZM256 87V158H287V87H256ZM71 259V290H474V259H71Z" />
<glyph unicode="&#xf8;" horiz-adv-x="589" d="M294 -10Q242 -10 196 11T116 69T63 155T44 258Q44 313 63 362T117 448T197 507T294 528Q346 528 391 507T471 449T525 362T545 258Q545 204 526 156T473 70T393 11T294 -10ZM293 22Q353 22 402 54T480 140T510 259Q510
324 481 378T402 464T294 496Q236 496 187 464T108 377T78 257Q78 192 107 139T185 54T293 22ZM111 0L152 60L176 43L146 0H111ZM177 45L154 61L412 474L438 459L177 45ZM440 460L414 475L443 520H480L440 460Z" />
<glyph unicode="&#xf9;" horiz-adv-x="581" d="M76 224V520H110V228Q110 124 144 73T249 22Q296 22 339 43T416 102T464 190V520H498V52Q498 42 503 36T516 30V0Q509 0 505 0T497 1Q484 4 476 15T467 42L466 128Q432 64 372 27T242 -10Q160 -10 118 49T76 224ZM209
730H253L316 651L292 638L209 730Z" />
<glyph unicode="&#xfa;" horiz-adv-x="581" d="M76 224V520H110V228Q110 124 144 73T249 22Q296 22 339 43T416 102T464 190V520H498V52Q498 42 503 36T516 30V0Q509 0 505 0T497 1Q484 4 476 15T467 42L466 128Q432 64 372 27T242 -10Q160 -10 118 49T76 224ZM295
638L271 651L333 730H378L295 638Z" />
<glyph unicode="&#xfb;" horiz-adv-x="581" d="M76 224V520H110V228Q110 124 144 73T249 22Q296 22 339 43T416 102T464 190V520H498V52Q498 42 503 36T516 30V0Q509 0 505 0T497 1Q484 4 476 15T467 42L466 128Q432 64 372 27T242 -10Q160 -10 118 49T76 224ZM177
653L271 730H297L392 653L369 638L284 701L199 638L177 653Z" />
<glyph unicode="&#xfc;" horiz-adv-x="581" d="M76 224V520H110V228Q110 124 144 73T249 22Q296 22 339 43T416 102T464 190V520H498V52Q498 42 503 36T516 30V0Q509 0 505 0T497 1Q484 4 476 15T467 42L466 128Q432 64 372 27T242 -10Q160 -10 118 49T76 224ZM206
647V729H237V647H206ZM332 647V729H363V647H332Z" />
<glyph unicode="&#xfd;" horiz-adv-x="538" d="M121 -190Q137 -191 150 -190T168 -183Q174 -179 182 -166T207 -114T256 0L19 520H56L274 38L479 520H514L217 -176Q212 -188 204 -197T187 -212T162 -219Q153 -221 143 -222T121 -222V-190ZM285 638L261 651L323
730H368L285 638Z" />
<glyph unicode="&#xfe;" horiz-adv-x="603" d="M559 258Q558 205 539 157T485 71T406 11T308 -12Q248 -12 196 20T116 98V-213H81V710H116V409Q152 460 201 494T317 528Q374 528 418 505T495 442T543 354T559 258ZM525 258Q525 320 499 374T425 462T316 496Q269
496 231 476T164 424T116 354V170Q116 140 134 114T182 66T245 33T307 21Q355 21 394 41T463 95T509 171T525 258Z" />
<glyph unicode="&#xff;" horiz-adv-x="538" d="M121 -190Q137 -191 150 -190T168 -183Q174 -179 182 -166T207 -114T256 0L19 520H56L274 38L479 520H514L217 -176Q212 -188 204 -197T187 -212T162 -219Q153 -221 143 -222T121 -222V-190ZM195 647V729H226V647H195ZM321
647V729H352V647H321Z" />
<glyph unicode="&#x2013;" horiz-adv-x="549" d="M68 255V288H481V255H68Z" />
<glyph unicode="&#x2014;" horiz-adv-x="884" d="M68 255V288H816V255H68Z" />
<glyph unicode="&#x2018;" horiz-adv-x="176" d="M105 730L93 638H106V556H68V638L85 730H105Z" />
<glyph unicode="&#x2019;" horiz-adv-x="172" d="M71 556L83 648H70V730H107V648L91 556H71Z" />
<glyph unicode="&#x201a;" horiz-adv-x="250" d="M107 -84L119 0H106V82H144V0L127 -84H107Z" />
<glyph unicode="&#x201c;" horiz-adv-x="268" d="M105 730L93 638H106V556H68V638L85 730H105ZM197 730L185 638H198V556H160V638L177 730H197Z" />
<glyph unicode="&#x201d;" horiz-adv-x="264" d="M71 556L83 648H70V730H107V648L91 556H71ZM163 556L175 648H162V730H199V648L183 556H163Z" />
<glyph unicode="&#x201e;" horiz-adv-x="334" d="M107 -84L119 0H106V82H144V0L127 -84H107ZM191 -84L203 0H190V82H228V0L211 -84H191Z" />
<glyph unicode="&#x2022;" horiz-adv-x="343" d="M253 344Q253 321 242 303T213 273T172 262Q150 262 131 273T101 302T90 344Q90 366 101 384T131 413T172 425Q194 425 212 414T242 384T253 344Z" />
<glyph unicode="&#x2039;" horiz-adv-x="349" d="M42 270L282 442V409L71 259L282 109V76L42 247V270Z" />
<glyph unicode="&#x203a;" horiz-adv-x="349" d="M308 247L67 76V109L278 259L67 409V442L308 270V247Z" />
</font>
</defs>
</svg>
