<?xml version="1.0" standalone="no"?>
<!DOCTYPE svg PUBLIC "-//W3C//DTD SVG 1.1//EN" "http://www.w3.org/Graphics/SVG/1.1/DTD/svg11.dtd">
<svg xmlns="http://www.w3.org/2000/svg">
<defs >
<font id="Recursive" horiz-adv-x="628" ><font-face
    font-family="Recursive Sans Linear Light Light"
    units-per-em="1000"
    panose-1="0 0 0 0 0 0 0 0 0 0"
    ascent="950"
    descent="-250"
    alphabetic="0" />
<glyph unicode=" " horiz-adv-x="300" />
<glyph unicode="!" horiz-adv-x="350" d="M198 240H163Q160 240 159 241T155 243Q154 245 153 251T150 281T146 357T140 502V590Q140 618 140 645T140 700Q155 700 169 700T199 700Q203 700 205 699T208 695T210 689V502Q208 459 206 415T202 328T198 240ZM222
-5Q207 -5 194 -5T168 -5T139 -5Q136 -5 134 -4T130 0T128 6V95Q143 95 156 95T183 95T211 95Q215 95 217 94T220 90T222 84V-5Z" />
<glyph unicode="&quot;" horiz-adv-x="600" d="M221 450Q208 450 196 450T169 450Q164 450 161 453T158 461L143 648Q142 666 141 682T138 715T135 750Q163 750 187 750T234 750Q239 750 242 747T244 737L221 450ZM441 450Q428 450 416 450T389 450Q384 450 381
453T378 461L355 750Q383 750 407 750T454 750Q459 750 462 747T464 737L441 450Z" />
<glyph unicode="#" horiz-adv-x="600" d="M234 720Q244 720 254 720T274 720Q279 720 282 718T283 709Q265 619 247 530T211 350T175 171T139 -9Q138 -16 134 -18T125 -20Q115 -20 106 -20T86 -20Q104 72 122 164T160 350T197 535T234 720ZM454 720Q461 720 467
720T481 720T494 720Q499 720 502 718T503 709Q485 619 467 530T431 350T395 171T359 -9Q358 -16 354 -18T345 -20Q339 -20 333 -20T320 -20T306 -20Q324 72 342 164T380 350T417 535T454 720ZM580 450H71Q66 450 63 453T60 461Q60 465 60 469T60 476T60 484T60
492T60 500H569Q571 500 573 500T577 497Q579 496 579 494T580 489Q580 485 580 481T580 474T580 466T580 458T580 450ZM20 250H529Q534 250 537 247T540 239Q540 235 540 231T540 224T540 216T540 208T540 200H31Q29 200 27 201T23 203Q22 205 21 207T20 211Q20
215 20 219T20 227T20 234T20 242T20 250Z" />
<glyph unicode="$" horiz-adv-x="600" d="M299 -16Q232 -16 174 2T82 55Q81 57 80 58T79 64Q79 74 79 87T79 113H91Q137 69 185 52T299 34Q382 34 429 66T476 156V193Q476 228 466 250T431 287T360 316L262 345Q216 359 183 375T130 411T100 454T90 504V551Q90
587 106 617T153 670T225 705T317 717Q376 717 427 700T508 653Q510 652 510 650T511 645Q511 635 511 621T511 595H499Q458 635 417 651T317 667Q262 667 222 653T161 611T139 545V513Q139 482 150 462T191 426T271 395L368 367Q425 351 459 329T510 276T526 204V150Q526
102 497 65T417 6T299 -16ZM329 454Q322 456 315 457T302 462Q297 462 294 465T291 473Q291 502 291 536T291 604T291 664T291 703Q291 714 291 735T291 780T291 825T291 857Q301 857 308 857T322 857T340 857Q345 857 348 854T350 844Q349 836 348 804T344 727T339
630T334 533T329 454ZM280 260Q287 258 293 256T307 252Q313 251 315 247T318 235Q318 227 318 204T318 149T318 87T318 33T318 1Q318 -9 318 -36T318 -95T318 -153T318 -186Q310 -186 302 -186T285 -186T269 -186Q266 -186 264 -185T260 -180T259 -173Q260 -165
261 -129T265 -42T270 67T275 175T280 260Z" />
<glyph unicode="%" horiz-adv-x="600" d="M178 710Q225 710 257 691T307 638T324 558V508Q324 463 307 429T258 375T178 356Q108 356 70 398T32 508V558Q32 604 49 638T99 691T178 710ZM83 508Q83 481 90 461T110 427Q122 415 139 409T178 403Q225 403 249 431T273
508V558Q273 584 267 605T247 639Q223 663 178 663Q131 663 107 636T83 558V508ZM422 344Q469 344 501 325T551 272T568 192V142Q568 97 551 63T502 9T422 -10Q352 -10 314 32T276 142V192Q276 238 293 272T343 325T422 344ZM327 142Q327 115 334 95T354 61Q366
49 383 43T422 37Q469 37 493 65T517 142V192Q517 218 511 239T491 273Q467 297 422 297Q375 297 351 270T327 192V142ZM373 405Q386 431 398 456T423 506T448 557T473 608T498 659T524 710Q527 710 532 710T544 710T555 710T565 710Q569 710 571 709T574 704T573
697Q571 692 560 671T534 618T501 553T469 488T443 437T431 412Q429 408 427 407T421 405Q418 405 412 405T397 405T383 405T373 405ZM227 296Q214 271 202 246T177 195T152 144T127 93T102 42T76 -9Q73 -9 68 -9T56 -9T45 -9T35 -9Q31 -9 29 -8T26 -3T27 4Q29
8 39 29T66 82T99 148T131 214T157 265T169 289Q171 294 173 295T179 296Q182 296 188 296T203 296T217 296T227 296Z" />
<glyph unicode="&amp;" horiz-adv-x="600" d="M208 438Q238 394 271 345T337 250T395 165T439 103T459 74Q473 56 487 48T522 40Q532 40 542 40T562 40H574Q574 30 574 21T574 1Q574 -4 572 -7T563 -10Q552 -10 541 -10T519 -10Q495 -10 475 -2T438 21T406 59Q399
69 380 96T335 161T280 240T224 321T175 391Q147 433 131 459T109 505T103 551V560Q103 591 115 618T151 665T212 697T300 709Q341 709 373 703T427 689T454 674Q456 672 457 670T458 665Q458 655 458 645T458 625H446Q413 641 379 650T300 659Q255 659 226 649T180
622Q167 609 161 593T155 557Q155 541 158 527T173 493T208 438ZM225 -9Q166 -9 126 10T65 67T44 160V217Q44 285 74 328T168 387V418L239 358Q198 358 165 342T113 296T94 228V160Q94 105 125 72T226 39Q266 39 305 55T383 111L425 63H391Q363 26 321 9T225 -9ZM476
430Q486 430 495 430T515 430Q520 430 523 427T526 419V335Q526 282 517 243T489 174T440 114V82L405 133Q437 172 456 216T476 322Q476 357 476 379T476 430Z" />
<glyph unicode="&apos;" horiz-adv-x="350" d="M204 450Q191 450 179 450T152 450Q147 450 145 453T141 461L126 648Q125 666 124 682T121 715T118 750Q146 750 170 750T217 750Q222 750 225 747T227 737L204 450Z" />
<glyph unicode="(" horiz-adv-x="400" d="M293 752Q296 756 301 758T313 760Q320 760 326 760T340 760T354 760V748Q290 690 248 621T186 473T166 303V296Q166 206 187 127T250 -21T354 -149V-161Q347 -161 340 -161T327 -161T313 -161Q307 -161 302 -159T293
-153Q233 -93 194 -21T136 131T116 296V303Q116 388 135 468T194 620T293 752Z" />
<glyph unicode=")" horiz-adv-x="400" d="M107 -153Q104 -157 99 -159T87 -161Q80 -161 73 -161T60 -161T46 -161V-149Q111 -91 152 -22T214 126T234 296V303Q234 393 213 472T151 620T46 748V760Q53 760 59 760T73 760T87 760Q93 760 98 758T107 752Q167 692
206 620T265 468T284 303V296Q284 211 265 131T207 -21T107 -153Z" />
<glyph unicode="*" horiz-adv-x="600" d="M326 759Q331 759 334 756T337 748Q333 706 330 676T322 620T313 565L324 558Q350 577 374 593T424 628T485 669Q493 656 501 643T516 615Q519 611 518 608T513 602Q479 586 452 575T399 555T339 535V523Q373 510 399
499T454 475T522 443Q515 430 507 417T491 389Q489 385 486 384T478 385Q447 407 422 424T374 459T322 498L312 492Q318 463 321 443T328 408T332 377Q334 364 334 351T336 326T338 300Q322 300 305 300T273 299Q268 299 265 302T262 310Q266 348 269 378T277 435T285
492L275 498Q247 476 223 457T174 420T114 377Q106 391 98 404T82 430Q79 435 80 439T86 445Q120 461 147 473T201 498T262 523V535Q227 547 200 557T144 580T77 611Q85 625 93 638T108 665Q111 670 114 670T122 669Q155 647 178 630T224 597T272 558L283 565Q280
588 278 605T273 639T267 681Q265 701 264 720T261 758Q277 758 294 758T326 759Z" />
<glyph unicode="+" horiz-adv-x="600" d="M275 526Q285 526 294 526T314 526Q319 526 322 523T325 515Q325 442 325 369T325 222T325 75Q315 75 306 75T286 75Q281 75 278 78T275 86Q275 143 275 199T275 313T275 426Q275 462 275 488T275 526ZM76 325H513Q517
325 519 324T522 320T524 314Q524 304 524 295T524 275H87Q84 275 82 276T78 280T76 286Q76 296 76 305T76 325Z" />
<glyph unicode="," horiz-adv-x="350" d="M128 -220Q118 -220 106 -220T84 -220Q92 -177 99 -138T113 -60T127 17T144 100Q157 100 170 100T197 100T222 100Q226 100 228 99T231 94T230 86Q219 49 208 12T185 -62T162 -136T138 -212Q137 -217 135 -218T128 -220Z" />
<glyph unicode="-" horiz-adv-x="450" d="M91 325H348Q352 325 354 324T357 320T359 314Q359 304 359 295T359 275H102Q99 275 97 275T94 277T92 281T91 286Q91 296 91 305T91 325Z" />
<glyph unicode="." horiz-adv-x="350" d="M222 -5Q207 -5 194 -5T168 -5T139 -5Q136 -5 134 -4T130 0T128 6V95Q143 95 156 95T183 95T211 95Q215 95 217 94T220 90T222 84V-5Z" />
<glyph unicode="/" horiz-adv-x="600" d="M521 750Q463 606 405 461T288 171T170 -119Q169 -123 167 -125T161 -129T155 -130Q142 -130 134 -130T111 -130Q122 -103 133 -76T155 -21Q207 106 258 233T361 488T464 743Q466 747 469 748T476 750Q489 750 498 750T521 750Z" />
<glyph unicode="0" horiz-adv-x="600" d="M303 720Q373 720 422 685T498 588T525 445V255Q525 169 498 108T419 13T298 -20Q245 -20 204 0T134 57T90 144T75 255V445Q75 531 102 592T181 687T303 720ZM300 673Q248 673 209 649T147 574T125 445V255Q125 228 128
204T137 159T151 120Q173 74 211 51T300 27Q353 27 392 52T453 128T475 255V445Q475 488 468 522T448 584T416 629Q394 652 365 662T300 673ZM463 591L485 526H434L471 559Q458 528 442 501T408 451T373 407Q334 360 295 313T216 218T137 122L96 185H161L129 158Q142
184 154 205T184 249T226 304Q285 376 344 448T463 591Z" />
<glyph unicode="1" horiz-adv-x="600" d="M297 710Q302 710 307 710T318 710T329 710T340 710T349 710Q353 710 355 709T358 705T360 699Q360 695 360 661T360 572T360 451T360 317T360 186T360 78T360 10H304L310 30Q310 38 310 46T310 62T310 78Q310 89 310
123T310 209T310 318T310 436T310 548T310 637T310 688L332 658H281L315 682Q297 656 283 638T252 603T206 558Q178 532 157 514T124 486T106 476Q103 476 101 477T99 481T98 488V522Q124 546 149 569T199 617Q216 633 232 648T264 679T297 710ZM90 47Q93 47 118
47T181 47T265 47T356 47T440 47T503 47T529 47Q534 47 537 44T540 36Q540 32 540 28T540 19T540 10T540 0Q537 0 512 0T449 0T365 0T274 0T190 0T128 0T101 0Q99 0 97 1T93 3Q92 5 91 7T90 11Q90 15 90 18T90 25T90 32T90 39T90 47Z" />
<glyph unicode="2" horiz-adv-x="600" d="M300 720Q355 720 395 709T462 677T502 627T515 561V541Q515 503 506 475T475 423T418 372T327 307Q261 261 220 228T156 165T125 99T117 11L86 41H153L96 35Q116 39 134 41T178 45T243 47H519Q524 47 527 44T530 36Q530
32 530 29T530 22T530 15T530 8T530 0Q527 0 502 0T437 0T352 0T259 0T173 0T109 0T81 0Q78 0 76 1T72 5T70 11V40Q70 108 94 156T168 247T296 344Q352 382 385 408T436 454T459 495T465 542V553Q465 579 457 598T435 632Q418 652 385 661T293 670Q235 670 189
652T99 590H87Q87 595 87 599T87 608T87 617T87 624T87 631Q87 638 88 641T95 650Q126 679 176 699T300 720Z" />
<glyph unicode="3" horiz-adv-x="600" d="M290 720Q368 720 417 696T490 633T514 550V527Q514 490 496 455T438 394T329 357L357 388V325L329 355Q403 345 445 319T506 259T524 187V164Q524 115 497 73T417 6T284 -20Q236 -20 198 -12T131 10T84 41Q80 46 79 48T77
56Q77 58 77 61T77 69T77 79T77 90T77 100H89Q118 74 146 58T208 34T285 27Q338 27 379 42T445 88T470 165V183Q470 221 450 249T391 295T301 323T184 332Q179 332 176 335T173 343Q173 348 173 352T173 361T173 370T173 379Q246 379 300 390T390 421T443 469T461
531V546Q461 584 441 612T382 657T290 673Q229 673 187 657T99 603H87Q87 608 87 612T87 620T87 628T87 636T87 645Q87 648 88 650T90 653Q117 680 169 700T290 720Z" />
<glyph unicode="4" horiz-adv-x="600" d="M371 700Q376 700 379 700T386 700T392 700T399 700T407 700V688Q377 639 347 590T287 492T225 391T161 287T93 177L110 223V174L80 190Q120 194 158 196T238 199T328 200H549Q553 200 555 199T558 195T560 189Q560 185
560 182T560 175T560 169T560 162T560 154H66Q63 154 61 155T57 159T55 165V200Q55 200 63 214T87 253T123 314T170 392T225 483T287 585T352 692Q355 696 358 697T365 699T371 700ZM420 390Q425 390 430 390T439 390T449 390T459 390Q463 390 465 389T468 385T470
379V100Q470 88 470 73T470 43T470 17T470 0Q466 0 462 0T455 0T447 0T439 0T431 0Q426 0 423 3T420 11Q420 30 420 49T420 86T420 124T420 162T420 200Q420 221 420 245T420 295T420 344T420 390Z" />
<glyph unicode="5" horiz-adv-x="600" d="M126 700Q130 700 151 700T205 700T274 700T348 700T416 700T467 700T489 700Q494 700 497 697T500 689Q500 685 500 682T500 675T500 669T500 662T500 654Q498 654 473 654T411 654T331 654T252 654T190 654T164 654Q153
654 144 658T131 670T126 685Q126 689 126 692T126 700ZM126 700H175L172 689Q171 683 170 675T167 643Q163 604 157 552T145 446T134 349L125 375H179L117 358Q160 384 205 395T311 406Q364 406 404 394T470 359T510 303T524 227V182Q524 139 508 103T462 39T388
-4T290 -20Q245 -20 205 -12T132 10T80 45Q79 47 78 48T77 53Q77 58 77 62T77 72T77 81T77 90T77 100H89Q134 60 178 44T290 27Q378 27 426 71T474 191V211Q474 259 457 292T404 342T308 359Q262 359 218 351T133 328H95Q91 328 88 331T85 342Q87 362 91 393T99
463T108 543T117 625T126 700Z" />
<glyph unicode="6" horiz-adv-x="600" d="M331 720Q390 720 432 705T496 670Q500 666 501 664T502 656Q502 652 502 649T502 641T502 633T502 624T502 615H490Q452 647 415 660T328 673Q281 673 248 661T188 623Q157 592 141 543T125 427V278Q125 225 131 184T149
114T181 64Q202 43 231 34T300 24Q383 24 430 64T478 193V224Q478 265 471 289T446 329Q425 351 391 362T306 373Q251 373 205 356T114 299L88 363H164L115 342Q152 381 199 400T309 420Q377 420 426 400T501 340T528 243V181Q528 122 500 77T422 6T305 -20Q224
-20 173 11T99 108T75 277V426Q75 482 86 528T118 610T171 670T242 707T331 720Z" />
<glyph unicode="7" horiz-adv-x="600" d="M80 700Q88 700 95 700T109 697T120 693T127 687T130 679Q130 661 130 639T130 593T130 549T130 516T130 500Q126 500 122 500T114 500T107 500T99 500T91 500Q86 500 83 503T80 511Q80 516 80 535T80 581T80 634T80 678T80
700ZM279 0Q275 0 272 0T265 0T257 0T250 0T242 -1Q237 -1 234 2T231 10Q231 14 235 27T253 74T293 175T364 350Q378 383 393 420T425 499T462 585T504 682L488 621V687L518 661Q484 658 455 656T400 654T349 653H101Q98 653 95 656T89 664T84 675T81 687T80 700H529Q533
700 535 699T538 695T540 689V653Q540 651 535 637T520 598T496 536T463 454T421 350Q406 314 390 274T356 190T319 99T279 0Z" />
<glyph unicode="8" horiz-adv-x="600" d="M303 720Q370 721 419 699T497 638T525 546V529Q525 484 501 445T436 379T341 342L378 369V323L289 354Q371 380 422 425T474 528V539Q474 569 466 592T440 632Q418 653 383 664T297 674Q245 674 207 656T149 605T128
529Q128 497 140 471T183 422T272 378L357 347Q400 331 433 313T489 273T523 227T535 176V151Q535 97 506 59T424 0T300 -20Q232 -20 179 0T95 58T65 149V165Q65 207 84 246T145 311T250 344L214 318V359L300 328Q249 319 207 298T140 243T115 159Q115 114 138
85T202 41T300 26Q388 26 436 57T485 161Q485 192 473 216T430 260T346 300L260 332Q194 357 154 383T96 443T78 522V541Q78 591 105 631T182 695T303 720Z" />
<glyph unicode="9" horiz-adv-x="600" d="M295 720Q357 720 401 704T474 652T515 563T529 433V274Q529 203 512 149T463 57T383 0T273 -20Q232 -20 197 -13T137 6T95 33Q94 35 93 36T92 41Q92 45 92 49T92 57T92 66T92 76T92 85H104Q145 51 184 39T273 27Q320
27 357 40T419 81Q449 112 464 160T479 273V432Q479 507 466 557T425 635Q403 656 373 666T302 676Q220 676 173 632T126 505V459Q126 422 134 399T158 359Q179 338 214 328T298 317Q353 317 399 334T490 391V327H449L485 350Q460 309 406 290T295 270Q227 270
178 291T103 354T76 459V505Q76 572 103 620T180 694T295 720Z" />
<glyph unicode=":" horiz-adv-x="350" d="M222 411Q207 411 194 411T168 411T139 411Q136 411 134 412T130 416T128 422V511Q143 511 156 511T183 511T211 511Q215 511 217 510T220 506T222 500V411ZM222 -5Q207 -5 194 -5T168 -5T139 -5Q136 -5 134 -4T130 0T128
6V95Q143 95 156 95T183 95T211 95Q215 95 217 94T220 90T222 84V-5Z" />
<glyph unicode=";" horiz-adv-x="350" d="M222 411Q207 411 194 411T168 411T139 411Q136 411 134 412T130 416T128 422V511Q143 511 156 511T183 511T211 511Q215 511 217 510T220 506T222 500V411ZM377 -220Q367 -220 355 -220T333 -220Q341 -177 348 -138T362
-60T376 17T393 100Q406 100 419 100T446 100T471 100Q475 100 477 99T480 94T479 86Q468 49 457 12T434 -62T411 -136T387 -212Q386 -217 384 -218T377 -220Z" />
<glyph unicode="&lt;" horiz-adv-x="600" d="M80 339Q127 365 181 394T292 453T407 515T520 576Q520 564 520 553T520 529Q520 523 519 520T512 514Q474 494 435 473T357 431T277 388T198 346T118 303L125 323V283L118 297Q168 270 218 243T317 190T415 137T512
85Q517 82 518 79T520 70Q520 58 520 47T520 23Q449 62 378 100T234 176T91 253Q87 256 85 258T81 263T80 270Q80 287 80 305T80 339Z" />
<glyph unicode="=" horiz-adv-x="600" d="M76 450H513Q517 450 519 449T522 445T524 439Q524 429 524 420T524 400H87Q84 400 82 401T78 405T76 411Q76 421 76 430T76 450ZM76 200H513Q517 200 519 199T522 195T524 189Q524 179 524 170T524 150H87Q84 150 82
151T78 155T76 161Q76 171 76 180T76 200Z" />
<glyph unicode="&gt;" horiz-adv-x="600" d="M520 260Q473 234 419 205T308 146T193 84T80 23Q80 35 80 46T80 70Q80 76 81 79T88 85Q126 105 165 126T243 168T323 211T402 253T482 296L475 276V316L482 302Q432 329 382 356T283 409T185 462T88 514Q83 517 82
520T80 529Q80 541 80 552T80 576Q151 537 222 499T366 423T509 346Q514 344 516 342T519 336T520 329Q520 312 520 295T520 260Z" />
<glyph unicode="?" horiz-adv-x="600" d="M346 -5Q324 -5 290 -5T233 -5Q230 -5 228 -4T224 0T222 6V115Q245 115 279 115T335 115Q339 115 341 114T344 110T346 104V-5ZM300 720Q353 720 393 709T460 677T501 627T515 561V531Q515 499 506 477T476 434T422 391L378
360Q342 335 326 319T305 286T300 245V236H261Q258 236 256 237T252 241T250 247V255Q250 284 257 306T285 349T343 396L387 426Q416 446 433 461T457 492T465 530Q465 537 465 543T465 557Q465 614 424 643T300 673Q245 673 199 655T99 593H87Q87 604 87 615T87
637Q87 640 88 642T90 645Q113 668 146 685T218 711T300 720Z" />
<glyph unicode="@" horiz-adv-x="1050" d="M525 730Q628 730 708 705T843 631T926 514T955 359V237Q955 195 945 160T913 98T857 58T772 43H760Q726 43 703 54T667 87T655 142Q655 166 655 201T655 276T655 351T655 414Q655 415 656 426T659 457T663 498H694Q699
498 702 495T705 487Q705 460 705 418T705 326T705 231T705 150Q705 118 719 104T765 90H769Q816 90 846 105T890 152T905 237V358Q905 403 897 443T870 520T822 585Q792 616 749 637T651 671T525 683Q389 683 306 640T184 524T145 358V192Q145 147 154 106T181
30T229 -35Q275 -81 348 -107T525 -133Q589 -133 636 -125T723 -102T802 -65H814V-99Q814 -103 813 -105T810 -109Q798 -121 763 -137T668 -167T525 -180Q422 -180 342 -155T207 -81T124 37T95 194V356Q95 443 123 512T207 630T342 704T525 730ZM488 41Q443 41
409 59T355 112T335 194V356Q335 392 346 420T377 468T426 498T488 509Q537 509 573 489T644 430H670L661 362Q620 418 578 440T492 462Q467 462 447 455T414 433T393 399T385 352V198Q385 146 413 117T492 88Q521 88 549 97T606 129T661 188L670 120H644Q610 82
574 62T488 41Z" />
<glyph unicode="A" horiz-adv-x="650" d="M147 277H439Q447 277 455 277T470 277L492 287L498 257L503 230H158Q155 230 153 231T149 235T147 241V277ZM89 0Q79 0 70 0T49 0Q46 0 44 2T41 7T41 14Q58 64 75 113T110 213T144 312T179 411T214 511T248 610T283 710Q305
710 329 710T370 710Q374 710 376 709T380 705T382 699Q408 619 434 539T486 380T538 220T590 60Q595 45 600 30T610 0Q599 0 588 0T566 0Q562 0 560 1T556 7T551 18Q535 68 514 134T468 275T419 423T374 562T337 674L353 662H308L324 673Q307 626 286 565T240
434T189 289T138 141T89 0Z" />
<glyph unicode="B" horiz-adv-x="600" d="M334 0Q306 0 272 0T203 0T144 0T111 0Q106 0 103 3T100 11Q100 96 100 178T100 340T100 503T100 670H156L150 657Q150 607 150 566T150 475Q150 421 150 368T150 261T150 155T150 47Q181 47 206 47T257 47T313 47Q369
47 404 63T457 111T474 185V211Q474 245 457 272T397 316T275 333H132V370H404V356Q465 341 494 304T524 210V185Q524 124 501 83T434 21T334 0ZM30 700Q100 700 170 700T310 700Q361 700 399 689T461 657T498 606T510 539V514Q510 472 496 441T452 387T377 354T270
343Q237 343 205 343T139 343L132 338V380Q168 380 203 380T275 380Q352 380 391 397T445 444T460 513V539Q460 564 454 583T432 617Q415 634 385 643T310 653Q265 653 221 653T131 653T41 653Q36 653 33 656T30 664Q30 673 30 682T30 700Z" />
<glyph unicode="C" horiz-adv-x="600" d="M325 -20Q265 -20 219 -2T140 50T92 132T75 241V459Q75 520 91 568T140 650T218 702T325 720Q374 720 411 711T475 687T520 653Q522 652 522 650T523 646T524 643Q524 608 524 572T524 500Q514 500 505 500T485 500Q480
500 477 503T474 511Q474 537 474 562T474 613T474 664L497 613Q461 645 420 659T325 673Q263 673 219 648T151 575T127 454V246Q127 194 140 152T185 77Q211 51 246 39T325 27Q384 27 427 46T512 100H524Q524 95 524 90T524 79T524 69T524 61Q524 58 523 56T520
51Q497 28 468 13T402 -11T325 -20Z" />
<glyph unicode="D" horiz-adv-x="650" d="M575 245Q575 179 555 133T498 57T412 14T302 0Q277 0 256 0T215 0T178 0T144 0T111 0Q107 0 104 3T100 11Q100 95 100 178T100 345T100 512T100 680H159L152 669Q152 641 152 613T152 556Q152 493 152 430T152 302T152
175T152 47Q172 47 193 47T239 47T299 47Q377 47 427 68T501 133T525 249V451Q525 489 519 518T501 571T468 610Q447 627 423 636T367 649T291 653Q254 653 221 653T158 653T99 653T41 653Q38 653 36 654T32 658T30 664Q30 673 30 682T30 700Q60 700 91 700T155
700T227 700T312 700Q373 700 421 686T504 643T557 568T575 455V245Z" />
<glyph unicode="E" horiz-adv-x="550" d="M20 700H479Q483 700 485 699T488 695T490 689Q490 679 490 671T490 653H31Q28 653 26 654T22 658T20 664Q20 674 20 682T20 700ZM110 380H429Q432 380 434 379T438 375T440 369Q440 363 440 357T440 346T440 333H110V380ZM101
0Q99 0 97 1T94 3T91 7T90 11Q90 79 90 147T90 283T90 418T90 554T90 690H145L140 679Q140 660 140 640T140 597Q140 538 140 470T140 329T140 185T140 47H479Q484 47 487 44T490 36Q490 27 490 18T490 0H101Z" />
<glyph unicode="F" horiz-adv-x="550" d="M160 0Q150 0 141 0T121 0Q118 0 116 1T112 5T110 11Q110 95 110 180T110 351T110 520T110 687H166L160 677Q160 657 160 636T160 594Q160 506 160 416T160 243T160 98Q160 76 160 52T160 0ZM40 700H479Q483 700 485 699T488
695T490 689Q490 683 490 677T490 666T490 653H51Q48 653 46 654T42 658T40 664Q40 674 40 682T40 700ZM130 360H429Q434 360 437 357T440 349Q440 343 440 337T440 326T440 313H130V360Z" />
<glyph unicode="G" horiz-adv-x="650" d="M341 340H610Q613 340 615 339T619 335T621 329V293H352Q349 293 347 294T344 296T342 300T341 304Q341 314 341 322T341 340ZM352 720Q394 720 429 715T491 701T538 680T571 654Q573 652 574 649T575 644Q575 621 575
597T575 548T575 500Q565 500 556 500T536 500Q531 500 528 503T525 511Q525 537 525 562T525 613T525 664L548 613Q516 648 467 660T346 673Q295 673 255 659T186 615T143 540T128 431V239Q128 189 143 150T187 81Q212 56 250 42T344 27Q403 27 443 42T503 75T524
98Q524 139 524 173T524 243T524 318H578L574 307Q574 247 574 197T574 87Q574 83 573 81T569 74Q549 47 515 26T437 -8T346 -20Q282 -20 232 -2T147 49T94 129T76 234V436Q76 505 94 558T147 647T234 701T352 720Z" />
<glyph unicode="H" horiz-adv-x="650" d="M90 700Q100 700 109 700T129 700Q134 700 137 697T140 689Q140 603 140 517T140 345T140 172T140 0Q130 0 121 0T101 0Q98 0 96 1T92 5T90 11Q90 109 90 207T90 404T90 601Q90 626 90 650T90 700ZM126 380H482Q490 380
498 380T513 380L535 390V333H137Q134 333 132 334T129 336T127 340T126 344V380ZM560 0Q550 0 541 0T521 0Q518 0 516 1T512 5T510 11Q510 97 510 183T510 355T510 528T510 700Q520 700 529 700T549 700Q551 700 553 699T556 697T559 693T560 689Q560 616 560
542T560 395T560 248T560 100Q560 75 560 50T560 0Z" />
<glyph unicode="I" horiz-adv-x="500" d="M275 20H222L225 31Q225 51 225 72T225 114Q225 185 225 255T225 396T225 538T225 680H281L275 669Q275 653 275 636T275 602Q275 529 275 457T275 311T275 166T275 20ZM420 0H91Q88 0 86 1T83 3T81 7T80 11Q80 18 80
23T80 35T80 47H409Q412 47 414 46T418 42T420 36Q420 30 420 24T420 13T420 0ZM80 700H409Q414 700 417 697T420 689Q420 684 420 680T420 671T420 663T420 653H91Q86 653 83 656T80 664Q80 669 80 673T80 682T80 690T80 700Z" />
<glyph unicode="J" horiz-adv-x="500" d="M209 27Q244 27 273 38T325 71Q342 88 354 111T373 166T380 242Q380 292 380 345T380 453T380 566T380 683L390 648L371 664L410 653Q370 653 332 653T256 653T180 653T101 653Q98 653 96 654T92 658T90 664Q90 673 90
682T90 700Q132 700 173 700T254 700T336 700T419 700Q423 700 425 699T429 695T430 689Q430 629 430 571T430 455T430 344T430 239Q430 177 415 129T371 47T301 -3T206 -20Q176 -20 148 -14T98 3T64 25Q63 27 62 28T61 31T60 35Q60 45 60 53T60 72H72Q92 58 114
48T160 33T209 27Z" />
<glyph unicode="K" horiz-adv-x="600" d="M265 383Q316 308 367 234T470 84Q484 64 497 57T530 50Q537 50 541 50T550 50H560Q560 45 560 40T560 29T560 19T560 11Q560 6 557 3T549 0Q545 0 542 0T534 0T526 0Q502 0 486 6T455 25T426 59Q399 99 376 134T332 200T295
263T263 325H235L265 383ZM522 700Q525 700 526 699T529 697T530 694Q530 691 528 686T516 668T484 627Q462 599 436 565T381 494T321 417T257 334T191 249T124 163V250H152Q165 276 182 303T220 360T263 418T308 478Q337 515 365 552T421 626T478 700H522ZM90
700Q100 700 109 700T129 700Q134 700 137 697T140 689Q140 603 140 517T140 345T140 172T140 0Q130 0 121 0T101 0Q96 0 93 3T90 11Q90 109 90 207T90 404T90 601Q90 626 90 650T90 700Z" />
<glyph unicode="L" horiz-adv-x="550" d="M101 0Q98 0 96 0T93 2T91 6T90 11Q90 96 90 184T90 354T90 500T90 600Q90 625 90 650T90 700Q100 700 109 700T129 700Q133 700 135 699T138 695T140 689Q140 609 140 529T140 368T140 208T140 47H459Q466 47 471 43T481
31T487 15T490 0H101ZM440 165Q447 165 453 165T466 165T479 165Q482 165 484 164T488 160T490 154Q490 136 490 117T490 77T490 38T490 0Q470 0 459 3T444 13T440 31Q440 52 440 75T440 121T440 165Z" />
<glyph unicode="M" horiz-adv-x="800" d="M139 0Q129 0 120 0T101 0Q98 0 96 1T92 5T90 11Q90 85 90 158T90 306T90 454T90 601Q90 626 90 650T90 700Q98 700 113 700T144 700T167 700Q171 700 174 699T179 695T183 687Q205 638 227 586T273 478T319 367T367 253T416
140L367 202H431L381 140Q407 197 433 257T484 378T534 496T581 605T622 700Q630 700 645 700T676 700T699 700Q702 700 704 699T708 695T710 689Q710 684 710 653T710 571T710 461T710 336T710 212T710 102Q710 85 710 68T710 34T710 0Q696 0 686 0T671 0Q668
0 666 1T662 5T660 11Q660 36 660 61T660 112T660 162Q660 201 660 239T660 317T661 398T663 482T665 571T668 666L688 640H626L662 675Q639 622 614 564T562 445T511 326T463 216T420 120Q411 120 402 120T383 120Q380 120 377 121T371 129Q361 152 342 196T299
298T247 420T192 549T140 669L176 640H117L131 670Q133 620 134 574T137 484T138 399T138 318T139 240T139 162Q139 122 139 82T139 0Z" />
<glyph unicode="N" horiz-adv-x="650" d="M130 0Q120 0 111 0T91 0Q88 0 86 1T82 5T80 11Q80 80 80 148T80 285T80 422T80 560Q80 595 80 630T80 700Q91 700 106 700T135 700T161 700Q165 700 168 699T173 696T177 690Q188 669 209 627T259 529T321 408T390 274T460
140T523 17L484 52H540L525 27Q523 77 522 128T521 231T520 335T520 438T520 538Q520 579 520 619T520 700Q530 700 539 700T559 700Q564 700 567 697T570 689Q570 624 570 559T570 429T570 298T570 168Q570 126 570 84T570 0Q560 0 545 0T514 0T488 0Q482 0 479
2T471 12Q438 76 397 155T310 323T217 502T125 679L159 640H112L125 680Q127 623 127 569T128 461T129 357T130 257T130 160Q129 128 129 84T130 0Z" />
<glyph unicode="O" horiz-adv-x="650" d="M326 720Q397 720 453 692T542 604T575 451V241Q575 149 540 92T448 7T324 -20Q258 -20 202 7T110 92T75 242V451Q75 544 107 603T195 691T326 720ZM125 236Q125 182 142 143T185 77Q207 56 239 42T324 27Q382 27 427
52T498 125T525 241V459Q525 498 517 529T495 584T463 625Q441 646 406 659T326 673Q255 673 211 646T146 570T125 459V236Z" />
<glyph unicode="P" horiz-adv-x="600" d="M150 0Q140 0 131 0T111 0Q106 0 103 3T100 11Q100 95 100 178T100 345T100 512T100 680H155L150 669Q150 650 150 632T150 595Q150 513 150 430T150 265T150 100Q150 74 150 49T150 0ZM30 700Q101 700 171 700T312 700Q345
700 377 696T438 680T488 649T522 597T535 519V451Q535 408 521 374T478 317T409 281T318 268Q275 268 231 268T143 268L132 265V315Q178 315 223 315T315 315Q357 315 388 324T441 351T472 395T483 455V524Q483 553 476 575T451 613Q431 633 396 643T310 653Q265
653 221 653T131 653T41 653Q36 653 33 656T30 664Q30 673 30 682T30 700Z" />
<glyph unicode="Q" horiz-adv-x="650" d="M442 39Q463 12 483 -15T525 -70Q539 -88 551 -94T580 -100Q587 -100 591 -100T600 -100H610Q610 -110 610 -119T610 -139Q610 -144 607 -147T599 -150Q593 -150 587 -150T574 -150Q554 -150 539 -145T512 -129T487 -102Q466
-73 445 -44T402 13L442 39ZM326 720Q397 720 453 692T542 604T575 451V241Q575 149 540 92T448 7T324 -20Q258 -20 202 7T110 92T75 242V451Q75 544 107 603T195 691T326 720ZM125 236Q125 182 142 143T185 77Q207 56 239 42T324 27Q382 27 427 52T498 125T525
241V459Q525 498 517 529T495 584T463 625Q441 646 406 659T326 673Q255 673 211 646T146 570T125 459V236Z" />
<glyph unicode="R" horiz-adv-x="600" d="M343 332Q375 272 406 212T469 91Q483 66 496 57T530 47Q537 47 541 47T550 47H560Q560 37 560 29T560 11Q560 6 557 3T549 0Q542 0 535 0T520 0Q499 0 481 8T449 32T420 74Q390 133 360 191T299 308L343 332ZM30 700Q102
700 174 700T318 700Q365 700 402 688T464 652T502 594T515 517V476Q515 434 502 400T463 342T402 306T318 293Q275 293 231 293T143 293L132 284V340Q178 340 223 340T315 340Q365 340 397 356T446 403T463 480V513Q463 545 455 571T428 615Q410 633 383 643T315
653Q269 653 224 653T133 653T41 653Q36 653 33 656T30 664Q30 673 30 682T30 700ZM150 0Q140 0 131 0T111 0Q106 0 103 3T100 11Q100 95 100 178T100 345T100 512T100 680H162L150 669Q150 611 150 554T150 438Q150 382 150 326T150 213T150 100Q150 74 150 49T150
0Z" />
<glyph unicode="S" horiz-adv-x="600" d="M317 716Q382 716 433 702T509 661Q514 657 515 654T517 645Q517 625 517 604T517 563T517 522Q507 522 498 522T478 522Q473 522 470 525T467 533Q467 550 467 566T467 599T467 633T467 666L494 614Q469 641 425 655T317
669Q277 669 245 660T189 633T153 590T140 534V515Q140 484 150 460T187 419T260 387L357 359Q402 346 434 332T487 299T516 257T526 198V166Q526 112 500 71T422 7T299 -16Q250 -16 208 -8T133 14T83 46Q79 50 78 53T77 61Q77 68 77 74T77 87T77 100H89Q133 61
181 46T299 31Q379 31 427 66T475 169V189Q475 221 464 242T425 278T349 308L251 337Q206 350 176 366T126 402T99 449T90 509V539Q90 579 107 611T154 667T226 703T317 716Z" />
<glyph unicode="T" horiz-adv-x="600" d="M60 700H529Q534 700 537 697T540 689Q540 679 540 671T540 653H71Q68 653 66 654T62 658T60 664Q60 674 60 682T60 700ZM325 0Q315 0 306 0T286 0Q281 0 278 3T275 11Q275 95 275 178T275 345T275 512T275 680H331L325
669Q325 640 325 611T325 553T325 494Q325 429 325 363T325 232T325 100Q325 74 325 49T325 0Z" />
<glyph unicode="U" horiz-adv-x="650" d="M560 0Q554 0 548 0T535 0T521 0Q519 0 517 0T514 2T512 4T511 7T510 11Q510 97 510 183T510 355T510 528T510 700Q517 700 523 700T536 700T549 700Q552 700 554 699T558 695T560 689Q560 616 560 542T560 395T560 248T560
100Q560 75 560 50T560 0ZM268 -20Q223 -20 189 -7T132 30T97 89T85 167Q85 230 85 301T85 448T85 601Q85 626 85 650T85 700Q95 700 104 700T124 700Q127 700 129 699T133 695T135 689Q135 602 135 514T135 340T135 169Q135 102 171 65T270 27Q317 27 361 45T447
110T531 238V101H490Q463 64 430 37T357 -5T268 -20Z" />
<glyph unicode="V" horiz-adv-x="650" d="M85 700Q87 700 88 700T90 698T92 694Q120 613 149 529T207 357T267 182T327 5L289 40H358L324 5Q347 74 371 143T419 283T468 422T517 561T564 700Q575 700 586 700T608 700Q611 700 612 699T613 695T613 689Q594 631
574 573T534 457T494 340T455 223T415 107T375 -10Q356 -10 332 -10T288 -10Q282 -10 279 -7T272 8Q256 52 239 102T204 206T166 317T129 430T92 538Q83 566 74 592T55 645T36 700Q48 700 60 700T85 700Z" />
<glyph unicode="W" horiz-adv-x="950" d="M45 700Q53 700 61 700T76 700T91 700Q95 700 97 699T101 694T104 687Q119 620 134 554T164 420T194 286T224 152T255 18L235 40H289L265 20Q285 92 308 180T356 360T404 540T447 700H499Q502 700 504 699T508 696T511
690Q527 632 545 564T582 423T621 279T657 141T689 18L666 40H714L701 27Q715 94 730 161T759 295T789 430T820 564T851 700Q859 700 866 700T880 700T894 700Q899 700 901 698T904 693T904 684Q891 627 878 570T850 456T823 341T795 225T768 110T740 -6Q732 -6
721 -6T699 -6T676 -6T657 -6Q653 -6 649 -4T643 5Q628 63 609 136T567 294T521 469T471 653L513 598H451L483 652Q463 578 444 505T406 363T370 228T336 104T306 -6Q295 -6 280 -6T249 -6T222 -6Q218 -6 215 -4T209 5Q194 71 179 137T149 266T120 390T93 505T69
607Q66 618 59 646T45 700Z" />
<glyph unicode="X" horiz-adv-x="600" d="M519 0Q514 0 510 2T502 7T495 13Q461 66 425 120T355 228T288 331L260 351Q224 408 186 465T110 582T34 700Q47 700 60 700T86 700Q91 700 94 698T101 694T107 687Q141 636 174 585T239 484T303 386L335 358Q391 273
450 183T568 0Q556 0 544 0T519 0ZM544 700Q550 700 553 697T556 690T553 681Q530 646 507 611T460 541T413 470T366 400T319 330L290 387H315Q330 419 342 442T368 489T398 540T441 606T503 700Q513 700 523 700T544 700ZM46 0Q41 0 38 3T34 10T37 19Q60 54 82
89T127 160T173 231T218 302T264 373L297 327H278Q261 293 248 269T223 221T193 170T150 101T85 0Q76 0 66 0T46 0Z" />
<glyph unicode="Y" horiz-adv-x="650" d="M352 0Q346 0 340 0T327 0T313 0Q310 0 308 1T304 5T302 11Q302 88 302 165T302 320H352Q352 285 352 248T352 173T352 100Q352 74 352 49T352 0ZM48 700Q59 700 71 700T94 700Q100 700 103 699T108 696T111 690Q141 639
170 591T227 494T282 398T336 299L312 335H352L317 296Q349 355 376 403T429 497T485 591T552 700Q563 700 574 700T595 700Q598 700 600 696T601 687Q578 649 553 608T501 524T449 439T397 355T348 277Q335 277 327 277T315 277T308 279T304 281Q280 319 255 361T203
446T150 532T98 618T48 700Z" />
<glyph unicode="Z" horiz-adv-x="600" d="M540 0H71Q66 0 63 3T60 11V57Q102 117 145 176T234 300T334 440Q362 480 381 507T416 555T445 594T477 633T520 680L485 621V676L508 653Q428 653 364 653T246 653T138 653H114Q107 653 102 654T92 660T85 674T80 700H529Q533
700 535 699T538 695T540 689V643Q535 635 506 595T430 489T321 333Q283 278 257 241T212 177T177 130T141 86T96 32L118 73V19L100 47Q181 47 245 47T364 47T472 47H529Q534 47 537 44T540 36Q540 27 540 18T540 0ZM130 550Q120 550 111 550T91 550Q88 550 86
551T82 555T80 561Q80 578 80 595T80 630T80 665T80 700Q100 700 111 697T126 688T130 669Q130 650 130 630T130 590T130 550Z" />
<glyph unicode="[" horiz-adv-x="450" d="M400 -161H96Q93 -161 91 -161T88 -159T86 -155T85 -150Q85 -46 85 57T85 264T85 472T85 679Q85 699 85 719T85 760Q92 760 98 760T112 760H389Q394 760 397 757T400 749Q400 741 400 732T400 710H135Q135 608 135 505T135
300T135 94T135 -111H389Q394 -111 397 -114T400 -122Q400 -132 400 -141T400 -161Z" />
<glyph unicode="\" horiz-adv-x="600" d="M94 750Q107 750 116 750T139 750Q142 750 144 750T148 748T151 743Q203 616 254 489T357 234T460 -21Q471 -48 482 -75T504 -130Q491 -130 482 -130T460 -130Q456 -130 452 -128T445 -119Q387 26 329 171T212 461T94 750Z" />
<glyph unicode="]" horiz-adv-x="450" d="M50 760H354Q357 760 359 760T362 758T364 754T365 749Q365 646 365 542T365 335T365 128T365 -80Q365 -100 365 -120T365 -161Q358 -161 352 -161T338 -161H61Q56 -161 53 -158T50 -150Q50 -142 50 -133T50 -111H315Q315
-9 315 94T315 299T315 505T315 710H61Q56 710 53 713T50 721Q50 731 50 740T50 760Z" />
<glyph unicode="^" horiz-adv-x="600" d="M253 750Q270 750 287 750T322 750Q328 750 331 748T339 739Q368 686 391 643T436 558T481 474T534 376Q522 376 511 376T487 376Q481 376 478 377T472 384Q446 433 426 471T386 544T346 619T298 708L315 700H261L291
715Q261 659 239 617T197 539T157 464T110 376H66Q64 376 63 376T60 378T59 382Q59 385 60 388T67 402Q75 417 94 453T140 539T196 643T253 750Z" />
<glyph unicode="_" horiz-adv-x="600" d="M76 -100H513Q517 -100 519 -101T522 -105T524 -111Q524 -121 524 -130T524 -150H87Q84 -150 82 -149T78 -145T76 -139Q76 -129 76 -120T76 -100Z" />
<glyph unicode="`" horiz-adv-x="350" d="M176 720Q190 670 205 620T235 520T264 420Q255 420 245 420T221 420Q217 420 214 421T208 428Q193 463 178 497T148 567T117 637T86 707Q84 713 87 716T96 720Q114 720 124 720T145 720T176 720Z" />
<glyph unicode="a" horiz-adv-x="600" d="M485 361Q485 330 485 298T485 234T485 169T485 106Q485 87 488 76T498 57Q504 51 513 49T534 46Q536 46 538 46T543 46H555Q555 37 555 29T555 11Q555 5 552 3T544 0Q539 0 537 0T532 0Q512 0 495 5T464 21T443 51T435
97Q435 135 435 178T435 259Q435 275 435 291T435 324T435 356Q435 407 423 435T380 474T294 486Q264 486 237 483T185 472T132 454H120Q120 464 120 473T120 492Q120 495 121 497T123 500Q128 505 152 513T213 529T294 536Q344 536 380 527T440 496T474 442T485
361ZM135 132Q135 86 162 62T242 38Q283 38 317 49T385 90T454 172V83H424Q405 53 379 32T319 1T242 -10Q193 -10 158 6T104 54T85 131V159Q85 193 95 219T126 263T176 290T242 300Q276 300 308 300T373 300T445 300Q453 300 456 294T461 278T462 253Q420 253 387
253T320 253T242 253Q214 253 194 247T159 226Q147 214 141 197T135 158V132Z" />
<glyph unicode="b" horiz-adv-x="600" d="M145 0Q140 0 137 0T130 0T121 0Q118 0 116 1T112 5T110 11Q110 91 110 170T110 330T110 489T110 649Q110 675 110 700T110 750Q115 750 120 750T129 750T139 750T149 750Q153 750 155 749T158 745T160 739Q160 657 160
575T160 411T160 246T160 82Q160 82 159 74T155 53T151 29T147 8T145 0ZM145 80V174Q188 96 235 67T334 37Q377 37 408 56T457 112T475 203V333Q475 372 465 402T434 452Q416 470 391 479T334 489Q299 489 267 476T204 432T145 350V442H172Q194 472 218 493T274
525T343 536Q382 536 415 523T473 484T511 422T525 340V196Q525 148 512 110T473 45T414 4T339 -10Q303 -10 273 -1T218 29T171 80H145Z" />
<glyph unicode="c" horiz-adv-x="500" d="M298 536Q337 536 366 529T413 511T438 494Q442 490 442 488T443 481Q443 473 443 465T443 448H431Q412 462 381 475T298 489Q240 489 202 468T144 406T125 305V205Q125 165 135 134T167 82Q189 60 222 49T298 37Q333
37 357 42T400 55T431 73H443Q443 64 443 56T443 38Q443 36 443 34T440 30Q432 22 415 13T369 -3T297 -10Q243 -10 202 3T133 44T90 112T75 204V310Q75 388 105 438T185 512T298 536Z" />
<glyph unicode="d" horiz-adv-x="600" d="M261 536Q298 536 327 526T382 495T428 443H455V344Q412 420 366 454T266 489Q223 489 192 470T143 414T125 323V193Q125 154 136 124T166 74Q184 56 209 47T266 37Q301 37 333 50T396 95T455 176V84H428Q408 54 383 33T326
1T257 -10Q218 -10 185 3T127 42T89 104T75 186V330Q75 378 88 416T127 481T186 522T261 536ZM479 750Q483 750 485 749T488 745T490 739Q490 659 490 575T490 408T490 247T490 100Q490 67 490 42T490 0Q485 0 480 0T471 0T461 0T451 0Q448 0 446 1T442 5T440 11Q440
91 440 171T440 330T440 490T440 650Q440 674 440 699T440 750Q445 750 450 750T459 750T469 750T479 750Z" />
<glyph unicode="e" horiz-adv-x="600" d="M303 536Q355 536 402 515T480 445T511 310V245Q511 242 510 240T506 236T500 234H212Q196 234 180 234T148 234H129L107 281H461Q461 287 461 293T461 306Q461 356 450 392T415 450Q395 470 367 479T303 489Q225 489
180 445T135 301V212Q135 172 146 140T178 86Q202 62 239 50T329 37Q368 37 395 41T445 56T496 82H508Q508 74 508 65T508 48Q508 46 508 44T505 40Q492 27 467 16T406 -3T323 -10Q272 -10 229 3T153 43T103 111T85 210V304Q85 370 103 414T153 486T224 524T303
536Z" />
<glyph unicode="f" horiz-adv-x="400" d="M40 526H329Q332 526 334 525T338 521T340 515Q340 505 340 497T340 479H51Q48 479 46 480T42 484T40 490Q40 500 40 508T40 526ZM200 11Q200 6 197 3T189 0Q179 0 170 0T150 0Q150 25 150 49T150 99Q150 170 150 227T150
336T150 446T150 573Q150 620 160 655T191 714T241 748T308 760Q328 760 344 757T372 748T387 739Q389 738 389 736T390 731Q390 722 390 713T390 694H378Q368 700 357 704T335 710T309 713Q290 713 272 708T239 692Q223 680 212 651T200 565Q200 509 200 454T200
343T200 233T200 123T200 11Z" />
<glyph unicode="g" horiz-adv-x="600" d="M126 92Q126 111 132 127T149 157T175 180V199L220 183Q198 167 187 146T176 98Q176 73 189 62T225 50H390Q442 50 477 33T529 -16T547 -89V-110Q547 -139 535 -164T501 -209T447 -239T376 -250H202Q150 -250 116 -232T64
-185T46 -119V-102Q46 -71 57 -46T91 -2T146 23V48L203 8Q163 5 140 -12T106 -53T96 -102V-119Q96 -140 106 -159T140 -190T203 -202H389Q418 -202 438 -192T472 -169Q485 -156 490 -142T496 -110V-91Q496 -53 472 -27T389 0H225Q197 0 175 10T139 41T126 92ZM345
490H420V474Q453 457 466 426T480 362V336Q480 287 455 250T383 193T275 172Q213 172 167 192T96 249T70 335V361Q70 413 95 451T167 510T275 531Q343 531 411 531T546 531Q546 522 546 513T546 495Q546 491 543 488T535 484Q492 484 449 484T362 484T275 484Q204
484 162 452T120 361V335Q120 312 127 293T150 259Q170 240 201 229T275 218Q346 218 388 249T430 336V362Q430 388 422 410T396 452T345 490Z" />
<glyph unicode="h" horiz-adv-x="600" d="M121 0Q118 0 116 1T112 5T110 11Q110 91 110 170T110 330T110 491T110 650Q110 686 110 712T110 750Q117 750 123 750T136 750T149 750Q153 750 155 749T158 745T160 739Q160 647 160 555T160 370T160 185T160 0Q154
0 148 0T135 0T121 0ZM147 363V435H172Q192 458 212 476T255 508T303 529T356 536Q391 536 417 525T460 494T486 449T495 393Q495 345 495 297T495 202T495 106Q495 79 495 53T495 0Q485 0 476 0T456 0Q453 0 451 1T447 5T445 11Q445 73 445 135T445 259T445 383Q445
437 418 463T346 489Q322 489 299 482T251 459T202 420T147 363Z" />
<glyph unicode="i" horiz-adv-x="350" d="M170 11Q170 58 170 104T170 198T170 292T170 385T170 479H150Q139 479 128 479T106 479T83 479T61 479Q57 479 54 482T50 490Q50 499 50 508T50 526Q66 526 82 526T114 526T145 526T177 526T209 526Q212 526 214 525T218
521T220 515Q220 461 220 408T220 301T220 195T220 87Q220 73 220 59T220 30T220 0Q210 0 201 0T181 0Q177 0 174 3T170 11ZM157 756Q166 756 174 756T191 756T208 756T226 756Q231 756 234 753T237 745V676Q228 676 220 676T203 676T186 676T168 676Q163 676 160
679T157 687V756Z" />
<glyph unicode="j" horiz-adv-x="350" d="M234 526Q238 526 240 525T244 521T245 515Q245 454 245 398T245 287T245 179T245 68T245 -50Q245 -84 237 -111T211 -159T168 -189T105 -200Q82 -200 63 -196T31 -187T13 -176Q12 -174 11 -173T10 -168Q10 -159 10 -150T10
-132H22Q37 -139 49 -144T76 -151T108 -153Q129 -153 145 -147T172 -129Q180 -120 185 -109T192 -83T195 -50Q195 22 195 87T195 214T195 342T195 479H184Q169 479 154 479T123 479T92 479T61 479Q57 479 54 482T50 490Q50 499 50 508T50 526Q73 526 96 526T142
526T188 526T234 526ZM180 756Q189 756 197 756T214 756T231 756T249 756Q254 756 257 753T260 745V676Q251 676 243 676T226 676T209 676T191 676Q186 676 183 679T180 687V756Z" />
<glyph unicode="k" horiz-adv-x="600" d="M160 0Q154 0 148 0T135 0T121 0Q118 0 116 1T112 5T110 11Q110 91 110 171T110 330T110 490T110 650Q110 686 110 712T110 750Q117 750 123 750T136 750T149 750Q153 750 155 749T158 745T160 739Q160 647 160 555T160
370T160 185T160 0ZM491 0Q484 0 479 2T470 9Q466 14 452 30T418 70T377 118T337 164Q315 190 302 207T280 239T264 272H235L265 322Q312 269 358 216T450 110T546 0Q534 0 525 0T509 0T491 0ZM146 238H171Q183 256 194 270T216 297T240 322T269 349Q290 368 320
395T388 456T464 526L514 529Q518 529 520 528T523 524T525 518Q525 517 524 514T516 506Q483 476 451 448T388 392T326 337T265 284T206 231T146 178V238Z" />
<glyph unicode="l" horiz-adv-x="350" d="M60 750Q69 750 81 750T108 750T134 750T156 750T169 750Q173 750 175 749T178 745T180 739Q180 701 180 639T180 504T180 358T180 223T180 123Q180 98 182 85T195 61Q205 51 221 49T256 47Q262 47 267 47T276 47H288Q288
38 288 29T288 11Q288 7 287 5T283 2T277 0Q274 0 269 0T256 0T239 0Q211 0 191 6T157 26T137 59T130 108Q130 149 130 210T130 342T130 482T130 610T130 703H119Q115 703 105 703T86 703T71 703Q66 703 63 706T60 714Q60 723 60 732T60 750Z" />
<glyph unicode="m" horiz-adv-x="850" d="M740 0Q734 0 728 0T715 0T701 0Q698 0 696 1T692 5T690 11Q690 53 690 95T690 177T690 255T690 327T690 389Q690 437 670 463T604 489Q575 489 546 474T488 429T433 356L430 443H457Q482 476 506 496T555 526T608 536Q635
536 659 528T701 504T730 461T740 398Q740 370 740 336T740 263T740 183T740 99Q740 74 740 50T740 0ZM450 0Q444 0 438 0T425 0T411 0Q408 0 406 1T402 5T400 11Q400 54 400 96T400 178T400 257T400 330T400 395Q400 424 392 445T365 477T316 489Q289 489 260
474T203 428T146 354V443H171Q194 472 217 493T266 525T321 536Q352 536 376 527T416 500T441 457T450 400Q450 359 450 312T450 214T450 109T450 0ZM160 0Q155 0 150 0T141 0T131 0T121 0Q118 0 116 0T113 2T111 6T110 11Q110 80 110 149T110 287T110 426Q110
462 110 488T110 526Q115 526 120 526T129 526T139 526T149 526Q149 526 151 513T155 483T158 453T160 439Q160 387 160 317T160 167T160 0Z" />
<glyph unicode="n" horiz-adv-x="600" d="M495 0Q485 0 476 0T456 0Q453 0 451 1T447 5T445 11Q445 73 445 135T445 259T445 383Q445 437 418 463T346 489Q322 489 299 482T251 459T202 420T147 363V435H172Q198 466 226 488T286 523T356 536Q391 536 417 525T460
494T486 449T495 393Q495 345 495 297T495 202T495 106Q495 79 495 53T495 0ZM160 0Q154 0 148 0T135 0T121 0Q118 0 116 0T113 2T111 6T110 11Q110 63 110 115T110 218T110 322T110 426Q110 462 110 488T110 526Q117 526 123 526T136 526T149 526Q153 526 155
525T158 521T160 515Q160 430 160 344T160 172T160 0Z" />
<glyph unicode="o" horiz-adv-x="600" d="M300 536Q349 536 388 521T456 477T500 411T515 328V207Q515 143 486 94T408 18T300 -10Q251 -10 212 5T144 49T100 115T85 198V319Q85 384 114 432T192 508T300 536ZM309 488Q252 488 214 465T155 403T135 319V205Q135
168 147 137T182 83Q202 62 230 50T291 38Q348 38 387 62T445 125T465 207V321Q465 360 453 391T419 445Q399 465 371 476T309 488Z" />
<glyph unicode="p" horiz-adv-x="600" d="M110 526Q117 526 123 526T136 526T149 526Q153 526 155 525T158 521T160 515Q160 426 160 337T160 158T160 -21T160 -200Q154 -200 148 -200T135 -200T121 -200Q118 -200 116 -199T112 -195T110 -189Q110 -112 110 -35T110
118T110 272T110 426Q110 449 110 474T110 526ZM343 536Q396 536 437 513T501 445T525 340V196Q525 148 512 110T473 45T414 4T339 -10Q303 -10 273 -2T218 23T172 68H145V152Q180 90 227 64T334 37Q377 37 408 56T457 112T475 203V333Q475 372 465 402T434 452Q416
470 391 479T334 489Q299 489 267 474T205 427T145 342V434H172Q193 467 218 489T275 524T343 536Z" />
<glyph unicode="q" horiz-adv-x="600" d="M440 526Q450 526 459 526T479 526Q483 526 485 525T488 521T490 515Q490 438 490 357T490 196T490 41T490 -100Q490 -133 490 -158T490 -200Q480 -200 471 -200T451 -200Q448 -200 446 -199T442 -195T440 -189Q440 -112
440 -35T440 118T440 272T440 426Q440 442 440 458T440 492T440 526ZM455 80H428Q407 48 382 28T326 -1T257 -10Q205 -10 164 13T99 81T75 186V330Q75 378 88 416T127 481T186 522T261 536Q298 536 327 526T382 495T428 443H455V344Q412 420 366 454T266 489Q223
489 192 470T143 414T125 323V193Q125 154 136 124T166 74Q184 56 209 47T266 37Q303 37 334 51T395 97T455 179V80Z" />
<glyph unicode="r" horiz-adv-x="450" d="M146 433H172Q200 472 226 494T279 526T335 536Q354 536 367 534T392 528Q398 526 400 522T402 511Q402 507 402 503T402 494T402 486T402 477H390Q379 480 366 482T335 484Q301 484 271 473T211 432T146 348V433ZM160
0Q154 0 148 0T135 0T121 0Q118 0 116 0T113 2T111 6T110 11Q110 16 110 47T110 125T110 226T110 332T110 426Q110 462 110 488T110 526Q117 526 123 526T136 526T149 526Q153 526 155 525T158 521T160 515Q160 509 160 471T160 375T160 250T160 117T160 0Z" />
<glyph unicode="s" horiz-adv-x="550" d="M266 39Q350 39 389 67T429 142Q429 167 418 184T384 214T324 236L230 259Q179 272 149 289T105 330T91 390Q91 419 103 445T142 491T207 522T300 534Q341 534 370 530T418 518T448 505Q452 503 453 501T455 497T456 492Q456
483 456 476T456 458H444Q422 469 400 475T352 484T291 487Q241 487 208 474T158 439T141 391Q141 369 149 354T181 328T249 306L353 280Q393 270 421 251T464 205T479 142Q479 96 453 62T380 10T269 -8Q233 -8 203 -4T149 8T106 26T74 49Q73 51 72 52T71 57Q71
68 71 80T71 102H83Q102 85 121 73T163 54T210 43T266 39Z" />
<glyph unicode="t" horiz-adv-x="500" d="M50 526H419Q424 526 427 523T430 515Q430 509 430 503T430 492T430 479H61Q59 479 57 480T54 482T51 486T50 490Q50 497 50 502T50 514T50 526ZM430 47Q430 38 430 29T430 11Q430 5 428 3T419 0Q410 0 402 0T385 0T368
0T350 0Q305 0 272 10T216 44T182 102T170 189Q170 239 170 289T170 389T170 489T170 591Q170 618 170 645T170 700Q180 700 189 700T209 700Q212 700 214 699T218 695T220 689Q220 627 220 566T220 442T220 319T220 195Q220 153 228 124T255 77Q271 61 295 54T354
47Q364 47 374 47T395 47T415 47H430Z" />
<glyph unicode="u" horiz-adv-x="600" d="M148 526Q152 526 154 525T157 521T159 515Q159 469 159 423T159 330T159 237T159 143Q159 89 186 63T258 37Q282 37 305 44T353 67T403 106T457 163V91H432Q406 61 378 38T318 3T248 -10Q214 -10 188 1T144 32T118 77T109
133Q109 178 109 222T109 312T109 401Q109 433 109 464T109 526Q119 526 128 526T148 526ZM483 526Q487 526 489 525T492 521T494 515Q494 446 494 377T494 239T494 100Q494 76 494 57T494 23T494 0Q488 0 482 0T469 0T455 0Q452 0 450 1T446 5T444 11Q444 97 444
183T444 355T444 526Q451 526 457 526T470 526T483 526Z" />
<glyph unicode="v" horiz-adv-x="600" d="M102 526Q104 526 105 526T108 524T110 520Q140 443 170 366T232 207T293 36H306Q325 89 343 140T381 240T418 337T456 432T493 526Q504 526 515 526T536 526Q539 526 541 525T544 521T543 515Q518 451 493 387T443 258T393
129T342 0Q323 0 305 0T269 0Q265 0 262 1T257 6T251 17Q232 67 212 117T173 218T133 320T93 423T53 526Q65 526 77 526T102 526Z" />
<glyph unicode="w" horiz-adv-x="800" d="M368 526H422Q425 526 427 525T432 522T435 515Q448 471 464 414T497 295T532 172T562 56H574Q591 126 606 187T637 304T666 414T696 526Q703 526 709 526T723 526T736 526Q740 526 742 525T746 521T746 512Q733 466 717
404T682 272T645 132T609 0Q600 0 592 0T574 0T556 0T537 0Q532 0 530 3T525 16Q519 39 509 76T485 159T458 254T431 352T407 443H393Q385 409 376 372T356 295T335 217T313 140T292 67T273 0Q262 0 250 0T227 0T202 0Q197 0 195 4T189 19Q182 46 170 90T142 189T110
303T78 419T49 526Q56 526 63 526T77 526T92 526Q96 526 98 525T102 521T105 515Q114 483 129 429T162 309T198 177T229 56H241Q255 113 271 175T304 301T337 422T368 526Z" />
<glyph unicode="x" horiz-adv-x="600" d="M81 526Q94 526 106 526T132 526Q139 526 144 522T153 513Q191 458 230 403T306 292L326 272Q374 204 422 136T518 0Q512 0 506 0T494 0T481 0T469 0Q462 0 458 2T447 13Q426 43 400 82T345 163T291 243L272 260Q224 327
177 393T81 526ZM273 284L309 236H282Q260 196 236 157T187 79T136 0L96 -2Q91 -2 88 1T85 9Q85 13 87 17T94 27Q139 92 183 156T273 284ZM493 526Q498 526 501 524T505 517Q505 515 504 513T501 506Q457 443 412 379T322 251L290 300H315Q335 338 357 375T403
451T452 526H493Z" />
<glyph unicode="y" horiz-adv-x="600" d="M534 526Q539 526 544 522T546 510Q517 429 487 347T429 186T375 36T328 -93Q314 -132 296 -155T251 -189T189 -200Q180 -200 168 -200T145 -200T126 -200T115 -200Q110 -200 107 -198T104 -189V-152H116Q135 -152 153
-152T191 -152Q225 -152 247 -137T281 -88Q289 -65 306 -17T346 96T396 236T448 385T498 526Q502 526 506 526T515 526T524 526T534 526ZM92 526Q100 526 103 524T110 515Q130 467 154 409T204 290T252 176T290 86T311 36H338L324 0H297Q287 0 282 2T271 16T254
53Q244 76 227 115T188 204T142 309T94 420T48 526Q53 526 58 526T69 526T80 526T92 526Z" />
<glyph unicode="z" horiz-adv-x="550" d="M82 526H457Q461 526 463 525T466 521T468 515V469Q440 433 411 396T353 322T294 249T235 177T177 106Q165 92 154 81T130 58V47Q150 47 170 47T211 47H457Q462 47 465 44T468 36Q468 27 468 18T468 0H93Q90 0 88 1T84
5T82 11V67Q125 119 168 172T255 279T339 384Q357 407 374 427T410 467V479Q382 479 355 479T299 479H93Q90 479 88 480T84 484T82 490Q82 499 82 508T82 526Z" />
<glyph unicode="{" horiz-adv-x="550" d="M347 149Q347 116 335 93T307 50T278 13T266 -26Q266 -37 266 -48T266 -70Q273 -91 286 -101T321 -111Q363 -111 405 -111T489 -111H497Q497 -121 497 -130T497 -150Q497 -155 494 -158T486 -161H319Q281 -161 258 -145T226
-107T216 -68V-14Q216 12 228 31T256 68T285 105T297 152Q297 189 271 216T197 259T85 275H64Q59 275 56 278T53 286Q53 296 53 305T53 325H85Q149 325 196 340T270 382T297 446Q297 473 285 493T257 530T228 567T216 613V667Q216 685 225 706T258 744T319 760H486Q491
760 494 757T497 749Q497 739 497 730T497 710H489Q447 710 405 710T321 710Q299 710 286 700T266 669Q266 658 266 647T266 625Q266 604 278 586T306 549T335 506T347 449Q347 399 316 362T228 303V297Q289 275 318 237T347 149Z" />
<glyph unicode="|" horiz-adv-x="300" d="M125 760Q135 760 144 760T164 760Q169 760 172 757T175 749Q175 658 175 567T175 385T175 203T175 21T175 -161Q165 -161 156 -161T136 -161Q131 -161 128 -158T125 -150Q125 -49 125 52T125 255T125 458T125 661Q125
686 125 710T125 760Z" />
<glyph unicode="}" horiz-adv-x="550" d="M203 450Q203 483 215 506T243 549T272 586T284 625Q284 636 284 647T284 669Q277 690 265 700T229 710Q187 710 145 710T61 710H53Q53 720 53 729T53 749Q53 754 56 757T64 760H231Q270 760 292 744T324 707T334 667V613Q334
587 322 568T294 531T265 494T253 447Q253 410 279 383T353 340T465 324H486Q491 324 494 321T497 313Q497 303 497 294T497 274H465Q401 274 354 259T280 217T253 153Q253 126 265 106T293 69T322 32T334 -14V-68Q334 -85 325 -107T293 -145T231 -161H64Q59 -161
56 -158T53 -150Q53 -140 53 -131T53 -111H61Q103 -111 145 -111T229 -111Q252 -111 264 -101T284 -70Q284 -59 284 -48T284 -26Q284 -5 272 13T244 50T215 93T203 150Q203 200 234 237T322 296V302Q261 325 232 363T203 450Z" />
<glyph unicode="~" horiz-adv-x="600" d="M413 178Q457 178 484 199T523 262T536 369V399Q536 408 533 411T521 415Q514 415 506 415T490 415V403Q490 394 490 386T490 369Q490 284 472 254T413 224Q385 224 368 238T338 275T314 323T287 370T248 407T187 422Q144
422 117 401T77 338T64 231V201Q64 192 67 189T79 185Q87 185 95 185T110 185V197Q110 206 110 215T110 231Q110 316 128 346T187 376Q215 376 233 362T263 325T287 277T314 230T353 193T413 178Z" />
<glyph unicode="&#xa1;" horiz-adv-x="350" d="M152 286H187Q190 286 192 286T195 283Q197 282 198 276T200 245T204 169T210 24V-64Q210 -92 210 -118T210 -174Q195 -174 181 -174T151 -174Q148 -174 146 -173T142 -169T140 -163V24Q142 68 144 111T148 199T152
286ZM128 531Q143 531 156 531T183 531T211 531Q215 531 217 530T220 526T222 520V431Q207 431 194 431T168 431T139 431Q136 431 134 432T130 436T128 442V531Z" />
<glyph unicode="&#xa2;" horiz-adv-x="600" d="M337 625Q379 625 411 617T464 599T492 581Q496 577 497 575T498 568Q498 563 498 557T498 545T498 532H486Q455 553 421 565T337 578Q273 578 232 557T170 493T150 387V310Q150 264 162 229T199 170Q222 148 255
137T332 126Q367 126 393 131T441 147T486 172H498Q498 166 498 160T498 147T498 134Q498 132 498 130T495 126Q483 114 459 103T403 86T333 79Q277 79 234 93T161 136T116 207T100 303V395Q100 473 131 524T216 600T337 625ZM349 404L322 412Q319 412 317 413T313
417T311 423Q311 466 311 512T311 603T311 683Q311 704 311 725T311 767Q322 767 330 767T346 767T365 767Q368 767 370 766T374 762T375 754Q374 746 372 719T368 653T362 570T355 483T349 404ZM311 298L338 290Q342 290 344 289T347 285T349 279Q349 236 349
192T349 104T349 19Q349 -2 349 -23T349 -65Q338 -65 330 -65T315 -65T295 -65Q292 -65 290 -64T286 -59T285 -52Q288 -14 291 28T297 116T304 208T311 298Z" />
<glyph unicode="&#xa3;" horiz-adv-x="600" d="M70 370H439Q443 370 445 369T448 365T450 359Q450 354 450 349T450 338T450 327H81Q78 327 76 328T72 332T70 338Q70 344 70 349T70 359T70 370ZM353 673Q320 673 295 664T253 638Q237 622 229 599T220 545Q220
497 220 441T220 330T220 231T220 165Q220 139 216 117T199 75T163 35L185 85V23L155 43Q177 43 213 43T288 43T358 43T401 43Q417 43 442 43T491 43T528 43H540Q540 35 540 27T540 11Q540 6 537 3T529 0Q527 0 503 0T441 0T361 0T280 0T214 0T181 0H169Q159 0
137 0T92 0T61 0Q56 0 53 3T50 11Q50 15 50 19T50 27T50 35T50 43H63Q94 43 118 56T156 95T170 156Q170 176 170 218T170 314T170 426T170 532V549Q170 592 190 631T251 695T353 720Q407 720 448 705T511 666Q513 665 513 663T514 658Q514 653 514 646T514 630T514
614H503Q467 644 435 658T353 673Z" />
<glyph unicode="&#xa4;" horiz-adv-x="600" d="M214 420Q207 413 200 406T185 391Q183 389 181 389T177 388T173 391Q155 409 134 430T94 470Q101 477 108 484T123 499Q125 501 126 501T129 502Q132 502 135 499Q154 480 175 459T214 420ZM384 420Q402 438 423
459T463 499Q466 502 469 502Q471 502 472 502T475 499Q483 491 490 484T504 470Q486 452 465 431T425 391Q423 389 421 389T417 388T413 391Q409 395 406 398T398 406T391 413T384 420ZM384 180Q391 187 398 194T413 209Q416 212 419 212T425 209Q443 191 464
170T504 130Q497 123 490 116T475 101Q474 100 473 99T469 98Q466 98 463 101Q444 120 423 141T384 180ZM214 180Q196 162 175 141T135 101Q132 98 129 98Q128 98 127 99T123 101Q115 109 108 116T94 130Q112 148 133 169T173 209Q175 211 177 211T181 212T185
209Q189 205 192 202T200 194T207 187T214 180ZM136 321Q136 366 156 399T213 450T300 468Q350 468 387 450T444 399T464 321V281Q464 236 444 203T387 152T300 134Q250 134 213 152T156 203T136 281V321ZM187 281Q187 259 193 242T213 211Q227 197 249 190T300
182Q353 182 383 208T413 281V321Q413 343 407 360T388 390Q374 404 352 412T300 420Q247 420 217 394T187 321V281Z" />
<glyph unicode="&#xa5;" horiz-adv-x="600" d="M56 450H224V403H67Q64 403 62 404T58 408T56 414Q56 420 56 426T56 438T56 450ZM376 450H533Q538 450 541 447T544 439Q544 434 544 428T544 415T544 403H376V450ZM544 153H67Q62 153 59 156T56 164Q56 170 56 176T56
188T56 200H533Q537 200 539 199T542 195T544 189Q544 184 544 178T544 165T544 153ZM325 283Q325 249 325 212T325 144T325 100Q325 78 325 51T325 0Q320 0 315 0T306 0T296 0T286 0Q283 0 281 1T277 5T275 11Q275 47 275 81T275 148T275 216T275 285Q252 325
229 367T182 451T134 535T87 619T41 700Q49 700 56 700T72 700T87 700Q93 700 96 699T101 696T104 690Q127 649 151 606T200 515T255 411T318 286L280 332H320L285 286Q320 357 350 414T406 521T456 613T505 700Q516 700 527 700T548 700Q554 700 555 696T554 687Q527
639 499 588T441 486T382 383T325 283Z" />
<glyph unicode="&#xa6;" horiz-adv-x="350" d="M150 760Q160 760 169 760T189 760Q191 760 193 760T197 757Q199 756 199 754T200 749V369Q190 369 181 369T161 369Q156 369 153 372T150 380V661Q150 686 150 710T150 760ZM150 231Q160 231 169 231T189 231Q194
231 197 228T200 220V-160Q190 -160 181 -160T161 -160Q158 -160 156 -159T152 -155T150 -149V231Z" />
<glyph unicode="&#xa7;" horiz-adv-x="600" d="M317 716Q350 716 379 712T433 701T477 684T509 661Q512 658 514 656T516 651T517 645Q517 613 517 583T517 522Q507 522 498 522T478 522Q473 522 470 525T467 533Q467 550 467 566T467 599T467 633T467 666L492
620Q430 669 317 669Q277 669 245 660T189 634T152 593T139 540V508Q139 478 153 458T199 422T281 391L378 363Q435 347 467 323T513 266T526 192V160Q526 138 520 119T501 85T470 60V43L421 53Q443 73 454 88T471 121T476 163V181Q476 216 466 240T431 283T360
314L262 343Q200 362 162 383T107 433T90 499V545Q90 583 107 614T154 668T226 703T317 716ZM299 -203Q382 -203 429 -172T476 -83V-65Q476 -34 464 -16T425 16T353 43L255 72Q193 91 157 114T105 168T90 235V265Q90 303 106 334T151 378V401L208 383Q177 364 163
348T144 311T139 260V244Q139 214 151 192T191 152T271 119L368 91Q425 75 459 55T510 5T526 -70V-84Q526 -121 511 -151T466 -204T394 -238T299 -250Q265 -250 233 -245T173 -231T121 -208T80 -177Q79 -175 78 -174T77 -169Q77 -157 77 -146T77 -122H89Q136 -167
184 -185T299 -203Z" />
<glyph unicode="&#xa8;" horiz-adv-x="600" d="M160 756Q177 756 194 756T229 756Q233 756 235 755T238 751T240 745V676Q223 676 206 676T171 676Q168 676 166 677T162 681T160 687V756ZM360 756Q377 756 394 756T429 756Q433 756 435 755T438 751T440 745V676Q423
676 406 676T371 676Q368 676 366 677T362 681T360 687V756Z" />
<glyph unicode="&#xa9;" horiz-adv-x="600" d="M300 715Q390 715 451 682T545 586T577 429V261Q577 174 545 112T450 18T300 -15Q211 -15 149 18T55 115T23 271V439Q23 527 55 588T150 682T300 715ZM300 668Q227 668 176 643T98 568T71 446V255Q71 200 87 158T133
87Q162 60 204 46T300 32Q373 32 424 57T502 133T529 254V445Q529 497 515 537T474 606Q445 637 401 652T300 668ZM308 566Q344 566 370 554T414 522Q417 519 418 517T419 511Q419 491 419 470T419 429Q410 429 401 429T383 429Q378 429 375 432T372 440Q372 455
372 474T372 531L391 482Q372 504 355 512T308 520Q279 520 259 511T230 482T220 432V274Q220 247 225 229T242 199Q252 189 268 185T306 180Q341 180 364 191T409 230H421Q421 220 421 210T421 190Q421 181 420 179T415 171Q402 153 372 144T306 134Q260 134 231
150T187 198T172 273V431Q172 497 208 531T308 566Z" />
<glyph unicode="&#xaa;" horiz-adv-x="600" d="M261 299Q228 299 200 310T152 342T120 394T108 464V585Q108 639 128 677T183 737T265 758Q311 758 344 740T403 682H424L428 603Q392 667 353 693T269 719Q233 719 206 703T165 656T150 579V470Q150 437 159 412T185
370Q200 355 221 347T269 339Q299 339 326 350T378 387T428 455L425 378H403Q378 338 343 319T261 299ZM520 346Q520 339 520 332T520 317Q520 312 518 310T511 308Q507 308 505 308T500 308Q474 308 455 316T426 342T415 388Q415 433 415 477T415 566T415 655Q415
671 415 687T415 718T415 750Q423 750 431 750T448 750Q453 750 455 748T457 740Q457 682 457 624T457 508T457 392Q457 369 466 358T498 346Q501 346 504 346T510 346H520Z" />
<glyph unicode="&#xab;" horiz-adv-x="600" d="M307 90V78Q297 78 287 78T265 78Q255 78 251 80T239 90Q235 94 219 111T181 151T137 197T97 239T74 263Q67 271 66 275T64 285Q64 295 64 305T64 325Q87 350 113 377T165 432T210 480T241 512Q248 519 253 520T267
522Q277 522 287 522T307 522V510Q262 463 228 426T165 359T109 299Q138 268 165 239T227 174T307 90ZM537 90V78Q527 78 517 78T495 78Q485 78 481 80T469 90Q465 94 449 111T411 151T367 197T327 239T304 263Q297 271 296 275T294 285Q294 295 294 305T294 325Q317
350 343 377T395 432T440 480T471 512Q478 519 483 520T497 522Q507 522 517 522T537 522V510Q492 463 458 426T395 359T339 299Q368 268 395 239T457 174T537 90Z" />
<glyph unicode="&#xac;" horiz-adv-x="600" d="M76 410H513Q517 410 519 409T522 405T524 399Q524 335 524 270T524 140Q514 140 505 140T485 140Q482 140 480 141T476 145T474 151Q474 207 474 264T474 377L497 360H87Q84 360 82 361T78 365T76 371Q76 381 76
390T76 410Z" />
<glyph unicode="&#xad;" horiz-adv-x="600" d="M91 325H348Q352 325 354 324T357 320T359 314Q359 304 359 295T359 275H102Q99 275 97 275T94 277T92 281T91 286Q91 296 91 305T91 325Z" />
<glyph unicode="&#xae;" horiz-adv-x="600" d="M300 760Q360 760 406 746T483 702T531 632T547 536V406Q547 357 531 319T483 255T405 216T300 202Q228 202 172 224T85 293T53 416V546Q53 597 69 637T117 704T195 745T300 760ZM300 713Q252 713 215 703T153 672T114
622T101 553V400Q101 364 114 336T152 288Q178 269 215 259T300 249Q348 249 385 259T447 288T486 335T499 399V552Q499 590 487 619T451 669Q426 691 388 702T300 713ZM212 608H224Q233 608 236 606T239 598Q239 551 239 504T239 410Q239 389 239 369T239 327Q232
327 224 327T207 327Q202 327 199 330T196 338Q196 383 196 428T196 518T196 608H212ZM323 635Q354 635 375 626T408 600T420 555V525Q420 506 414 490T395 462T366 444T327 437Q303 437 279 437T230 437Q228 437 226 439T224 443V454V479H333Q353 479 365 490T377
520V552Q377 563 375 570T367 583Q357 593 333 593Q308 593 283 593T234 593T184 593Q179 593 176 596T173 604Q173 612 173 620T173 635Q211 635 248 635T323 635ZM343 466Q352 444 360 422T378 377Q381 370 384 368T397 365Q407 365 407 365T417 365H420Q420
358 420 351T420 335Q420 329 418 327T409 324H401Q377 324 364 331T340 364Q332 385 324 405T307 447L343 466Z" />
<glyph unicode="&#xaf;" horiz-adv-x="600" d="M126 740H463Q468 740 471 737T474 729Q474 723 474 717T474 704T474 690H137Q134 690 132 691T128 695T126 701Q126 708 126 714T126 727T126 740Z" />
<glyph unicode="&#xb0;" horiz-adv-x="600" d="M300 710Q350 710 387 692T444 641T464 563V523Q464 478 444 445T387 394T300 376Q250 376 213 394T156 445T136 523V563Q136 608 156 641T213 692T300 710ZM300 424Q353 424 383 450T413 523V563Q413 608 387 632Q373
647 351 654T300 662Q247 662 217 636T187 563V523Q187 479 213 453Q227 439 249 432T300 424Z" />
<glyph unicode="&#xb1;" horiz-adv-x="600" d="M275 577Q285 577 294 577T314 577Q319 577 322 574T325 566Q325 522 325 478T325 391T325 303T325 215Q315 215 306 215T286 215Q281 215 278 218T275 226Q275 267 275 311T275 396T275 469Q275 496 275 523T275
577ZM76 421H513Q517 421 519 420T522 416T524 410Q524 400 524 391T524 371H87Q82 371 79 374T76 382Q76 392 76 401T76 421ZM76 150H513Q517 150 519 149T522 145T524 139Q524 129 524 120T524 100H87Q84 100 82 101T78 105T76 111Q76 121 76 130T76 150Z" />
<glyph unicode="&#xb2;" horiz-adv-x="400" d="M330 372Q327 372 309 372T262 372T203 372T145 372T98 372T76 372Q73 372 71 373T67 377T65 383V407Q65 447 74 479T109 538T184 585Q226 602 249 615T281 646T290 687Q290 703 284 716T266 736Q257 742 242 746T198
751Q155 751 126 740T77 712H65Q65 716 65 721T65 730T65 739T65 748Q65 753 66 757T73 765Q87 776 120 786T196 797Q243 797 274 784T320 746T336 683V677Q336 650 324 628T285 587T213 552Q165 536 143 514T114 462T101 387L106 451V379L81 403Q111 411 139 414T201
418H319Q324 418 327 415T330 407Q330 403 330 399T330 390T330 381T330 372Z" />
<glyph unicode="&#xb3;" horiz-adv-x="400" d="M333 682Q333 648 310 620T238 582L267 610V560L238 586Q276 579 297 564T328 528T338 485V479Q338 444 323 418T278 377T202 362Q149 362 115 373T68 396Q65 399 64 402T62 410Q62 415 62 419T62 427T62 436T62
445H74Q100 423 130 415T195 406Q243 406 267 425T292 481Q292 504 277 522T228 551T141 562Q136 562 133 565T130 573Q130 578 130 582T130 592T130 602Q184 602 218 610T270 637T287 685Q287 718 266 734T195 751Q157 751 126 742T75 715H63Q63 719 63 723T63
732T63 740T63 748Q63 753 64 757T71 765Q85 776 116 786T192 797Q248 797 278 783T321 744T333 688V682Z" />
<glyph unicode="&#xb4;" horiz-adv-x="600" d="M400 835Q417 835 426 835T450 835Q458 835 459 829T456 817Q433 787 415 763T377 715T330 655Q328 652 324 650T313 647Q303 647 295 647T277 647Q297 677 317 708T359 772T400 835Z" />
<glyph unicode="&#xb5;" horiz-adv-x="600" d="M109 157H138L171 28L147 14Q157 -53 161 -93T165 -135Q165 -157 165 -167T165 -200Q157 -200 145 -200T120 -200Q117 -200 115 -199T111 -195T109 -189Q109 -130 109 -73T109 41T109 157ZM148 526Q152 526 154 525T157
521T159 515V354Q159 322 159 289T159 224T159 158Q159 94 183 66T251 37Q278 37 303 44T353 68T406 110T466 171V82H428Q405 46 377 26T316 -2T249 -10Q215 -10 189 1T145 32T118 82T109 148Q109 219 109 290T109 432Q109 448 109 463T109 494T109 526Q119 526
128 526T148 526ZM451 526Q461 526 470 526T490 526Q490 419 490 311T490 96Q490 80 492 69T501 50Q512 36 534 36Q538 36 541 36T549 36H555Q555 27 555 19T555 1Q555 -3 554 -5T550 -9T544 -10H539Q510 -10 488 0T453 31T440 86Q440 193 440 300T440 515Q440
518 441 520T445 524T451 526Z" />
<glyph unicode="&#xb6;" horiz-adv-x="600" d="M289 653Q230 653 193 635T139 580T121 485V400Q121 343 136 310T185 262T273 247H339V200Q323 200 306 200T275 200H260Q191 200 150 226T90 297T71 400V485Q71 545 91 594T157 671T275 700H552Q554 700 556 700T560
697Q562 696 562 694T563 689Q563 683 563 677T563 665T563 653H552Q521 653 478 653T387 653T289 653ZM328 670H349Q353 670 355 669T358 665T360 659Q360 582 360 485T360 279T360 61T360 -150Q350 -150 341 -150T321 -150Q316 -150 313 -147T310 -139Q310 -72
310 -5T310 130T310 265T310 400T310 535T310 670H328ZM479 670H499Q503 670 505 669T508 665T510 659Q510 572 510 485T510 310T510 135T510 -40Q510 -70 510 -98T510 -150Q500 -150 491 -150T471 -150Q466 -150 463 -147T460 -139Q460 -58 460 23T460 184T460
346T460 508T460 670H479Z" />
<glyph unicode="&#xb7;" horiz-adv-x="350" d="M222 260Q207 260 194 260T168 260T139 260Q136 260 134 261T130 265T128 271V360Q143 360 156 360T183 360T211 360Q215 360 217 359T220 355T222 349V260Z" />
<glyph unicode="&#xb8;" horiz-adv-x="600" d="M326 22Q325 16 324 9T321 -4T318 -18T315 -31L313 -42Q351 -44 373 -65T395 -124Q395 -165 364 -192T277 -220Q251 -220 234 -216T209 -204T200 -192Q200 -184 200 -179T200 -168T200 -158H212Q223 -168 237 -173T279
-178Q311 -178 330 -164T350 -125Q350 -102 336 -91T276 -78Q271 -78 268 -75T265 -67Q267 -57 268 -48T272 -29T275 -10T279 9Q280 16 283 18T296 21T326 22Z" />
<glyph unicode="&#xb9;" horiz-adv-x="400" d="M61 418H328Q333 418 336 415T339 407Q339 403 339 399T339 390T339 381T339 372H72Q67 372 64 375T61 383Q61 387 61 391T61 399T61 409T61 418ZM227 397H176L181 410Q181 417 181 423T181 434T181 443Q181 445
181 473T181 543T181 630T181 713T181 771L198 741H154L182 767Q174 745 163 724T137 681T101 637Q85 619 79 614T69 609Q66 609 65 610T63 615V666Q74 680 88 698T113 728Q125 742 137 758T162 787Q169 787 176 787T191 787T204 787T216 787Q221 787 224 784T227
776Q227 774 227 746T227 676T227 587T227 498T227 428T227 397Z" />
<glyph unicode="&#xba;" horiz-adv-x="600" d="M300 761Q358 761 401 739T467 677T491 586V474Q491 420 465 379T396 314T300 291Q242 291 199 313T133 376T109 466V579Q109 633 135 674T204 738T300 761ZM308 721Q257 721 222 702T169 650T151 579V472Q151 440
162 414T195 368Q213 352 238 342T292 332Q344 332 378 352T431 405T449 474V580Q449 608 441 631T418 673Q399 696 371 708T308 721Z" />
<glyph unicode="&#xbb;" horiz-adv-x="600" d="M294 510V522Q305 522 315 522T336 522Q346 522 350 520T362 510Q366 506 382 489T420 449T464 403T504 361T527 337Q534 330 535 326T537 315Q537 305 537 295T537 275Q514 250 488 223T436 168T391 120T360 88Q353
81 348 80T334 78Q324 78 314 78T294 78V90Q339 138 373 174T436 241T492 301Q464 332 436 361T374 426T294 510ZM64 510V522Q75 522 85 522T106 522Q116 522 120 520T132 510Q136 506 152 489T190 449T234 403T274 361T297 337Q304 330 305 326T307 315Q307 305
307 295T307 275Q284 250 258 223T206 168T161 120T130 88Q123 81 118 80T104 78Q94 78 84 78T64 78V90Q109 138 143 174T206 241T262 301Q234 332 206 361T144 426T64 510Z" />
<glyph unicode="&#xbc;" horiz-adv-x="800" d="M434 405Q450 431 466 456T498 506T529 557T561 608T592 659T624 710Q627 710 632 710T644 710T655 710T665 710Q671 710 673 707T671 697Q656 673 642 650T612 602T582 555T552 507T523 460T493 412Q490 408 488
407T482 405Q479 405 473 405T458 405T444 405T434 405ZM366 296Q350 271 334 246T302 195T271 144T239 93T208 42T176 -9Q173 -9 168 -9T156 -9T145 -9T135 -9Q129 -9 127 -6T129 4Q144 28 158 51T188 99T218 146T248 194T277 241T307 289Q310 294 312 295T318
296Q321 296 327 296T342 296T356 296T366 296ZM694 -87Q690 -87 686 -87T677 -87T668 -87T659 -87Q654 -87 651 -84T648 -76V89Q648 91 649 101T651 126T654 153T657 172H683Q688 172 691 169T694 161V-36Q694 -43 694 -61T694 -87ZM754 5H459Q454 5 451 8T448
16V39Q448 39 456 59T479 110T509 176T539 243T563 296T574 320Q577 325 580 326T588 328Q592 328 596 328T604 328T613 328T621 328V316Q620 313 611 293T587 242T558 176T529 110T505 57T493 30L503 72V21L488 36Q503 41 518 44T552 49T598 51H743Q748 51 751
48T754 40Q754 36 754 32T754 23T754 14T754 5ZM61 418H328Q333 418 336 415T339 407Q339 403 339 399T339 390T339 381T339 372H72Q67 372 64 375T61 383Q61 387 61 391T61 399T61 409T61 418ZM227 397H176L181 410Q181 417 181 423T181 434T181 443Q181 445 181
473T181 543T181 630T181 713T181 771L198 741H154L182 767Q174 745 163 724T137 681T101 637Q85 619 79 614T69 609Q66 609 65 610T63 615V666Q74 680 88 698T113 728Q125 742 137 758T162 787Q169 787 176 787T191 787T204 787T216 787Q221 787 224 784T227 776Q227
774 227 746T227 676T227 587T227 498T227 428T227 397Z" />
<glyph unicode="&#xbd;" horiz-adv-x="600" d="M373 405Q386 431 398 456T423 506T448 557T473 608T498 659T524 710Q527 710 532 710T544 710T555 710T565 710Q571 710 573 707T573 697Q561 673 550 650T526 602T502 555T478 507T455 460T431 412Q429 408 427
407T421 405Q417 405 407 405T388 405T373 405ZM227 296Q214 271 202 246T177 195T152 144T127 93T102 42T76 -9Q73 -9 68 -9T56 -9T45 -9T35 -9Q29 -9 27 -6T27 4Q39 28 50 51T74 99T98 146T122 194T145 241T169 289Q171 294 173 295T179 296Q184 296 193 296T213
296T227 296ZM530 -87Q527 -87 509 -87T462 -87T403 -87T345 -87T298 -87T276 -87Q273 -87 271 -86T267 -82T265 -76V-52Q265 -12 274 20T309 79T384 126Q426 143 449 156T481 187T490 228Q490 244 484 257T466 277Q457 283 442 287T398 292Q355 292 326 281T277
253H265Q265 257 265 262T265 271T265 280T265 289Q265 294 266 298T273 306Q287 317 320 327T396 338Q443 338 474 325T520 287T536 224V218Q536 191 524 169T485 128T413 93Q365 77 343 55T314 3T301 -72L306 -8V-80L281 -56Q311 -48 339 -45T401 -41H519Q524
-41 527 -44T530 -52Q530 -56 530 -60T530 -69T530 -78T530 -87ZM31 418H298Q303 418 306 415T309 407Q309 403 309 399T309 390T309 381T309 372H42Q37 372 34 375T31 383Q31 387 31 391T31 399T31 409T31 418ZM197 397H146L151 410Q151 417 151 423T151 434T151
443Q151 445 151 473T151 543T151 630T151 713T151 771L168 741H124L152 767Q144 745 133 724T107 681T71 637Q55 619 49 614T39 609Q36 609 35 610T33 615V666Q44 680 58 698T83 728Q95 742 107 758T132 787Q139 787 146 787T161 787T174 787T186 787Q191 787
194 784T197 776Q197 774 197 746T197 676T197 587T197 498T197 428T197 397Z" />
<glyph unicode="&#xbe;" horiz-adv-x="800" d="M434 405Q450 431 466 456T498 506T529 557T561 608T592 659T624 710Q627 710 632 710T644 710T655 710T665 710Q671 710 673 707T671 697Q656 673 642 650T612 602T582 555T552 507T523 460T493 412Q490 408 488
407T482 405Q479 405 473 405T458 405T444 405T434 405ZM366 296Q350 271 334 246T302 195T271 144T239 93T208 42T176 -9Q173 -9 168 -9T156 -9T145 -9T135 -9Q129 -9 127 -6T129 4Q144 28 158 51T188 99T218 146T248 194T277 241T307 289Q310 294 312 295T318
296Q321 296 327 296T342 296T356 296T366 296ZM694 -87Q690 -87 686 -87T677 -87T668 -87T659 -87Q654 -87 651 -84T648 -76V89Q648 91 649 101T651 126T654 153T657 172H683Q688 172 691 169T694 161V-36Q694 -43 694 -61T694 -87ZM754 5H459Q454 5 451 8T448
16V39Q448 39 456 59T479 110T509 176T539 243T563 296T574 320Q577 325 580 326T588 328Q592 328 596 328T604 328T613 328T621 328V316Q620 313 611 293T587 242T558 176T529 110T505 57T493 30L503 72V21L488 36Q503 41 518 44T552 49T598 51H743Q748 51 751
48T754 40Q754 36 754 32T754 23T754 14T754 5ZM333 682Q333 648 310 620T238 582L267 610V560L238 586Q276 579 297 564T328 528T338 485V479Q338 444 323 418T278 377T202 362Q149 362 115 373T68 396Q65 399 64 402T62 410Q62 415 62 419T62 427T62 436T62 445H74Q100
423 130 415T195 406Q243 406 267 425T292 481Q292 504 277 522T228 551T141 562Q136 562 133 565T130 573Q130 578 130 582T130 592T130 602Q184 602 218 610T270 637T287 685Q287 718 266 734T195 751Q157 751 126 742T75 715H63Q63 719 63 723T63 732T63 740T63
748Q63 753 64 757T71 765Q85 776 116 786T192 797Q248 797 278 783T321 744T333 688V682Z" />
<glyph unicode="&#xbf;" horiz-adv-x="600" d="M254 531Q277 531 311 531T367 531Q371 531 373 530T376 526T378 520V411Q356 411 322 411T265 411Q262 411 260 412T256 416T254 422V531ZM300 -194Q248 -194 208 -183T140 -151T99 -101T85 -35V-5Q85 27 94 50T124
92T178 135L222 166Q258 192 274 208T295 240T300 281V290H339Q343 290 345 289T348 285T350 279V271Q350 242 343 220T315 177T257 130L213 100Q185 81 168 66T143 34T135 -4Q135 -11 135 -17T135 -31Q135 -88 176 -117T300 -147Q356 -147 402 -129T501 -67H513Q513
-78 513 -89T513 -111Q513 -114 513 -115T510 -119Q487 -142 454 -159T382 -185T300 -194Z" />
<glyph unicode="&#xc0;" horiz-adv-x="650" d="M147 277H439Q447 277 455 277T470 277L492 287L498 257L503 230H158Q155 230 153 231T149 235T147 241V277ZM89 0Q79 0 70 0T49 0Q46 0 44 2T41 7T41 14Q58 64 75 113T110 213T144 312T179 411T214 511T248 610T283
710Q305 710 329 710T370 710Q374 710 376 709T380 705T382 699Q408 619 434 539T486 380T538 220T590 60Q595 45 600 30T610 0Q599 0 588 0T566 0Q562 0 560 1T556 7T551 18Q535 68 514 134T468 275T419 423T374 562T337 674L353 662H308L324 673Q307 626 286
565T240 434T189 289T138 141T89 0ZM240 944Q261 913 279 886T315 833T352 776Q346 776 340 776T326 776T312 776Q306 776 302 778T295 784Q274 810 260 827T235 859T210 890T179 929Q175 934 177 939T186 944Q196 944 203 944T220 944T240 944Z" />
<glyph unicode="&#xc1;" horiz-adv-x="650" d="M147 277H439Q447 277 455 277T470 277L492 287L498 257L503 230H158Q155 230 153 231T149 235T147 241V277ZM89 0Q79 0 70 0T49 0Q46 0 44 2T41 7T41 14Q58 64 75 113T110 213T144 312T179 411T214 511T248 610T283
710Q305 710 329 710T370 710Q374 710 376 709T380 705T382 699Q408 619 434 539T486 380T538 220T590 60Q595 45 600 30T610 0Q599 0 588 0T566 0Q562 0 560 1T556 7T551 18Q535 68 514 134T468 275T419 423T374 562T337 674L353 662H308L324 673Q307 626 286
565T240 434T189 289T138 141T89 0ZM416 943Q428 943 434 943T446 943T462 943Q468 943 471 938T469 928Q451 906 438 890T414 859T388 827T353 783Q351 780 347 778T336 775Q329 775 324 775T313 775T301 775Q322 805 340 831T376 885T416 943Z" />
<glyph unicode="&#xc2;" horiz-adv-x="650" d="M147 277H439Q447 277 455 277T470 277L492 287L498 257L503 230H158Q155 230 153 231T149 235T147 241V277ZM89 0Q79 0 70 0T49 0Q46 0 44 2T41 7T41 14Q58 64 75 113T110 213T144 312T179 411T214 511T248 610T283
710Q305 710 329 710T370 710Q374 710 376 709T380 705T382 699Q408 619 434 539T486 380T538 220T590 60Q595 45 600 30T610 0Q599 0 588 0T566 0Q562 0 560 1T556 7T551 18Q535 68 514 134T468 275T419 423T374 562T337 674L353 662H308L324 673Q307 626 286
565T240 434T189 289T138 141T89 0ZM299 944Q305 944 311 944T323 944T335 944Q343 944 349 941T371 923Q379 916 398 899T443 860T493 816T540 776Q528 777 518 777T495 776Q484 776 479 777T466 786Q449 800 406 834T301 917L355 898Q339 898 323 898T291 898L345
917Q284 869 242 836T168 776H129Q124 776 122 777T118 779T117 783Q117 787 121 791T142 810Q155 821 176 839T222 877T266 916T299 944Z" />
<glyph unicode="&#xc3;" horiz-adv-x="650" d="M147 277H439Q447 277 455 277T470 277L492 287L498 257L503 230H158Q155 230 153 231T149 235T147 241V277ZM89 0Q79 0 70 0T49 0Q46 0 44 2T41 7T41 14Q58 64 75 113T110 213T144 312T179 411T214 511T248 610T283
710Q305 710 329 710T370 710Q374 710 376 709T380 705T382 699Q408 619 434 539T486 380T538 220T590 60Q595 45 600 30T610 0Q599 0 588 0T566 0Q562 0 560 1T556 7T551 18Q535 68 514 134T468 275T419 423T374 562T337 674L353 662H308L324 673Q307 626 286
565T240 434T189 289T138 141T89 0ZM410 848Q436 848 453 859T491 894H502Q502 885 502 875T502 854Q502 851 501 848T495 839Q479 823 460 813T411 802Q386 802 364 812T322 834T281 857T240 867Q214 867 197 856T159 821H148Q148 830 148 840T148 861Q148 863
149 867T155 876Q171 892 190 902T239 913Q264 913 286 903T329 881T369 858T410 848Z" />
<glyph unicode="&#xc4;" horiz-adv-x="650" d="M147 277H439Q447 277 455 277T470 277L492 287L498 257L503 230H158Q155 230 153 231T149 235T147 241V277ZM89 0Q79 0 70 0T49 0Q46 0 44 2T41 7T41 14Q58 64 75 113T110 213T144 312T179 411T214 511T248 610T283
710Q305 710 329 710T370 710Q374 710 376 709T380 705T382 699Q408 619 434 539T486 380T538 220T590 60Q595 45 600 30T610 0Q599 0 588 0T566 0Q562 0 560 1T556 7T551 18Q535 68 514 134T468 275T419 423T374 562T337 674L353 662H308L324 673Q307 626 286
565T240 434T189 289T138 141T89 0ZM185 888Q202 888 219 888T254 888Q258 888 260 887T263 883T265 877V808Q248 808 231 808T196 808Q193 808 191 809T187 813T185 819V888ZM385 888Q402 888 419 888T454 888Q458 888 460 887T463 883T465 877V808Q448 808 431
808T396 808Q393 808 391 809T387 813T385 819V888Z" />
<glyph unicode="&#xc5;" horiz-adv-x="650" d="M147 277H439Q447 277 455 277T470 277L492 287L498 257L503 230H158Q155 230 153 231T149 235T147 241V277ZM89 0Q79 0 70 0T49 0Q46 0 44 2T41 7T41 14Q58 64 75 113T110 213T144 312T179 411T214 511T248 610T283
710Q305 710 329 710T370 710Q374 710 376 709T380 705T382 699Q408 619 434 539T486 380T538 220T590 60Q595 45 600 30T610 0Q599 0 588 0T566 0Q562 0 560 1T556 7T551 18Q535 68 514 134T468 275T419 423T374 562T337 674L353 662H308L324 673Q307 626 286
565T240 434T189 289T138 141T89 0ZM325 896Q368 896 399 884T447 851T465 799V773Q465 743 448 722T399 688T325 676Q282 676 251 688T202 721T184 773V799Q184 829 201 850T250 884T325 896ZM325 852Q283 852 259 838T235 798V774Q235 762 241 753T258 735Q270
728 287 725T325 721Q367 721 391 735T415 774V798Q415 810 410 819T394 836Q383 844 366 848T325 852Z" />
<glyph unicode="&#xc6;" horiz-adv-x="800" d="M66 0Q59 0 53 0T39 0T25 0Q22 0 18 3T17 13Q54 91 94 179T177 357T259 534T335 700Q350 700 365 700T394 700T424 700H729Q734 700 737 697T740 689Q740 680 740 671T740 653H342L379 680Q339 595 300 508T221 335T143
165T66 0ZM400 669H455L451 658Q451 651 451 644T451 628Q451 555 451 483T451 337T451 192T451 47H729Q734 47 737 44T740 36Q740 27 740 18T740 0H411Q408 0 406 0T402 3T400 8Q400 91 400 173T400 338T400 504T400 669ZM146 260H372Q380 260 388 260T405 260H416V213H157Q152
213 149 215T146 224V260ZM412 373H689Q694 373 697 370T700 362Q700 352 700 344T700 326H412V373Z" />
<glyph unicode="&#xc7;" horiz-adv-x="600" d="M325 -20Q265 -20 219 -2T140 50T92 132T75 241V459Q75 520 91 568T140 650T218 702T325 720Q374 720 411 711T475 687T520 653Q522 652 522 650T523 646T524 643Q524 608 524 572T524 500Q514 500 505 500T485 500Q480
500 477 503T474 511Q474 537 474 562T474 613T474 664L497 613Q461 645 420 659T325 673Q263 673 219 648T151 575T127 454V246Q127 194 140 152T185 77Q211 51 246 39T325 27Q384 27 427 46T512 100H524Q524 95 524 90T524 79T524 69T524 61Q524 58 523 56T520
51Q497 28 468 13T402 -11T325 -20ZM430 -124Q430 -165 399 -192T312 -220Q286 -220 269 -216T244 -204T235 -192Q235 -184 235 -179T235 -168T235 -158H247Q258 -168 272 -173T314 -178Q346 -178 365 -164T385 -125Q385 -102 371 -91T311 -78Q306 -78 303 -75T300
-67Q302 -57 303 -48T307 -29T310 -10T314 9Q315 16 318 18T331 21T361 22Q360 16 359 10T356 -3T354 -16T351 -29L348 -42Q386 -44 408 -65T430 -124Z" />
<glyph unicode="&#xc8;" horiz-adv-x="550" d="M20 700H479Q483 700 485 699T488 695T490 689Q490 679 490 671T490 653H31Q28 653 26 654T22 658T20 664Q20 674 20 682T20 700ZM110 380H429Q432 380 434 379T438 375T440 369Q440 363 440 357T440 346T440 333H110V380ZM101
0Q99 0 97 1T94 3T91 7T90 11Q90 79 90 147T90 283T90 418T90 554T90 690H145L140 679Q140 660 140 640T140 597Q140 538 140 470T140 329T140 185T140 47H479Q484 47 487 44T490 36Q490 27 490 18T490 0H101ZM190 944Q211 913 229 886T265 833T302 776Q296 776
290 776T276 776T262 776Q256 776 252 778T245 784Q224 810 210 827T185 859T160 890T129 929Q125 934 127 939T136 944Q146 944 153 944T170 944T190 944Z" />
<glyph unicode="&#xc9;" horiz-adv-x="550" d="M20 700H479Q483 700 485 699T488 695T490 689Q490 679 490 671T490 653H31Q28 653 26 654T22 658T20 664Q20 674 20 682T20 700ZM110 380H429Q432 380 434 379T438 375T440 369Q440 363 440 357T440 346T440 333H110V380ZM101
0Q99 0 97 1T94 3T91 7T90 11Q90 79 90 147T90 283T90 418T90 554T90 690H145L140 679Q140 660 140 640T140 597Q140 538 140 470T140 329T140 185T140 47H479Q484 47 487 44T490 36Q490 27 490 18T490 0H101ZM366 943Q378 943 384 943T396 943T412 943Q418 943
421 938T419 928Q401 906 388 890T364 859T338 827T303 783Q301 780 297 778T286 775Q279 775 274 775T263 775T251 775Q272 805 290 831T326 885T366 943Z" />
<glyph unicode="&#xca;" horiz-adv-x="550" d="M20 700H479Q483 700 485 699T488 695T490 689Q490 679 490 671T490 653H31Q28 653 26 654T22 658T20 664Q20 674 20 682T20 700ZM110 380H429Q432 380 434 379T438 375T440 369Q440 363 440 357T440 346T440 333H110V380ZM101
0Q99 0 97 1T94 3T91 7T90 11Q90 79 90 147T90 283T90 418T90 554T90 690H145L140 679Q140 660 140 640T140 597Q140 538 140 470T140 329T140 185T140 47H479Q484 47 487 44T490 36Q490 27 490 18T490 0H101ZM249 944Q255 944 261 944T273 944T285 944Q293 944
299 941T321 923Q329 916 348 899T393 860T443 816T490 776Q478 777 468 777T445 776Q434 776 429 777T416 786Q399 800 356 834T251 917L305 898Q289 898 273 898T241 898L295 917Q234 869 192 836T118 776H79Q74 776 72 777T68 779T67 783Q67 787 71 791T92 810Q105
821 126 839T172 877T216 916T249 944Z" />
<glyph unicode="&#xcb;" horiz-adv-x="550" d="M20 700H479Q483 700 485 699T488 695T490 689Q490 679 490 671T490 653H31Q28 653 26 654T22 658T20 664Q20 674 20 682T20 700ZM110 380H429Q432 380 434 379T438 375T440 369Q440 363 440 357T440 346T440 333H110V380ZM101
0Q99 0 97 1T94 3T91 7T90 11Q90 79 90 147T90 283T90 418T90 554T90 690H145L140 679Q140 660 140 640T140 597Q140 538 140 470T140 329T140 185T140 47H479Q484 47 487 44T490 36Q490 27 490 18T490 0H101ZM135 888Q152 888 169 888T204 888Q208 888 210 887T213
883T215 877V808Q198 808 181 808T146 808Q143 808 141 809T137 813T135 819V888ZM335 888Q352 888 369 888T404 888Q408 888 410 887T413 883T415 877V808Q398 808 381 808T346 808Q343 808 341 809T337 813T335 819V888Z" />
<glyph unicode="&#xcc;" horiz-adv-x="500" d="M275 20H222L225 31Q225 51 225 72T225 114Q225 185 225 255T225 396T225 538T225 680H281L275 669Q275 653 275 636T275 602Q275 529 275 457T275 311T275 166T275 20ZM420 0H91Q88 0 86 1T83 3T81 7T80 11Q80 18
80 23T80 35T80 47H409Q412 47 414 46T418 42T420 36Q420 30 420 24T420 13T420 0ZM80 700H409Q414 700 417 697T420 689Q420 684 420 680T420 671T420 663T420 653H91Q86 653 83 656T80 664Q80 669 80 673T80 682T80 690T80 700ZM165 944Q186 913 204 886T240
833T277 776Q271 776 265 776T251 776T237 776Q231 776 227 778T220 784Q199 810 185 827T160 859T135 890T104 929Q100 934 102 939T111 944Q121 944 128 944T145 944T165 944Z" />
<glyph unicode="&#xcd;" horiz-adv-x="500" d="M275 20H222L225 31Q225 51 225 72T225 114Q225 185 225 255T225 396T225 538T225 680H281L275 669Q275 653 275 636T275 602Q275 529 275 457T275 311T275 166T275 20ZM420 0H91Q88 0 86 1T83 3T81 7T80 11Q80 18
80 23T80 35T80 47H409Q412 47 414 46T418 42T420 36Q420 30 420 24T420 13T420 0ZM80 700H409Q414 700 417 697T420 689Q420 684 420 680T420 671T420 663T420 653H91Q86 653 83 656T80 664Q80 669 80 673T80 682T80 690T80 700ZM341 943Q353 943 359 943T371
943T387 943Q393 943 396 938T394 928Q376 906 363 890T339 859T313 827T278 783Q276 780 272 778T261 775Q254 775 249 775T238 775T226 775Q247 805 265 831T301 885T341 943Z" />
<glyph unicode="&#xce;" horiz-adv-x="500" d="M275 20H222L225 31Q225 51 225 72T225 114Q225 185 225 255T225 396T225 538T225 680H281L275 669Q275 653 275 636T275 602Q275 529 275 457T275 311T275 166T275 20ZM420 0H91Q88 0 86 1T83 3T81 7T80 11Q80 18
80 23T80 35T80 47H409Q412 47 414 46T418 42T420 36Q420 30 420 24T420 13T420 0ZM80 700H409Q414 700 417 697T420 689Q420 684 420 680T420 671T420 663T420 653H91Q86 653 83 656T80 664Q80 669 80 673T80 682T80 690T80 700ZM224 944Q230 944 236 944T248
944T260 944Q268 944 274 941T296 923Q304 916 323 899T368 860T418 816T465 776Q453 777 443 777T420 776Q409 776 404 777T391 786Q374 800 331 834T226 917L280 898Q264 898 248 898T216 898L270 917Q209 869 167 836T93 776H54Q49 776 47 777T43 779T42 783Q42
787 46 791T67 810Q80 821 101 839T147 877T191 916T224 944Z" />
<glyph unicode="&#xcf;" horiz-adv-x="500" d="M275 20H222L225 31Q225 51 225 72T225 114Q225 185 225 255T225 396T225 538T225 680H281L275 669Q275 653 275 636T275 602Q275 529 275 457T275 311T275 166T275 20ZM420 0H91Q88 0 86 1T83 3T81 7T80 11Q80 18
80 23T80 35T80 47H409Q412 47 414 46T418 42T420 36Q420 30 420 24T420 13T420 0ZM80 700H409Q414 700 417 697T420 689Q420 684 420 680T420 671T420 663T420 653H91Q86 653 83 656T80 664Q80 669 80 673T80 682T80 690T80 700ZM110 888Q127 888 144 888T179
888Q183 888 185 887T188 883T190 877V808Q173 808 156 808T121 808Q118 808 116 809T112 813T110 819V888ZM310 888Q327 888 344 888T379 888Q383 888 385 887T388 883T390 877V808Q373 808 356 808T321 808Q318 808 316 809T312 813T310 819V888Z" />
<glyph unicode="&#xd0;" horiz-adv-x="650" d="M26 380H363Q368 380 371 377T374 369Q374 361 374 353T374 337H37Q32 337 29 340T26 348Q26 356 26 364T26 380ZM575 245Q575 179 555 133T498 57T412 14T302 0Q277 0 256 0T215 0T178 0T144 0T111 0Q107 0 104
3T100 11Q100 95 100 178T100 345T100 512T100 680H159L152 669Q152 641 152 613T152 556Q152 493 152 430T152 302T152 175T152 47Q172 47 193 47T239 47T299 47Q377 47 427 68T501 133T525 249V451Q525 489 519 518T501 571T468 610Q447 627 423 636T367 649T291
653Q254 653 221 653T158 653T99 653T41 653Q38 653 36 654T32 658T30 664Q30 673 30 682T30 700Q60 700 91 700T155 700T227 700T312 700Q373 700 421 686T504 643T557 568T575 455V245Z" />
<glyph unicode="&#xd1;" horiz-adv-x="650" d="M130 0Q120 0 111 0T91 0Q88 0 86 1T82 5T80 11Q80 80 80 148T80 285T80 422T80 560Q80 595 80 630T80 700Q91 700 106 700T135 700T161 700Q165 700 168 699T173 696T177 690Q188 669 209 627T259 529T321 408T390
274T460 140T523 17L484 52H540L525 27Q523 77 522 128T521 231T520 335T520 438T520 538Q520 579 520 619T520 700Q530 700 539 700T559 700Q564 700 567 697T570 689Q570 624 570 559T570 429T570 298T570 168Q570 126 570 84T570 0Q560 0 545 0T514 0T488 0Q482
0 479 2T471 12Q438 76 397 155T310 323T217 502T125 679L159 640H112L125 680Q127 623 127 569T128 461T129 357T130 257T130 160Q129 128 129 84T130 0ZM435 848Q461 848 478 859T516 894H527Q527 885 527 875T527 854Q527 851 526 848T520 839Q504 823 485 813T436
802Q411 802 389 812T347 834T306 857T265 867Q239 867 222 856T184 821H173Q173 830 173 840T173 861Q173 863 174 867T180 876Q196 892 215 902T264 913Q289 913 311 903T354 881T394 858T435 848Z" />
<glyph unicode="&#xd2;" horiz-adv-x="650" d="M326 720Q397 720 453 692T542 604T575 451V241Q575 149 540 92T448 7T324 -20Q258 -20 202 7T110 92T75 242V451Q75 544 107 603T195 691T326 720ZM125 236Q125 182 142 143T185 77Q207 56 239 42T324 27Q382 27
427 52T498 125T525 241V459Q525 498 517 529T495 584T463 625Q441 646 406 659T326 673Q255 673 211 646T146 570T125 459V236ZM240 944Q261 913 279 886T315 833T352 776Q346 776 340 776T326 776T312 776Q306 776 302 778T295 784Q274 810 260 827T235 859T210
890T179 929Q175 934 177 939T186 944Q196 944 203 944T220 944T240 944Z" />
<glyph unicode="&#xd3;" horiz-adv-x="650" d="M326 720Q397 720 453 692T542 604T575 451V241Q575 149 540 92T448 7T324 -20Q258 -20 202 7T110 92T75 242V451Q75 544 107 603T195 691T326 720ZM125 236Q125 182 142 143T185 77Q207 56 239 42T324 27Q382 27
427 52T498 125T525 241V459Q525 498 517 529T495 584T463 625Q441 646 406 659T326 673Q255 673 211 646T146 570T125 459V236ZM416 943Q428 943 434 943T446 943T462 943Q468 943 471 938T469 928Q451 906 438 890T414 859T388 827T353 783Q351 780 347 778T336
775Q329 775 324 775T313 775T301 775Q322 805 340 831T376 885T416 943Z" />
<glyph unicode="&#xd4;" horiz-adv-x="650" d="M326 720Q397 720 453 692T542 604T575 451V241Q575 149 540 92T448 7T324 -20Q258 -20 202 7T110 92T75 242V451Q75 544 107 603T195 691T326 720ZM125 236Q125 182 142 143T185 77Q207 56 239 42T324 27Q382 27
427 52T498 125T525 241V459Q525 498 517 529T495 584T463 625Q441 646 406 659T326 673Q255 673 211 646T146 570T125 459V236ZM299 944Q305 944 311 944T323 944T335 944Q343 944 349 941T371 923Q379 916 398 899T443 860T493 816T540 776Q528 777 518 777T495
776Q484 776 479 777T466 786Q449 800 406 834T301 917L355 898Q339 898 323 898T291 898L345 917Q284 869 242 836T168 776H129Q124 776 122 777T118 779T117 783Q117 787 121 791T142 810Q155 821 176 839T222 877T266 916T299 944Z" />
<glyph unicode="&#xd5;" horiz-adv-x="650" d="M326 720Q397 720 453 692T542 604T575 451V241Q575 149 540 92T448 7T324 -20Q258 -20 202 7T110 92T75 242V451Q75 544 107 603T195 691T326 720ZM125 236Q125 182 142 143T185 77Q207 56 239 42T324 27Q382 27
427 52T498 125T525 241V459Q525 498 517 529T495 584T463 625Q441 646 406 659T326 673Q255 673 211 646T146 570T125 459V236ZM410 848Q436 848 453 859T491 894H502Q502 885 502 875T502 854Q502 851 501 848T495 839Q479 823 460 813T411 802Q386 802 364 812T322
834T281 857T240 867Q214 867 197 856T159 821H148Q148 830 148 840T148 861Q148 863 149 867T155 876Q171 892 190 902T239 913Q264 913 286 903T329 881T369 858T410 848Z" />
<glyph unicode="&#xd6;" horiz-adv-x="650" d="M326 720Q397 720 453 692T542 604T575 451V241Q575 149 540 92T448 7T324 -20Q258 -20 202 7T110 92T75 242V451Q75 544 107 603T195 691T326 720ZM125 236Q125 182 142 143T185 77Q207 56 239 42T324 27Q382 27
427 52T498 125T525 241V459Q525 498 517 529T495 584T463 625Q441 646 406 659T326 673Q255 673 211 646T146 570T125 459V236ZM185 888Q202 888 219 888T254 888Q258 888 260 887T263 883T265 877V808Q248 808 231 808T196 808Q193 808 191 809T187 813T185 819V888ZM385
888Q402 888 419 888T454 888Q458 888 460 887T463 883T465 877V808Q448 808 431 808T396 808Q393 808 391 809T387 813T385 819V888Z" />
<glyph unicode="&#xd7;" horiz-adv-x="600" d="M149 482Q152 482 155 479Q234 400 320 314T484 150Q477 143 470 136T455 121Q454 120 453 119T449 118Q448 118 447 119T443 121Q392 173 336 229T223 342T114 450Q121 457 128 464T143 479Q145 481 146 481T149
482ZM114 150Q191 227 277 313T443 479Q445 481 446 481T449 482Q451 482 452 482T455 479Q459 475 463 471T470 464T477 457T484 450Q433 399 377 343T264 230T155 121Q154 120 153 119T149 118Q148 118 147 119T143 121Q139 125 136 128T128 136T121 143T114
150Z" />
<glyph unicode="&#xd8;" horiz-adv-x="650" d="M549 776Q533 742 517 709T485 642L483 614H439L462 620Q458 598 449 572T420 505Q384 429 348 353T276 200T203 47Q201 43 199 39T195 30Q186 11 180 -2T167 -30T151 -64Q147 -73 144 -74T134 -76Q129 -76 124 -76T113
-76T103 -76T94 -76Q106 -51 116 -30T135 10T153 48L162 92H189L183 85Q184 97 186 109T195 137T213 177Q251 258 292 346T373 516T442 662Q444 667 446 671T450 679Q461 703 470 722T487 757Q493 770 497 773T511 776Q518 776 523 776T535 776T549 776ZM326 720Q397
720 453 692T542 604T575 451V241Q575 149 540 92T448 7T324 -20Q258 -20 202 7T110 92T75 242V451Q75 544 107 603T195 691T326 720ZM125 236Q125 182 142 143T185 77Q207 56 239 42T324 27Q382 27 427 52T498 125T525 241V459Q525 498 517 529T495 584T463 625Q441
646 406 659T326 673Q255 673 211 646T146 570T125 459V236Z" />
<glyph unicode="&#xd9;" horiz-adv-x="650" d="M560 0Q554 0 548 0T535 0T521 0Q519 0 517 0T514 2T512 4T511 7T510 11Q510 97 510 183T510 355T510 528T510 700Q517 700 523 700T536 700T549 700Q552 700 554 699T558 695T560 689Q560 616 560 542T560 395T560
248T560 100Q560 75 560 50T560 0ZM268 -20Q223 -20 189 -7T132 30T97 89T85 167Q85 230 85 301T85 448T85 601Q85 626 85 650T85 700Q95 700 104 700T124 700Q127 700 129 699T133 695T135 689Q135 602 135 514T135 340T135 169Q135 102 171 65T270 27Q317 27
361 45T447 110T531 238V101H490Q463 64 430 37T357 -5T268 -20ZM237 944Q258 913 276 886T312 833T349 776Q343 776 337 776T323 776T309 776Q303 776 299 778T292 784Q271 810 257 827T232 859T207 890T176 929Q172 934 174 939T183 944Q193 944 200 944T217
944T237 944Z" />
<glyph unicode="&#xda;" horiz-adv-x="650" d="M560 0Q554 0 548 0T535 0T521 0Q519 0 517 0T514 2T512 4T511 7T510 11Q510 97 510 183T510 355T510 528T510 700Q517 700 523 700T536 700T549 700Q552 700 554 699T558 695T560 689Q560 616 560 542T560 395T560
248T560 100Q560 75 560 50T560 0ZM268 -20Q223 -20 189 -7T132 30T97 89T85 167Q85 230 85 301T85 448T85 601Q85 626 85 650T85 700Q95 700 104 700T124 700Q127 700 129 699T133 695T135 689Q135 602 135 514T135 340T135 169Q135 102 171 65T270 27Q317 27
361 45T447 110T531 238V101H490Q463 64 430 37T357 -5T268 -20ZM413 943Q425 943 431 943T443 943T459 943Q465 943 468 938T466 928Q448 906 435 890T411 859T385 827T350 783Q348 780 344 778T333 775Q326 775 321 775T310 775T298 775Q319 805 337 831T373
885T413 943Z" />
<glyph unicode="&#xdb;" horiz-adv-x="650" d="M560 0Q554 0 548 0T535 0T521 0Q519 0 517 0T514 2T512 4T511 7T510 11Q510 97 510 183T510 355T510 528T510 700Q517 700 523 700T536 700T549 700Q552 700 554 699T558 695T560 689Q560 616 560 542T560 395T560
248T560 100Q560 75 560 50T560 0ZM268 -20Q223 -20 189 -7T132 30T97 89T85 167Q85 230 85 301T85 448T85 601Q85 626 85 650T85 700Q95 700 104 700T124 700Q127 700 129 699T133 695T135 689Q135 602 135 514T135 340T135 169Q135 102 171 65T270 27Q317 27
361 45T447 110T531 238V101H490Q463 64 430 37T357 -5T268 -20ZM296 944Q302 944 308 944T320 944T332 944Q340 944 346 941T368 923Q376 916 395 899T440 860T490 816T537 776Q525 777 515 777T492 776Q481 776 476 777T463 786Q446 800 403 834T298 917L352
898Q336 898 320 898T288 898L342 917Q281 869 239 836T165 776H126Q121 776 119 777T115 779T114 783Q114 787 118 791T139 810Q152 821 173 839T219 877T263 916T296 944Z" />
<glyph unicode="&#xdc;" horiz-adv-x="650" d="M560 0Q554 0 548 0T535 0T521 0Q519 0 517 0T514 2T512 4T511 7T510 11Q510 97 510 183T510 355T510 528T510 700Q517 700 523 700T536 700T549 700Q552 700 554 699T558 695T560 689Q560 616 560 542T560 395T560
248T560 100Q560 75 560 50T560 0ZM268 -20Q223 -20 189 -7T132 30T97 89T85 167Q85 230 85 301T85 448T85 601Q85 626 85 650T85 700Q95 700 104 700T124 700Q127 700 129 699T133 695T135 689Q135 602 135 514T135 340T135 169Q135 102 171 65T270 27Q317 27
361 45T447 110T531 238V101H490Q463 64 430 37T357 -5T268 -20ZM182 888Q199 888 216 888T251 888Q255 888 257 887T260 883T262 877V808Q245 808 228 808T193 808Q190 808 188 809T184 813T182 819V888ZM382 888Q399 888 416 888T451 888Q455 888 457 887T460
883T462 877V808Q445 808 428 808T393 808Q390 808 388 809T384 813T382 819V888Z" />
<glyph unicode="&#xdd;" horiz-adv-x="650" d="M352 0Q346 0 340 0T327 0T313 0Q310 0 308 1T304 5T302 11Q302 88 302 165T302 320H352Q352 285 352 248T352 173T352 100Q352 74 352 49T352 0ZM48 700Q59 700 71 700T94 700Q100 700 103 699T108 696T111 690Q141
639 170 591T227 494T282 398T336 299L312 335H352L317 296Q349 355 376 403T429 497T485 591T552 700Q563 700 574 700T595 700Q598 700 600 696T601 687Q578 649 553 608T501 524T449 439T397 355T348 277Q335 277 327 277T315 277T308 279T304 281Q280 319 255
361T203 446T150 532T98 618T48 700ZM414 943Q426 943 432 943T444 943T460 943Q466 943 469 938T467 928Q449 906 436 890T412 859T386 827T351 783Q349 780 345 778T334 775Q327 775 322 775T311 775T299 775Q320 805 338 831T374 885T414 943Z" />
<glyph unicode="&#xde;" horiz-adv-x="600" d="M82 700Q92 700 101 700T121 700Q126 700 129 697T132 689Q132 603 132 517T132 345T132 172T132 0Q122 0 113 0T93 0Q90 0 88 1T84 5T82 11Q82 85 82 158T82 306T82 454T82 601Q82 626 82 650T82 700ZM110 566Q160
566 211 566T312 566Q354 566 393 559T465 533T516 478T535 385V317Q535 274 521 240T478 183T409 147T318 134Q269 134 220 134T121 134L110 125V181Q161 181 212 181T315 181Q371 181 408 197T464 244T483 321V390Q483 419 476 440T453 478Q433 499 398 509T310
519Q279 519 248 519T185 519Q169 519 153 519T121 519Q116 519 113 522T110 530Q110 539 110 548T110 566Z" />
<glyph unicode="&#xdf;" horiz-adv-x="600" d="M313 760Q348 760 380 753T439 731T481 691T497 629V623Q497 604 491 584T470 544T428 500L388 465Q358 439 346 420T334 381Q334 356 345 342T387 312L430 290Q469 270 491 248T523 199T532 142V135Q532 91 513
59T459 9T377 -8Q322 -8 291 7T244 37Q243 39 242 40T241 45Q241 56 241 67T241 89H253Q282 61 307 50T379 39Q405 39 424 46T456 66Q469 79 475 97T482 137Q482 159 476 179T452 218T393 257L359 274Q312 297 298 323T284 377V384Q284 401 290 418T310 454T346
492L399 537Q418 553 428 566T443 594T447 624Q447 662 419 687T312 713Q275 713 247 704T200 675Q187 662 179 645T166 607T161 560Q161 503 161 446T161 330T161 215T161 100Q161 84 161 67T161 34T161 0Q151 0 142 0T122 0Q119 0 117 1T113 5T111 11Q111 80
111 149T111 288T111 427T111 566Q111 621 133 664T201 734T313 760Z" />
<glyph unicode="&#xe0;" horiz-adv-x="600" d="M485 361Q485 330 485 298T485 234T485 169T485 106Q485 87 488 76T498 57Q504 51 513 49T534 46Q536 46 538 46T543 46H555Q555 37 555 29T555 11Q555 5 552 3T544 0Q539 0 537 0T532 0Q512 0 495 5T464 21T443
51T435 97Q435 135 435 178T435 259Q435 275 435 291T435 324T435 356Q435 407 423 435T380 474T294 486Q264 486 237 483T185 472T132 454H120Q120 464 120 473T120 492Q120 495 121 497T123 500Q128 505 152 513T213 529T294 536Q344 536 380 527T440 496T474
442T485 361ZM135 132Q135 86 162 62T242 38Q283 38 317 49T385 90T454 172V83H424Q405 53 379 32T319 1T242 -10Q193 -10 158 6T104 54T85 131V159Q85 193 95 219T126 263T176 290T242 300Q276 300 308 300T373 300T445 300Q453 300 456 294T461 278T462 253Q420
253 387 253T320 253T242 253Q214 253 194 247T159 226Q147 214 141 197T135 158V132ZM210 824Q231 793 251 761T293 698T333 636Q324 636 315 636T295 636Q289 636 285 638T278 644Q251 679 232 703T194 752T152 806Q148 812 149 818T158 824Q168 824 175 824T190
824T210 824Z" />
<glyph unicode="&#xe1;" horiz-adv-x="600" d="M485 361Q485 330 485 298T485 234T485 169T485 106Q485 87 488 76T498 57Q504 51 513 49T534 46Q536 46 538 46T543 46H555Q555 37 555 29T555 11Q555 5 552 3T544 0Q539 0 537 0T532 0Q512 0 495 5T464 21T443
51T435 97Q435 135 435 178T435 259Q435 275 435 291T435 324T435 356Q435 407 423 435T380 474T294 486Q264 486 237 483T185 472T132 454H120Q120 464 120 473T120 492Q120 495 121 497T123 500Q128 505 152 513T213 529T294 536Q344 536 380 527T440 496T474
442T485 361ZM135 132Q135 86 162 62T242 38Q283 38 317 49T385 90T454 172V83H424Q405 53 379 32T319 1T242 -10Q193 -10 158 6T104 54T85 131V159Q85 193 95 219T126 263T176 290T242 300Q276 300 308 300T373 300T445 300Q453 300 456 294T461 278T462 253Q420
253 387 253T320 253T242 253Q214 253 194 247T159 226Q147 214 141 197T135 158V132ZM406 824Q423 824 432 824T456 824Q464 824 465 818T462 806Q439 776 421 752T383 704T336 644Q334 641 330 639T319 636Q309 636 301 636T283 636Q303 666 323 697T365 761T406
824Z" />
<glyph unicode="&#xe2;" horiz-adv-x="600" d="M485 361Q485 330 485 298T485 234T485 169T485 106Q485 87 488 76T498 57Q504 51 513 49T534 46Q536 46 538 46T543 46H555Q555 37 555 29T555 11Q555 5 552 3T544 0Q539 0 537 0T532 0Q512 0 495 5T464 21T443
51T435 97Q435 135 435 178T435 259Q435 275 435 291T435 324T435 356Q435 407 423 435T380 474T294 486Q264 486 237 483T185 472T132 454H120Q120 464 120 473T120 492Q120 495 121 497T123 500Q128 505 152 513T213 529T294 536Q344 536 380 527T440 496T474
442T485 361ZM135 132Q135 86 162 62T242 38Q283 38 317 49T385 90T454 172V83H424Q405 53 379 32T319 1T242 -10Q193 -10 158 6T104 54T85 131V159Q85 193 95 219T126 263T176 290T242 300Q276 300 308 300T373 300T445 300Q453 300 456 294T461 278T462 253Q420
253 387 253T320 253T242 253Q214 253 194 247T159 226Q147 214 141 197T135 158V132ZM283 819Q292 819 301 819T319 819Q327 819 332 815T352 797Q360 788 380 768T425 720T477 666T524 617Q512 617 502 617T480 617Q469 617 464 619T451 628Q435 644 391 689T287
795L328 774H285L326 795Q265 734 224 692T150 617H113Q109 617 107 618T104 621T103 626Q103 630 107 634T125 654Q138 668 159 690T205 738T251 785T283 819Z" />
<glyph unicode="&#xe3;" horiz-adv-x="600" d="M485 361Q485 330 485 298T485 234T485 169T485 106Q485 87 488 76T498 57Q504 51 513 49T534 46Q536 46 538 46T543 46H555Q555 37 555 29T555 11Q555 5 552 3T544 0Q539 0 537 0T532 0Q512 0 495 5T464 21T443
51T435 97Q435 135 435 178T435 259Q435 275 435 291T435 324T435 356Q435 407 423 435T380 474T294 486Q264 486 237 483T185 472T132 454H120Q120 464 120 473T120 492Q120 495 121 497T123 500Q128 505 152 513T213 529T294 536Q344 536 380 527T440 496T474
442T485 361ZM135 132Q135 86 162 62T242 38Q283 38 317 49T385 90T454 172V83H424Q405 53 379 32T319 1T242 -10Q193 -10 158 6T104 54T85 131V159Q85 193 95 219T126 263T176 290T242 300Q276 300 308 300T373 300T445 300Q453 300 456 294T461 278T462 253Q420
253 387 253T320 253T242 253Q214 253 194 247T159 226Q147 214 141 197T135 158V132ZM381 693Q407 693 430 708T472 749H483Q483 743 483 735T483 720T483 708Q483 702 482 698T474 686Q458 667 435 656T382 645Q355 645 336 654T301 675T268 697T231 706Q205
706 182 691T140 650H129Q129 656 129 664T129 679T129 691Q129 697 130 701T138 713Q155 733 177 743T230 754Q257 754 276 745T311 724T344 702T381 693Z" />
<glyph unicode="&#xe4;" horiz-adv-x="600" d="M485 361Q485 330 485 298T485 234T485 169T485 106Q485 87 488 76T498 57Q504 51 513 49T534 46Q536 46 538 46T543 46H555Q555 37 555 29T555 11Q555 5 552 3T544 0Q539 0 537 0T532 0Q512 0 495 5T464 21T443
51T435 97Q435 135 435 178T435 259Q435 275 435 291T435 324T435 356Q435 407 423 435T380 474T294 486Q264 486 237 483T185 472T132 454H120Q120 464 120 473T120 492Q120 495 121 497T123 500Q128 505 152 513T213 529T294 536Q344 536 380 527T440 496T474
442T485 361ZM135 132Q135 86 162 62T242 38Q283 38 317 49T385 90T454 172V83H424Q405 53 379 32T319 1T242 -10Q193 -10 158 6T104 54T85 131V159Q85 193 95 219T126 263T176 290T242 300Q276 300 308 300T373 300T445 300Q453 300 456 294T461 278T462 253Q420
253 387 253T320 253T242 253Q214 253 194 247T159 226Q147 214 141 197T135 158V132ZM166 745Q183 745 200 745T235 745Q239 745 241 744T244 740T246 734V665Q229 665 212 665T177 665Q174 665 172 666T168 670T166 676V745ZM366 745Q383 745 400 745T435 745Q439
745 441 744T444 740T446 734V665Q429 665 412 665T377 665Q374 665 372 666T368 670T366 676V745Z" />
<glyph unicode="&#xe5;" horiz-adv-x="600" d="M485 361Q485 330 485 298T485 234T485 169T485 106Q485 87 488 76T498 57Q504 51 513 49T534 46Q536 46 538 46T543 46H555Q555 37 555 29T555 11Q555 5 552 3T544 0Q539 0 537 0T532 0Q512 0 495 5T464 21T443
51T435 97Q435 135 435 178T435 259Q435 275 435 291T435 324T435 356Q435 407 423 435T380 474T294 486Q264 486 237 483T185 472T132 454H120Q120 464 120 473T120 492Q120 495 121 497T123 500Q128 505 152 513T213 529T294 536Q344 536 380 527T440 496T474
442T485 361ZM135 132Q135 86 162 62T242 38Q283 38 317 49T385 90T454 172V83H424Q405 53 379 32T319 1T242 -10Q193 -10 158 6T104 54T85 131V159Q85 193 95 219T126 263T176 290T242 300Q276 300 308 300T373 300T445 300Q453 300 456 294T461 278T462 253Q420
253 387 253T320 253T242 253Q214 253 194 247T159 226Q147 214 141 197T135 158V132ZM306 835Q341 835 366 823T404 789T418 738V712Q418 669 388 642T306 615Q254 615 224 642T194 712V738Q194 767 207 788T246 822T306 835ZM306 793Q276 793 259 778T242 737V713Q242
700 246 691T258 673Q266 666 278 662T306 658Q336 658 353 673T370 713V737Q370 749 367 758T356 775Q348 784 336 788T306 793Z" />
<glyph unicode="&#xe6;" horiz-adv-x="850" d="M255 536Q304 536 340 521T399 478T432 413L413 443H438L419 413Q435 469 478 502T589 536Q643 536 681 513T739 447T760 340Q760 319 760 298T760 255Q760 252 759 250T755 246T749 244Q711 244 674 244T598 244T523
244T447 244H437V291Q471 291 505 291T573 291T642 291T710 291Q710 298 710 305T710 319T710 334Q710 378 702 408T675 457Q659 474 636 481T580 489Q541 489 512 471T466 421T450 348V185Q450 154 460 127T491 80Q511 60 541 49T610 37Q636 37 659 41T704 55T746
80H758Q758 70 758 60T758 40Q758 38 758 36T755 32Q739 16 701 3T606 -10Q555 -10 516 7T452 53T417 122L435 88H412L433 122Q422 84 397 54T333 7T244 -10Q192 -10 157 6T103 53T85 129V158Q85 191 95 217T125 261T176 290T246 300Q281 300 312 294T369 280T411
265H418V218Q388 230 362 238T306 249T236 253Q208 253 189 246T158 228Q145 215 140 198T135 160V130Q135 83 162 61T242 38H252Q294 38 327 57T380 108T400 179V348Q400 390 385 421T338 469T255 486Q215 486 186 479T122 456H110Q110 466 110 475T110 494Q110
497 111 499T113 502Q119 508 140 516T191 530T255 536Z" />
<glyph unicode="&#xe7;" horiz-adv-x="500" d="M298 536Q337 536 366 529T413 511T438 494Q442 490 442 488T443 481Q443 473 443 465T443 448H431Q412 462 381 475T298 489Q240 489 202 468T144 406T125 305V205Q125 165 135 134T167 82Q189 60 222 49T298 37Q333
37 357 42T400 55T431 73H443Q443 64 443 56T443 38Q443 36 443 34T440 30Q432 22 415 13T369 -3T297 -10Q243 -10 202 3T133 44T90 112T75 204V310Q75 388 105 438T185 512T298 536ZM305 22Q304 16 303 9T300 -4T297 -18T294 -31L292 -42Q330 -44 352 -65T374
-124Q374 -165 343 -192T256 -220Q230 -220 213 -216T188 -204T179 -192Q179 -184 179 -179T179 -168T179 -158H191Q202 -168 216 -173T258 -178Q290 -178 309 -164T329 -125Q329 -102 315 -91T255 -78Q250 -78 247 -75T244 -67Q246 -57 247 -48T251 -29T254 -10T258
9Q259 16 262 18T275 21T305 22Z" />
<glyph unicode="&#xe8;" horiz-adv-x="600" d="M303 536Q355 536 402 515T480 445T511 310V245Q511 242 510 240T506 236T500 234H212Q196 234 180 234T148 234H129L107 281H461Q461 287 461 293T461 306Q461 356 450 392T415 450Q395 470 367 479T303 489Q225
489 180 445T135 301V212Q135 172 146 140T178 86Q202 62 239 50T329 37Q368 37 395 41T445 56T496 82H508Q508 74 508 65T508 48Q508 46 508 44T505 40Q492 27 467 16T406 -3T323 -10Q272 -10 229 3T153 43T103 111T85 210V304Q85 370 103 414T153 486T224 524T303
536ZM211 835Q232 804 252 772T294 709T334 647Q325 647 316 647T296 647Q290 647 286 649T279 655Q252 690 233 714T195 763T153 817Q149 823 150 829T159 835Q169 835 176 835T191 835T211 835Z" />
<glyph unicode="&#xe9;" horiz-adv-x="600" d="M303 536Q355 536 402 515T480 445T511 310V245Q511 242 510 240T506 236T500 234H212Q196 234 180 234T148 234H129L107 281H461Q461 287 461 293T461 306Q461 356 450 392T415 450Q395 470 367 479T303 489Q225
489 180 445T135 301V212Q135 172 146 140T178 86Q202 62 239 50T329 37Q368 37 395 41T445 56T496 82H508Q508 74 508 65T508 48Q508 46 508 44T505 40Q492 27 467 16T406 -3T323 -10Q272 -10 229 3T153 43T103 111T85 210V304Q85 370 103 414T153 486T224 524T303
536ZM407 835Q424 835 433 835T457 835Q465 835 466 829T463 817Q440 787 422 763T384 715T337 655Q335 652 331 650T320 647Q310 647 302 647T284 647Q304 677 324 708T366 772T407 835Z" />
<glyph unicode="&#xea;" horiz-adv-x="600" d="M303 536Q355 536 402 515T480 445T511 310V245Q511 242 510 240T506 236T500 234H212Q196 234 180 234T148 234H129L107 281H461Q461 287 461 293T461 306Q461 356 450 392T415 450Q395 470 367 479T303 489Q225
489 180 445T135 301V212Q135 172 146 140T178 86Q202 62 239 50T329 37Q368 37 395 41T445 56T496 82H508Q508 74 508 65T508 48Q508 46 508 44T505 40Q492 27 467 16T406 -3T323 -10Q272 -10 229 3T153 43T103 111T85 210V304Q85 370 103 414T153 486T224 524T303
536ZM284 830Q293 830 302 830T320 830Q328 830 333 826T353 808Q361 799 381 779T426 731T478 677T525 628Q513 628 503 628T481 628Q470 628 465 630T452 639Q436 655 392 700T288 806L329 785H286L327 806Q266 745 225 703T151 628H114Q110 628 108 629T105
632T104 637Q104 641 108 645T126 665Q139 679 160 701T206 749T252 796T284 830Z" />
<glyph unicode="&#xeb;" horiz-adv-x="600" d="M303 536Q355 536 402 515T480 445T511 310V245Q511 242 510 240T506 236T500 234H212Q196 234 180 234T148 234H129L107 281H461Q461 287 461 293T461 306Q461 356 450 392T415 450Q395 470 367 479T303 489Q225
489 180 445T135 301V212Q135 172 146 140T178 86Q202 62 239 50T329 37Q368 37 395 41T445 56T496 82H508Q508 74 508 65T508 48Q508 46 508 44T505 40Q492 27 467 16T406 -3T323 -10Q272 -10 229 3T153 43T103 111T85 210V304Q85 370 103 414T153 486T224 524T303
536ZM167 756Q184 756 201 756T236 756Q240 756 242 755T245 751T247 745V676Q230 676 213 676T178 676Q175 676 173 677T169 681T167 687V756ZM367 756Q384 756 401 756T436 756Q440 756 442 755T445 751T447 745V676Q430 676 413 676T378 676Q375 676 373 677T369
681T367 687V756Z" />
<glyph unicode="&#xec;" horiz-adv-x="350" d="M170 11Q170 58 170 104T170 198T170 292T170 385T170 479H150Q139 479 128 479T106 479T83 479T61 479Q57 479 54 482T50 490Q50 499 50 508T50 526Q66 526 82 526T114 526T145 526T177 526T209 526Q212 526 214
525T218 521T220 515Q220 461 220 408T220 301T220 195T220 87Q220 73 220 59T220 30T220 0Q210 0 201 0T181 0Q177 0 174 3T170 11ZM101 834Q122 803 142 771T184 708T224 646Q215 646 206 646T186 646Q180 646 176 648T169 654Q142 689 123 713T85 762T43 816Q39
822 40 828T49 834Q59 834 66 834T81 834T101 834Z" />
<glyph unicode="&#xed;" horiz-adv-x="350" d="M170 11Q170 58 170 104T170 198T170 292T170 385T170 479H150Q139 479 128 479T106 479T83 479T61 479Q57 479 54 482T50 490Q50 499 50 508T50 526Q66 526 82 526T114 526T145 526T177 526T209 526Q212 526 214
525T218 521T220 515Q220 461 220 408T220 301T220 195T220 87Q220 73 220 59T220 30T220 0Q210 0 201 0T181 0Q177 0 174 3T170 11ZM297 834Q314 834 323 834T347 834Q355 834 356 828T353 816Q330 786 312 762T274 714T227 654Q225 651 221 649T210 646Q200 646
192 646T174 646Q194 676 214 707T256 771T297 834Z" />
<glyph unicode="&#xee;" horiz-adv-x="350" d="M170 11Q170 58 170 104T170 198T170 292T170 385T170 479H150Q139 479 128 479T106 479T83 479T61 479Q57 479 54 482T50 490Q50 499 50 508T50 526Q66 526 82 526T114 526T145 526T177 526T209 526Q212 526 214
525T218 521T220 515Q220 461 220 408T220 301T220 195T220 87Q220 73 220 59T220 30T220 0Q210 0 201 0T181 0Q177 0 174 3T170 11ZM174 829Q183 829 192 829T210 829Q218 829 223 825T243 807Q251 798 271 778T316 730T368 676T415 627Q403 627 393 627T371 627Q360
627 355 629T342 638Q326 654 282 699T178 805L219 784H176L217 805Q156 744 115 702T41 627H4Q0 627 -2 628T-5 631T-6 636Q-6 640 -2 644T16 664Q29 678 50 700T96 748T142 795T174 829Z" />
<glyph unicode="&#xef;" horiz-adv-x="350" d="M170 11Q170 58 170 104T170 198T170 292T170 385T170 479H150Q139 479 128 479T106 479T83 479T61 479Q57 479 54 482T50 490Q50 499 50 508T50 526Q66 526 82 526T114 526T145 526T177 526T209 526Q212 526 214
525T218 521T220 515Q220 461 220 408T220 301T220 195T220 87Q220 73 220 59T220 30T220 0Q210 0 201 0T181 0Q177 0 174 3T170 11ZM57 755Q74 755 91 755T126 755Q130 755 132 754T135 750T137 744V675Q120 675 103 675T68 675Q65 675 63 676T59 680T57 686V755ZM257
755Q274 755 291 755T326 755Q330 755 332 754T335 750T337 744V675Q320 675 303 675T268 675Q265 675 263 676T259 680T257 686V755Z" />
<glyph unicode="&#xf0;" horiz-adv-x="600" d="M522 720Q522 713 522 706T522 690Q522 685 521 682T518 676T509 672L373 635Q369 634 364 634T354 634T345 633L117 571Q117 579 117 586T117 600Q117 609 120 612T131 618L316 668Q320 669 324 669T334 669T344
670L522 720ZM277 516Q336 516 372 499T438 449H476V360Q445 410 395 439T286 468Q237 468 203 446T152 388T135 308V205Q135 178 140 155T157 111T185 76Q205 58 231 48T291 38Q351 38 389 61T446 123T465 207V308Q465 358 462 395T446 467T406 539T334 627T217
748V760Q227 760 237 760T258 760Q264 760 268 759T278 752Q345 685 388 635T457 545T495 469T511 394T515 308V207Q515 143 486 94T408 18T300 -10Q234 -10 186 17T112 91T85 198V308Q85 370 111 417T181 490T277 516Z" />
<glyph unicode="&#xf1;" horiz-adv-x="600" d="M495 0Q485 0 476 0T456 0Q453 0 451 1T447 5T445 11Q445 73 445 135T445 259T445 383Q445 437 418 463T346 489Q322 489 299 482T251 459T202 420T147 363V435H172Q198 466 226 488T286 523T356 536Q391 536 417
525T460 494T486 449T495 393Q495 345 495 297T495 202T495 106Q495 79 495 53T495 0ZM160 0Q154 0 148 0T135 0T121 0Q118 0 116 0T113 2T111 6T110 11Q110 63 110 115T110 218T110 322T110 426Q110 462 110 488T110 526Q117 526 123 526T136 526T149 526Q153
526 155 525T158 521T160 515Q160 430 160 344T160 172T160 0ZM375 704Q401 704 424 719T466 760H477Q477 754 477 746T477 731T477 719Q477 713 476 709T468 697Q452 678 429 667T376 656Q349 656 330 665T295 686T262 708T225 717Q199 717 176 702T134 661H123Q123
667 123 675T123 690T123 702Q123 708 124 712T132 724Q149 744 171 754T224 765Q251 765 270 756T305 735T338 713T375 704Z" />
<glyph unicode="&#xf2;" horiz-adv-x="600" d="M300 536Q349 536 388 521T456 477T500 411T515 328V207Q515 143 486 94T408 18T300 -10Q251 -10 212 5T144 49T100 115T85 198V319Q85 384 114 432T192 508T300 536ZM309 488Q252 488 214 465T155 403T135 319V205Q135
168 147 137T182 83Q202 62 230 50T291 38Q348 38 387 62T445 125T465 207V321Q465 360 453 391T419 445Q399 465 371 476T309 488ZM204 835Q225 804 245 772T287 709T327 647Q318 647 309 647T289 647Q283 647 279 649T272 655Q245 690 226 714T188 763T146 817Q142
823 143 829T152 835Q162 835 169 835T184 835T204 835Z" />
<glyph unicode="&#xf3;" horiz-adv-x="600" d="M300 536Q349 536 388 521T456 477T500 411T515 328V207Q515 143 486 94T408 18T300 -10Q251 -10 212 5T144 49T100 115T85 198V319Q85 384 114 432T192 508T300 536ZM309 488Q252 488 214 465T155 403T135 319V205Q135
168 147 137T182 83Q202 62 230 50T291 38Q348 38 387 62T445 125T465 207V321Q465 360 453 391T419 445Q399 465 371 476T309 488ZM400 835Q417 835 426 835T450 835Q458 835 459 829T456 817Q433 787 415 763T377 715T330 655Q328 652 324 650T313 647Q303 647
295 647T277 647Q297 677 317 708T359 772T400 835Z" />
<glyph unicode="&#xf4;" horiz-adv-x="600" d="M300 536Q349 536 388 521T456 477T500 411T515 328V207Q515 143 486 94T408 18T300 -10Q251 -10 212 5T144 49T100 115T85 198V319Q85 384 114 432T192 508T300 536ZM309 488Q252 488 214 465T155 403T135 319V205Q135
168 147 137T182 83Q202 62 230 50T291 38Q348 38 387 62T445 125T465 207V321Q465 360 453 391T419 445Q399 465 371 476T309 488ZM277 830Q286 830 295 830T313 830Q321 830 326 826T346 808Q354 799 374 779T419 731T471 677T518 628Q506 628 496 628T474 628Q463
628 458 630T445 639Q429 655 385 700T281 806L322 785H279L320 806Q259 745 218 703T144 628H107Q103 628 101 629T98 632T97 637Q97 641 101 645T119 665Q132 679 153 701T199 749T245 796T277 830Z" />
<glyph unicode="&#xf5;" horiz-adv-x="600" d="M300 536Q349 536 388 521T456 477T500 411T515 328V207Q515 143 486 94T408 18T300 -10Q251 -10 212 5T144 49T100 115T85 198V319Q85 384 114 432T192 508T300 536ZM309 488Q252 488 214 465T155 403T135 319V205Q135
168 147 137T182 83Q202 62 230 50T291 38Q348 38 387 62T445 125T465 207V321Q465 360 453 391T419 445Q399 465 371 476T309 488ZM375 704Q401 704 424 719T466 760H477Q477 754 477 746T477 731T477 719Q477 713 476 709T468 697Q452 678 429 667T376 656Q349
656 330 665T295 686T262 708T225 717Q199 717 176 702T134 661H123Q123 667 123 675T123 690T123 702Q123 708 124 712T132 724Q149 744 171 754T224 765Q251 765 270 756T305 735T338 713T375 704Z" />
<glyph unicode="&#xf6;" horiz-adv-x="600" d="M300 536Q349 536 388 521T456 477T500 411T515 328V207Q515 143 486 94T408 18T300 -10Q251 -10 212 5T144 49T100 115T85 198V319Q85 384 114 432T192 508T300 536ZM309 488Q252 488 214 465T155 403T135 319V205Q135
168 147 137T182 83Q202 62 230 50T291 38Q348 38 387 62T445 125T465 207V321Q465 360 453 391T419 445Q399 465 371 476T309 488ZM160 756Q177 756 194 756T229 756Q233 756 235 755T238 751T240 745V676Q223 676 206 676T171 676Q168 676 166 677T162 681T160
687V756ZM360 756Q377 756 394 756T429 756Q433 756 435 755T438 751T440 745V676Q423 676 406 676T371 676Q368 676 366 677T362 681T360 687V756Z" />
<glyph unicode="&#xf7;" horiz-adv-x="600" d="M76 325H513Q518 325 521 322T524 314Q524 304 524 295T524 275H87Q84 275 82 276T78 280T76 286Q76 296 76 305T76 325ZM238 531Q253 531 274 531T315 531T351 531Q355 531 357 530T360 526T362 520V411Q347 411
327 411T285 411T249 411Q246 411 244 412T240 416T238 422V531ZM238 189Q253 189 274 189T315 189T351 189Q355 189 357 188T360 184T362 178V69Q347 69 327 69T285 69T249 69Q246 69 244 70T240 74T238 80V189Z" />
<glyph unicode="&#xf8;" horiz-adv-x="600" d="M490 582Q481 565 473 548T455 514T437 480L432 443H395L409 446Q407 433 400 414T374 360Q331 279 288 198T202 35Q202 33 202 30T203 25Q197 13 191 2T178 -22T165 -46Q161 -53 158 -54T150 -56Q145 -56 140 -56T129
-56T119 -56T110 -56Q118 -40 126 -25T142 6T158 37L168 89H195L188 86Q189 95 191 103T198 123T214 155Q259 240 304 324T394 494Q396 498 397 502T399 510Q407 524 414 538T429 567Q434 577 437 579T449 582Q455 582 459 582T468 582T478 582T490 582ZM300 536Q349
536 388 521T456 477T500 411T515 328V207Q515 143 486 94T408 18T300 -10Q251 -10 212 5T144 49T100 115T85 198V319Q85 384 114 432T192 508T300 536ZM309 488Q252 488 214 465T155 403T135 319V205Q135 168 147 137T182 83Q202 62 230 50T291 38Q348 38 387
62T445 125T465 207V321Q465 360 453 391T419 445Q399 465 371 476T309 488Z" />
<glyph unicode="&#xf9;" horiz-adv-x="600" d="M148 526Q152 526 154 525T157 521T159 515Q159 469 159 423T159 330T159 237T159 143Q159 89 186 63T258 37Q282 37 305 44T353 67T403 106T457 163V91H432Q406 61 378 38T318 3T248 -10Q214 -10 188 1T144 32T118
77T109 133Q109 178 109 222T109 312T109 401Q109 433 109 464T109 526Q119 526 128 526T148 526ZM483 526Q487 526 489 525T492 521T494 515Q494 446 494 377T494 239T494 100Q494 76 494 57T494 23T494 0Q488 0 482 0T469 0T455 0Q452 0 450 1T446 5T444 11Q444
97 444 183T444 355T444 526Q451 526 457 526T470 526T483 526ZM204 835Q225 804 245 772T287 709T327 647Q318 647 309 647T289 647Q283 647 279 649T272 655Q245 690 226 714T188 763T146 817Q142 823 143 829T152 835Q162 835 169 835T184 835T204 835Z" />
<glyph unicode="&#xfa;" horiz-adv-x="600" d="M148 526Q152 526 154 525T157 521T159 515Q159 469 159 423T159 330T159 237T159 143Q159 89 186 63T258 37Q282 37 305 44T353 67T403 106T457 163V91H432Q406 61 378 38T318 3T248 -10Q214 -10 188 1T144 32T118
77T109 133Q109 178 109 222T109 312T109 401Q109 433 109 464T109 526Q119 526 128 526T148 526ZM483 526Q487 526 489 525T492 521T494 515Q494 446 494 377T494 239T494 100Q494 76 494 57T494 23T494 0Q488 0 482 0T469 0T455 0Q452 0 450 1T446 5T444 11Q444
97 444 183T444 355T444 526Q451 526 457 526T470 526T483 526ZM400 835Q417 835 426 835T450 835Q458 835 459 829T456 817Q433 787 415 763T377 715T330 655Q328 652 324 650T313 647Q303 647 295 647T277 647Q297 677 317 708T359 772T400 835Z" />
<glyph unicode="&#xfb;" horiz-adv-x="600" d="M148 526Q152 526 154 525T157 521T159 515Q159 469 159 423T159 330T159 237T159 143Q159 89 186 63T258 37Q282 37 305 44T353 67T403 106T457 163V91H432Q406 61 378 38T318 3T248 -10Q214 -10 188 1T144 32T118
77T109 133Q109 178 109 222T109 312T109 401Q109 433 109 464T109 526Q119 526 128 526T148 526ZM483 526Q487 526 489 525T492 521T494 515Q494 446 494 377T494 239T494 100Q494 76 494 57T494 23T494 0Q488 0 482 0T469 0T455 0Q452 0 450 1T446 5T444 11Q444
97 444 183T444 355T444 526Q451 526 457 526T470 526T483 526ZM277 830Q286 830 295 830T313 830Q321 830 326 826T346 808Q354 799 374 779T419 731T471 677T518 628Q506 628 496 628T474 628Q463 628 458 630T445 639Q429 655 385 700T281 806L322 785H279L320
806Q259 745 218 703T144 628H107Q103 628 101 629T98 632T97 637Q97 641 101 645T119 665Q132 679 153 701T199 749T245 796T277 830Z" />
<glyph unicode="&#xfc;" horiz-adv-x="600" d="M148 526Q152 526 154 525T157 521T159 515Q159 469 159 423T159 330T159 237T159 143Q159 89 186 63T258 37Q282 37 305 44T353 67T403 106T457 163V91H432Q406 61 378 38T318 3T248 -10Q214 -10 188 1T144 32T118
77T109 133Q109 178 109 222T109 312T109 401Q109 433 109 464T109 526Q119 526 128 526T148 526ZM483 526Q487 526 489 525T492 521T494 515Q494 446 494 377T494 239T494 100Q494 76 494 57T494 23T494 0Q488 0 482 0T469 0T455 0Q452 0 450 1T446 5T444 11Q444
97 444 183T444 355T444 526Q451 526 457 526T470 526T483 526ZM160 756Q177 756 194 756T229 756Q233 756 235 755T238 751T240 745V676Q223 676 206 676T171 676Q168 676 166 677T162 681T160 687V756ZM360 756Q377 756 394 756T429 756Q433 756 435 755T438
751T440 745V676Q423 676 406 676T371 676Q368 676 366 677T362 681T360 687V756Z" />
<glyph unicode="&#xfd;" horiz-adv-x="600" d="M534 526Q539 526 544 522T546 510Q517 429 487 347T429 186T375 36T328 -93Q314 -132 296 -155T251 -189T189 -200Q180 -200 168 -200T145 -200T126 -200T115 -200Q110 -200 107 -198T104 -189V-152H116Q135 -152
153 -152T191 -152Q225 -152 247 -137T281 -88Q289 -65 306 -17T346 96T396 236T448 385T498 526Q502 526 506 526T515 526T524 526T534 526ZM92 526Q100 526 103 524T110 515Q130 467 154 409T204 290T252 176T290 86T311 36H338L324 0H297Q287 0 282 2T271 16T254
53Q244 76 227 115T188 204T142 309T94 420T48 526Q53 526 58 526T69 526T80 526T92 526ZM412 835Q429 835 438 835T462 835Q470 835 471 829T468 817Q445 787 427 763T389 715T342 655Q340 652 336 650T325 647Q315 647 307 647T289 647Q309 677 329 708T371 772T412
835Z" />
<glyph unicode="&#xfe;" horiz-adv-x="600" d="M110 760Q117 760 123 760T136 760T149 760Q152 760 154 759T158 755T160 749Q160 652 160 555T160 362T160 168T160 -26T160 -220Q154 -220 148 -220T135 -220T121 -220Q118 -220 116 -219T112 -215T110 -209Q110
-137 110 -65T110 80T110 225T110 370T110 515T110 660Q110 683 110 708T110 760ZM344 536Q402 536 442 511T503 439T525 329V213Q525 160 512 119T473 49T410 5T324 -10Q286 -10 259 -3T211 19T172 53H153V123Q183 90 208 71T260 45T321 37Q374 37 408 57T458
118T475 223V309Q475 353 467 387T441 443Q424 466 400 477T343 489Q307 489 276 479T212 444T139 377V462H172Q198 488 225 504T281 528T344 536Z" />
<glyph unicode="&#xff;" horiz-adv-x="600" d="M534 526Q539 526 544 522T546 510Q517 429 487 347T429 186T375 36T328 -93Q314 -132 296 -155T251 -189T189 -200Q180 -200 168 -200T145 -200T126 -200T115 -200Q110 -200 107 -198T104 -189V-152H116Q135 -152
153 -152T191 -152Q225 -152 247 -137T281 -88Q289 -65 306 -17T346 96T396 236T448 385T498 526Q502 526 506 526T515 526T524 526T534 526ZM92 526Q100 526 103 524T110 515Q130 467 154 409T204 290T252 176T290 86T311 36H338L324 0H297Q287 0 282 2T271 16T254
53Q244 76 227 115T188 204T142 309T94 420T48 526Q53 526 58 526T69 526T80 526T92 526ZM172 756Q189 756 206 756T241 756Q245 756 247 755T250 751T252 745V676Q235 676 218 676T183 676Q180 676 178 677T174 681T172 687V756ZM372 756Q389 756 406 756T441
756Q445 756 447 755T450 751T452 745V676Q435 676 418 676T383 676Q380 676 378 677T374 681T372 687V756Z" />
<glyph unicode="&#x2013;" horiz-adv-x="600" d="M50 325H539Q543 325 545 324T548 320T550 314Q550 304 550 295T550 275H61Q58 275 56 276T52 280T50 286Q50 296 50 305T50 325Z" />
<glyph unicode="&#x2014;" horiz-adv-x="600" d="M-11 325H600Q604 325 606 324T609 320T611 314Q611 304 611 295T611 275H0Q-3 275 -5 276T-9 280T-11 286Q-11 296 -11 305T-11 325Z" />
<glyph unicode="&#x2018;" horiz-adv-x="350" d="M200 750Q214 750 237 750T269 750Q257 700 245 650T221 550T197 450Q182 450 170 450T147 450T125 450T101 450Q97 450 95 451T92 456T93 463Q109 508 125 555T158 650T190 743Q192 748 194 749T200 750Z" />
<glyph unicode="&#x2019;" horiz-adv-x="350" d="M175 450Q161 450 138 450T106 450Q118 500 130 550T154 650T178 750Q193 750 205 750T228 750T250 750T274 750Q278 750 280 749T283 744T282 737Q267 692 251 645T218 550T185 457Q184 453 182 452T175 450Z" />
<glyph unicode="&#x201a;" horiz-adv-x="350" d="M175 -102Q161 -102 138 -102T106 -102Q118 -52 130 -2T154 98T178 198Q193 198 205 198T228 198T250 198T274 198Q278 198 280 197T283 192T282 185Q267 140 251 93T218 -2T185 -95Q184 -99 182 -100T175 -102Z" />
<glyph unicode="&#x201c;" horiz-adv-x="600" d="M288 720Q279 683 270 646T252 571T234 496T216 420Q201 420 189 420T166 420T144 420T120 420Q114 420 112 423T112 433Q127 468 142 503T173 573T203 643T234 713Q236 718 238 719T244 720Q251 720 257 720T268
720T279 720T288 720ZM488 720Q479 683 470 646T452 571T434 496T416 420Q401 420 389 420T366 420T344 420T320 420Q314 420 312 423T312 433Q327 468 342 503T373 573T403 643T434 713Q436 718 438 719T444 720Q451 720 457 720T468 720T479 720T488 720Z" />
<glyph unicode="&#x201d;" horiz-adv-x="600" d="M312 420Q321 458 330 495T348 570T366 645T384 720Q399 720 411 720T434 720T456 720T480 720Q486 720 488 717T488 707Q473 672 458 637T427 567T397 497T366 427Q365 423 363 422T356 420Q349 420 343 420T332
420T322 420T312 420ZM112 420Q121 458 130 495T148 570T166 645T184 720Q199 720 211 720T234 720T256 720T280 720Q286 720 288 717T288 707Q273 672 258 637T227 567T197 497T166 427Q165 423 163 422T156 420Q149 420 143 420T132 420T122 420T112 420Z" />
<glyph unicode="&#x201e;" horiz-adv-x="600" d="M312 -126Q321 -88 330 -51T348 24T366 99T384 174Q399 174 411 174T434 174T456 174T480 174Q486 174 488 171T488 161Q473 126 458 91T427 21T397 -49T366 -119Q365 -123 363 -124T356 -126Q349 -126 343 -126T332
-126T322 -126T312 -126ZM112 -126Q121 -88 130 -51T148 24T166 99T184 174Q199 174 211 174T234 174T256 174T280 174Q286 174 288 171T288 161Q273 126 258 91T227 21T197 -49T166 -119Q165 -123 163 -124T156 -126Q149 -126 143 -126T132 -126T122 -126T112
-126Z" />
<glyph unicode="&#x2022;" horiz-adv-x="600" d="M400 201Q381 201 357 201T306 201T255 201T211 201Q206 201 203 204T200 212V401Q219 401 243 401T294 401T345 401T389 401Q394 401 397 398T400 390V201Z" />
<glyph unicode="&#x2039;" horiz-adv-x="400" d="M322 90V78Q312 78 302 78T280 78Q270 78 266 80T254 90Q250 94 234 111T196 151T152 197T112 239T89 263Q82 271 81 275T79 285Q79 295 79 305T79 325Q102 350 128 377T180 432T225 480T256 512Q263 519 268 520T282
522Q292 522 302 522T322 522V510Q277 463 243 426T180 359T124 299Q153 268 180 239T242 174T322 90Z" />
<glyph unicode="&#x203a;" horiz-adv-x="400" d="M79 510V522Q90 522 100 522T121 522Q131 522 135 520T147 510Q151 506 167 489T205 449T249 403T289 361T312 337Q319 330 320 326T322 315Q322 305 322 295T322 275Q299 250 273 223T221 168T176 120T145 88Q138
81 133 80T119 78Q109 78 99 78T79 78V90Q124 138 158 174T221 241T277 301Q249 332 221 361T159 426T79 510Z" />
</font>
</defs>
</svg>
