<?xml version="1.0" standalone="no"?>
<!DOCTYPE svg PUBLIC "-//W3C//DTD SVG 1.1//EN" "http://www.w3.org/Graphics/SVG/1.1/DTD/svg11.dtd">
<svg xmlns="http://www.w3.org/2000/svg">
<defs >
<font id="Recursive" horiz-adv-x="628" ><font-face
    font-family="Recursive Sans Linear Light Medium"
    units-per-em="1000"
    panose-1="0 0 0 0 0 0 0 0 0 0"
    ascent="950"
    descent="-250"
    alphabetic="0" />
<glyph unicode=" " horiz-adv-x="300" />
<glyph unicode="!" horiz-adv-x="350" d="M215 268H145Q142 268 141 269T137 271Q136 273 134 278T130 304T123 372T109 502V590Q109 618 109 645T109 700Q133 700 163 700T230 700Q233 700 235 699T239 695T241 689V502Q237 464 233 425T224 346T215 268ZM249
-8Q225 -8 203 -8T159 -8T112 -8Q109 -8 107 -7T103 -3T101 3V143Q126 143 148 143T192 143T238 143Q242 143 244 142T247 138T249 132V-8Z" />
<glyph unicode="&quot;" horiz-adv-x="600" d="M232 443Q210 443 189 443T144 443Q140 443 137 446T133 454L117 648Q116 666 115 682T112 715T109 750Q146 750 179 750T242 750Q247 750 250 747T252 737L232 443ZM468 443Q447 443 425 443T379 443Q375 443 372
446T368 454L347 750Q384 750 417 750T480 750Q485 750 488 747T490 737L468 443Z" />
<glyph unicode="#" horiz-adv-x="600" d="M217 720Q236 720 255 720T294 720Q299 720 302 718T303 709Q285 619 267 530T231 350T195 171T159 -9Q158 -16 154 -18T145 -20Q126 -20 107 -20T69 -20Q87 72 105 164T143 350T180 535T217 720ZM440 720Q452 720 465
720T491 720T517 720Q522 720 525 718T526 709Q508 619 490 530T454 350T418 171T382 -9Q381 -16 377 -18T368 -20Q356 -20 343 -20T318 -20T292 -20Q310 72 328 164T366 350T403 535T440 720ZM580 442H71Q66 442 63 445T60 453Q60 457 60 464T60 481T60 499T60
516T60 528H569Q571 528 573 528T577 525Q579 524 579 522T580 517Q580 513 580 506T580 489T580 471T580 454T580 442ZM20 253H529Q534 253 537 250T540 242Q540 238 540 231T540 216T540 199T540 183T540 172H31Q29 172 27 173T23 175Q22 177 21 179T20 183Q20
187 20 194T20 209T20 226T20 242T20 253Z" />
<glyph unicode="$" horiz-adv-x="600" d="M288 -18Q217 -18 159 -2T71 43Q70 45 69 47T68 52Q68 72 68 99T68 152H85Q130 117 178 101T294 85Q367 85 402 109T438 170V199Q438 223 431 239T403 268T340 293L244 322Q196 337 163 356T111 397T83 442T74 491V535Q74
575 91 608T141 667T219 705T321 719Q383 719 435 706T513 668Q515 667 515 665T516 660Q516 636 516 607T516 559H500Q460 590 417 602T315 615Q269 615 238 605T191 575T175 530V506Q175 483 184 468T216 440T282 415L378 387Q438 369 472 344T522 287T537 215V165Q537
112 507 71T420 6T288 -18ZM350 465Q337 468 322 472T300 478Q295 479 292 482T289 491Q289 521 289 553T289 618T289 678T289 730Q289 742 289 758T289 791T289 825T289 853Q307 853 319 853T343 853T373 853Q378 853 381 850T383 840Q380 816 377 782T371 707T364
624T357 540T350 465ZM265 244Q277 241 292 237T315 231Q321 230 323 226T326 215Q326 199 326 177T326 128T326 76T326 28T326 -11Q326 -21 326 -43T326 -89T326 -135T326 -166Q309 -166 296 -166T270 -166T240 -166Q237 -166 235 -165T231 -160T230 -152Q234
-127 237 -91T243 -12T250 76T258 165T265 244Z" />
<glyph unicode="%" horiz-adv-x="600" d="M173 710Q222 710 255 691T307 640T325 564V504Q325 462 307 429T256 377T173 358Q100 358 61 399T21 504V564Q21 607 38 639T90 691T173 710ZM99 514Q99 492 104 476T120 449Q130 440 142 436T173 431Q210 431 228 452T247
514V554Q247 576 242 592T226 619Q208 638 173 638Q137 638 118 617T99 554V514ZM427 342Q476 342 510 323T561 272T579 196V136Q579 94 562 61T510 9T427 -10Q354 -10 315 31T275 136V196Q275 239 293 271T345 323T427 342ZM353 146Q353 123 358 107T374 81Q384
71 397 67T427 62Q464 62 482 83T501 146V186Q501 208 496 224T480 251Q462 269 427 269Q391 269 372 248T353 186V146ZM364 405Q370 419 379 442T398 496T420 558T441 620T461 673T476 710Q480 710 493 710T523 710T553 710T571 710Q575 710 577 709T580 704T579
697Q577 693 568 672T546 619T519 554T491 489T470 437T459 412Q458 408 456 407T449 405Q446 405 434 405T407 405T380 405T364 405ZM236 296Q230 283 221 259T202 205T180 143T159 81T139 28T124 -9Q120 -9 107 -9T77 -9T47 -9T29 -9Q25 -9 23 -8T20 -3T21 4Q23
8 31 29T53 81T81 147T109 213T131 264T141 289Q143 294 145 295T151 296Q154 296 166 296T193 296T220 296T236 296Z" />
<glyph unicode="&amp;" horiz-adv-x="600" d="M234 451Q267 407 297 364T356 282T406 212T445 159T468 127Q483 109 494 103T525 96Q533 96 540 96T555 96H572Q572 74 572 52T572 7Q572 2 570 -1T561 -4Q552 -4 539 -4T513 -4Q488 -4 467 2T427 24T390 63Q382
76 364 100T323 156T274 224T222 296T173 363Q141 408 124 436T99 487T92 539V548Q92 582 105 611T145 662T211 696T306 709Q351 709 383 704T436 692T461 679Q463 678 464 676T465 669Q465 649 465 629T465 587H448Q413 600 381 607T306 614Q271 614 249 607T213
587Q203 578 199 567T195 541Q195 528 198 517T209 491T234 451ZM200 -9Q147 -9 110 9T53 63T33 150V204Q33 274 68 314T158 366V413L235 327Q205 325 184 313T151 280T139 232V173Q139 130 160 107T228 84Q265 84 294 97T354 143L407 76H364Q340 36 301 14T200
-9ZM450 438Q473 438 495 438T540 438Q546 438 548 435T551 427V346Q551 304 540 271T507 212T453 165V118L399 192Q426 221 438 248T450 315Q450 348 450 377T450 438Z" />
<glyph unicode="&apos;" horiz-adv-x="350" d="M225 443Q202 443 180 443T135 443Q130 443 127 446T123 454L108 648Q107 666 106 682T103 715T100 750Q139 750 173 750T238 750Q243 750 246 747T248 737L225 443Z" />
<glyph unicode="(" horiz-adv-x="400" d="M249 746Q253 752 258 753T269 754Q288 754 304 754T339 754T377 754V738Q314 679 273 612T212 470T192 314V306Q192 226 212 151T273 8T377 -118V-134Q357 -134 339 -134T305 -134T269 -134Q263 -134 258 -133T249 -126Q191
-69 155 -1T101 144T83 306V314Q83 399 101 475T155 620T249 746Z" />
<glyph unicode=")" horiz-adv-x="400" d="M151 -126Q147 -131 142 -132T131 -134Q113 -134 96 -134T61 -134T23 -134V-118Q87 -59 128 8T188 151T208 306V314Q208 395 188 470T128 613T23 738V754Q43 754 60 754T95 754T131 754Q137 754 142 753T151 746Q209 690
245 622T299 476T317 314V306Q317 222 300 145T246 0T151 -126Z" />
<glyph unicode="*" horiz-adv-x="600" d="M345 764Q350 764 352 762T354 754Q349 713 345 686T335 635T320 584L335 575Q358 596 378 612T423 647T482 691Q494 670 506 649T531 606Q534 601 533 598T527 592Q492 578 465 569T412 552T358 537V521Q390 511 416
503T470 484T537 459Q525 437 513 416T488 373Q485 368 482 367T473 369Q444 392 422 409T380 443T334 483L320 475Q326 455 329 440T336 411T341 383Q345 366 346 353T350 325T355 294Q330 294 304 294T254 294Q249 294 247 297T245 304Q250 340 255 366T265 418T278
475L264 483Q239 460 218 441T173 404T117 362Q105 384 93 404T67 447Q64 452 65 456T71 462Q106 476 132 485T185 503T243 521V537Q210 546 183 554T127 573T62 599Q74 621 86 642T111 685Q115 690 118 690T126 689Q157 666 178 649T219 614T262 575L277 584Q273
600 270 614T265 643T259 675Q254 697 251 718T244 764Q269 764 295 764T345 764Z" />
<glyph unicode="+" horiz-adv-x="600" d="M247 533Q274 533 296 533T342 533Q347 533 350 530T353 522Q353 446 353 371T353 220T353 68Q328 68 306 68T258 68Q253 68 250 71T247 79Q247 138 247 197T247 316T247 434Q247 465 247 490T247 533ZM67 353H522Q526
353 528 352T531 348T533 342Q533 318 533 295T533 247H78Q75 247 73 248T69 252T67 258Q67 283 67 306T67 353Z" />
<glyph unicode="," horiz-adv-x="350" d="M151 -198Q131 -198 105 -198T58 -198Q67 -155 74 -112T90 -27T107 59T124 145Q146 145 165 145T206 145T251 145Q255 145 257 144T260 139T259 131Q249 97 237 57T212 -24T186 -108T161 -190Q160 -195 158 -196T151 -198Z" />
<glyph unicode="-" horiz-adv-x="450" d="M71 351H368Q372 351 374 350T377 346T379 340Q379 316 379 295T379 249H82Q79 249 77 249T74 251T72 255T71 260Q71 284 71 305T71 351Z" />
<glyph unicode="." horiz-adv-x="350" d="M249 -8Q225 -8 203 -8T159 -8T112 -8Q109 -8 107 -7T103 -3T101 3V143Q126 143 148 143T192 143T238 143Q242 143 244 142T247 138T249 132V-8Z" />
<glyph unicode="/" horiz-adv-x="600" d="M539 750Q483 606 426 461T313 171T198 -119Q197 -123 195 -125T190 -129T184 -130Q157 -130 134 -130T83 -130Q94 -103 105 -76T126 -21Q176 106 226 233T326 488T425 743Q427 747 430 748T437 750Q464 750 488 750T539 750Z" />
<glyph unicode="0" horiz-adv-x="600" d="M301 720Q372 720 425 687T509 591T539 445V255Q539 169 508 107T423 13T299 -20Q247 -20 203 -1T127 54T78 141T61 255V445Q61 532 92 593T177 687T301 720ZM300 621Q260 621 230 603T184 547T167 445V255Q167 227 171
204T181 164T195 134Q211 108 236 94T297 79Q337 79 367 97T415 154T433 255V447Q433 482 428 508T412 555T390 587Q374 604 351 612T300 621ZM446 549L456 446H392L423 469Q413 443 400 422T370 382T334 344Q304 311 274 280T212 217T149 153L131 261H203L176
238Q186 262 198 281T228 320T272 368Q315 414 358 458T446 549Z" />
<glyph unicode="1" horiz-adv-x="600" d="M272 710Q276 710 287 710T312 710T340 710T364 710T377 710Q381 710 383 709T386 705T388 699Q388 696 388 663T388 577T388 461T388 332T388 211T388 117T388 67H276L282 91Q282 100 282 116T282 150T282 176Q282 183
282 209T282 273T282 356T282 445T282 527T282 592T282 625L298 604H249L277 624Q262 596 248 577T218 543T180 507Q159 490 144 478T120 460T107 454Q105 454 103 455T100 458T99 464V569Q121 587 142 604T186 640Q201 652 217 665T247 690T272 710ZM84 100Q87
100 112 100T177 100T263 100T357 100T443 100T508 100T535 100Q540 100 543 97T546 89Q546 85 546 73T546 45T546 17T546 0Q543 0 518 0T454 0T368 0T274 0T188 0T123 0T95 0Q93 0 91 1T87 3Q86 5 85 7T84 11Q84 14 84 23T84 44T84 67T84 88T84 100Z" />
<glyph unicode="2" horiz-adv-x="600" d="M297 720Q355 720 398 708T469 673T512 618T526 548V524Q526 489 518 460T489 405T432 351T339 288Q284 254 251 228T200 178T176 128T170 67L143 83H213L158 73Q182 83 203 89T253 97T322 100H530Q535 100 538 97T541
89Q541 86 541 77T541 57T541 33T541 12T541 0Q539 0 513 0T446 0T357 0T260 0T171 0T104 0T75 0Q72 0 70 1T66 5T64 11V78Q64 139 85 186T152 277T277 369Q325 398 353 419T395 458T415 492T420 526V534Q420 553 415 566T399 591Q387 604 362 611T291 618Q234
618 188 602T100 549H84Q84 553 84 562T84 583T84 608T84 629T84 641Q84 646 85 649T90 656Q116 680 170 700T297 720Z" />
<glyph unicode="3" horiz-adv-x="600" d="M285 720Q362 720 416 699T500 639T529 552V531Q529 487 510 453T450 397T341 361L370 391V327L341 356Q414 345 457 321T519 265T539 195V167Q539 111 508 69T420 4T282 -20Q232 -20 189 -14T116 3T71 23Q67 26 66 29T64
38Q64 41 64 50T64 71T64 97T64 120T64 134H80Q111 116 139 105T201 90T279 85Q330 85 363 97T414 131T431 185V195Q431 223 417 244T371 279T291 300T171 307Q166 307 163 310T160 318Q160 323 160 335T160 362T160 390T160 407Q238 407 289 414T369 436T409 471T421
516V524Q421 550 407 571T362 603T282 615Q221 615 181 605T96 570H79Q79 574 79 583T79 604T79 628T79 649T79 662Q79 668 80 670T86 675Q107 691 160 705T285 720Z" />
<glyph unicode="4" horiz-adv-x="600" d="M328 700Q333 700 343 700T366 700T392 700T415 700T429 700V684Q402 640 374 596T318 507T259 415T199 320T136 221L155 281V210L129 226Q162 237 194 242T262 249T341 252H549Q553 252 555 251T558 247T560 241Q560
237 560 229T560 209T560 187T560 168T560 156H58Q55 156 53 157T49 161T47 167V252Q47 252 57 270T86 318T127 388T176 469T226 553T272 630T309 691Q312 695 315 696T321 699T328 700ZM399 401Q403 401 414 401T437 401T460 401T476 401Q480 401 482 400T485
396T487 390V99Q487 91 487 77T487 46T487 17T487 0Q483 0 474 0T452 0T427 0T405 0T392 0Q387 0 384 3T381 11Q381 21 381 43T381 95T381 152T381 203T381 236Q383 255 386 278T391 325T396 369T399 401Z" />
<glyph unicode="5" horiz-adv-x="600" d="M122 700Q125 700 147 700T202 700T274 700T352 700T424 700T477 700T500 700Q505 700 508 697T511 689Q511 686 511 678T511 659T511 637T511 618T511 606Q509 606 487 606T430 606T357 606T283 606T224 606T195 606Q172
606 156 615T131 639T122 673Q122 679 122 685T122 700ZM122 700H231L223 667Q222 654 220 637T215 591Q211 557 207 517T198 438T190 367L173 392H236L178 365Q210 397 250 410T346 424Q393 424 429 412T489 376T526 318T539 238V190Q539 143 523 105T474 38T396
-5T288 -20Q237 -20 196 -14T125 3T80 25Q76 28 76 30T75 37Q75 41 75 50T75 72T75 98T75 120T75 134H91Q135 108 181 97T289 85Q360 85 396 115T432 198V228Q432 261 421 285T383 322T312 335Q278 335 246 328T185 308H93Q88 308 85 311T82 322Q84 336 87 366T95
439T104 527T113 618T122 700Z" />
<glyph unicode="6" horiz-adv-x="600" d="M346 720Q400 720 441 708T502 682Q507 679 508 676T510 667Q510 663 510 655T510 635T510 611T510 590T510 577H494Q455 600 417 610T332 621Q291 621 263 610T213 578Q189 554 179 517T169 428V261Q169 221 173 192T187
141T209 106Q226 89 249 81T304 73Q368 73 403 106T439 203V222Q439 254 432 274T413 307Q399 322 374 331T310 340Q267 340 229 326T155 282L144 379H207L170 360Q199 397 239 416T339 436Q401 436 446 414T517 350T543 250V189Q543 129 513 82T430 7T307 -20Q226
-20 171 12T89 107T61 266V412Q61 482 77 533T120 621T184 679T261 710T346 720Z" />
<glyph unicode="7" horiz-adv-x="600" d="M63 700Q75 700 89 698T118 691T143 678T162 662T169 640Q169 630 169 613T169 574T169 533T169 500T169 483Q166 483 157 483T135 483T110 483T88 483T74 483Q69 483 66 486T63 494Q63 498 63 517T63 564T63 620T63 670T63
700ZM304 0Q301 0 291 0T268 0T242 0T218 0T204 0Q199 0 196 3T193 11Q193 15 201 36T227 100T273 212T341 378Q355 412 368 442T397 501T430 559T470 620L441 563V632L481 603Q441 602 405 601T336 600T273 600H140Q130 600 119 605T98 620T80 642T68 669T63 700H535Q539
700 541 699T544 695T546 689V609Q546 607 539 589T521 541T494 474T463 395T429 311Q414 275 400 238T370 163T338 84T304 0Z" />
<glyph unicode="8" horiz-adv-x="600" d="M301 720Q370 720 420 698T499 634T527 537V524Q527 482 510 450T459 395T381 366L413 388V334L283 384Q350 404 388 436T426 511V524Q426 546 421 562T402 592Q388 605 363 613T300 621Q259 621 231 608T189 573T174
519Q174 492 182 473T210 440T268 412L393 365Q432 351 460 334T506 295T534 246T543 184V162Q543 108 514 67T429 3T299 -20Q228 -20 173 1T88 62T57 155V169Q57 210 73 245T125 304T219 335L187 316V364L313 314Q263 303 228 285T175 240T157 178Q157 143 174
121T222 89T299 79Q371 79 407 102T443 179Q443 205 435 224T406 257T348 285L222 332Q168 353 136 376T89 432T74 515V535Q74 587 101 628T179 695T301 720Z" />
<glyph unicode="9" horiz-adv-x="600" d="M292 720Q354 720 400 703T478 650T525 561T541 438V281Q541 208 523 152T470 58T383 0T264 -20Q229 -20 195 -15T134 -1T94 19Q91 22 89 24T87 33Q87 37 87 45T87 63T87 84T87 103T87 115H103Q144 93 181 84T265 75Q305
75 337 86T387 116Q408 138 420 177T432 269V441Q432 495 423 533T392 590Q375 607 352 614T295 622Q233 622 198 590T163 499V458Q163 430 169 411T188 379Q203 364 227 357T285 350Q331 350 371 363T447 408V314H398L429 334Q407 293 363 274T263 254Q201 254
155 277T84 342T59 446V505Q59 569 89 617T171 693T292 720Z" />
<glyph unicode=":" horiz-adv-x="350" d="M249 377Q225 377 203 377T159 377T112 377Q109 377 107 378T103 382T101 388V528Q126 528 148 528T192 528T238 528Q242 528 244 527T247 523T249 517V377ZM249 -8Q225 -8 203 -8T159 -8T112 -8Q109 -8 107 -7T103 -3T101
3V143Q126 143 148 143T192 143T238 143Q242 143 244 142T247 138T249 132V-8Z" />
<glyph unicode=";" horiz-adv-x="350" d="M249 377Q225 377 203 377T159 377T112 377Q109 377 107 378T103 382T101 388V528Q126 528 148 528T192 528T238 528Q242 528 244 527T247 523T249 517V377ZM392 30Q372 30 346 30T299 30Q308 73 315 116T331 201T348
287T365 373Q387 373 406 373T447 373T492 373Q496 373 498 372T501 367T500 359Q490 325 478 285T453 204T427 120T402 38Q401 33 399 32T392 30Z" />
<glyph unicode="&lt;" horiz-adv-x="600" d="M79 376Q128 399 182 425T293 478T407 532T519 586Q519 562 519 537T519 487Q519 481 518 478T509 471Q487 460 456 445T388 412T312 376T233 339T160 303L173 330V271L160 296Q204 275 253 252T351 206T440 163T509
129Q516 125 517 122T519 112Q519 88 519 63T519 13Q448 47 378 80T236 148T93 215Q88 218 85 220T81 226T79 235Q79 270 79 306T79 376Z" />
<glyph unicode="=" horiz-adv-x="600" d="M67 478H522Q526 478 528 477T531 473T533 467Q533 444 533 422T533 376H78Q75 376 73 377T69 381T67 387Q67 411 67 433T67 478ZM67 222H522Q526 222 528 221T531 217T533 211Q533 188 533 167T533 121H78Q75 121 73
122T69 126T67 132Q67 156 67 177T67 222Z" />
<glyph unicode="&gt;" horiz-adv-x="600" d="M521 224Q472 200 418 174T307 121T193 67T81 13Q81 38 81 63T81 112Q81 119 82 122T91 129Q113 140 144 155T212 188T288 224T367 261T440 297L427 269V328L440 303Q396 325 347 348T249 394T160 437T91 471Q84 474
83 477T81 487Q81 512 81 537T81 586Q152 552 223 519T365 452T507 384Q512 382 515 380T519 373T521 365Q521 330 521 295T521 224Z" />
<glyph unicode="?" horiz-adv-x="600" d="M365 -8Q329 -8 288 -8T209 -8Q206 -8 204 -7T200 -3T198 3V151Q235 151 276 151T354 151Q358 151 360 150T363 146T365 140V-8ZM297 720Q356 720 399 707T470 672T512 620T526 557V526Q526 491 517 465T487 415T429 367L392
342Q366 324 353 312T335 286T330 252V245H234Q230 245 228 246T224 249T223 256V274Q223 303 231 325T260 368T319 415L351 437Q380 457 394 470T414 496T420 528Q420 536 419 543T413 556Q407 585 379 600T296 615Q241 615 194 602T100 555H83Q83 580 83 604T83
653Q83 657 84 659T87 663Q102 679 133 692T207 712T297 720Z" />
<glyph unicode="@" horiz-adv-x="1050" d="M525 741Q632 741 715 714T853 637T937 521T966 376V272Q966 223 954 184T917 118T854 76T761 61H754Q704 61 671 75T622 117T606 189Q606 213 606 242T606 303T606 365T606 421Q606 422 609 432T619 459T630 494H695Q700
494 703 491T706 483Q706 457 706 421T706 345T706 265T706 193Q706 168 718 156T756 143H759Q801 143 826 155T862 195T874 272V375Q874 411 867 444T844 508T803 564Q775 592 735 612T643 644T525 656Q403 656 326 618T213 516T176 375V188Q176 148 183 113T205
47T245 -7Q287 -50 358 -72T533 -95Q602 -95 653 -87T743 -66T817 -36H834V-107Q834 -111 833 -113T830 -117Q820 -127 786 -142T690 -168T533 -180Q414 -180 329 -154T189 -79T110 37T84 186V373Q84 453 112 520T196 636T335 713T525 741ZM466 58Q429 58 401 73T356
120T339 199V362Q339 398 348 424T375 468T415 494T466 503Q509 503 540 485T597 434H630L626 346Q589 382 560 394T503 406Q488 406 476 402T456 390T444 370T440 342V222Q440 190 456 174T503 158Q521 158 539 164T579 184T626 224L636 132H604Q576 94 543 76T466
58Z" />
<glyph unicode="A" horiz-adv-x="650" d="M148 279H390Q403 279 415 279T440 279L471 288L482 236L493 185H158Q155 185 153 186T149 190T147 196L148 279ZM142 0Q118 0 94 0T46 0Q43 0 41 1T38 6T38 13Q48 47 61 92T88 189T118 297T150 410T181 520T209 620T234
704Q279 704 327 704T412 704Q416 704 418 703T422 699T424 693Q442 629 461 560T501 418T543 269T586 112Q592 85 599 57T613 0Q591 0 565 0T517 0Q511 0 508 1T504 7T499 19Q479 96 459 169T420 309T386 436T357 546T335 636L366 616H289L321 635Q311 597 298
549T268 441T231 313T189 166T142 0Z" />
<glyph unicode="B" horiz-adv-x="600" d="M332 0Q303 0 265 0T191 0T129 0T97 0Q92 0 89 3T86 11Q86 94 86 171T86 325T86 479T86 640H201L195 622Q195 583 195 550T195 479Q195 432 195 385T195 291T195 195T195 95Q216 95 235 95T273 95T314 95Q352 95 376 106T412
139T424 190V219Q424 247 413 267T374 298T297 309H142L145 377H410V349Q470 338 501 301T533 203V176Q533 115 508 76T438 19T332 0ZM30 700Q101 700 171 700T312 700Q371 700 412 688T478 653T515 600T527 537V513Q527 474 513 445T472 395T406 365T317 355Q267
355 230 355T159 355L145 345L142 401Q181 401 220 401T298 401Q345 401 371 412T407 446T418 497V522Q418 540 413 555T397 580Q385 592 364 598T313 605Q268 605 223 605T132 605T41 605Q36 605 33 608T30 616Q30 639 30 658T30 700Z" />
<glyph unicode="C" horiz-adv-x="600" d="M336 -20Q268 -20 217 -2T131 51T79 136T61 249V457Q61 517 78 565T130 648T214 701T328 720Q378 720 417 711T485 687T530 655Q532 653 533 651T534 646T535 640Q535 604 535 560T535 476Q512 476 490 476T445 476Q440
476 437 479T434 487Q434 508 434 528T434 572T434 625L460 579Q431 601 400 610T327 619Q279 619 245 601T192 546T174 453V258Q174 211 184 177T218 118Q239 97 269 88T336 79Q392 79 434 94T522 140H539Q539 129 539 119T539 97T539 76T539 54Q539 50 538 47T533
41Q516 24 487 10T420 -12T336 -20Z" />
<glyph unicode="D" horiz-adv-x="650" d="M586 241Q586 181 569 136T517 61T437 16T334 0Q311 0 283 0T227 0T173 0T127 0T97 0Q92 0 89 3T86 11Q86 91 86 170T86 329T86 488T86 647H207L199 629Q199 602 199 572T199 514Q199 461 199 410T199 308T199 206T199
100Q214 100 236 100T284 100T331 100Q384 100 416 116T464 166T480 248V452Q480 481 476 502T464 541T442 570Q429 581 413 587T377 597T327 600Q294 600 257 600T181 600T107 600T41 600Q38 600 36 601T32 605T30 611Q30 631 30 655T30 700Q61 700 97 700T173
700T253 700T331 700Q395 700 443 685T523 638T570 563T586 459V241Z" />
<glyph unicode="E" horiz-adv-x="550" d="M26 700H485Q488 700 490 699T494 695T496 689Q496 665 496 647T496 604H37Q34 604 32 605T28 609T26 615Q26 638 26 657T26 700ZM147 400H429Q432 400 434 399T438 395T440 389Q440 374 440 360T440 334T440 307H147V400ZM93
0Q91 0 89 1T86 3T83 7T82 11Q82 52 82 109T82 233T82 371T82 514T82 648H200L193 630Q193 609 193 586T193 540Q193 489 193 434T193 321T193 207T193 96H485Q490 96 493 93T496 85Q496 63 496 43T496 0H93Z" />
<glyph unicode="F" horiz-adv-x="550" d="M213 0Q188 0 163 0T113 0Q110 0 108 1T104 5T102 11Q102 93 102 172T102 329T102 487T102 647H223L213 626Q213 601 213 576T213 527Q213 453 213 380T213 236T213 98Q213 73 213 49T213 0ZM46 700H479Q483 700 485 699T488
695T490 689Q490 673 490 660T490 633T490 604H57Q54 604 52 605T48 609T46 615Q46 639 46 658T46 700ZM161 377H440Q445 377 448 374T451 366Q451 350 451 336T451 308T451 280H161V377Z" />
<glyph unicode="G" horiz-adv-x="650" d="M338 368H604Q607 368 609 367T613 363T615 357V274H349Q346 274 344 275T341 277T339 281T338 285Q338 307 338 327T338 368ZM348 720Q391 720 426 715T488 700T536 680T568 656Q571 653 572 650T573 642Q573 621 573
596T573 546T573 497Q550 497 528 497T483 497Q478 497 475 500T472 508Q472 526 472 544T472 583T472 626L498 580Q470 602 432 610T341 619Q300 619 268 608T214 575T180 519T168 438V243Q168 202 180 171T212 119Q231 100 261 90T337 79Q375 79 404 87T451 107T474
124Q474 160 474 189T474 248T474 311H579L575 291Q575 236 575 189T575 85Q575 79 574 76T569 68Q550 43 515 23T436 -8T346 -20Q274 -20 220 -2T131 51T79 135T61 245V443Q61 508 79 559T134 646T224 701T348 720Z" />
<glyph unicode="H" horiz-adv-x="650" d="M79 700Q104 700 129 700T180 700Q185 700 188 697T191 689Q191 603 191 517T191 345T191 172T191 0Q165 0 140 0T90 0Q87 0 85 1T81 5T79 11Q79 108 79 206T79 401T79 597Q79 623 79 648T79 700ZM132 400H412Q425 400
437 400T462 400L493 410L511 304H143Q140 304 138 305T135 307T133 311T132 315V400ZM571 0Q546 0 521 0T470 0Q467 0 465 1T461 5T459 11Q459 97 459 183T459 355T459 528T459 700Q485 700 510 700T560 700Q562 700 564 699T567 697T570 693T571 689Q571 617
571 544T571 397T571 251T571 106Q571 78 571 51T571 0Z" />
<glyph unicode="I" horiz-adv-x="500" d="M306 56H191L194 87Q194 105 194 126T194 165Q194 225 194 284T194 403T194 523T194 644H311L306 613Q306 597 306 578T306 542Q306 481 306 421T306 299T306 178T306 56ZM426 0H85Q83 0 81 1T78 3T75 7T74 11Q74 26 74
40T74 67T74 96H414Q417 96 420 95T424 91T426 85Q426 70 426 57T426 29T426 0ZM74 700H414Q420 700 423 697T426 689Q426 678 426 667T426 646T426 626T426 604H85Q81 604 78 607T74 615Q74 626 74 636T74 657T74 678T74 700Z" />
<glyph unicode="J" horiz-adv-x="500" d="M202 85Q231 85 252 92T289 115Q300 126 307 142T319 180T324 234Q324 281 324 328T324 425T324 526T324 632L341 590L309 622L353 604Q318 604 288 604T228 604T168 604T102 604Q99 604 97 605T93 609T91 615Q91 637
91 657T91 700Q135 700 175 700T254 700T333 700T419 700Q422 700 424 699T428 695T430 689Q430 632 430 575T430 460T430 345T430 228Q430 169 416 123T373 45T302 -3T202 -20Q167 -20 137 -15T85 0T53 18Q52 20 51 21T50 25T49 31Q49 52 49 75T49 121H65Q88 110
109 102T154 89T202 85Z" />
<glyph unicode="K" horiz-adv-x="600" d="M304 404Q349 336 394 267T483 129Q496 110 506 104T536 98Q544 98 548 98T558 98H566Q566 86 566 72T566 46T566 24T566 11Q566 6 563 3T555 0Q551 0 546 0T535 0T521 0Q490 0 468 5T428 26T390 73Q369 107 352 133T323
183T300 228T280 273H236L304 404ZM553 700Q556 700 557 699T560 697T561 693Q561 690 560 686T551 672T528 639Q510 616 487 583T434 510T373 425T305 332T235 235T164 138V319H199Q207 341 218 362T241 405T269 449T300 494Q321 526 345 561T393 633T438 700H553ZM73
700Q99 700 122 700T171 700Q176 700 179 697T182 689Q182 603 182 517T182 345T182 172T182 0Q157 0 134 0T84 0Q79 0 76 3T73 11Q73 108 73 206T73 401T73 597Q73 623 73 648T73 700Z" />
<glyph unicode="L" horiz-adv-x="550" d="M90 0Q87 0 85 1T82 3T80 7T79 11Q79 91 79 172T79 332T79 482T79 611Q79 633 79 655T79 700Q104 700 129 700T180 700Q183 700 185 699T189 695T191 689Q191 616 191 542T191 393T191 244T191 96H414Q434 96 448 91T471
73T486 42T496 0H90ZM395 187Q411 187 425 187T454 187T485 187Q488 187 490 186T494 182T496 176Q496 158 496 136T496 89T496 42T496 0Q457 3 435 13T404 40T395 82Q395 98 395 116T395 153T395 187Z" />
<glyph unicode="M" horiz-adv-x="800" d="M184 0Q161 0 138 0T90 0Q87 0 85 1T81 5T79 11Q79 85 79 158T79 305T79 453T79 600Q79 625 79 650T79 700Q95 700 121 700T173 700T214 700Q219 700 222 699T229 693T235 680Q253 639 270 597T305 511T340 424T375 335T412
242L366 294H435L388 242Q407 290 425 337T462 430T498 521T534 611T570 700Q586 700 613 700T667 700T710 700Q713 700 715 699T719 695T721 689Q721 659 721 618T721 528T721 424T721 314T721 204T721 100Q721 84 721 67T721 34T721 0Q696 0 672 0T626 0Q623
0 621 1T617 5T615 11Q615 34 615 56T615 101T615 146Q615 178 615 209T616 273T618 339T622 409T628 485T634 571L654 542H586L625 573Q608 530 589 485T550 392T512 299T475 210T441 128Q422 128 403 128T364 128Q361 128 358 129T352 137Q341 166 325 205T290
289T252 383T213 479T175 571L214 542H147L164 572Q168 528 171 488T177 411T181 341T183 275T184 211T184 146Q184 110 184 74T184 0Z" />
<glyph unicode="N" horiz-adv-x="650" d="M169 0Q146 0 122 0T74 0Q71 0 69 1T65 5T63 11Q63 83 63 154T63 296T63 439T63 582Q63 612 63 641T63 700Q81 700 104 700T150 700T190 700Q195 700 198 699T204 693T214 676Q233 641 254 600T300 514T349 420T399 322T450
225T498 129L459 159H523L504 143Q498 189 494 232T488 317T484 398T482 476T481 554Q481 587 481 624T481 700Q505 700 528 700T576 700Q581 700 584 697T587 689Q587 620 587 550T587 409T587 270T587 130Q587 97 587 65T587 0Q571 0 551 0T512 0T478 0Q472 0
466 4T449 25Q409 96 371 166T296 306T224 446T153 586L194 550H132L149 573Q155 523 158 477T163 388T167 306T169 230T169 162Q169 125 169 83T169 0Z" />
<glyph unicode="O" horiz-adv-x="650" d="M325 720Q399 720 458 690T551 598T586 444V246Q586 158 551 99T457 10T325 -20Q253 -20 194 10T99 99T64 246V444Q64 537 99 598T194 689T325 720ZM170 251Q170 194 185 163T219 113Q236 98 262 88T327 78Q372 78 406
97T460 156T480 253V454Q480 488 475 513T460 556T435 587Q418 604 391 614T327 624Q272 624 238 603T187 543T170 454V251Z" />
<glyph unicode="P" horiz-adv-x="600" d="M198 0Q173 0 148 0T97 0Q92 0 89 3T86 11Q86 93 86 171T86 327T86 484T86 644H207L198 622Q198 598 198 577T198 532Q198 461 198 390T198 246T198 99Q198 72 198 47T198 0ZM30 700Q99 700 173 700T311 700Q355 700 391
693T455 670T502 631T531 574T541 499V435Q541 388 528 350T486 286T415 247T314 233Q282 233 250 233T184 233L173 229V329Q210 329 246 329T313 329Q342 329 363 335T399 354T421 386T428 433V505Q428 530 423 548T404 578Q391 591 368 597T311 604Q267 604 222
604T131 604T41 604Q36 604 33 607T30 615Q30 638 30 658T30 700Z" />
<glyph unicode="Q" horiz-adv-x="650" d="M473 82Q492 54 507 31T540 -20Q551 -35 561 -39T584 -44Q589 -44 592 -44T600 -44H616Q616 -67 616 -92T616 -142Q616 -147 613 -150T605 -153Q598 -153 588 -153T570 -153Q541 -153 522 -146T487 -124T458 -86Q438 -53
420 -23T383 39L473 82ZM325 720Q399 720 458 690T551 598T586 444V246Q586 158 551 99T457 10T325 -20Q253 -20 194 10T99 99T64 246V444Q64 537 99 598T194 689T325 720ZM170 251Q170 194 185 163T219 113Q236 98 262 88T327 78Q372 78 406 97T460 156T480 253V454Q480
488 475 513T460 556T435 587Q418 604 391 614T327 624Q272 624 238 603T187 543T170 454V251Z" />
<glyph unicode="R" horiz-adv-x="600" d="M378 324Q406 273 431 227T484 129Q495 110 504 103T528 96Q534 96 537 96T544 96H560Q560 73 560 54T560 11Q560 6 557 3T549 0Q542 0 532 0T513 0Q483 0 462 6T425 28T395 69Q368 122 341 175T286 282L378 324ZM30 700Q100
700 170 700T310 700Q366 700 407 687T474 647T513 585T526 502V451Q526 406 513 371T473 310T409 272T324 259Q290 259 255 259T184 259L173 253V353Q208 353 242 353T312 353Q348 353 371 364T405 397T416 451V505Q416 529 410 547T392 577Q380 590 360 597T312
604Q267 604 222 604T131 604T41 604Q36 604 33 607T30 615Q30 637 30 657T30 700ZM195 0Q170 0 147 0T97 0Q92 0 89 3T86 11Q86 93 86 171T86 327T86 484T86 644H207L195 622Q195 581 195 540T195 459Q195 399 195 341T195 223T195 99Q195 72 195 47T195 0Z" />
<glyph unicode="S" horiz-adv-x="600" d="M320 718Q388 718 438 702T512 662Q517 658 518 655T519 645Q519 626 519 603T519 557T519 512Q497 512 474 512T429 512Q424 512 421 515T418 523Q418 535 418 547T418 573T418 600T418 631L445 590Q421 606 391 614T320
622Q287 622 262 616T218 598T191 567T182 526V505Q182 482 189 465T217 435T277 410L373 381Q419 368 451 352T501 316T528 270T537 209V168Q537 111 508 69T423 5T288 -18Q239 -18 197 -11T123 8T73 38Q70 42 69 45T67 56Q67 70 67 83T67 111T67 142H84Q129 108
177 94T294 79Q362 79 397 104T432 171V200Q432 222 425 237T397 264T335 288L239 317Q191 331 160 349T111 389T85 436T77 492V534Q77 575 94 608T144 667T220 705T320 718Z" />
<glyph unicode="T" horiz-adv-x="600" d="M54 700H534Q539 700 542 697T546 689Q546 665 546 647T546 604H66Q63 604 60 605T56 609T54 615Q54 638 54 657T54 700ZM356 0Q331 0 306 0T255 0Q250 0 247 3T244 11Q244 93 244 171T244 329T244 487T244 648H365L356
626Q356 603 356 579T356 530T356 483Q356 419 356 357T356 231T356 99Q356 72 356 47T356 0Z" />
<glyph unicode="U" horiz-adv-x="650" d="M571 0Q555 0 538 0T505 0T470 0Q468 0 466 0T463 2T461 4T460 7T459 11Q459 97 459 183T459 355T459 528T459 700Q477 700 493 700T527 700T560 700Q563 700 565 699T569 695T571 689Q571 617 571 544T571 397T571 251T571
106Q571 78 571 51T571 0ZM248 -14Q204 -14 172 -2T119 34T88 92T77 171Q77 236 77 306T77 451T77 600Q77 625 77 650T77 700Q102 700 127 700T177 700Q181 700 183 699T186 695T188 689Q188 604 188 517T188 343T188 177Q188 131 210 108T277 85Q315 85 349 99T417
147T481 235V95H439Q418 61 390 37T327 -1T248 -14Z" />
<glyph unicode="V" horiz-adv-x="650" d="M137 700Q141 700 143 699T147 694T152 682Q179 578 202 492T246 331T285 190T323 56L287 85H362L327 56Q341 107 356 160T388 271T423 394T463 535T508 700Q533 700 558 700T607 700Q610 700 612 699T614 695T614 688Q603
651 587 597T553 478T517 346T480 213T445 92T417 -4Q373 -4 328 -4T248 -4Q239 -4 236 0T228 17Q216 58 203 105T175 204T144 312T113 426T80 543Q73 569 66 595T51 647T35 700Q61 700 87 700T137 700Z" />
<glyph unicode="W" horiz-adv-x="950" d="M34 700Q50 700 67 700T103 700T136 700Q140 700 142 699T147 694T149 686Q158 644 168 596T189 492T212 374T235 244T258 102L233 116H295L272 103Q286 164 304 240T343 397T383 556T419 700H522Q525 700 527 699T531
695T534 689Q548 637 563 577T596 453T629 328T659 208T682 102L659 116H718L698 106Q709 183 719 248T739 369T759 479T780 586T803 700Q819 700 836 700T872 700T905 700Q910 700 912 699T916 694T916 685Q909 652 899 605T877 501T852 379T825 249T798 119T774
-3Q760 -3 741 -3T701 -3T662 -3T632 -3Q624 -3 620 1T613 15Q600 68 584 130T549 264T512 413T477 576L511 538H445L475 576Q461 508 445 438T413 302T382 176T354 71T335 -3Q315 -3 288 -3T235 -3T192 -3Q184 -3 180 1T174 15Q164 63 153 118T129 233T105 355T80
480T55 603Q51 623 46 649T34 700Z" />
<glyph unicode="X" horiz-adv-x="600" d="M466 0Q462 0 459 1T453 5T447 11Q426 49 399 97T345 195T291 291L239 333Q204 394 169 455T98 577T27 700Q55 700 82 700T137 700Q142 700 145 699T151 695T156 688Q182 643 207 597T258 506T309 415L360 373Q413 282
467 188T576 0Q549 0 521 0T466 0ZM556 700Q561 700 564 698T567 691T565 681Q552 661 533 630T490 560T443 481T394 400T348 323L280 418H325Q333 451 340 475T355 520T376 565T407 621T453 700Q479 700 505 700T556 700ZM39 0Q35 0 32 2T28 9T31 19Q44 39 62
70T104 140T151 220T200 301T245 378L319 286H277Q267 253 260 230T244 185T222 140T190 83T142 0Q118 0 92 0T39 0Z" />
<glyph unicode="Y" horiz-adv-x="650" d="M382 0Q365 0 348 0T315 0T281 0Q278 0 276 1T272 5T270 11Q270 84 270 160T270 309H382Q382 276 382 240T382 169T382 100Q382 75 382 50T382 0ZM29 700Q57 700 83 700T133 700Q140 700 144 699T151 693T157 682Q182
636 205 592T249 503T291 411T331 314L299 348H363L326 312Q347 367 366 414T407 506T452 598T505 700Q532 700 557 700T605 700Q612 700 615 695T613 680Q591 638 568 594T520 505T470 414T420 324T372 237Q339 237 321 237T293 238T281 241T275 246Q263 266 243
304T196 391T140 494T83 601T29 700Z" />
<glyph unicode="Z" horiz-adv-x="600" d="M548 0H65Q60 0 57 3T54 11V115Q96 169 137 222T221 330T310 446Q329 472 344 490T373 523T401 551T430 577T466 606L437 560V624L455 600Q390 600 343 600T257 600T182 600H152Q130 600 114 606T87 624T70 655T63 700H535Q539
700 541 699T544 695T546 689V585Q521 554 486 510T407 409T314 286Q290 253 272 230T239 191T209 160T178 132T141 99L165 138V73L148 100Q213 100 268 100T370 100T460 100H537Q542 100 545 97T548 89Q548 67 548 45T548 0ZM164 528Q140 528 119 528T74 528Q71
528 69 529T65 533T63 539Q63 556 63 576T63 619T63 662T63 700Q103 700 125 692T155 666T164 618Q164 605 164 589T164 557T164 528Z" />
<glyph unicode="[" horiz-adv-x="450" d="M396 -160H92Q89 -160 87 -160T84 -158T82 -154T81 -150Q81 -48 81 53T81 256T81 459T81 662Q81 686 81 711T81 760Q93 760 103 760T126 760H385Q390 760 393 757T396 749Q396 725 396 704T396 658H193Q193 569 193 480T193
300T193 120T193 -59H385Q390 -59 393 -62T396 -70Q396 -93 396 -115T396 -160Z" />
<glyph unicode="\" horiz-adv-x="600" d="M75 750Q103 750 127 750T177 750Q180 750 182 750T186 748T189 743Q239 616 289 489T389 234T489 -21Q499 -48 510 -75T532 -130Q505 -130 482 -130T431 -130Q427 -130 423 -128T416 -119Q360 26 303 171T190 461T75 750Z" />
<glyph unicode="]" horiz-adv-x="450" d="M54 760H358Q361 760 363 760T366 758T368 754T369 749Q369 648 369 547T369 344T369 141T369 -62Q369 -86 369 -111T369 -160Q358 -160 347 -160T325 -160H65Q60 -160 57 -157T54 -149Q54 -126 54 -105T54 -59H258Q258
30 258 120T258 300T258 479T258 658H65Q60 658 57 661T54 669Q54 692 54 714T54 760Z" />
<glyph unicode="^" horiz-adv-x="600" d="M220 750Q256 750 291 750T362 750Q369 750 373 747T381 737Q406 684 427 639T468 551T509 464T556 365Q532 365 507 365T457 365Q451 365 448 366T441 375Q420 417 404 451T374 516T343 581T305 659L328 646H257L293
668Q270 620 252 582T217 510T184 441T148 364H51Q48 364 46 365T43 367T42 372Q42 375 43 379T50 394Q58 410 76 447T118 535T168 641T220 750Z" />
<glyph unicode="_" horiz-adv-x="600" d="M61 -72H527Q532 -72 534 -73T537 -77T539 -83Q539 -106 539 -128T539 -174H73Q69 -174 67 -173T63 -169T61 -163Q61 -139 61 -117T61 -72Z" />
<glyph unicode="`" horiz-adv-x="350" d="M199 737Q214 691 231 641T266 540T298 444Q274 444 252 444T202 444Q196 444 192 445T185 451Q169 483 152 518T116 590T82 660T53 722Q50 728 52 732T61 737Q89 737 109 737T149 737T199 737Z" />
<glyph unicode="a" horiz-adv-x="600" d="M501 348Q501 321 501 295T501 241T501 186T501 134Q501 122 503 114T510 101Q515 97 521 95T537 93Q539 93 541 93T547 93H563Q563 72 563 52T563 11Q563 6 560 3T552 0Q547 0 534 0T510 0Q484 0 464 7T428 30T404 66T395
116Q395 150 395 185T395 255Q395 271 395 287T395 319T395 351Q395 387 384 407T348 436T279 445Q250 445 224 442T172 433T120 418H103Q103 439 103 460T103 501Q103 505 104 507T106 510Q112 516 138 524T201 538T279 544Q337 544 379 533T448 499T488 438T501
348ZM171 145Q171 116 188 101T239 85Q271 85 299 93T356 120T414 172V85H384Q369 55 345 34T288 1T217 -10Q170 -10 136 7T84 57T65 133V166Q65 199 76 225T107 269T157 298T222 308Q257 308 290 308T354 308T417 308Q425 308 429 296T435 268T436 237Q400 237
369 237T307 237T239 237Q221 237 209 233T187 220Q180 212 176 202T171 177V145Z" />
<glyph unicode="b" horiz-adv-x="600" d="M165 0Q156 0 144 0T120 0T99 0Q96 0 94 1T90 5T88 11Q88 88 88 164T88 317T88 470T88 623Q88 655 88 687T88 750Q100 750 111 750T135 750T158 750T183 750Q187 750 189 749T192 745T194 739Q194 658 194 578T194 419T194
259T194 98Q194 98 191 88T184 63T175 34T168 10T165 0ZM168 82L179 187Q213 136 253 114T332 92Q363 92 384 105T418 144T430 206V333Q430 362 423 383T403 418Q390 430 373 436T332 443Q306 443 280 432T228 398T181 339V453H209Q227 482 250 502T302 534T365
545Q403 545 434 532T488 494T523 432T536 350V189Q536 142 524 106T489 43T434 4T363 -10Q331 -10 302 0T248 31T204 82H168Z" />
<glyph unicode="c" horiz-adv-x="500" d="M307 545Q345 545 373 540T419 527T443 513Q446 510 446 508T447 502Q447 481 447 459T447 415H430Q406 428 376 436T306 445Q265 445 235 430T189 382T173 302V226Q173 191 182 165T209 122Q226 105 250 97T306 89Q334
89 355 92T395 102T430 116H447Q447 94 447 72T447 28Q447 26 447 24T444 20Q438 14 421 7T375 -6T307 -11Q249 -11 204 4T128 49T80 122T64 221V305Q64 380 95 433T181 516T307 545Z" />
<glyph unicode="d" horiz-adv-x="600" d="M237 545Q272 545 300 535T350 505T390 457H421V345Q387 395 348 419T268 443Q238 443 216 430T182 392T170 329V202Q170 173 177 152T197 117Q210 105 228 99T268 92Q295 92 321 101T372 133T421 190V80H390Q373 52 350
32T298 1T235 -10Q197 -10 166 3T112 41T77 103T64 185V346Q64 393 76 429T111 492T166 531T237 545ZM501 750Q505 750 507 749T510 745T512 739Q512 663 512 585T512 428T512 275T512 128Q512 92 512 60T512 0Q501 0 489 0T465 0T441 0T417 0Q414 0 412 1T408
5T406 11Q406 91 406 171T406 330T406 490T406 650Q406 675 406 700T406 750Q418 750 430 750T454 750T478 750T501 750Z" />
<glyph unicode="e" horiz-adv-x="600" d="M302 545Q365 545 414 520T493 445T522 321V244Q522 241 521 239T517 235T511 234H261Q245 234 228 234T194 234H160L151 305H418Q418 310 418 314T418 323Q418 359 411 385T386 426Q372 441 351 447T302 454Q243 454
212 423T180 321V211Q180 181 188 158T211 119Q230 100 260 91T331 82Q368 82 395 86T447 97T495 116H512Q512 97 512 77T512 37Q512 35 511 33T508 29Q499 20 472 11T408 -5T327 -11Q268 -11 221 3T141 46T91 115T74 211V319Q74 374 91 416T139 487T212 530T302
545Z" />
<glyph unicode="f" horiz-adv-x="400" d="M34 517H341Q344 517 346 516T350 512T352 506Q352 484 352 465T352 423H45Q42 423 40 424T36 428T34 434Q34 457 34 476T34 517ZM220 11Q220 7 217 4T209 0Q185 0 162 0T114 0Q114 25 114 50T114 100Q114 166 114 223T114
333T114 445T114 572Q114 618 126 654T161 715T217 753T293 766Q317 766 337 763T369 754T387 745Q389 744 389 742T390 737Q390 717 390 696T390 655H374Q362 661 351 664T328 670T302 672Q287 672 273 668T246 654Q234 644 227 625T220 569Q220 519 220 462T220
346T220 227T220 114T220 11Z" />
<glyph unicode="g" horiz-adv-x="600" d="M109 82Q109 104 116 122T138 153T177 176V203L234 182Q224 166 220 149T215 111Q215 95 223 88T246 81H387Q444 81 481 62T536 9T554 -70V-102Q554 -134 543 -161T510 -208T456 -239T381 -250H187Q135 -250 101 -235T49
-193T31 -129V-111Q31 -81 43 -57T79 -17T133 4V38L201 -5Q176 -10 163 -21T143 -49T136 -83V-109Q136 -128 143 -141T167 -162T209 -170H377Q396 -170 410 -164T432 -150Q441 -141 445 -129T449 -101V-76Q449 -45 433 -28T377 -11H202Q177 -11 156 1T122 34T109
82ZM341 456L428 461V438Q463 424 478 400T493 342V323Q493 277 469 244T396 193T277 174Q207 174 158 194T82 253T56 343V367Q56 421 82 460T157 520T277 542Q345 542 413 542T549 542Q549 522 549 502T549 462Q549 458 546 455T538 451Q495 451 453 451T368 451T277
451Q221 451 190 429T159 363V343Q159 325 164 312T181 288Q196 274 220 266T277 258Q333 258 362 280T391 345V368Q391 386 386 401T371 429T341 456Z" />
<glyph unicode="h" horiz-adv-x="600" d="M99 0Q96 0 94 1T90 5T88 11Q88 91 88 171T88 331T88 492T88 651Q88 682 88 707T88 750Q106 750 122 750T153 750T183 750Q187 750 189 749T192 745T194 739Q194 647 194 555T194 370T194 185T194 0Q177 0 162 0T132 0T99
0ZM178 343V446H210Q227 468 245 486T285 518T329 538T380 545Q413 545 439 535T483 504T510 455T520 394Q520 346 520 297T520 200T520 102Q520 76 520 51T520 0Q495 0 473 0T425 0Q422 0 420 1T416 5T414 11Q414 71 414 131T414 251T414 372Q414 408 397 425T347
443Q328 443 307 437T264 419T221 388T178 343Z" />
<glyph unicode="i" horiz-adv-x="350" d="M139 11Q139 45 139 87T139 177T139 271T139 361T139 438H128Q120 438 111 438T93 438T74 438T56 438Q51 438 48 441T45 449Q45 470 45 491T45 534Q62 534 81 534T122 534T163 534T202 534T234 534Q238 534 240 533T243
529T245 523Q245 473 245 419T245 308T245 198T245 94Q245 79 245 63T245 32T245 0Q220 0 198 0T150 0Q146 0 143 3T139 11ZM119 781Q135 781 151 781T184 781T217 781T250 781Q255 781 258 778T261 770V661Q245 661 229 661T196 661T163 661T130 661Q125 661 122
664T119 672V781Z" />
<glyph unicode="j" horiz-adv-x="350" d="M251 534Q255 534 257 533T260 529T262 523Q262 469 262 417T262 313T262 208T262 98T262 -20Q262 -68 253 -102T226 -158T180 -190T114 -200Q85 -200 63 -197T26 -188T5 -175Q4 -173 3 -172T2 -167Q2 -144 2 -118T2 -69H18Q32
-76 43 -80T65 -86T91 -88Q107 -88 119 -84T139 -72Q145 -66 148 -58T154 -40T156 -17Q156 51 156 109T156 220T156 325T156 434H148Q139 434 128 434T105 434T81 434T59 434Q54 434 51 437T48 445Q48 467 48 489T48 534Q79 534 106 534T159 534T207 534T251 534ZM137
781Q153 781 169 781T202 781T235 781T268 781Q273 781 276 778T279 770V661Q263 661 247 661T214 661T181 661T148 661Q143 661 140 664T137 672V781Z" />
<glyph unicode="k" horiz-adv-x="600" d="M194 0Q177 0 162 0T132 0T99 0Q96 0 94 1T90 5T88 11Q88 91 88 171T88 331T88 491T88 651Q88 682 88 707T88 750Q106 750 122 750T153 750T183 750Q187 750 189 749T192 745T194 739Q194 647 194 555T194 370T194 185T194
0ZM453 0Q443 0 438 3T427 12Q423 17 413 30T391 59T364 94T336 129Q320 151 310 167T293 201T280 239H243L308 326Q352 271 395 217T481 109T569 0Q550 0 534 0T499 0T453 0ZM176 285H210Q218 305 226 321T244 351T264 378T288 405Q304 422 323 441T364 484T413
534L528 535Q531 535 533 534T537 531T538 525Q538 523 537 521T530 512Q498 479 467 448T406 386T347 326T289 267T233 209T176 152V285Z" />
<glyph unicode="l" horiz-adv-x="350" d="M29 750Q37 750 54 750T94 750T137 750T176 750T200 750Q204 750 206 749T209 745T211 739Q211 690 211 631T211 508T211 380T211 257T211 149Q211 134 212 126T221 110Q227 104 237 102T261 100Q268 100 276 100T289
100H300Q300 80 300 56T300 11Q300 7 299 5T295 2T289 0Q285 0 274 0T250 0T228 0Q198 0 175 8T136 32T113 74T105 134Q105 178 105 231T105 341T105 455T105 563T105 656H97Q93 656 82 656T58 656T40 656Q35 656 32 659T29 667Q29 688 29 708T29 750Z" />
<glyph unicode="m" horiz-adv-x="850" d="M762 0Q749 0 730 0T693 0T662 0Q659 0 657 1T653 5T651 11Q651 50 651 88T651 165T651 239T651 310T651 374Q651 409 638 425T594 441Q572 441 550 429T507 393T467 333L453 455H496Q515 486 535 505T581 535T636 545Q661
545 684 537T724 511T752 468T762 407Q762 378 762 343T762 268T762 186T762 100Q762 75 762 50T762 0ZM481 0Q469 0 449 0T411 0T380 0Q377 0 375 1T371 5T369 11Q369 50 369 89T369 165T369 239T369 310T369 377Q369 399 364 413T347 434T317 441Q296 441 274
429T229 392T185 331L169 455H210Q229 483 251 503T298 534T351 545Q380 545 403 537T444 512T471 470T481 412Q481 385 481 345T481 254T481 139T481 0ZM199 0Q189 0 176 0T149 0T122 0T99 0Q96 0 94 0T91 2T89 6T88 11Q88 82 88 152T88 293T88 434Q88 464 88
489T88 534Q96 534 107 534T130 534T153 534T173 534Q173 534 177 518T186 481T195 444T199 427Q199 366 199 296T199 152T199 0Z" />
<glyph unicode="n" horiz-adv-x="600" d="M520 0Q495 0 473 0T425 0Q422 0 420 1T416 5T414 11Q414 71 414 131T414 252T414 372Q414 408 397 425T347 443Q328 443 307 437T264 419T221 388T178 343V446H210Q232 476 258 498T314 532T380 545Q413 545 439 535T483
504T510 455T520 394Q520 346 520 297T520 200T520 102Q520 76 520 51T520 0ZM194 0Q177 0 162 0T131 0T99 0Q96 0 94 0T91 2T89 6T88 11Q88 64 88 117T88 223T88 329T88 435Q88 466 88 491T88 534Q106 534 122 534T153 534T183 534Q187 534 189 533T192 529T194
523Q194 436 194 349T194 175T194 0Z" />
<glyph unicode="o" horiz-adv-x="600" d="M300 545Q352 545 395 529T469 483T516 413T533 323V215Q533 148 503 97T420 18T300 -11Q248 -11 205 5T131 51T84 121T67 211V319Q67 386 97 437T180 516T300 545ZM304 448Q262 448 233 431T189 384T173 315V218Q173
187 182 162T209 119Q224 104 246 95T296 86Q338 86 367 103T412 151T427 219V316Q427 349 419 374T393 416Q377 432 355 440T304 448Z" />
<glyph unicode="p" horiz-adv-x="600" d="M88 534Q104 534 119 534T151 534T183 534Q187 534 189 533T192 529T194 523Q194 433 194 343T194 162T194 -19T194 -200Q178 -200 162 -200T131 -200T99 -200Q96 -200 94 -199T90 -195T88 -189Q88 -111 88 -34T88 122T88
278T88 433Q88 460 88 485T88 534ZM365 545Q416 545 454 522T514 455T536 350V189Q536 143 524 106T489 43T434 4T363 -10Q332 -10 304 -1T252 27T209 70H180V170Q210 130 250 111T332 92Q363 92 384 105T418 144T430 206V333Q430 362 423 383T403 418Q390 430
373 436T332 443Q306 443 280 431T229 396T181 336V449H209Q227 480 250 501T303 533T365 545Z" />
<glyph unicode="q" horiz-adv-x="600" d="M406 534Q431 534 454 534T501 534Q505 534 507 533T510 529T512 523Q512 449 512 373T512 220T512 71T512 -72Q512 -108 512 -140T512 -200Q488 -200 465 -200T417 -200Q414 -200 412 -199T408 -195T406 -189Q406 -111
406 -33T406 122T406 278T406 434Q406 450 406 466T406 500T406 534ZM420 83H392Q375 52 351 32T298 1T235 -10Q184 -10 146 13T86 80T64 185V346Q64 393 76 429T111 492T166 531T237 545Q269 545 296 535T348 505T391 458H420V352Q386 398 347 420T268 443Q238
443 216 430T182 392T170 329V202Q170 173 177 152T197 117Q210 105 228 99T268 92Q295 92 321 103T372 138T420 197V83Z" />
<glyph unicode="r" horiz-adv-x="450" d="M182 439H217Q235 476 254 499T298 533T353 544Q370 544 381 542T399 535Q404 533 405 530T406 521Q406 509 406 498T406 475T406 451T406 428H390Q380 431 368 433T339 435Q307 435 282 423T232 387T182 325V439ZM199
0Q183 0 166 0T133 0T99 0Q96 0 94 0T91 2T89 6T88 11Q88 37 88 75T88 158T88 251T88 346T88 435Q88 466 88 491T88 534Q106 534 123 534T157 534T188 534Q192 534 194 533T197 529T199 523Q199 490 199 444T199 343T199 229T199 111T199 0Z" />
<glyph unicode="s" horiz-adv-x="550" d="M267 93Q335 93 363 111T391 158Q391 174 384 186T360 206T314 220L214 238Q165 248 134 266T87 313T72 378Q72 415 87 445T133 497T207 531T309 543Q344 543 372 540T421 532T456 521Q463 519 465 517T468 512T469 502Q469
485 469 462T469 417H453Q428 426 404 431T354 439T297 441Q253 441 227 433T190 412T178 381Q178 366 184 356T207 338T254 325L352 306Q397 299 429 280T478 230T496 159Q496 108 469 70T391 12T268 -9Q232 -9 201 -6T145 2T99 15T64 32Q60 34 59 36T57 45Q57
64 57 89T57 137H73Q95 125 116 117T161 103T210 96T267 93Z" />
<glyph unicode="t" horiz-adv-x="500" d="M44 534H424Q430 534 433 531T436 523Q436 507 436 493T436 465T436 435H56Q54 435 52 436T48 438T45 442T44 446Q44 462 44 476T44 504T44 534ZM436 101Q436 78 436 56T436 11Q436 6 433 3T425 0Q415 0 406 0T386 0T367
0T347 0Q297 0 259 12T194 49T153 113T139 206Q139 255 139 304T139 401T139 499T139 597Q139 623 139 648T139 700Q163 700 187 700T234 700Q237 700 239 699T243 695T245 689Q245 630 245 571T245 453T245 334T245 216Q245 182 252 160T273 123Q286 111 305 106T351
101Q363 101 375 101T399 101T423 101H436Z" />
<glyph unicode="u" horiz-adv-x="600" d="M182 534Q186 534 188 533T191 529T193 523Q193 478 193 432T193 339T193 249T193 162Q193 129 210 112T256 95Q279 95 300 100T342 118T383 147T423 191V88H392Q371 58 347 36T294 1T227 -11Q195 -11 169 -1T125 30T97
77T87 137Q87 182 87 226T87 316T87 406Q87 438 87 470T87 534Q111 534 135 534T182 534ZM503 534Q507 534 509 533T512 529T514 523Q514 452 514 382T514 240T514 99Q514 78 514 60T514 27T514 0Q498 0 482 0T450 0T419 0Q416 0 414 1T410 5T408 11Q408 98 408
185T408 360T408 534Q425 534 440 534T472 534T503 534Z" />
<glyph unicode="v" horiz-adv-x="600" d="M147 534Q151 534 153 533T158 529T161 522Q182 455 204 387T248 243T292 76H309Q323 130 336 179T364 274T391 363T417 449T444 534Q468 534 492 534T541 534Q546 534 548 532T552 527T551 518Q530 454 509 389T466 259T423
130T378 0Q343 0 308 0T243 0Q235 0 230 2T220 11T211 32Q196 78 180 126T147 225T113 327T79 430T44 534Q70 534 95 534T147 534Z" />
<glyph unicode="w" horiz-adv-x="800" d="M344 534H444Q447 534 449 533T454 530T457 523Q471 465 485 410T511 302T535 197T554 90H573Q580 150 589 206T608 318T628 427T650 534Q666 534 683 534T717 534T749 534Q753 534 755 533T759 529T759 520Q745 463 731
399T700 268T669 132T638 0Q623 0 607 0T574 0T541 0T509 0Q503 0 500 4T492 23Q483 61 474 93T457 157T441 224T426 301T410 398H392Q384 353 378 317T366 251T353 194T339 137T322 75T302 0Q283 0 260 0T216 0T175 0Q169 0 166 5T158 25Q149 63 138 111T115 211T89
319T63 428T38 534Q54 534 70 534T104 534T137 534Q141 534 143 533T147 529T150 522Q159 476 170 423T192 314T213 201T229 90H249Q257 144 267 199T291 311T317 424T344 534Z" />
<glyph unicode="x" horiz-adv-x="600" d="M61 534Q89 534 117 534T174 534Q181 534 185 531T193 523Q223 470 253 417T313 312L351 294Q399 220 447 147T544 0Q530 0 516 0T489 0T464 0T442 0Q428 0 422 3T409 18Q396 38 375 74T331 151T286 229L247 249Q200 320
154 391T61 534ZM249 299L330 201H285Q268 167 250 134T214 68T177 0L74 -1Q68 -1 65 2T62 10Q62 14 64 17T70 27Q115 95 159 163T249 299ZM522 534Q527 534 530 532T534 523Q534 522 533 520T530 513Q486 446 441 378T351 242L275 334H316Q332 368 348 401T381
467T417 534H522Z" />
<glyph unicode="y" horiz-adv-x="600" d="M542 534Q547 534 552 530T554 518Q532 442 510 371T467 229T426 87T384 -58Q371 -108 349 -139T293 -185T211 -200Q200 -200 184 -200T154 -200T129 -200T115 -200Q110 -200 107 -198T104 -189V-106H120Q141 -106 161
-106T202 -106Q236 -106 257 -90T288 -39Q295 -14 307 31T337 137T373 266T411 403T447 534Q458 534 469 534T493 534T517 534T542 534ZM145 534Q154 534 158 532T164 521Q184 459 201 406T235 307T264 223T288 151T306 90H354L335 22H254Q245 22 239 24T228 35T216
60Q210 77 196 114T164 201T124 308T83 424T44 534Q56 534 68 534T93 534T119 534T145 534Z" />
<glyph unicode="z" horiz-adv-x="550" d="M70 534H469Q473 534 475 533T478 529T480 523V422Q454 391 430 363T383 309T339 259T299 212T261 169Q242 151 228 139T198 116V100Q221 100 243 100T288 100H469Q474 100 477 97T480 89Q480 67 480 45T480 0H81Q78 0
76 1T72 5T70 11V116Q113 164 150 206T221 285T285 356Q303 373 319 387T353 417V434Q325 434 298 434T244 434H81Q78 434 76 435T72 439T70 445Q70 467 70 489T70 534Z" />
<glyph unicode="{" horiz-adv-x="550" d="M374 153Q374 124 366 103T345 65T324 34T311 3Q311 -4 311 -11T310 -26Q313 -44 322 -51T352 -59Q384 -59 416 -59T481 -59H496Q496 -82 496 -104T496 -150Q496 -155 493 -158T485 -161H312Q272 -161 248 -144T214 -104T204
-62V-16Q204 16 213 37T236 76T258 111T268 154Q268 183 247 204T185 237T86 249H65Q60 249 57 252T54 260Q54 283 54 305T54 351H86Q144 351 184 362T246 394T268 445Q268 470 259 488T236 523T214 561T204 615V661Q204 681 214 703T248 743T312 760H485Q490 760
493 757T496 749Q496 726 496 704T496 658H481Q448 658 416 658T352 658Q332 658 323 651T310 625Q310 619 310 613T310 600Q312 584 322 569T344 536T365 497T374 445Q374 395 346 361T260 307V293Q320 276 347 240T374 153Z" />
<glyph unicode="|" horiz-adv-x="300" d="M94 760Q120 760 145 760T195 760Q200 760 203 757T206 749Q206 658 206 567T206 385T206 203T206 22T206 -160Q181 -160 156 -160T105 -160Q101 -160 98 -157T94 -149Q94 -49 94 52T94 253T94 455T94 657Q94 683 94 708T94 760Z" />
<glyph unicode="}" horiz-adv-x="550" d="M176 446Q176 475 184 496T205 534T226 565T239 596Q240 603 240 610T240 625Q237 643 228 650T198 658Q166 658 134 658T69 658H54Q54 681 54 703T54 749Q54 754 57 757T65 760H238Q278 760 302 743T336 704T346 661V615Q346
583 337 562T314 523T292 488T282 445Q282 416 303 395T366 362T464 350H485Q490 350 493 347T496 339Q496 316 496 294T496 248H464Q407 248 366 237T304 205T282 154Q282 130 291 112T314 76T336 38T346 -16V-62Q346 -81 336 -104T302 -144T238 -161H65Q60 -161
57 -158T54 -150Q54 -127 54 -105T54 -59H69Q102 -59 134 -59T198 -59Q218 -59 227 -52T240 -26Q240 -20 240 -14T240 -1Q238 15 228 30T206 63T185 102T176 154Q176 204 204 238T290 292V306Q230 324 203 360T176 446Z" />
<glyph unicode="~" horiz-adv-x="600" d="M401 156Q452 156 485 179T536 249T553 365V421Q553 430 550 433T538 437Q519 437 500 437T462 437V425Q462 415 462 405T462 386Q462 321 449 298T407 275Q387 275 374 287T351 318T329 359T303 400T262 432T199 444Q148
444 115 421T64 351T47 235V179Q47 170 50 167T62 163Q81 163 100 163T138 163V175Q138 185 138 195T138 215Q138 279 152 302T193 325Q213 325 226 313T250 282T271 241T298 200T339 168T401 156Z" />
<glyph unicode="&#xa1;" horiz-adv-x="350" d="M135 266H205Q208 266 210 266T213 263Q215 262 216 256T220 229T227 162T241 32V-56Q241 -84 241 -110T241 -166Q217 -166 187 -166T120 -166Q117 -166 115 -165T111 -161T109 -155V32Q113 71 117 110T126 188T135
266ZM101 542Q126 542 148 542T192 542T238 542Q242 542 244 541T247 537T249 531V391Q225 391 203 391T159 391T112 391Q109 391 107 392T103 396T101 402V542Z" />
<glyph unicode="&#xa2;" horiz-adv-x="600" d="M342 623Q387 623 421 616T476 600T506 582Q509 579 509 577T510 571Q510 564 510 548T510 513T510 480H494Q458 498 422 508T340 518Q293 518 259 504T207 459T189 377V312Q189 276 198 250T226 206Q244 189 272
181T338 172Q369 172 395 176T445 188T494 209H510Q510 194 510 177T510 144T510 117Q510 115 510 113T507 109Q498 99 475 90T416 74T337 67Q275 67 228 82T147 128T97 203T80 304V382Q80 457 113 511T206 594T342 623ZM376 375L326 388Q322 389 320 391T316 395T315
402Q315 442 315 484T315 568T315 647Q315 670 315 698T315 750Q335 750 349 750T377 750T412 750Q415 750 417 749T421 745T422 737Q418 713 414 681T405 610T395 531T386 451T376 375ZM312 308L362 295Q366 294 368 293T372 289T373 282Q373 240 373 198T373
113T373 30Q373 7 373 -21T373 -73Q353 -73 339 -73T311 -73T276 -73Q273 -73 271 -72T267 -67T266 -60Q272 -17 277 28T289 121T301 215T312 308Z" />
<glyph unicode="&#xa3;" horiz-adv-x="600" d="M64 392H439Q443 392 445 391T448 387T450 381Q450 375 450 361T450 332T450 312H75Q72 312 70 313T66 317T64 323Q64 329 64 343T64 371T64 392ZM372 619Q341 619 319 613T283 594Q270 583 263 566T256 524Q256
486 256 445T256 363T256 286T256 223Q256 197 252 175T233 133T189 95L213 135V69L183 95Q207 95 238 95T302 95T364 95T414 95Q430 95 451 95T493 95T529 95H546Q546 74 546 53T546 11Q546 7 543 4T535 0Q520 0 495 0T440 0T376 0T312 0T255 0T212 0H196Q178
0 154 0T104 0T55 0Q50 0 47 3T44 11Q44 21 44 31T44 53T44 74T44 95H64Q90 95 109 104T139 134T150 184Q150 214 150 255T150 342T150 435T150 521V540Q150 591 176 631T251 696T371 720Q429 720 468 706T521 678Q523 677 523 675T523 670Q523 656 523 641T523
611T523 579H507Q472 600 443 609T372 619Z" />
<glyph unicode="&#xa4;" horiz-adv-x="600" d="M239 422Q227 410 212 395T183 366Q181 364 179 364T175 363T171 366Q150 387 126 411T81 457Q93 469 107 483T136 512Q138 514 139 514T142 515Q145 515 148 512Q170 491 194 467T239 422ZM359 422Q380 443 404
467T450 512Q453 515 456 515Q458 515 459 515T462 512Q476 498 490 485T517 457Q497 436 473 412T427 366Q425 364 423 364T419 363T415 366Q412 370 404 377T387 394T370 411T359 422ZM359 177Q372 189 387 204T415 233Q418 236 421 236T427 233Q448 212 472
188T517 142Q505 130 491 116T462 86Q461 85 460 84T456 83Q453 83 450 86Q428 108 404 132T359 177ZM239 177Q218 156 194 132T148 86Q145 83 142 83Q141 83 140 84T136 86Q122 101 109 115T81 142Q101 163 125 187T171 233Q173 235 175 235T179 236T183 233Q186
229 194 222T211 205T228 188T239 177ZM126 311Q126 359 148 395T209 452T300 472Q352 472 391 452T452 396T474 311V288Q474 241 452 205T391 149T300 129Q248 129 209 149T148 205T126 288V311ZM214 291Q214 269 219 255T234 230Q245 221 261 216T300 210Q343
210 364 230T386 291V313Q386 332 382 346T367 370Q357 380 340 385T300 391Q257 391 236 372T214 313V291Z" />
<glyph unicode="&#xa5;" horiz-adv-x="600" d="M30 460H216V378H41Q38 378 36 379T32 383T30 389Q30 396 30 410T30 439T30 460ZM384 460H559Q564 460 567 457T570 449Q570 441 570 427T570 399T570 378H384V460ZM570 140H41Q36 140 33 143T30 151Q30 157 30 171T30
200T30 222H559Q563 222 565 221T568 217T570 211Q570 204 570 190T570 161T570 140ZM356 270Q356 238 356 203T356 139T356 100Q356 81 356 55T356 0Q350 0 336 0T306 0T276 0T255 0Q252 0 250 1T246 5T244 11Q244 30 244 59T244 123T244 197T244 271Q230 297
212 331T173 407T129 495T80 593T26 700Q45 700 63 700T99 700T135 700Q140 700 142 699T147 695T151 689Q174 639 193 596T231 511T268 420T309 308L270 347H335L298 308Q320 372 339 421T375 514T412 602T456 700Q482 700 508 700T559 700Q565 700 567 696T567
685Q542 635 516 583T463 479T409 374T356 270Z" />
<glyph unicode="&#xa6;" horiz-adv-x="350" d="M119 760Q144 760 169 760T220 760Q222 760 224 760T228 757Q230 756 230 754T231 749V369Q205 369 180 369T130 369Q126 369 123 372T119 380V661Q119 686 119 710T119 760ZM119 231Q144 231 169 231T220 231Q225
231 228 228T231 220V-160Q205 -160 180 -160T130 -160Q127 -160 125 -159T121 -155T119 -149V231Z" />
<glyph unicode="&#xa7;" horiz-adv-x="600" d="M318 718Q354 718 385 714T441 704T485 689T512 669Q515 667 516 665T518 660T519 652Q519 617 519 583T519 515Q496 515 473 515T427 515Q422 515 419 518T416 526Q416 540 416 553T416 579T416 606T416 633L445
592Q394 620 320 620Q287 620 262 614T218 596T191 567T181 527V504Q181 480 190 465T223 437T287 413L382 384Q442 367 476 345T523 295T537 226V202Q537 179 528 159T503 125T466 103V79L380 83Q400 101 411 114T428 143T433 174V198Q433 221 426 237T399 267T340
292L244 321Q179 341 143 367T92 424T77 488V533Q77 572 95 605T145 664T221 704T318 718ZM294 -148Q363 -148 398 -125T433 -64V-52Q433 -30 425 -17T397 8T337 31L241 60Q185 78 149 100T95 152T77 214V236Q77 277 98 306T150 344V370L239 362Q216 349 204 336T186
307T181 267V246Q181 223 189 207T219 177T282 152L378 124Q438 106 472 82T522 27T537 -48V-67Q537 -107 520 -140T471 -198T393 -236T288 -250Q253 -250 220 -246T159 -234T108 -214T70 -188Q69 -186 68 -184T67 -180Q67 -155 67 -130T67 -80H84Q130 -116 178
-132T294 -148Z" />
<glyph unicode="&#xa8;" horiz-adv-x="600" d="M133 763Q161 763 189 763T245 763Q249 763 251 762T254 758T256 752V640Q228 640 200 640T144 640Q141 640 139 641T135 645T133 651V763ZM344 763Q372 763 400 763T456 763Q460 763 462 762T465 758T467 752V640Q439
640 411 640T355 640Q352 640 350 641T346 645T344 651V763Z" />
<glyph unicode="&#xa9;" horiz-adv-x="600" d="M300 715Q388 715 451 683T549 587T583 429V267Q583 176 548 113T449 18T300 -15Q212 -15 149 17T51 114T17 271V433Q17 525 52 587T151 682T300 715ZM300 660Q230 660 180 635T102 561T75 446V255Q75 203 91 163T139
94Q168 68 208 54T300 40Q371 40 421 65T498 139T525 254V445Q525 496 510 536T464 603Q435 631 394 645T300 660ZM308 566Q344 566 370 554T415 522Q418 519 419 517T420 511Q420 489 420 467T420 423Q406 423 392 423T364 423Q358 423 356 426T353 434Q353 452
353 472T353 519L371 473Q357 489 343 494T308 500Q286 500 271 493T249 469T241 430V276Q241 255 245 241T258 218Q267 210 279 206T310 202Q344 202 366 213T409 250H421Q421 234 421 219T421 187Q421 181 420 179T416 173Q402 154 372 144T307 134Q259 134 229
151T184 199T169 273V429Q169 495 205 530T308 566Z" />
<glyph unicode="&#xaa;" horiz-adv-x="600" d="M238 294Q206 294 180 305T134 337T105 388T95 457V592Q95 645 113 682T164 739T240 759Q281 759 312 741T363 690H392L391 600Q363 639 333 656T268 674Q243 674 224 663T196 631T186 578V472Q186 448 192 430T209
401Q220 390 234 385T268 379Q290 379 311 388T352 417T390 466L397 376H365Q348 337 315 316T238 294ZM522 380Q522 363 522 346T522 313Q522 308 520 305T512 302Q504 302 498 302T485 302Q450 302 427 314T392 349T380 399Q380 440 380 480T380 562T380 643Q380
661 380 679T380 714T380 750Q399 750 420 750T460 750Q465 750 467 747T470 739Q470 685 470 630T470 521T470 411Q470 395 476 388T497 380Q499 380 502 380T506 380H522Z" />
<glyph unicode="&#xab;" horiz-adv-x="600" d="M324 94V78Q304 78 284 78T243 78Q233 78 229 80T217 90Q213 94 197 111T159 151T115 197T75 239T52 263Q45 271 44 275T42 285Q42 295 42 305T42 325Q65 350 91 377T143 432T188 480T219 512Q226 519 231 520T245
522Q264 522 284 522T324 522V506Q282 461 249 426T187 360T130 299Q158 269 185 240T246 177T324 94ZM554 94V78Q534 78 514 78T473 78Q463 78 459 80T447 90Q443 94 427 111T389 151T345 197T305 239T282 263Q275 271 274 275T272 285Q272 295 272 305T272 325Q295
350 321 377T373 432T418 480T449 512Q456 519 461 520T475 522Q494 522 514 522T554 522V506Q512 461 479 426T417 360T360 299Q388 269 415 240T476 177T554 94Z" />
<glyph unicode="&#xac;" horiz-adv-x="600" d="M67 438H522Q526 438 528 437T531 433T533 427Q533 356 533 284T533 141Q511 141 490 141T446 141Q443 141 441 142T437 146T435 152Q435 209 435 266T435 381L471 340H78Q75 340 73 341T69 345T67 351Q67 373 67
394T67 438Z" />
<glyph unicode="&#xad;" horiz-adv-x="600" d="M71 351H368Q372 351 374 350T377 346T379 340Q379 316 379 295T379 249H82Q79 249 77 249T74 251T72 255T71 260Q71 284 71 305T71 351Z" />
<glyph unicode="&#xae;" horiz-adv-x="600" d="M300 760Q361 760 408 746T487 704T536 634T553 540V412Q553 361 536 322T487 255T408 215T300 201Q224 201 167 224T79 296T47 417V544Q47 596 64 636T114 704T193 746T300 760ZM300 705Q252 705 216 695T155 664T118
616T105 552V406Q105 370 118 342T158 294Q182 276 218 266T300 256Q349 256 386 266T447 296T483 342T495 405V550Q495 585 484 612T451 659Q428 681 390 693T300 705ZM220 608H250Q254 602 255 596T256 581Q256 537 256 493T256 405Q256 385 256 366T256 327Q243
327 230 327T203 327Q198 327 195 330T192 338Q192 383 192 428T192 518T192 608H220ZM324 635Q357 635 379 625T412 596T424 549V517Q424 498 419 483T402 455T374 437T337 430Q316 430 295 430T255 430Q250 430 245 431T232 433V457V487H326Q342 487 351 496T361
518V546Q361 554 359 560T352 570Q345 577 326 577Q302 577 278 577T230 577T181 577Q176 577 173 580T170 588Q170 600 170 612T170 635Q209 635 247 635T324 635ZM356 472Q363 454 370 435T385 397Q388 390 391 388T404 385Q411 385 413 385T422 385H425Q425
373 425 359T425 335Q425 330 423 327T414 324H404Q375 324 359 333T333 368Q325 389 317 409T301 450L356 472Z" />
<glyph unicode="&#xaf;" horiz-adv-x="600" d="M123 759H466Q471 759 474 756T477 748Q477 734 477 721T477 695T477 668H134Q131 668 129 669T125 673T123 679Q123 693 123 706T123 732T123 759Z" />
<glyph unicode="&#xb0;" horiz-adv-x="600" d="M300 710Q352 710 390 693T449 642T470 565V512Q470 468 449 435T390 384T300 366Q248 366 210 384T151 435T130 512V565Q130 609 151 642T210 692T300 710ZM300 442Q343 442 367 462T392 517V559Q392 592 372 610Q361
622 343 628T300 634Q257 634 233 615T208 559V517Q208 485 228 465Q239 454 257 448T300 442Z" />
<glyph unicode="&#xb1;" horiz-adv-x="600" d="M247 590Q274 590 296 590T342 590Q347 590 350 587T353 579Q353 534 353 489T353 400T353 310T353 220Q328 220 306 220T258 220Q253 220 250 223T247 231Q247 274 247 318T247 406T247 488Q247 515 247 540T247
590ZM67 454H522Q526 454 528 453T531 449T533 443Q533 420 533 400T533 356H78Q73 356 70 359T67 367Q67 391 67 411T67 454ZM67 158H522Q526 158 528 157T531 153T533 147Q533 124 533 104T533 60H78Q75 60 73 61T69 65T67 71Q67 95 67 115T67 158Z" />
<glyph unicode="&#xb2;" horiz-adv-x="400" d="M337 362Q334 362 315 362T266 362T205 362T143 362T95 362T72 362Q69 362 67 363T63 367T61 373V433Q61 469 70 499T102 552T169 592Q205 605 224 615T250 638T257 666Q257 679 253 687T242 702Q236 707 223 710T186
714Q151 714 125 707T79 688H67Q67 692 67 702T67 725T67 746T67 760Q67 764 68 767T75 774Q88 782 119 789T193 796Q243 796 274 782T321 741T337 678V671Q337 640 326 615T289 570T217 534Q182 522 165 508T141 472T130 418L135 481V408L114 432Q140 439 166
441T234 444H326Q331 444 334 441T337 433Q337 429 337 420T337 398T337 376T337 362Z" />
<glyph unicode="&#xb3;" horiz-adv-x="400" d="M335 683Q335 646 311 616T233 577L264 602V553L232 576Q273 571 296 556T329 519T340 472V466Q340 429 323 404T273 365T195 352Q144 352 113 360T67 379Q63 382 62 385T61 393Q61 398 61 407T61 427T61 447T61
461H73Q97 446 125 440T184 434Q227 434 245 447T263 485Q263 502 252 514T212 534T130 541Q125 541 122 544T118 552Q118 557 118 569T118 592T118 609Q172 609 202 614T246 632T259 666Q259 690 241 702T182 714Q150 714 124 708T77 689H65Q65 693 65 702T65
724T65 745T65 759Q65 763 66 767T74 773Q87 781 115 788T186 796Q242 796 274 782T321 743T335 689V683Z" />
<glyph unicode="&#xb4;" horiz-adv-x="600" d="M365 818Q399 818 425 818T483 818Q490 818 492 813T490 802Q466 773 445 748T402 698T351 638Q349 635 345 633T334 630Q311 630 292 630T252 630Q271 661 289 692T327 755T365 818Z" />
<glyph unicode="&#xb5;" horiz-adv-x="600" d="M87 157H164L179 18L158 -1Q178 -58 189 -95T201 -135Q201 -157 201 -167T201 -200Q185 -200 156 -200T98 -200Q95 -200 93 -199T89 -196T87 -189Q87 -130 87 -73T87 41T87 157ZM188 534Q192 534 194 533T197 529T199
523V357Q199 327 199 296T199 234T199 171Q199 134 214 117T257 99Q278 99 298 105T338 125T382 161T431 216V83H392Q369 49 344 29T291 -1T236 -11Q203 -11 176 0T129 32T98 81T87 143Q87 216 87 289T87 434Q87 451 87 467T87 500T87 534Q113 534 138 534T188
534ZM412 534Q437 534 462 534T512 534Q512 432 512 331T512 129Q512 118 514 111T521 99Q529 90 544 90Q548 90 553 90T562 90H569Q569 67 569 45T569 1Q569 -2 568 -4T564 -8T558 -10H528Q488 -10 459 5T416 46T401 106Q401 210 401 314T401 523Q401 526 402
528T406 532T412 534Z" />
<glyph unicode="&#xb6;" horiz-adv-x="600" d="M300 602Q265 602 241 590T205 553T193 489V382Q193 348 201 329T228 302T277 294H319V210Q300 210 283 210T251 210H226Q167 210 128 234T69 302T49 401V487Q49 553 74 601T147 674T265 700H561Q563 700 565 700T569
697Q571 696 571 694T572 689Q572 661 572 645T572 620T572 602H561Q529 602 485 602T393 602T300 602ZM294 648H332Q336 648 338 647T341 643T343 637Q343 549 343 453T343 254T343 50T343 -150Q323 -150 304 -150T265 -150Q260 -150 257 -147T254 -139Q254 -74
254 -9T254 123T254 254T254 385T254 516T254 648H294ZM471 648H510Q514 648 516 647T519 643T521 637Q521 552 521 468T521 299T521 129T521 -40Q521 -70 521 -98T521 -150Q501 -150 482 -150T443 -150Q438 -150 435 -147T432 -139Q432 -60 432 19T432 176T432
333T432 490T432 648H471Z" />
<glyph unicode="&#xb7;" horiz-adv-x="350" d="M249 240Q225 240 203 240T159 240T112 240Q109 240 107 241T103 245T101 251V391Q126 391 148 391T192 391T238 391Q242 391 244 390T247 386T249 380V240Z" />
<glyph unicode="&#xb8;" horiz-adv-x="600" d="M332 41Q329 33 327 24T323 6T320 -11T316 -25L314 -35Q357 -37 382 -60T408 -126Q408 -178 374 -207T271 -237Q238 -237 219 -233T191 -222T182 -207Q182 -194 182 -183T182 -161T182 -141H194Q207 -148 221 -152T259
-157Q283 -157 299 -147T315 -114Q315 -94 301 -84T255 -74Q250 -74 247 -70T245 -60Q250 -48 253 -37T260 -15T267 6T275 27Q277 33 281 36T296 40T332 41Z" />
<glyph unicode="&#xb9;" horiz-adv-x="400" d="M61 444H328Q333 444 336 441T339 433Q339 429 339 420T339 398T339 376T339 362H72Q67 362 64 365T61 373Q61 380 61 387T61 403T61 423T61 444ZM248 396H163L169 412Q169 418 169 423T169 434T169 442Q169 444
169 467T169 525T169 598T169 670T169 725L187 695H138L164 721Q156 696 147 676T127 639T99 605Q87 591 82 588T72 584Q69 584 68 586T66 591V694Q77 704 89 716T113 740Q126 752 138 764T161 786Q167 786 178 786T201 786T223 786T238 786Q242 786 245 783T248
775Q248 773 248 745T248 675T248 586T248 497T248 427T248 396Z" />
<glyph unicode="&#xba;" horiz-adv-x="600" d="M301 762Q361 762 406 737T476 667T502 562V487Q502 429 476 384T403 314T299 289Q238 289 193 314T123 384T98 489V564Q98 622 124 667T197 737T301 762ZM306 678Q268 678 242 664T201 624T187 566V487Q187 459
195 438T217 402Q231 388 250 381T294 374Q333 374 359 388T399 428T413 485V564Q413 591 407 610T389 644Q375 661 354 669T306 678Z" />
<glyph unicode="&#xbb;" horiz-adv-x="600" d="M277 506V522Q298 522 318 522T358 522Q368 522 372 520T384 510Q388 506 404 489T442 449T486 403T526 361T549 337Q556 330 557 326T559 315Q559 305 559 295T559 275Q536 250 510 223T458 168T413 120T382 88Q375
81 370 80T356 78Q337 78 317 78T277 78V94Q320 140 353 175T414 240T471 301Q444 331 416 360T355 423T277 506ZM47 506V522Q68 522 88 522T128 522Q138 522 142 520T154 510Q158 506 174 489T212 449T256 403T296 361T319 337Q326 330 327 326T329 315Q329 305
329 295T329 275Q306 250 280 223T228 168T183 120T152 88Q145 81 140 80T126 78Q107 78 87 78T47 78V94Q90 140 123 175T184 240T241 301Q214 331 186 360T125 423T47 506Z" />
<glyph unicode="&#xbc;" horiz-adv-x="800" d="M429 411Q437 424 449 447T475 500T503 561T532 622T557 674T576 710Q580 710 593 710T623 710T653 710T671 710Q677 710 678 707T677 697Q669 684 658 663T632 614T602 557T571 501T545 452T525 418Q523 414 521
413T514 411Q510 411 499 411T472 411T445 411T429 411ZM371 290Q363 278 351 255T325 201T297 140T268 79T243 27T224 -9Q220 -9 207 -9T177 -9T147 -9T129 -9Q123 -9 122 -6T123 4Q131 17 142 38T168 87T198 144T229 200T255 249T275 283Q277 288 279 289T286
290Q290 290 301 290T328 290T355 290T371 290ZM708 -86Q704 -86 695 -86T675 -86T655 -86T642 -86Q637 -86 634 -83T631 -75V93Q631 95 633 107T638 134T643 162T647 182H697Q703 182 705 179T708 171V-35Q708 -42 708 -60T708 -86ZM757 0H455Q450 0 447 3T444
11V63Q444 63 451 82T471 130T497 193T524 256T545 307T555 330Q558 335 561 336T569 338Q573 338 583 338T605 338T627 338T641 338V326Q640 323 631 303T610 255T583 194T556 132T534 83T522 57L534 107V52L519 67Q536 72 551 75T585 80T628 82H746Q751 82 754
79T757 71Q757 67 757 57T757 36T757 14T757 0ZM61 444H328Q333 444 336 441T339 433Q339 429 339 420T339 398T339 376T339 362H72Q67 362 64 365T61 373Q61 380 61 387T61 403T61 423T61 444ZM248 396H163L169 412Q169 418 169 423T169 434T169 442Q169 444 169
467T169 525T169 598T169 670T169 725L187 695H138L164 721Q156 696 147 676T127 639T99 605Q87 591 82 588T72 584Q69 584 68 585T66 591V694Q77 704 89 716T113 740Q126 752 138 764T161 786Q167 786 178 786T201 786T223 786T237 786Q242 786 245 783T248 775Q248
773 248 745T248 675T248 586T248 497T248 427T248 396Z" />
<glyph unicode="&#xbd;" horiz-adv-x="600" d="M364 405Q370 419 379 442T398 496T420 558T441 620T461 673T476 710Q480 710 492 710T520 710T548 710T565 710Q571 710 573 707T573 697Q567 684 557 662T534 612T508 555T482 497T459 447T442 412Q440 408 438
407T432 405Q428 405 413 405T384 405T364 405ZM236 296Q230 283 221 259T201 205T179 143T158 81T139 28T124 -9Q120 -9 108 -9T81 -9T54 -9T35 -9Q29 -9 27 -6T27 4Q33 16 43 38T66 88T92 146T118 204T141 254T158 289Q160 294 162 295T168 296Q174 296 187 296T215
296T236 296ZM551 -86Q548 -86 529 -86T480 -86T419 -86T357 -86T309 -86T286 -86Q283 -86 281 -85T277 -81T275 -75V-16Q275 21 284 51T316 104T383 143Q419 157 438 167T464 190T471 218Q471 231 467 239T456 253Q450 259 437 262T400 266Q365 266 339 259T293
240H281Q281 244 281 254T281 276T281 298T281 312Q281 316 282 319T289 326Q302 333 333 340T407 348Q457 348 488 334T535 293T551 230V223Q551 192 540 167T503 122T432 86Q396 74 379 60T355 24T344 -30L349 33V-40L328 -17Q354 -9 380 -7T448 -4H540Q545 -4
548 -7T551 -15Q551 -19 551 -29T551 -50T551 -72T551 -86ZM25 444H292Q297 444 300 441T303 433Q303 429 303 420T303 398T303 376T303 362H36Q31 362 28 365T25 373Q25 380 25 387T25 403T25 423T25 444ZM213 396H127L133 412Q133 418 133 423T133 434T133 442Q133
444 133 467T133 525T133 598T133 670T133 725L152 695H102L128 721Q120 696 111 676T91 639T64 605Q51 591 46 588T37 584Q34 584 33 585T31 591V694Q41 704 53 716T77 740Q91 752 103 764T126 786Q132 786 142 786T165 786T187 786T202 786Q207 786 210 783T213
775Q213 773 213 745T213 675T213 586T213 497T213 427T213 396Z" />
<glyph unicode="&#xbe;" horiz-adv-x="800" d="M429 411Q437 424 449 447T475 500T503 561T532 622T557 674T576 710Q580 710 593 710T623 710T653 710T671 710Q677 710 678 707T677 697Q669 684 658 663T632 614T602 557T571 501T545 452T525 418Q523 414 521
413T514 411Q510 411 499 411T472 411T445 411T429 411ZM371 290Q363 278 351 255T325 201T297 140T268 79T243 27T224 -9Q220 -9 207 -9T177 -9T147 -9T129 -9Q123 -9 122 -6T123 4Q131 17 142 38T168 87T198 144T229 200T255 249T275 283Q277 288 279 289T286
290Q290 290 301 290T328 290T355 290T371 290ZM708 -86Q704 -86 695 -86T675 -86T655 -86T642 -86Q637 -86 634 -83T631 -75V93Q631 95 633 107T638 134T643 162T647 182H697Q703 182 705 179T708 171V-35Q708 -42 708 -60T708 -86ZM757 0H455Q450 0 447 3T444
11V63Q444 63 451 82T471 130T497 193T524 256T545 307T555 330Q558 335 561 336T569 338Q573 338 583 338T605 338T627 338T641 338V326Q640 323 631 303T610 255T583 194T556 132T534 83T522 57L534 107V52L519 67Q536 72 551 75T585 80T628 82H746Q751 82 754
79T757 71Q757 67 757 57T757 36T757 14T757 0ZM335 683Q335 646 311 616T233 577L264 602V553L232 576Q273 571 296 556T329 519T340 472V466Q340 429 323 404T273 365T195 352Q144 352 113 360T67 379Q63 382 62 385T61 393Q61 398 61 407T61 427T61 447T61 461H73Q97
446 125 440T184 434Q227 434 245 447T263 485Q263 502 252 514T212 534T130 541Q125 541 122 544T118 552Q118 557 118 569T118 592T118 609Q172 609 202 614T246 632T259 666Q259 690 241 702T182 714Q150 714 124 708T77 689H65Q65 693 65 702T65 724T65 745T65
759Q65 763 66 767T74 773Q87 781 115 788T186 796Q242 796 274 782T321 743T335 689V683Z" />
<glyph unicode="&#xbf;" horiz-adv-x="600" d="M235 542Q271 542 313 542T391 542Q395 542 397 541T400 537T402 531V382Q366 382 324 382T246 382Q243 382 241 383T237 387T235 393V542ZM303 -186Q245 -186 202 -173T130 -138T88 -86T74 -23V8Q74 43 83 70T113
119T171 167L208 192Q235 211 248 223T265 248T270 282V289H366Q370 289 372 288T376 284T377 278V260Q377 231 369 209T340 166T281 119L249 97Q221 78 207 65T186 38T180 6Q180 -3 181 -10T187 -23Q193 -52 221 -66T304 -81Q360 -81 406 -68T500 -22H517Q517
-46 517 -70T517 -119Q517 -123 516 -125T513 -129Q498 -145 467 -158T393 -178T303 -186Z" />
<glyph unicode="&#xc0;" horiz-adv-x="650" d="M148 279H390Q403 279 415 279T440 279L471 288L482 236L493 185H158Q155 185 153 186T149 190T147 196L148 279ZM142 0Q118 0 94 0T46 0Q43 0 41 1T38 6T38 13Q48 47 61 92T88 189T118 297T150 410T181 520T209
620T234 704Q279 704 327 704T412 704Q416 704 418 703T422 699T424 693Q442 629 461 560T501 418T543 269T586 112Q592 85 599 57T613 0Q591 0 565 0T517 0Q511 0 508 1T504 7T499 19Q479 96 459 169T420 309T386 436T357 546T335 636L366 616H289L321 635Q311
597 298 549T268 441T231 313T189 166T142 0ZM268 946Q287 915 304 888T338 833T373 776Q360 776 349 776T323 776T288 776Q282 776 278 778T272 782Q248 810 232 828T202 862T176 893T143 931Q139 936 141 941T150 946Q174 946 189 946T222 946T268 946Z" />
<glyph unicode="&#xc1;" horiz-adv-x="650" d="M148 279H390Q403 279 415 279T440 279L471 288L482 236L493 185H158Q155 185 153 186T149 190T147 196L148 279ZM142 0Q118 0 94 0T46 0Q43 0 41 1T38 6T38 13Q48 47 61 92T88 189T118 297T150 410T181 520T209
620T234 704Q279 704 327 704T412 704Q416 704 418 703T422 699T424 693Q442 629 461 560T501 418T543 269T586 112Q592 85 599 57T613 0Q591 0 565 0T517 0Q511 0 508 1T504 7T499 19Q479 96 459 169T420 309T386 436T357 546T335 636L366 616H289L321 635Q311
597 298 549T268 441T231 313T189 166T142 0ZM385 945Q413 945 429 945T461 945T500 945Q506 945 508 940T506 930Q487 909 474 893T447 861T418 828T377 781Q375 779 371 777T361 775Q340 775 327 775T303 775T278 775Q297 805 314 832T348 886T385 945Z" />
<glyph unicode="&#xc2;" horiz-adv-x="650" d="M148 279H390Q403 279 415 279T440 279L471 288L482 236L493 185H158Q155 185 153 186T149 190T147 196L148 279ZM142 0Q118 0 94 0T46 0Q43 0 41 1T38 6T38 13Q48 47 61 92T88 189T118 297T150 410T181 520T209
620T234 704Q279 704 327 704T412 704Q416 704 418 703T422 699T424 693Q442 629 461 560T501 418T543 269T586 112Q592 85 599 57T613 0Q591 0 565 0T517 0Q511 0 508 1T504 7T499 19Q479 96 459 169T420 309T386 436T357 546T335 636L366 616H289L321 635Q311
597 298 549T268 441T231 313T189 166T142 0ZM268 945Q279 945 299 945T338 945T369 945Q377 945 382 942T402 925Q410 918 428 901T468 863T514 818T559 775Q538 775 512 775T465 775Q454 775 449 777T436 785Q420 798 387 825T305 895L358 875Q342 875 326 875T293
875L345 896Q299 856 264 827T202 775H113Q109 775 107 775T103 778T102 782Q102 786 106 790T124 808Q137 821 156 839T196 876T235 914T268 945Z" />
<glyph unicode="&#xc3;" horiz-adv-x="650" d="M148 279H390Q403 279 415 279T440 279L471 288L482 236L493 185H158Q155 185 153 186T149 190T147 196L148 279ZM142 0Q118 0 94 0T46 0Q43 0 41 1T38 6T38 13Q48 47 61 92T88 189T118 297T150 410T181 520T209
620T234 704Q279 704 327 704T412 704Q416 704 418 703T422 699T424 693Q442 629 461 560T501 418T543 269T586 112Q592 85 599 57T613 0Q591 0 565 0T517 0Q511 0 508 1T504 7T499 19Q479 96 459 169T420 309T386 436T357 546T335 636L366 616H289L321 635Q311
597 298 549T268 441T231 313T189 166T142 0ZM424 872Q448 872 466 882T503 915H519Q519 895 519 876T519 840Q519 834 518 830T512 821Q496 804 475 794T421 784Q391 784 366 793T318 813T273 834T226 843Q202 843 184 833T147 800H131Q131 820 131 839T131 875Q131
881 132 885T138 895Q154 911 175 921T229 932Q259 932 284 923T332 902T377 882T424 872Z" />
<glyph unicode="&#xc4;" horiz-adv-x="650" d="M148 279H390Q403 279 415 279T440 279L471 288L482 236L493 185H158Q155 185 153 186T149 190T147 196L148 279ZM142 0Q118 0 94 0T46 0Q43 0 41 1T38 6T38 13Q48 47 61 92T88 189T118 297T150 410T181 520T209
620T234 704Q279 704 327 704T412 704Q416 704 418 703T422 699T424 693Q442 629 461 560T501 418T543 269T586 112Q592 85 599 57T613 0Q591 0 565 0T517 0Q511 0 508 1T504 7T499 19Q479 96 459 169T420 309T386 436T357 546T335 636L366 616H289L321 635Q311
597 298 549T268 441T231 313T189 166T142 0ZM158 914Q186 914 214 914T270 914Q274 914 276 913T279 909T281 903V796Q253 796 225 796T169 796Q166 796 164 797T160 801T158 807V914ZM369 914Q397 914 425 914T481 914Q485 914 487 913T490 909T492 903V796Q464
796 436 796T380 796Q377 796 375 797T371 801T369 807V914Z" />
<glyph unicode="&#xc5;" horiz-adv-x="650" d="M148 279H390Q403 279 415 279T440 279L471 288L482 236L493 185H158Q155 185 153 186T149 190T147 196L148 279ZM142 0Q118 0 94 0T46 0Q43 0 41 1T38 6T38 13Q48 47 61 92T88 189T118 297T150 410T181 520T209
620T234 704Q279 704 327 704T412 704Q416 704 418 703T422 699T424 693Q442 629 461 560T501 418T543 269T586 112Q592 85 599 57T613 0Q591 0 565 0T517 0Q511 0 508 1T504 7T499 19Q479 96 459 169T420 309T386 436T357 546T335 636L366 616H289L321 635Q311
597 298 549T268 441T231 313T189 166T142 0ZM326 898Q375 898 410 884T465 843T484 782V756Q484 721 465 695T410 655T325 640Q275 640 240 654T185 695T166 756V782Q166 817 185 843T240 883T326 898ZM325 828Q292 828 274 815T255 778V759Q255 748 260 739T274
723Q283 716 295 713T325 710Q358 710 376 723T395 759V778Q395 789 391 798T378 814Q369 821 356 824T325 828Z" />
<glyph unicode="&#xc6;" horiz-adv-x="800" d="M122 0Q106 0 90 0T57 0T24 0Q21 0 17 3T15 13Q46 94 78 181T144 357T209 533T270 700Q289 700 307 700T344 700T380 700H737Q742 700 745 697T748 689Q748 667 748 645T748 601H321L359 629Q328 550 298 470T239
310T180 153T122 0ZM372 626H484L480 611Q480 603 480 595T480 579Q480 518 480 459T480 339T480 218T480 99H737Q742 99 745 96T748 88Q748 66 748 44T748 0H383Q380 0 378 0T374 3T372 7Q372 85 372 162T372 316T372 471T372 626ZM153 259H346Q355 259 364 259T383
259L394 261V164H164Q159 164 156 167T153 175V259ZM400 398H697Q702 398 705 395T708 387Q708 365 708 346T708 304H400V398Z" />
<glyph unicode="&#xc7;" horiz-adv-x="600" d="M336 -20Q268 -20 217 -2T131 51T79 136T61 249V457Q61 517 78 565T130 648T214 701T328 720Q378 720 417 711T485 687T530 655Q532 653 533 651T534 646T535 640Q535 604 535 560T535 476Q512 476 490 476T445 476Q440
476 437 479T434 487Q434 508 434 528T434 572T434 625L460 579Q431 601 400 610T327 619Q279 619 245 601T192 546T174 453V258Q174 211 184 177T218 118Q239 97 269 88T336 79Q392 79 434 94T522 140H539Q539 129 539 119T539 97T539 76T539 54Q539 50 538 47T533
41Q516 24 487 10T420 -12T336 -20ZM435 -126Q435 -178 401 -207T298 -237Q265 -237 246 -233T218 -222T209 -207Q209 -194 209 -183T209 -161T209 -141H221Q234 -148 248 -152T286 -157Q310 -157 326 -147T342 -114Q342 -94 328 -84T282 -74Q277 -74 274 -70T272
-60Q277 -48 280 -37T287 -15T294 6T302 27Q304 33 308 36T323 40T359 41Q356 33 354 24T351 7T347 -10T343 -25L341 -35Q384 -37 409 -60T435 -126Z" />
<glyph unicode="&#xc8;" horiz-adv-x="550" d="M26 700H485Q488 700 490 699T494 695T496 689Q496 665 496 647T496 604H37Q34 604 32 605T28 609T26 615Q26 638 26 657T26 700ZM147 400H429Q432 400 434 399T438 395T440 389Q440 374 440 360T440 334T440 307H147V400ZM93
0Q91 0 89 1T86 3T83 7T82 11Q82 52 82 109T82 233T82 371T82 514T82 648H200L193 630Q193 609 193 586T193 540Q193 489 193 434T193 321T193 207T193 96H485Q490 96 493 93T496 85Q496 63 496 43T496 0H93ZM210 946Q229 915 246 888T280 833T315 776Q302 776
291 776T265 776T230 776Q224 776 220 778T214 782Q190 810 174 828T144 862T118 893T85 931Q81 936 83 941T92 946Q116 946 131 946T164 946T210 946Z" />
<glyph unicode="&#xc9;" horiz-adv-x="550" d="M26 700H485Q488 700 490 699T494 695T496 689Q496 665 496 647T496 604H37Q34 604 32 605T28 609T26 615Q26 638 26 657T26 700ZM147 400H429Q432 400 434 399T438 395T440 389Q440 374 440 360T440 334T440 307H147V400ZM93
0Q91 0 89 1T86 3T83 7T82 11Q82 52 82 109T82 233T82 371T82 514T82 648H200L193 630Q193 609 193 586T193 540Q193 489 193 434T193 321T193 207T193 96H485Q490 96 493 93T496 85Q496 63 496 43T496 0H93ZM327 945Q355 945 371 945T403 945T442 945Q448 945
450 940T448 930Q429 909 416 893T389 861T360 828T319 781Q317 779 313 777T303 775Q282 775 269 775T245 775T220 775Q239 805 256 832T290 886T327 945Z" />
<glyph unicode="&#xca;" horiz-adv-x="550" d="M26 700H485Q488 700 490 699T494 695T496 689Q496 665 496 647T496 604H37Q34 604 32 605T28 609T26 615Q26 638 26 657T26 700ZM147 400H429Q432 400 434 399T438 395T440 389Q440 374 440 360T440 334T440 307H147V400ZM93
0Q91 0 89 1T86 3T83 7T82 11Q82 52 82 109T82 233T82 371T82 514T82 648H200L193 630Q193 609 193 586T193 540Q193 489 193 434T193 321T193 207T193 96H485Q490 96 493 93T496 85Q496 63 496 43T496 0H93ZM210 945Q221 945 241 945T280 945T311 945Q319 945
324 942T344 925Q352 918 370 901T410 863T456 818T501 775Q480 775 454 775T407 775Q396 775 391 777T378 785Q362 798 329 825T247 895L300 875Q284 875 268 875T235 875L287 896Q241 856 206 827T144 775H55Q51 775 49 775T45 778T44 782Q44 786 48 790T66 808Q79
821 98 839T138 876T177 914T210 945Z" />
<glyph unicode="&#xcb;" horiz-adv-x="550" d="M26 700H485Q488 700 490 699T494 695T496 689Q496 665 496 647T496 604H37Q34 604 32 605T28 609T26 615Q26 638 26 657T26 700ZM147 400H429Q432 400 434 399T438 395T440 389Q440 374 440 360T440 334T440 307H147V400ZM93
0Q91 0 89 1T86 3T83 7T82 11Q82 52 82 109T82 233T82 371T82 514T82 648H200L193 630Q193 609 193 586T193 540Q193 489 193 434T193 321T193 207T193 96H485Q490 96 493 93T496 85Q496 63 496 43T496 0H93ZM100 914Q128 914 156 914T212 914Q216 914 218 913T221
909T223 903V796Q195 796 167 796T111 796Q108 796 106 797T102 801T100 807V914ZM311 914Q339 914 367 914T423 914Q427 914 429 913T432 909T434 903V796Q406 796 378 796T322 796Q319 796 317 797T313 801T311 807V914Z" />
<glyph unicode="&#xcc;" horiz-adv-x="500" d="M306 56H191L194 87Q194 105 194 126T194 165Q194 225 194 284T194 403T194 523T194 644H311L306 613Q306 597 306 578T306 542Q306 481 306 421T306 299T306 178T306 56ZM426 0H85Q83 0 81 1T78 3T75 7T74 11Q74
26 74 40T74 67T74 96H414Q417 96 420 95T424 91T426 85Q426 70 426 57T426 29T426 0ZM74 700H414Q420 700 423 697T426 689Q426 678 426 667T426 646T426 626T426 604H85Q81 604 78 607T74 615Q74 626 74 636T74 657T74 678T74 700ZM193 946Q212 915 229 888T263
833T298 776Q285 776 274 776T248 776T213 776Q207 776 203 778T197 782Q173 810 157 828T127 862T101 893T68 931Q64 936 66 941T75 946Q99 946 114 946T147 946T193 946Z" />
<glyph unicode="&#xcd;" horiz-adv-x="500" d="M306 56H191L194 87Q194 105 194 126T194 165Q194 225 194 284T194 403T194 523T194 644H311L306 613Q306 597 306 578T306 542Q306 481 306 421T306 299T306 178T306 56ZM426 0H85Q83 0 81 1T78 3T75 7T74 11Q74
26 74 40T74 67T74 96H414Q417 96 420 95T424 91T426 85Q426 70 426 57T426 29T426 0ZM74 700H414Q420 700 423 697T426 689Q426 678 426 667T426 646T426 626T426 604H85Q81 604 78 607T74 615Q74 626 74 636T74 657T74 678T74 700ZM310 945Q338 945 354 945T386
945T425 945Q431 945 433 940T431 930Q412 909 399 893T372 861T343 828T302 781Q300 779 296 777T286 775Q265 775 252 775T228 775T203 775Q222 805 239 832T273 886T310 945Z" />
<glyph unicode="&#xce;" horiz-adv-x="500" d="M306 56H191L194 87Q194 105 194 126T194 165Q194 225 194 284T194 403T194 523T194 644H311L306 613Q306 597 306 578T306 542Q306 481 306 421T306 299T306 178T306 56ZM426 0H85Q83 0 81 1T78 3T75 7T74 11Q74
26 74 40T74 67T74 96H414Q417 96 420 95T424 91T426 85Q426 70 426 57T426 29T426 0ZM74 700H414Q420 700 423 697T426 689Q426 678 426 667T426 646T426 626T426 604H85Q81 604 78 607T74 615Q74 626 74 636T74 657T74 678T74 700ZM193 945Q204 945 224 945T263
945T294 945Q302 945 307 942T327 925Q335 918 353 901T393 863T439 818T484 775Q463 775 437 775T390 775Q379 775 374 777T361 785Q345 798 312 825T230 895L283 875Q267 875 251 875T218 875L270 896Q224 856 189 827T127 775H38Q34 775 32 775T28 778T27 782Q27
786 31 790T49 808Q62 821 81 839T121 876T160 914T193 945Z" />
<glyph unicode="&#xcf;" horiz-adv-x="500" d="M306 56H191L194 87Q194 105 194 126T194 165Q194 225 194 284T194 403T194 523T194 644H311L306 613Q306 597 306 578T306 542Q306 481 306 421T306 299T306 178T306 56ZM426 0H85Q83 0 81 1T78 3T75 7T74 11Q74
26 74 40T74 67T74 96H414Q417 96 420 95T424 91T426 85Q426 70 426 57T426 29T426 0ZM74 700H414Q420 700 423 697T426 689Q426 678 426 667T426 646T426 626T426 604H85Q81 604 78 607T74 615Q74 626 74 636T74 657T74 678T74 700ZM83 914Q111 914 139 914T195
914Q199 914 201 913T204 909T206 903V796Q178 796 150 796T94 796Q91 796 89 797T85 801T83 807V914ZM294 914Q322 914 350 914T406 914Q410 914 412 913T415 909T417 903V796Q389 796 361 796T305 796Q302 796 300 797T296 801T294 807V914Z" />
<glyph unicode="&#xd0;" horiz-adv-x="650" d="M17 397H333Q338 397 341 394T344 386Q344 368 344 351T344 316H28Q23 316 20 319T17 327Q17 345 17 362T17 397ZM586 241Q586 181 569 136T517 61T437 16T334 0Q311 0 283 0T227 0T173 0T127 0T97 0Q92 0 89 3T86
11Q86 91 86 170T86 329T86 488T86 647H207L199 629Q199 602 199 572T199 514Q199 461 199 410T199 308T199 206T199 100Q214 100 236 100T284 100T331 100Q384 100 416 116T464 166T480 248V452Q480 481 476 502T464 541T442 570Q429 581 413 587T377 597T327
600Q294 600 257 600T181 600T107 600T41 600Q38 600 36 601T32 605T30 611Q30 631 30 655T30 700Q61 700 97 700T173 700T253 700T331 700Q395 700 443 685T523 638T570 563T586 459V241Z" />
<glyph unicode="&#xd1;" horiz-adv-x="650" d="M169 0Q146 0 122 0T74 0Q71 0 69 1T65 5T63 11Q63 83 63 154T63 296T63 439T63 582Q63 612 63 641T63 700Q81 700 104 700T150 700T190 700Q195 700 198 699T204 693T214 676Q233 641 254 600T300 514T349 420T399
322T450 225T498 129L459 159H523L504 143Q498 189 494 232T488 317T484 398T482 476T481 554Q481 587 481 624T481 700Q505 700 528 700T576 700Q581 700 584 697T587 689Q587 620 587 550T587 409T587 270T587 130Q587 97 587 65T587 0Q571 0 551 0T512 0T478
0Q472 0 466 4T449 25Q409 96 371 166T296 306T224 446T153 586L194 550H132L149 573Q155 523 158 477T163 388T167 306T169 230T169 162Q169 125 169 83T169 0ZM449 872Q473 872 491 882T528 915H544Q544 895 544 876T544 840Q544 834 543 830T537 821Q521 804
500 794T446 784Q416 784 391 793T343 813T298 834T251 843Q227 843 209 833T172 800H156Q156 820 156 839T156 875Q156 881 157 885T163 895Q179 911 200 921T254 932Q284 932 309 923T357 902T402 882T449 872Z" />
<glyph unicode="&#xd2;" horiz-adv-x="650" d="M325 720Q399 720 458 690T551 598T586 444V246Q586 158 551 99T457 10T325 -20Q253 -20 194 10T99 99T64 246V444Q64 537 99 598T194 689T325 720ZM170 251Q170 194 185 163T219 113Q236 98 262 88T327 78Q372 78
406 97T460 156T480 253V454Q480 488 475 513T460 556T435 587Q418 604 391 614T327 624Q272 624 238 603T187 543T170 454V251ZM268 946Q287 915 304 888T338 833T373 776Q360 776 349 776T323 776T288 776Q282 776 278 778T272 782Q248 810 232 828T202 862T176
893T143 931Q139 936 141 941T150 946Q174 946 189 946T222 946T268 946Z" />
<glyph unicode="&#xd3;" horiz-adv-x="650" d="M325 720Q399 720 458 690T551 598T586 444V246Q586 158 551 99T457 10T325 -20Q253 -20 194 10T99 99T64 246V444Q64 537 99 598T194 689T325 720ZM170 251Q170 194 185 163T219 113Q236 98 262 88T327 78Q372 78
406 97T460 156T480 253V454Q480 488 475 513T460 556T435 587Q418 604 391 614T327 624Q272 624 238 603T187 543T170 454V251ZM385 945Q413 945 429 945T461 945T500 945Q506 945 508 940T506 930Q487 909 474 893T447 861T418 828T377 781Q375 779 371 777T361
775Q340 775 327 775T303 775T278 775Q297 805 314 832T348 886T385 945Z" />
<glyph unicode="&#xd4;" horiz-adv-x="650" d="M325 720Q399 720 458 690T551 598T586 444V246Q586 158 551 99T457 10T325 -20Q253 -20 194 10T99 99T64 246V444Q64 537 99 598T194 689T325 720ZM170 251Q170 194 185 163T219 113Q236 98 262 88T327 78Q372 78
406 97T460 156T480 253V454Q480 488 475 513T460 556T435 587Q418 604 391 614T327 624Q272 624 238 603T187 543T170 454V251ZM268 945Q279 945 299 945T338 945T369 945Q377 945 382 942T402 925Q410 918 428 901T468 863T514 818T559 775Q538 775 512 775T465
775Q454 775 449 777T436 785Q420 798 387 825T305 895L358 875Q342 875 326 875T293 875L345 896Q299 856 264 827T202 775H113Q109 775 107 775T103 778T102 782Q102 786 106 790T124 808Q137 821 156 839T196 876T235 914T268 945Z" />
<glyph unicode="&#xd5;" horiz-adv-x="650" d="M325 720Q399 720 458 690T551 598T586 444V246Q586 158 551 99T457 10T325 -20Q253 -20 194 10T99 99T64 246V444Q64 537 99 598T194 689T325 720ZM170 251Q170 194 185 163T219 113Q236 98 262 88T327 78Q372 78
406 97T460 156T480 253V454Q480 488 475 513T460 556T435 587Q418 604 391 614T327 624Q272 624 238 603T187 543T170 454V251ZM424 872Q448 872 466 882T503 915H519Q519 895 519 876T519 840Q519 834 518 830T512 821Q496 804 475 794T421 784Q391 784 366 793T318
813T273 834T226 843Q202 843 184 833T147 800H131Q131 820 131 839T131 875Q131 881 132 885T138 895Q154 911 175 921T229 932Q259 932 284 923T332 902T377 882T424 872Z" />
<glyph unicode="&#xd6;" horiz-adv-x="650" d="M325 720Q399 720 458 690T551 598T586 444V246Q586 158 551 99T457 10T325 -20Q253 -20 194 10T99 99T64 246V444Q64 537 99 598T194 689T325 720ZM170 251Q170 194 185 163T219 113Q236 98 262 88T327 78Q372 78
406 97T460 156T480 253V454Q480 488 475 513T460 556T435 587Q418 604 391 614T327 624Q272 624 238 603T187 543T170 454V251ZM158 914Q186 914 214 914T270 914Q274 914 276 913T279 909T281 903V796Q253 796 225 796T169 796Q166 796 164 797T160 801T158 807V914ZM369
914Q397 914 425 914T481 914Q485 914 487 913T490 909T492 903V796Q464 796 436 796T380 796Q377 796 375 797T371 801T369 807V914Z" />
<glyph unicode="&#xd7;" horiz-adv-x="600" d="M168 501Q171 501 174 498Q253 419 339 333T503 169Q488 154 470 136T436 102Q435 101 434 100T430 99Q429 99 428 100T424 102Q373 154 316 210T203 323T95 431Q109 445 127 463T162 498Q164 500 165 500T168 501ZM95
169Q172 246 258 332T424 498Q426 500 427 500T430 501Q432 501 433 501T436 498Q440 494 449 485T470 464T490 444T503 431Q452 380 396 323T283 210T174 102Q173 101 172 100T168 99Q167 99 166 100T162 102Q158 106 149 115T128 136T108 156T95 169Z" />
<glyph unicode="&#xd8;" horiz-adv-x="650" d="M574 776Q550 728 527 681T481 589L495 551H423L440 563Q437 531 428 494T402 420Q378 367 354 313T304 205T255 97Q248 82 240 69T224 40Q215 19 207 2T191 -31T175 -64Q171 -73 168 -74T158 -76Q153 -76 141 -76T114
-76T89 -76T73 -76Q84 -52 97 -25T122 28T143 72L176 151H223L209 133Q212 157 217 181T230 232T250 283Q276 341 304 400T357 515T404 616Q411 631 416 644T427 671Q439 697 449 718T467 757Q473 770 477 773T491 776Q506 776 519 776T545 776T574 776ZM325 720Q399
720 458 690T551 598T586 444V246Q586 158 551 99T457 10T325 -20Q253 -20 194 10T99 99T64 246V444Q64 537 99 598T194 689T325 720ZM170 251Q170 194 185 163T219 113Q236 98 262 88T327 78Q372 78 406 97T460 156T480 253V454Q480 488 475 513T460 556T435 587Q418
604 391 614T327 624Q272 624 238 603T187 543T170 454V251Z" />
<glyph unicode="&#xd9;" horiz-adv-x="650" d="M571 0Q555 0 538 0T505 0T470 0Q468 0 466 0T463 2T461 4T460 7T459 11Q459 97 459 183T459 355T459 528T459 700Q477 700 493 700T527 700T560 700Q563 700 565 699T569 695T571 689Q571 617 571 544T571 397T571
251T571 106Q571 78 571 51T571 0ZM248 -14Q204 -14 172 -2T119 34T88 92T77 171Q77 236 77 306T77 451T77 600Q77 625 77 650T77 700Q102 700 127 700T177 700Q181 700 183 699T186 695T188 689Q188 604 188 517T188 343T188 177Q188 131 210 108T277 85Q315 85
349 99T417 147T481 235V95H439Q418 61 390 37T327 -1T248 -14ZM267 946Q286 915 303 888T337 833T372 776Q359 776 348 776T322 776T287 776Q281 776 277 778T271 782Q247 810 231 828T201 862T175 893T142 931Q138 936 140 941T149 946Q173 946 188 946T221 946T267
946Z" />
<glyph unicode="&#xda;" horiz-adv-x="650" d="M571 0Q555 0 538 0T505 0T470 0Q468 0 466 0T463 2T461 4T460 7T459 11Q459 97 459 183T459 355T459 528T459 700Q477 700 493 700T527 700T560 700Q563 700 565 699T569 695T571 689Q571 617 571 544T571 397T571
251T571 106Q571 78 571 51T571 0ZM248 -14Q204 -14 172 -2T119 34T88 92T77 171Q77 236 77 306T77 451T77 600Q77 625 77 650T77 700Q102 700 127 700T177 700Q181 700 183 699T186 695T188 689Q188 604 188 517T188 343T188 177Q188 131 210 108T277 85Q315 85
349 99T417 147T481 235V95H439Q418 61 390 37T327 -1T248 -14ZM384 945Q412 945 428 945T460 945T499 945Q505 945 507 940T505 930Q486 909 473 893T446 861T417 828T376 781Q374 779 370 777T360 775Q339 775 326 775T302 775T277 775Q296 805 313 832T347 886T384
945Z" />
<glyph unicode="&#xdb;" horiz-adv-x="650" d="M571 0Q555 0 538 0T505 0T470 0Q468 0 466 0T463 2T461 4T460 7T459 11Q459 97 459 183T459 355T459 528T459 700Q477 700 493 700T527 700T560 700Q563 700 565 699T569 695T571 689Q571 617 571 544T571 397T571
251T571 106Q571 78 571 51T571 0ZM248 -14Q204 -14 172 -2T119 34T88 92T77 171Q77 236 77 306T77 451T77 600Q77 625 77 650T77 700Q102 700 127 700T177 700Q181 700 183 699T186 695T188 689Q188 604 188 517T188 343T188 177Q188 131 210 108T277 85Q315 85
349 99T417 147T481 235V95H439Q418 61 390 37T327 -1T248 -14ZM267 945Q278 945 298 945T337 945T368 945Q376 945 381 942T401 925Q409 918 427 901T467 863T513 818T558 775Q537 775 511 775T464 775Q453 775 448 777T435 785Q419 798 386 825T304 895L357 875Q341
875 325 875T292 875L344 896Q298 856 263 827T201 775H112Q108 775 106 775T102 778T101 782Q101 786 105 790T123 808Q136 821 155 839T195 876T234 914T267 945Z" />
<glyph unicode="&#xdc;" horiz-adv-x="650" d="M571 0Q555 0 538 0T505 0T470 0Q468 0 466 0T463 2T461 4T460 7T459 11Q459 97 459 183T459 355T459 528T459 700Q477 700 493 700T527 700T560 700Q563 700 565 699T569 695T571 689Q571 617 571 544T571 397T571
251T571 106Q571 78 571 51T571 0ZM248 -14Q204 -14 172 -2T119 34T88 92T77 171Q77 236 77 306T77 451T77 600Q77 625 77 650T77 700Q102 700 127 700T177 700Q181 700 183 699T186 695T188 689Q188 604 188 517T188 343T188 177Q188 131 210 108T277 85Q315 85
349 99T417 147T481 235V95H439Q418 61 390 37T327 -1T248 -14ZM157 914Q185 914 213 914T269 914Q273 914 275 913T278 909T280 903V796Q252 796 224 796T168 796Q165 796 163 797T159 801T157 807V914ZM368 914Q396 914 424 914T480 914Q484 914 486 913T489
909T491 903V796Q463 796 435 796T379 796Q376 796 374 797T370 801T368 807V914Z" />
<glyph unicode="&#xdd;" horiz-adv-x="650" d="M382 0Q365 0 348 0T315 0T281 0Q278 0 276 1T272 5T270 11Q270 84 270 160T270 309H382Q382 276 382 240T382 169T382 100Q382 75 382 50T382 0ZM29 700Q57 700 83 700T133 700Q140 700 144 699T151 693T157 682Q182
636 205 592T249 503T291 411T331 314L299 348H363L326 312Q347 367 366 414T407 506T452 598T505 700Q532 700 557 700T605 700Q612 700 615 695T613 680Q591 638 568 594T520 505T470 414T420 324T372 237Q339 237 321 237T293 238T281 241T275 246Q263 266 243
304T196 391T140 494T83 601T29 700ZM384 945Q412 945 428 945T460 945T499 945Q505 945 507 940T505 930Q486 909 473 893T446 861T417 828T376 781Q374 779 370 777T360 775Q339 775 326 775T302 775T277 775Q296 805 313 832T347 886T384 945Z" />
<glyph unicode="&#xde;" horiz-adv-x="600" d="M75 700Q101 700 126 700T176 700Q181 700 184 697T187 689Q187 603 187 517T187 345T187 172T187 0Q162 0 137 0T86 0Q83 0 81 1T77 5T75 11Q75 84 75 157T75 303T75 450T75 597Q75 623 75 648T75 700ZM138 583Q180
583 223 583T308 583Q363 583 406 572T479 536T525 473T541 382V323Q541 277 527 240T484 178T417 138T327 124Q283 124 239 124T149 124L138 118V225Q183 225 229 225T321 225Q356 225 380 236T416 270T428 325V384Q428 409 423 426T405 456Q391 470 368 476T310
483Q284 483 258 483T204 483Q191 483 177 483T149 483Q144 483 141 486T138 494Q138 516 138 538T138 583Z" />
<glyph unicode="&#xdf;" horiz-adv-x="600" d="M312 766Q359 766 397 757T462 731T504 686T519 620V603Q519 580 514 559T496 520T460 481L427 453Q401 431 392 418T382 392Q382 378 391 367T426 340L460 317Q496 292 515 270T543 221T551 161V148Q551 100 531
65T473 10T385 -9Q335 -9 307 2T269 23Q268 25 268 26T267 30Q267 54 267 78T267 125H283Q305 108 325 101T381 93Q399 93 412 98T435 113Q444 122 448 134T453 162Q453 179 448 193T429 222T383 257L346 283Q310 307 296 332T282 386V399Q282 417 288 434T308
469T340 504L385 542Q401 556 409 566T421 586T425 608Q425 634 402 649T320 665Q285 665 261 658T221 637Q212 628 206 616T197 586T194 549Q194 493 194 437T194 325T194 213T194 101Q194 84 194 68T194 34T194 0Q170 0 146 0T98 0Q95 0 93 1T89 5T87 11Q87 81
87 151T87 292T87 432T87 573Q87 630 114 673T191 741T312 766Z" />
<glyph unicode="&#xe0;" horiz-adv-x="600" d="M501 348Q501 321 501 295T501 241T501 186T501 134Q501 122 503 114T510 101Q515 97 521 95T537 93Q539 93 541 93T547 93H563Q563 72 563 52T563 11Q563 6 560 3T552 0Q547 0 534 0T510 0Q484 0 464 7T428 30T404
66T395 116Q395 150 395 185T395 255Q395 271 395 287T395 319T395 351Q395 387 384 407T348 436T279 445Q250 445 224 442T172 433T120 418H103Q103 439 103 460T103 501Q103 505 104 507T106 510Q112 516 138 524T201 538T279 544Q337 544 379 533T448 499T488
438T501 348ZM171 145Q171 116 188 101T239 85Q271 85 299 93T356 120T414 172V85H384Q369 55 345 34T288 1T217 -10Q170 -10 136 7T84 57T65 133V166Q65 199 76 225T107 269T157 298T222 308Q257 308 290 308T354 308T417 308Q425 308 429 296T435 268T436 237Q400
237 369 237T307 237T239 237Q221 237 209 233T187 220Q180 212 176 202T171 177V145ZM240 814Q259 783 278 751T316 688T353 626Q333 626 313 626T270 626Q264 626 260 628T253 634Q225 668 203 693T160 744T114 798Q110 803 112 808T121 814Q143 814 161 814T198
814T240 814Z" />
<glyph unicode="&#xe1;" horiz-adv-x="600" d="M501 348Q501 321 501 295T501 241T501 186T501 134Q501 122 503 114T510 101Q515 97 521 95T537 93Q539 93 541 93T547 93H563Q563 72 563 52T563 11Q563 6 560 3T552 0Q547 0 534 0T510 0Q484 0 464 7T428 30T404
66T395 116Q395 150 395 185T395 255Q395 271 395 287T395 319T395 351Q395 387 384 407T348 436T279 445Q250 445 224 442T172 433T120 418H103Q103 439 103 460T103 501Q103 505 104 507T106 510Q112 516 138 524T201 538T279 544Q337 544 379 533T448 499T488
438T501 348ZM171 145Q171 116 188 101T239 85Q271 85 299 93T356 120T414 172V85H384Q369 55 345 34T288 1T217 -10Q170 -10 136 7T84 57T65 133V166Q65 199 76 225T107 269T157 298T222 308Q257 308 290 308T354 308T417 308Q425 308 429 296T435 268T436 237Q400
237 369 237T307 237T239 237Q221 237 209 233T187 220Q180 212 176 202T171 177V145ZM368 814Q402 814 428 814T486 814Q493 814 495 809T493 798Q469 769 448 744T405 694T354 634Q352 631 348 629T337 626Q314 626 295 626T255 626Q274 657 292 688T330 751T368
814Z" />
<glyph unicode="&#xe2;" horiz-adv-x="600" d="M501 348Q501 321 501 295T501 241T501 186T501 134Q501 122 503 114T510 101Q515 97 521 95T537 93Q539 93 541 93T547 93H563Q563 72 563 52T563 11Q563 6 560 3T552 0Q547 0 534 0T510 0Q484 0 464 7T428 30T404
66T395 116Q395 150 395 185T395 255Q395 271 395 287T395 319T395 351Q395 387 384 407T348 436T279 445Q250 445 224 442T172 433T120 418H103Q103 439 103 460T103 501Q103 505 104 507T106 510Q112 516 138 524T201 538T279 544Q337 544 379 533T448 499T488
438T501 348ZM171 145Q171 116 188 101T239 85Q271 85 299 93T356 120T414 172V85H384Q369 55 345 34T288 1T217 -10Q170 -10 136 7T84 57T65 133V166Q65 199 76 225T107 269T157 298T222 308Q257 308 290 308T354 308T417 308Q425 308 429 296T435 268T436 237Q400
237 369 237T307 237T239 237Q221 237 209 233T187 220Q180 212 176 202T171 177V145ZM263 815Q280 815 297 815T331 815Q339 815 344 811T362 793Q370 784 388 764T430 716T477 662T520 613Q499 613 479 613T438 613Q427 613 422 615T409 624Q397 636 365 669T284
751L331 730H275L321 753Q274 703 242 671T185 613H108Q104 613 102 614T99 617T98 622Q98 626 101 630T117 650Q129 664 149 686T191 734T233 781T263 815Z" />
<glyph unicode="&#xe3;" horiz-adv-x="600" d="M501 348Q501 321 501 295T501 241T501 186T501 134Q501 122 503 114T510 101Q515 97 521 95T537 93Q539 93 541 93T547 93H563Q563 72 563 52T563 11Q563 6 560 3T552 0Q547 0 534 0T510 0Q484 0 464 7T428 30T404
66T395 116Q395 150 395 185T395 255Q395 271 395 287T395 319T395 351Q395 387 384 407T348 436T279 445Q250 445 224 442T172 433T120 418H103Q103 439 103 460T103 501Q103 505 104 507T106 510Q112 516 138 524T201 538T279 544Q337 544 379 533T448 499T488
438T501 348ZM171 145Q171 116 188 101T239 85Q271 85 299 93T356 120T414 172V85H384Q369 55 345 34T288 1T217 -10Q170 -10 136 7T84 57T65 133V166Q65 199 76 225T107 269T157 298T222 308Q257 308 290 308T354 308T417 308Q425 308 429 296T435 268T436 237Q400
237 369 237T307 237T239 237Q221 237 209 233T187 220Q180 212 176 202T171 177V145ZM389 729Q416 729 439 742T481 781H497Q497 768 497 755T497 729T497 705Q497 698 496 694T489 682Q474 663 447 651T386 639Q355 639 334 647T296 666T260 686T217 694Q190
694 167 681T125 642H109Q109 655 109 668T109 694T109 717Q109 724 110 728T117 740Q133 760 159 771T220 783Q251 783 272 775T310 756T346 737T389 729Z" />
<glyph unicode="&#xe4;" horiz-adv-x="600" d="M501 348Q501 321 501 295T501 241T501 186T501 134Q501 122 503 114T510 101Q515 97 521 95T537 93Q539 93 541 93T547 93H563Q563 72 563 52T563 11Q563 6 560 3T552 0Q547 0 534 0T510 0Q484 0 464 7T428 30T404
66T395 116Q395 150 395 185T395 255Q395 271 395 287T395 319T395 351Q395 387 384 407T348 436T279 445Q250 445 224 442T172 433T120 418H103Q103 439 103 460T103 501Q103 505 104 507T106 510Q112 516 138 524T201 538T279 544Q337 544 379 533T448 499T488
438T501 348ZM171 145Q171 116 188 101T239 85Q271 85 299 93T356 120T414 172V85H384Q369 55 345 34T288 1T217 -10Q170 -10 136 7T84 57T65 133V166Q65 199 76 225T107 269T157 298T222 308Q257 308 290 308T354 308T417 308Q425 308 429 296T435 268T436 237Q400
237 369 237T307 237T239 237Q221 237 209 233T187 220Q180 212 176 202T171 177V145ZM136 758Q164 758 192 758T248 758Q252 758 254 757T257 753T259 747V635Q231 635 203 635T147 635Q144 635 142 636T138 640T136 646V758ZM347 758Q375 758 403 758T459 758Q463
758 465 757T468 753T470 747V635Q442 635 414 635T358 635Q355 635 353 636T349 640T347 646V758Z" />
<glyph unicode="&#xe5;" horiz-adv-x="600" d="M501 348Q501 321 501 295T501 241T501 186T501 134Q501 122 503 114T510 101Q515 97 521 95T537 93Q539 93 541 93T547 93H563Q563 72 563 52T563 11Q563 6 560 3T552 0Q547 0 534 0T510 0Q484 0 464 7T428 30T404
66T395 116Q395 150 395 185T395 255Q395 271 395 287T395 319T395 351Q395 387 384 407T348 436T279 445Q250 445 224 442T172 433T120 418H103Q103 439 103 460T103 501Q103 505 104 507T106 510Q112 516 138 524T201 538T279 544Q337 544 379 533T448 499T488
438T501 348ZM171 145Q171 116 188 101T239 85Q271 85 299 93T356 120T414 172V85H384Q369 55 345 34T288 1T217 -10Q170 -10 136 7T84 57T65 133V166Q65 199 76 225T107 269T157 298T222 308Q257 308 290 308T354 308T417 308Q425 308 429 296T435 268T436 237Q400
237 369 237T307 237T239 237Q221 237 209 233T187 220Q180 212 176 202T171 177V145ZM303 853Q343 853 371 840T416 801T432 742V714Q432 664 397 633T303 602Q244 602 209 633T174 714V742Q174 776 190 801T235 839T303 853ZM303 788Q277 788 262 775T247 737V718Q247
707 251 698T262 682Q269 675 279 672T303 668Q329 668 344 681T359 718V737Q359 749 356 758T346 773Q339 781 328 784T303 788Z" />
<glyph unicode="&#xe6;" horiz-adv-x="850" d="M244 545Q293 545 331 532T397 492T439 428L410 464H448L418 428Q438 484 481 514T587 545Q644 545 685 523T748 455T771 340Q771 317 771 294T771 246Q771 243 770 241T767 237T761 236Q725 236 690 236T618 236T547
236T475 236L440 233V307Q470 307 498 307T553 307T607 307T665 307Q665 311 665 315T665 324T665 333Q665 365 660 386T641 421Q630 434 613 439T572 445Q542 445 521 432T489 395T478 339V203Q478 175 487 154T516 117Q535 102 562 94T623 86Q651 86 672 89T713
99T752 116H769Q769 95 769 74T769 31Q769 29 768 27T764 22Q749 10 714 0T621 -11Q569 -11 528 3T458 45T413 111L442 77H404L436 111Q419 74 389 47T319 5T231 -10Q175 -10 139 9T84 60T65 132V170Q65 202 75 228T107 275T157 305T225 316Q268 316 301 310T359
296T395 279H415V224Q384 229 355 232T298 238T244 240Q221 240 208 235T187 222Q179 214 175 203T171 177V153Q171 118 190 103T245 87H251Q288 87 315 100T357 136T372 190V342Q372 377 359 399T316 432T239 443Q203 443 171 437T104 419H88Q88 441 88 462T88
506Q88 508 89 510T91 514Q97 520 118 527T172 540T244 545Z" />
<glyph unicode="&#xe7;" horiz-adv-x="500" d="M307 545Q345 545 373 540T419 527T443 513Q446 510 446 508T447 502Q447 481 447 459T447 415H430Q406 428 376 436T306 445Q265 445 235 430T189 382T173 302V226Q173 191 182 165T209 122Q226 105 250 97T306
89Q334 89 355 92T395 102T430 116H447Q447 94 447 72T447 28Q447 26 447 24T444 20Q438 14 421 7T375 -6T307 -11Q249 -11 204 4T128 49T80 122T64 221V305Q64 380 95 433T181 516T307 545ZM315 40Q312 32 310 23T306 5T303 -12T299 -26L297 -36Q340 -38 365 -61T391
-127Q391 -179 357 -208T254 -238Q221 -238 202 -234T174 -223T165 -208Q165 -195 165 -184T165 -162T165 -142H177Q190 -149 204 -153T242 -158Q266 -158 282 -148T298 -115Q298 -95 284 -85T238 -75Q233 -75 230 -71T228 -61Q233 -49 236 -38T243 -16T250 5T258
26Q260 32 264 35T279 39T315 40Z" />
<glyph unicode="&#xe8;" horiz-adv-x="600" d="M302 545Q365 545 414 520T493 445T522 321V244Q522 241 521 239T517 235T511 234H261Q245 234 228 234T194 234H160L151 305H418Q418 310 418 314T418 323Q418 359 411 385T386 426Q372 441 351 447T302 454Q243
454 212 423T180 321V211Q180 181 188 158T211 119Q230 100 260 91T331 82Q368 82 395 86T447 97T495 116H512Q512 97 512 77T512 37Q512 35 511 33T508 29Q499 20 472 11T408 -5T327 -11Q268 -11 221 3T141 46T91 115T74 211V319Q74 374 91 416T139 487T212 530T302
545ZM240 819Q259 788 278 756T316 693T353 631Q333 631 313 631T270 631Q264 631 260 633T253 639Q225 673 203 698T160 749T114 803Q110 808 112 813T121 819Q143 819 161 819T198 819T240 819Z" />
<glyph unicode="&#xe9;" horiz-adv-x="600" d="M302 545Q365 545 414 520T493 445T522 321V244Q522 241 521 239T517 235T511 234H261Q245 234 228 234T194 234H160L151 305H418Q418 310 418 314T418 323Q418 359 411 385T386 426Q372 441 351 447T302 454Q243
454 212 423T180 321V211Q180 181 188 158T211 119Q230 100 260 91T331 82Q368 82 395 86T447 97T495 116H512Q512 97 512 77T512 37Q512 35 511 33T508 29Q499 20 472 11T408 -5T327 -11Q268 -11 221 3T141 46T91 115T74 211V319Q74 374 91 416T139 487T212 530T302
545ZM368 819Q402 819 428 819T486 819Q493 819 495 814T493 803Q469 774 448 749T405 699T354 639Q352 636 348 634T337 631Q314 631 295 631T255 631Q274 662 292 693T330 756T368 819Z" />
<glyph unicode="&#xea;" horiz-adv-x="600" d="M302 545Q365 545 414 520T493 445T522 321V244Q522 241 521 239T517 235T511 234H261Q245 234 228 234T194 234H160L151 305H418Q418 310 418 314T418 323Q418 359 411 385T386 426Q372 441 351 447T302 454Q243
454 212 423T180 321V211Q180 181 188 158T211 119Q230 100 260 91T331 82Q368 82 395 86T447 97T495 116H512Q512 97 512 77T512 37Q512 35 511 33T508 29Q499 20 472 11T408 -5T327 -11Q268 -11 221 3T141 46T91 115T74 211V319Q74 374 91 416T139 487T212 530T302
545ZM263 820Q280 820 297 820T331 820Q339 820 344 816T362 798Q370 789 388 769T430 721T477 667T520 618Q499 618 479 618T438 618Q427 618 422 620T409 629Q397 641 365 674T284 756L331 735H275L321 758Q274 708 242 676T185 618H108Q104 618 102 619T99 622T98
627Q98 631 101 635T117 655Q129 669 149 691T191 739T233 786T263 820Z" />
<glyph unicode="&#xeb;" horiz-adv-x="600" d="M302 545Q365 545 414 520T493 445T522 321V244Q522 241 521 239T517 235T511 234H261Q245 234 228 234T194 234H160L151 305H418Q418 310 418 314T418 323Q418 359 411 385T386 426Q372 441 351 447T302 454Q243
454 212 423T180 321V211Q180 181 188 158T211 119Q230 100 260 91T331 82Q368 82 395 86T447 97T495 116H512Q512 97 512 77T512 37Q512 35 511 33T508 29Q499 20 472 11T408 -5T327 -11Q268 -11 221 3T141 46T91 115T74 211V319Q74 374 91 416T139 487T212 530T302
545ZM136 763Q164 763 192 763T248 763Q252 763 254 762T257 758T259 752V640Q231 640 203 640T147 640Q144 640 142 641T138 645T136 651V763ZM347 763Q375 763 403 763T459 763Q463 763 465 762T468 758T470 752V640Q442 640 414 640T358 640Q355 640 353 641T349
645T347 651V763Z" />
<glyph unicode="&#xec;" horiz-adv-x="350" d="M139 11Q139 45 139 87T139 177T139 271T139 361T139 438H128Q120 438 111 438T93 438T74 438T56 438Q51 438 48 441T45 449Q45 470 45 491T45 534Q62 534 81 534T122 534T163 534T202 534T234 534Q238 534 240 533T243
529T245 523Q245 473 245 419T245 308T245 198T245 94Q245 79 245 63T245 32T245 0Q220 0 198 0T150 0Q146 0 143 3T139 11ZM127 819Q146 788 165 756T203 693T240 631Q220 631 200 631T157 631Q151 631 147 633T140 639Q112 673 90 698T47 749T1 803Q-3 808 -1
813T8 819Q30 819 48 819T85 819T127 819Z" />
<glyph unicode="&#xed;" horiz-adv-x="350" d="M139 11Q139 45 139 87T139 177T139 271T139 361T139 438H128Q120 438 111 438T93 438T74 438T56 438Q51 438 48 441T45 449Q45 470 45 491T45 534Q62 534 81 534T122 534T163 534T202 534T234 534Q238 534 240 533T243
529T245 523Q245 473 245 419T245 308T245 198T245 94Q245 79 245 63T245 32T245 0Q220 0 198 0T150 0Q146 0 143 3T139 11ZM255 819Q289 819 315 819T373 819Q380 819 382 814T380 803Q356 774 335 749T292 699T241 639Q239 636 235 634T224 631Q201 631 182 631T142
631Q161 662 179 693T217 756T255 819Z" />
<glyph unicode="&#xee;" horiz-adv-x="350" d="M139 11Q139 45 139 87T139 177T139 271T139 361T139 438H128Q120 438 111 438T93 438T74 438T56 438Q51 438 48 441T45 449Q45 470 45 491T45 534Q62 534 81 534T122 534T163 534T202 534T234 534Q238 534 240 533T243
529T245 523Q245 473 245 419T245 308T245 198T245 94Q245 79 245 63T245 32T245 0Q220 0 198 0T150 0Q146 0 143 3T139 11ZM150 820Q167 820 184 820T218 820Q226 820 231 816T249 798Q257 789 275 769T317 721T364 667T407 618Q386 618 366 618T325 618Q314 618
309 620T296 629Q284 641 252 674T171 756L218 735H162L208 758Q161 708 129 676T72 618H-5Q-9 618 -11 619T-14 622T-15 627Q-15 631 -12 635T4 655Q16 669 36 691T78 739T120 786T150 820Z" />
<glyph unicode="&#xef;" horiz-adv-x="350" d="M139 11Q139 45 139 87T139 177T139 271T139 361T139 438H128Q120 438 111 438T93 438T74 438T56 438Q51 438 48 441T45 449Q45 470 45 491T45 534Q62 534 81 534T122 534T163 534T202 534T234 534Q238 534 240 533T243
529T245 523Q245 473 245 419T245 308T245 198T245 94Q245 79 245 63T245 32T245 0Q220 0 198 0T150 0Q146 0 143 3T139 11ZM23 763Q51 763 79 763T135 763Q139 763 141 762T144 758T146 752V640Q118 640 90 640T34 640Q31 640 29 641T25 645T23 651V763ZM234 763Q262
763 290 763T346 763Q350 763 352 762T355 758T357 752V640Q329 640 301 640T245 640Q242 640 240 641T236 645T234 651V763Z" />
<glyph unicode="&#xf0;" horiz-adv-x="600" d="M538 736Q538 720 538 705T538 673Q538 668 537 665T534 659T525 655L393 619Q384 617 373 617T350 617T330 613L117 555Q117 572 117 586T117 617Q117 626 120 629T131 635L280 675Q292 678 303 678T325 679T344
681L538 736ZM253 501Q305 501 337 487T395 446H437V334Q406 370 369 390T284 410Q249 410 224 395T187 353T174 290V214Q174 194 178 176T190 144T209 118Q224 104 245 97T293 89Q338 89 367 106T411 153T426 222V318Q426 366 418 406T393 483T348 558T279 640T182
738V754Q210 754 238 754T293 754Q299 754 303 753T313 746Q364 696 401 652T463 568T504 489T525 407T532 318V224Q532 155 502 102T419 19T299 -11Q230 -11 178 16T97 92T68 205V298Q68 359 92 405T159 476T253 501Z" />
<glyph unicode="&#xf1;" horiz-adv-x="600" d="M520 0Q495 0 473 0T425 0Q422 0 420 1T416 5T414 11Q414 71 414 131T414 252T414 372Q414 408 397 425T347 443Q328 443 307 437T264 419T221 388T178 343V446H210Q232 476 258 498T314 532T380 545Q413 545 439
535T483 504T510 455T520 394Q520 346 520 297T520 200T520 102Q520 76 520 51T520 0ZM194 0Q177 0 162 0T131 0T99 0Q96 0 94 0T91 2T89 6T88 11Q88 64 88 117T88 223T88 329T88 435Q88 466 88 491T88 534Q106 534 122 534T153 534T183 534Q187 534 189 533T192
529T194 523Q194 436 194 349T194 175T194 0ZM386 734Q413 734 436 747T478 786H494Q494 773 494 760T494 734T494 710Q494 703 493 699T486 687Q471 668 444 656T383 644Q352 644 331 652T293 671T257 691T214 699Q187 699 164 686T122 647H106Q106 660 106 673T106
699T106 722Q106 729 107 733T114 745Q130 765 156 776T217 788Q248 788 269 780T307 761T343 742T386 734Z" />
<glyph unicode="&#xf2;" horiz-adv-x="600" d="M300 545Q352 545 395 529T469 483T516 413T533 323V215Q533 148 503 97T420 18T300 -11Q248 -11 205 5T131 51T84 121T67 211V319Q67 386 97 437T180 516T300 545ZM304 448Q262 448 233 431T189 384T173 315V218Q173
187 182 162T209 119Q224 104 246 95T296 86Q338 86 367 103T412 151T427 219V316Q427 349 419 374T393 416Q377 432 355 440T304 448ZM236 819Q255 788 274 756T312 693T349 631Q329 631 309 631T266 631Q260 631 256 633T249 639Q221 673 199 698T156 749T110
803Q106 808 108 813T117 819Q139 819 157 819T194 819T236 819Z" />
<glyph unicode="&#xf3;" horiz-adv-x="600" d="M300 545Q352 545 395 529T469 483T516 413T533 323V215Q533 148 503 97T420 18T300 -11Q248 -11 205 5T131 51T84 121T67 211V319Q67 386 97 437T180 516T300 545ZM304 448Q262 448 233 431T189 384T173 315V218Q173
187 182 162T209 119Q224 104 246 95T296 86Q338 86 367 103T412 151T427 219V316Q427 349 419 374T393 416Q377 432 355 440T304 448ZM364 819Q398 819 424 819T482 819Q489 819 491 814T489 803Q465 774 444 749T401 699T350 639Q348 636 344 634T333 631Q310
631 291 631T251 631Q270 662 288 693T326 756T364 819Z" />
<glyph unicode="&#xf4;" horiz-adv-x="600" d="M300 545Q352 545 395 529T469 483T516 413T533 323V215Q533 148 503 97T420 18T300 -11Q248 -11 205 5T131 51T84 121T67 211V319Q67 386 97 437T180 516T300 545ZM304 448Q262 448 233 431T189 384T173 315V218Q173
187 182 162T209 119Q224 104 246 95T296 86Q338 86 367 103T412 151T427 219V316Q427 349 419 374T393 416Q377 432 355 440T304 448ZM259 820Q276 820 293 820T327 820Q335 820 340 816T358 798Q366 789 384 769T426 721T473 667T516 618Q495 618 475 618T434
618Q423 618 418 620T405 629Q393 641 361 674T280 756L327 735H271L317 758Q270 708 238 676T181 618H104Q100 618 98 619T95 622T94 627Q94 631 97 635T113 655Q125 669 145 691T187 739T229 786T259 820Z" />
<glyph unicode="&#xf5;" horiz-adv-x="600" d="M300 545Q352 545 395 529T469 483T516 413T533 323V215Q533 148 503 97T420 18T300 -11Q248 -11 205 5T131 51T84 121T67 211V319Q67 386 97 437T180 516T300 545ZM304 448Q262 448 233 431T189 384T173 315V218Q173
187 182 162T209 119Q224 104 246 95T296 86Q338 86 367 103T412 151T427 219V316Q427 349 419 374T393 416Q377 432 355 440T304 448ZM385 734Q412 734 435 747T477 786H493Q493 773 493 760T493 734T493 710Q493 703 492 699T485 687Q470 668 443 656T382 644Q351
644 330 652T292 671T256 691T213 699Q186 699 163 686T121 647H105Q105 660 105 673T105 699T105 722Q105 729 106 733T113 745Q129 765 155 776T216 788Q247 788 268 780T306 761T342 742T385 734Z" />
<glyph unicode="&#xf6;" horiz-adv-x="600" d="M300 545Q352 545 395 529T469 483T516 413T533 323V215Q533 148 503 97T420 18T300 -11Q248 -11 205 5T131 51T84 121T67 211V319Q67 386 97 437T180 516T300 545ZM304 448Q262 448 233 431T189 384T173 315V218Q173
187 182 162T209 119Q224 104 246 95T296 86Q338 86 367 103T412 151T427 219V316Q427 349 419 374T393 416Q377 432 355 440T304 448ZM132 763Q160 763 188 763T244 763Q248 763 250 762T253 758T255 752V640Q227 640 199 640T143 640Q140 640 138 641T134 645T132
651V763ZM343 763Q371 763 399 763T455 763Q459 763 461 762T464 758T466 752V640Q438 640 410 640T354 640Q351 640 349 641T345 645T343 651V763Z" />
<glyph unicode="&#xf7;" horiz-adv-x="600" d="M67 350H522Q527 350 530 347T533 339Q533 316 533 295T533 250H78Q75 250 73 251T69 255T67 261Q67 285 67 306T67 350ZM225 559Q250 559 272 559T317 559T364 559Q368 559 370 558T373 554T375 548V427Q351 427
329 427T284 427T236 427Q233 427 231 428T227 432T225 438V559ZM225 173Q250 173 272 173T317 173T364 173Q368 173 370 172T373 168T375 162V41Q351 41 329 41T284 41T236 41Q233 41 231 42T227 46T225 52V173Z" />
<glyph unicode="&#xf8;" horiz-adv-x="600" d="M511 596Q500 575 489 555T467 515T446 476L454 390H379L390 404Q388 381 380 354T357 299Q326 240 294 180T230 62Q230 57 230 52T231 40Q222 24 213 8T196 -24T181 -53Q178 -59 175 -60T167 -62Q162 -62 151 -62T127
-62T103 -62T88 -62Q97 -45 108 -24T129 17T148 52L169 147H216L208 134Q211 152 216 170T229 209T248 249Q280 308 311 365T373 478Q372 482 371 487T368 497Q379 518 389 539T409 579Q414 590 418 593T430 596Q437 596 448 596T471 596T494 596T511 596ZM300
545Q352 545 395 529T469 483T516 413T533 323V215Q533 148 503 97T420 18T300 -11Q248 -11 205 5T131 51T84 121T67 211V319Q67 386 97 437T180 516T300 545ZM304 448Q262 448 233 431T189 384T173 315V218Q173 187 182 162T209 119Q224 104 246 95T296 86Q338
86 367 103T412 151T427 219V316Q427 349 419 374T393 416Q377 432 355 440T304 448Z" />
<glyph unicode="&#xf9;" horiz-adv-x="600" d="M182 534Q186 534 188 533T191 529T193 523Q193 478 193 432T193 339T193 249T193 162Q193 129 210 112T256 95Q279 95 300 100T342 118T383 147T423 191V88H392Q371 58 347 36T294 1T227 -11Q195 -11 169 -1T125
30T97 77T87 137Q87 182 87 226T87 316T87 406Q87 438 87 470T87 534Q111 534 135 534T182 534ZM503 534Q507 534 509 533T512 529T514 523Q514 452 514 382T514 240T514 99Q514 78 514 60T514 27T514 0Q498 0 482 0T450 0T419 0Q416 0 414 1T410 5T408 11Q408
98 408 185T408 360T408 534Q425 534 440 534T472 534T503 534ZM237 819Q256 788 275 756T313 693T350 631Q330 631 310 631T267 631Q261 631 257 633T250 639Q222 673 200 698T157 749T111 803Q107 808 109 813T118 819Q140 819 158 819T195 819T237 819Z" />
<glyph unicode="&#xfa;" horiz-adv-x="600" d="M182 534Q186 534 188 533T191 529T193 523Q193 478 193 432T193 339T193 249T193 162Q193 129 210 112T256 95Q279 95 300 100T342 118T383 147T423 191V88H392Q371 58 347 36T294 1T227 -11Q195 -11 169 -1T125
30T97 77T87 137Q87 182 87 226T87 316T87 406Q87 438 87 470T87 534Q111 534 135 534T182 534ZM503 534Q507 534 509 533T512 529T514 523Q514 452 514 382T514 240T514 99Q514 78 514 60T514 27T514 0Q498 0 482 0T450 0T419 0Q416 0 414 1T410 5T408 11Q408
98 408 185T408 360T408 534Q425 534 440 534T472 534T503 534ZM365 819Q399 819 425 819T483 819Q490 819 492 814T490 803Q466 774 445 749T402 699T351 639Q349 636 345 634T334 631Q311 631 292 631T252 631Q271 662 289 693T327 756T365 819Z" />
<glyph unicode="&#xfb;" horiz-adv-x="600" d="M182 534Q186 534 188 533T191 529T193 523Q193 478 193 432T193 339T193 249T193 162Q193 129 210 112T256 95Q279 95 300 100T342 118T383 147T423 191V88H392Q371 58 347 36T294 1T227 -11Q195 -11 169 -1T125
30T97 77T87 137Q87 182 87 226T87 316T87 406Q87 438 87 470T87 534Q111 534 135 534T182 534ZM503 534Q507 534 509 533T512 529T514 523Q514 452 514 382T514 240T514 99Q514 78 514 60T514 27T514 0Q498 0 482 0T450 0T419 0Q416 0 414 1T410 5T408 11Q408
98 408 185T408 360T408 534Q425 534 440 534T472 534T503 534ZM260 820Q277 820 294 820T328 820Q336 820 341 816T359 798Q367 789 385 769T427 721T474 667T517 618Q496 618 476 618T435 618Q424 618 419 620T406 629Q394 641 362 674T281 756L328 735H272L318
758Q271 708 239 676T182 618H105Q101 618 99 619T96 622T95 627Q95 631 98 635T114 655Q126 669 146 691T188 739T230 786T260 820Z" />
<glyph unicode="&#xfc;" horiz-adv-x="600" d="M182 534Q186 534 188 533T191 529T193 523Q193 478 193 432T193 339T193 249T193 162Q193 129 210 112T256 95Q279 95 300 100T342 118T383 147T423 191V88H392Q371 58 347 36T294 1T227 -11Q195 -11 169 -1T125
30T97 77T87 137Q87 182 87 226T87 316T87 406Q87 438 87 470T87 534Q111 534 135 534T182 534ZM503 534Q507 534 509 533T512 529T514 523Q514 452 514 382T514 240T514 99Q514 78 514 60T514 27T514 0Q498 0 482 0T450 0T419 0Q416 0 414 1T410 5T408 11Q408
98 408 185T408 360T408 534Q425 534 440 534T472 534T503 534ZM133 763Q161 763 189 763T245 763Q249 763 251 762T254 758T256 752V640Q228 640 200 640T144 640Q141 640 139 641T135 645T133 651V763ZM344 763Q372 763 400 763T456 763Q460 763 462 762T465
758T467 752V640Q439 640 411 640T355 640Q352 640 350 641T346 645T344 651V763Z" />
<glyph unicode="&#xfd;" horiz-adv-x="600" d="M542 534Q547 534 552 530T554 518Q532 442 510 371T467 229T426 87T384 -58Q371 -108 349 -139T293 -185T211 -200Q200 -200 184 -200T154 -200T129 -200T115 -200Q110 -200 107 -198T104 -189V-106H120Q141 -106
161 -106T202 -106Q236 -106 257 -90T288 -39Q295 -14 307 31T337 137T373 266T411 403T447 534Q458 534 469 534T493 534T517 534T542 534ZM145 534Q154 534 158 532T164 521Q184 459 201 406T235 307T264 223T288 151T306 90H354L335 22H254Q245 22 239 24T228
35T216 60Q210 77 196 114T164 201T124 308T83 424T44 534Q56 534 68 534T93 534T119 534T145 534ZM376 819Q410 819 436 819T494 819Q501 819 503 814T501 803Q477 774 456 749T413 699T362 639Q360 636 356 634T345 631Q322 631 303 631T263 631Q282 662 300
693T338 756T376 819Z" />
<glyph unicode="&#xfe;" horiz-adv-x="600" d="M88 732Q104 732 120 732T151 732T183 732Q186 732 188 731T192 727T194 721Q194 637 194 544T194 354T194 159T194 -32T194 -209Q178 -209 163 -209T131 -209T99 -209Q96 -209 94 -208T90 -204T88 -198Q88 -137
88 -69T88 71T88 216T88 362T88 503T88 631Q88 658 88 683T88 732ZM365 545Q419 545 457 521T515 452T536 345V197Q536 148 524 110T489 45T433 4T357 -10Q324 -10 297 -1T248 25T209 64H184V157Q207 134 229 120T276 99T327 92Q362 92 384 105T418 146T430 215V322Q430
354 424 377T406 414Q394 428 377 435T336 443Q310 443 284 433T231 403T178 351V461H209Q229 489 253 507T306 535T365 545Z" />
<glyph unicode="&#xff;" horiz-adv-x="600" d="M542 534Q547 534 552 530T554 518Q532 442 510 371T467 229T426 87T384 -58Q371 -108 349 -139T293 -185T211 -200Q200 -200 184 -200T154 -200T129 -200T115 -200Q110 -200 107 -198T104 -189V-106H120Q141 -106
161 -106T202 -106Q236 -106 257 -90T288 -39Q295 -14 307 31T337 137T373 266T411 403T447 534Q458 534 469 534T493 534T517 534T542 534ZM145 534Q154 534 158 532T164 521Q184 459 201 406T235 307T264 223T288 151T306 90H354L335 22H254Q245 22 239 24T228
35T216 60Q210 77 196 114T164 201T124 308T83 424T44 534Q56 534 68 534T93 534T119 534T145 534ZM144 763Q172 763 200 763T256 763Q260 763 262 762T265 758T267 752V640Q239 640 211 640T155 640Q152 640 150 641T146 645T144 651V763ZM355 763Q383 763 411
763T467 763Q471 763 473 762T476 758T478 752V640Q450 640 422 640T366 640Q363 640 361 641T357 645T355 651V763Z" />
<glyph unicode="&#x2013;" horiz-adv-x="600" d="M50 351H539Q543 351 545 350T548 346T550 340Q550 316 550 295T550 249H61Q58 249 56 250T52 254T50 260Q50 284 50 305T50 351Z" />
<glyph unicode="&#x2014;" horiz-adv-x="600" d="M-11 351H600Q604 351 606 350T609 346T611 340Q611 316 611 295T611 249H0Q-3 249 -5 250T-9 254T-11 260Q-11 284 -11 305T-11 351Z" />
<glyph unicode="&#x2018;" horiz-adv-x="350" d="M187 750Q220 750 249 750T298 750Q286 698 275 647T251 545T227 443Q204 443 184 443T148 443T114 443T75 443Q71 443 69 444T66 449T67 455Q84 500 103 548T141 646T177 743Q179 748 181 749T187 750Z" />
<glyph unicode="&#x2019;" horiz-adv-x="350" d="M194 443Q161 443 132 443T82 443Q94 496 106 546T129 647T153 750Q177 750 197 750T233 750T267 750T305 750Q309 750 311 749T314 744T313 737Q297 693 278 645T240 547T204 450Q203 446 201 445T194 443Z" />
<glyph unicode="&#x201a;" horiz-adv-x="350" d="M194 -105Q161 -105 132 -105T82 -105Q94 -53 106 -2T129 100T153 202Q177 202 197 202T233 202T267 202T305 202Q309 202 311 201T314 197T313 190Q297 146 278 97T240 -1T204 -98Q203 -102 201 -103T194 -105Z" />
<glyph unicode="&#x201c;" horiz-adv-x="600" d="M302 737Q293 698 284 660T266 583T248 507T230 430Q206 430 188 430T156 430T126 430T89 430Q83 430 81 433T81 443Q96 479 110 515T139 586T168 657T197 730Q199 735 201 736T207 737Q223 737 236 737T261 737T282
737T302 737ZM530 737Q521 698 512 660T494 583T476 507T458 430Q434 430 416 430T384 430T354 430T317 430Q311 430 309 433T309 443Q324 479 338 515T367 586T396 657T425 730Q427 735 429 736T435 737Q452 737 465 737T489 737T510 737T530 737Z" />
<glyph unicode="&#x201d;" horiz-adv-x="600" d="M318 430Q327 469 336 507T354 584T372 660T390 737Q414 737 431 737T463 737T494 737T531 737Q537 737 539 734T539 724Q524 687 510 651T481 580T452 509T423 437Q422 433 420 432T413 430Q396 430 383 430T359
430T338 430T318 430ZM90 430Q99 469 108 507T126 584T144 660T162 737Q186 737 203 737T235 737T266 737T302 737Q308 737 310 734T310 724Q295 687 281 651T253 580T224 509T195 437Q194 433 192 432T185 430Q168 430 155 430T131 430T110 430T90 430Z" />
<glyph unicode="&#x201e;" horiz-adv-x="600" d="M318 -115Q327 -76 336 -38T354 39T372 115T390 192Q414 192 431 192T463 192T494 192T531 192Q537 192 539 189T539 179Q524 142 510 106T481 35T452 -36T423 -108Q422 -112 420 -113T413 -115Q396 -115 383 -115T359
-115T338 -115T318 -115ZM90 -115Q99 -76 108 -38T126 39T144 115T162 192Q186 192 203 192T235 192T266 192T302 192Q308 192 310 189T310 179Q295 142 281 106T253 35T224 -36T195 -108Q194 -112 192 -113T185 -115Q168 -115 155 -115T131 -115T110 -115T90 -115Z"
/>
<glyph unicode="&#x2022;" horiz-adv-x="600" d="M428 172Q404 172 372 172T306 172T240 172T183 172Q178 172 175 175T172 183V429Q197 429 228 429T294 429T361 429T417 429Q422 429 425 426T428 418V172Z" />
<glyph unicode="&#x2039;" horiz-adv-x="400" d="M353 94V78Q327 78 301 78T249 78Q239 78 235 80T223 90Q219 94 203 111T165 151T121 197T81 239T58 263Q51 271 50 275T48 285Q48 295 48 305T48 325Q71 350 97 377T149 432T194 480T225 512Q232 519 237 520T251
522Q277 522 302 522T353 522V506Q311 461 278 426T216 360T159 299Q187 269 214 240T275 177T353 94Z" />
<glyph unicode="&#x203a;" horiz-adv-x="400" d="M48 506V523Q74 523 100 523T152 523Q162 523 166 521T178 511Q182 507 198 490T236 450T280 404T320 362T343 338Q350 331 351 327T353 316Q353 306 353 296T353 276Q330 251 304 224T252 169T207 121T176 89Q169
82 164 81T150 79Q124 79 99 79T48 79V95Q91 140 124 175T185 240T242 302Q215 331 187 360T126 424T48 506Z" />
</font>
</defs>
</svg>
