<?xml version="1.0" standalone="no"?>
<!DOCTYPE svg PUBLIC "-//W3C//DTD SVG 1.1//EN" "http://www.w3.org/Graphics/SVG/1.1/DTD/svg11.dtd">
<svg xmlns="http://www.w3.org/2000/svg">
<defs >
<font id="Recursive" horiz-adv-x="628" ><font-face
    font-family="Recursive Sans Linear Light"
    units-per-em="1000"
    panose-1="0 0 0 0 0 0 0 0 0 0"
    ascent="950"
    descent="-250"
    alphabetic="0" />
<glyph unicode=" " horiz-adv-x="300" />
<glyph unicode="!" horiz-adv-x="350" d="M224 283H136Q133 283 132 284T128 286Q127 288 125 292T120 317T110 380T93 502V590Q93 618 93 645T93 700Q122 700 160 700T246 700Q249 700 251 699T255 695T257 689V502Q252 466 247 429T236 356T224 283ZM263 -9Q234
-9 208 -9T155 -9T98 -9Q95 -9 93 -8T89 -4T87 2V168Q117 168 143 168T196 168T252 168Q256 168 258 167T261 163T263 157V-9Z" />
<glyph unicode="&quot;" horiz-adv-x="600" d="M237 439Q211 439 185 439T131 439Q127 439 124 442T120 450L104 648Q103 666 102 682T99 715T96 750Q137 750 174 750T246 750Q251 750 254 747T256 737L237 439ZM482 439Q456 439 429 439T374 439Q370 439 367
442T363 450L343 750Q385 750 422 750T493 750Q498 750 501 747T503 737L482 439Z" />
<glyph unicode="#" horiz-adv-x="600" d="M208 720Q231 720 256 720T304 720Q309 720 312 718T313 709Q295 619 277 530T241 350T205 171T169 -9Q168 -16 164 -18T155 -20Q131 -20 107 -20T60 -20Q78 72 96 164T134 350T171 535T208 720ZM433 720Q447 720 464
720T498 720T529 720Q534 720 537 718T538 709Q520 619 502 530T466 350T430 171T394 -9Q393 -16 389 -18T380 -20Q365 -20 349 -20T317 -20T285 -20Q303 72 321 164T359 350T396 535T433 720ZM580 437H71Q66 437 63 440T60 448Q60 452 60 461T60 483T60 507T60
529T60 543H569Q571 543 573 543T577 540Q579 539 579 537T580 532Q580 528 580 519T580 497T580 473T580 451T580 437ZM20 254H529Q534 254 537 251T540 243Q540 239 540 231T540 211T540 190T540 170T540 157H31Q29 157 27 158T23 160Q22 162 21 164T20 168Q20
172 20 181T20 200T20 222T20 241T20 254Z" />
<glyph unicode="$" horiz-adv-x="600" d="M282 -19Q210 -19 152 -4T66 37Q65 39 64 41T63 45Q63 71 63 106T63 173H82Q127 142 175 127T291 112Q359 112 389 131T419 177V202Q419 220 413 233T388 257T329 281L235 310Q185 325 152 345T101 389T74 437T66 484V527Q66
569 84 604T135 665T216 705T323 720Q387 720 440 709T516 675Q518 674 518 672T519 667Q519 636 519 600T519 540H500Q461 567 417 577T314 588Q273 588 247 580T207 556T194 523V503Q194 483 202 470T230 447T288 426L383 397Q445 378 479 352T528 293T543 220V173Q543
117 512 74T422 6T282 -19ZM361 470Q344 475 325 480T299 486Q294 488 291 491T288 500Q288 531 288 562T288 624T288 686T288 744Q288 756 288 769T288 797T288 825T288 851Q310 851 324 851T354 851T390 851Q395 851 398 848T400 838Q396 806 393 770T385 697T377
621T369 544T361 470ZM257 235Q272 232 292 227T319 220Q325 219 327 216T330 204Q330 184 330 162T330 117T330 71T330 25T330 -17Q330 -28 330 -47T330 -86T330 -126T330 -155Q309 -155 294 -155T262 -155T225 -155Q222 -155 220 -154T216 -149T215 -141Q220
-108 224 -72T232 3T240 81T249 160T257 235Z" />
<glyph unicode="%" horiz-adv-x="600" d="M170 710Q220 710 254 691T307 640T326 567V502Q326 462 308 430T255 378T170 359Q96 359 56 400T15 502V567Q15 608 33 640T86 691T170 710ZM108 517Q108 497 112 483T125 460Q134 453 144 449T170 445Q202 445 217 462T233
517V552Q233 572 229 586T215 609Q200 625 170 625Q140 625 124 607T108 552V517ZM430 341Q479 341 514 322T567 271T585 198V133Q585 93 567 61T514 9T430 -10Q355 -10 315 31T274 133V198Q274 239 292 271T345 322T430 341ZM367 148Q367 128 371 114T385 91Q393
83 404 79T430 75Q461 75 476 93T492 148V183Q492 203 488 217T475 240Q459 255 430 255Q399 255 383 238T367 183V148ZM359 405Q362 412 369 435T385 490T405 558T425 626T442 681T451 710Q455 710 472 710T512 710T552 710T574 710Q578 710 580 709T583 704T582
697Q580 693 572 672T552 620T528 555T503 489T483 437T474 412Q473 408 471 407T464 405Q460 405 446 405T412 405T378 405T359 405ZM241 296Q238 290 231 267T215 211T195 143T175 75T158 20T149 -9Q145 -9 128 -9T88 -9T48 -9T26 -9Q22 -9 20 -8T17 -3T18 4Q20
8 27 29T47 81T72 146T97 212T117 264T126 289Q128 294 130 295T136 296Q140 296 154 296T188 296T222 296T241 296Z" />
<glyph unicode="&amp;" horiz-adv-x="600" d="M248 458Q282 414 311 374T365 299T411 236T448 188T473 155Q488 136 498 131T527 125Q533 125 539 125T552 125H571Q571 97 571 68T571 10Q571 5 569 2T560 -1Q552 -1 538 -1T510 -1Q484 -1 462 4T421 25T382 66Q373
79 356 101T317 153T271 216T222 283T172 349Q138 395 120 424T94 477T87 532V542Q87 577 100 607T141 660T210 696T309 709Q356 709 388 705T441 694T465 682Q467 681 467 679T468 672Q468 646 468 620T468 568H449Q413 579 382 584T309 590Q279 590 260 585T230
569Q222 561 219 553T216 532Q216 521 218 512T227 490T248 458ZM187 -9Q138 -9 102 9T47 61T27 145V197Q27 268 64 306T153 355V410L232 311Q208 308 193 298T170 272T162 234V180Q162 143 178 125T229 107Q264 107 287 118T339 160L398 83H350Q328 41 290 16T187
-9ZM437 443Q466 443 495 443T553 443Q559 443 561 440T564 432V351Q564 315 552 285T517 232T460 192V137L396 223Q420 247 428 265T437 312Q437 343 437 376T437 443Z" />
<glyph unicode="&apos;" horiz-adv-x="350" d="M236 439Q208 439 181 439T126 439Q121 439 118 442T114 450L99 648Q98 666 97 682T94 715T91 750Q135 750 174 750T249 750Q254 750 257 747T259 737L236 439Z" />
<glyph unicode="(" horiz-adv-x="400" d="M226 743Q231 749 235 750T246 751Q271 751 293 751T338 751T389 751V733Q326 674 285 608T225 469T205 320V311Q205 236 224 163T284 22T389 -101V-120Q362 -120 339 -120T293 -120T246 -120Q240 -120 236 -119T226 -112Q170
-57 135 9T83 151T66 311V320Q66 405 83 480T135 621T226 743Z" />
<glyph unicode=")" horiz-adv-x="400" d="M174 -112Q169 -118 165 -119T154 -120Q130 -120 108 -120T62 -120T11 -120V-101Q74 -42 115 24T175 163T195 311V320Q195 396 176 469T116 609T11 733V751Q38 751 61 751T107 751T154 751Q160 751 164 750T174 743Q231
689 266 623T317 481T334 320V311Q334 227 318 152T266 11T174 -112Z" />
<glyph unicode="*" horiz-adv-x="600" d="M355 767Q360 767 362 765T363 757Q358 717 353 691T341 642T324 594L341 584Q362 606 380 622T422 657T480 703Q495 677 509 652T539 601Q542 596 541 593T534 587Q499 574 471 565T418 550T367 538V520Q399 512 425
505T478 490T544 467Q530 441 516 416T486 364Q483 359 479 358T470 361Q443 384 422 401T383 435T341 476L324 466Q330 450 333 437T340 412T346 386Q350 367 352 353T358 325T364 291Q335 291 304 291T244 291Q240 291 238 294T236 301Q241 335 247 360T259 410T275
466L258 476Q234 452 214 433T172 396T119 354Q104 380 90 405T60 456Q57 461 58 465T64 471Q99 483 125 491T177 506T234 520V538Q201 546 174 553T118 569T54 593Q69 619 83 644T113 695Q117 700 120 701T128 699Q158 675 178 658T217 623T257 584L274 594Q270
607 267 619T261 644T254 672Q249 695 244 717T235 767Q264 767 295 767T355 767Z" />
<glyph unicode="+" horiz-adv-x="600" d="M232 536Q269 536 297 536T357 536Q362 536 365 533T368 525Q368 449 368 372T368 218T368 64Q335 64 306 64T243 64Q238 64 235 67T232 75Q232 135 232 196T232 317T232 438Q232 466 232 491T232 536ZM62 367H526Q531
367 533 366T536 362T538 356Q538 325 538 295T538 233H74Q70 233 68 234T64 238T62 244Q62 276 62 306T62 367Z" />
<glyph unicode="," horiz-adv-x="350" d="M163 -186Q138 -186 105 -186T45 -186Q54 -143 62 -99T79 -9T96 80T113 168Q141 168 163 168T210 168T266 168Q270 168 272 167T275 162T274 155Q264 122 252 81T226 -5T199 -93T173 -179Q172 -183 170 -184T163 -186Z" />
<glyph unicode="-" horiz-adv-x="450" d="M60 364H379Q383 364 385 363T388 359T390 353Q390 323 390 295T390 235H71Q68 235 66 235T63 237T61 241T60 246Q60 277 60 305T60 364Z" />
<glyph unicode="." horiz-adv-x="350" d="M263 -9Q234 -9 208 -9T155 -9T98 -9Q95 -9 93 -8T89 -4T87 2V168Q117 168 143 168T196 168T252 168Q256 168 258 167T261 163T263 157V-9Z" />
<glyph unicode="/" horiz-adv-x="600" d="M548 750Q493 606 437 461T326 171T213 -119Q212 -123 210 -125T205 -129T199 -130Q165 -130 134 -130T68 -130Q79 -103 90 -76T111 -21Q160 106 209 233T307 488T405 743Q407 747 410 748T417 750Q451 750 483 750T548 750Z" />
<glyph unicode="0" horiz-adv-x="600" d="M300 720Q371 720 426 687T514 593T546 445V255Q546 169 514 107T426 13T300 -20Q248 -20 203 -2T124 53T72 140T54 255V445Q54 532 86 593T174 687T300 720ZM300 594Q267 594 242 580T203 533T189 445V255Q189 226 193
204T204 167T218 141Q231 125 250 116T295 106Q329 106 355 120T396 167T411 255V448Q411 479 406 501T393 539T376 566Q364 579 345 586T300 594ZM437 528L441 404H371L398 422Q390 399 378 381T351 347T314 311Q288 285 262 262T210 217T156 169L150 300H225L200
279Q209 303 221 321T251 357T296 401Q330 434 365 464T437 528Z" />
<glyph unicode="1" horiz-adv-x="600" d="M259 710Q263 710 276 710T308 710T345 710T376 710T392 710Q396 710 398 709T401 705T403 699Q403 697 403 664T403 579T403 465T403 340T403 224T403 137T403 97H261L267 122Q267 132 267 153T267 195T267 227Q267 232
267 253T267 307T267 376T267 449T267 517T267 568T267 592L280 576H232L258 594Q243 565 230 546T201 512T166 481Q149 468 137 459T118 446T108 442Q106 442 104 443T101 446T100 452V594Q120 608 139 622T179 652Q193 662 209 673T239 695T259 710ZM81 128Q84
128 109 128T174 128T262 128T357 128T445 128T510 128T538 128Q543 128 546 125T549 117Q549 113 549 96T549 59T549 21T549 0Q546 0 521 0T457 0T370 0T275 0T187 0T121 0T92 0Q90 0 88 1T84 3Q83 5 82 7T81 11Q81 14 81 25T81 53T81 86T81 113T81 128Z" />
<glyph unicode="2" horiz-adv-x="600" d="M296 720Q355 720 399 708T473 671T517 614T531 541V515Q531 482 524 453T496 396T439 340T346 279Q296 250 267 227T222 184T203 142T198 96L173 104H244L190 92Q216 106 239 113T292 124T363 128H536Q541 128 544 125T547
117Q547 114 547 103T547 75T547 43T547 15T547 0Q545 0 519 0T451 0T360 0T260 0T169 0T101 0T72 0Q69 0 67 1T63 5T61 11V98Q61 156 80 202T144 292T268 382Q311 407 336 426T374 460T391 490T396 518V525Q396 539 393 550T380 570Q371 579 350 585T290 591Q234
591 188 575T101 528H82Q82 531 82 542T82 570T82 603T82 631T82 646Q82 650 83 653T87 659Q111 681 167 700T296 720Z" />
<glyph unicode="3" horiz-adv-x="600" d="M282 720Q359 720 416 700T504 642T536 553V533Q536 486 517 453T457 398T348 364L377 393V328L348 356Q420 345 463 323T526 269T546 200V169Q546 109 514 67T422 2T281 -20Q229 -20 184 -15T108 -1T64 14Q60 16 59 20T57
29Q57 32 57 44T57 72T57 106T57 135T57 151H75Q107 137 136 129T198 118T276 115Q326 115 355 125T397 154T410 195V202Q410 224 399 241T361 270T286 288T164 294Q159 294 156 297T153 305Q153 310 153 326T153 363T153 400T153 421Q234 421 283 427T358 444T391
472T400 509V513Q400 533 389 549T351 575T277 585Q216 585 177 578T94 553H75Q75 557 75 568T75 596T75 629T75 656T75 671Q75 678 77 681T84 686Q102 696 155 708T282 720Z" />
<glyph unicode="4" horiz-adv-x="600" d="M306 700Q310 700 323 700T355 700T392 700T423 700T440 700V681Q415 641 388 599T334 514T277 427T219 337T159 244L179 311V229L154 245Q184 260 212 266T274 276T348 279H549Q553 279 555 278T558 274T560 268Q560
264 560 253T560 227T560 197T560 171T560 157H53Q50 157 48 158T44 162T42 168V279Q42 279 54 299T85 352T129 427T179 510T226 589T264 654T286 690Q289 694 292 696T298 699T306 700ZM388 407Q392 407 406 407T436 407T466 407T485 407Q489 407 491 406T494
402T496 396V98Q496 93 496 79T496 48T496 18T496 0Q492 0 480 0T451 0T417 0T387 0T371 0Q366 0 363 3T360 11Q360 16 360 40T360 99T360 166T360 224T360 255Q364 272 368 295T376 341T384 382T388 407Z" />
<glyph unicode="5" horiz-adv-x="600" d="M120 700Q122 700 144 700T200 700T274 700T354 700T428 700T483 700T506 700Q511 700 514 697T517 689Q517 686 517 675T517 650T517 620T517 595T517 581Q515 581 494 581T439 581T370 581T299 581T241 581T211 581Q182
581 162 592T131 622T120 666Q120 674 120 682T120 700ZM120 700H260L250 656Q248 639 246 618T240 564Q236 533 233 499T226 434T219 376L198 401H265L210 369Q236 404 273 418T365 433Q408 433 442 421T499 385T534 326T546 244V195Q546 145 530 106T481 38T400
-5T287 -20Q233 -20 191 -15T121 -1T80 15Q75 18 75 21T74 28Q74 32 74 44T74 73T74 107T74 136T74 151H92Q136 133 182 124T288 115Q351 115 381 139T411 201V237Q411 262 402 281T371 312T314 323Q286 323 260 317T212 298H92Q86 298 83 301T81 311Q82 322 85
352T92 426T102 518T111 614T120 700Z" />
<glyph unicode="6" horiz-adv-x="600" d="M353 720Q405 720 446 710T505 689Q510 686 512 683T515 672Q515 669 515 658T515 632T515 600T515 573T515 558H496Q456 575 418 584T334 594Q296 594 271 584T226 555Q206 535 199 504T192 429V252Q192 219 195 195T206
155T224 128Q239 113 259 106T307 99Q361 99 389 129T418 208V221Q418 248 412 267T396 296Q385 307 365 315T313 323Q275 323 242 311T176 273L173 387H230L199 369Q223 406 259 425T354 444Q413 444 457 421T525 356T550 253V193Q550 132 519 84T434 8T308 -20Q227
-20 170 12T84 107T54 261V405Q54 482 72 536T121 626T190 683T271 712T353 720Z" />
<glyph unicode="7" horiz-adv-x="600" d="M54 700Q68 700 86 697T122 687T155 671T180 648T190 619Q190 614 190 599T190 564T190 525T190 491T190 474Q187 474 175 474T145 474T111 474T82 474T65 474Q60 474 57 477T54 485Q54 489 54 508T54 555T54 612T54 665T54
700ZM317 0Q314 0 301 0T270 0T234 0T202 0T185 0Q180 0 177 3T174 11Q174 15 184 40T214 114T263 232T329 393Q343 427 356 453T383 502T414 546T452 588L417 533V603L462 573Q419 573 379 573T303 572T233 572H161Q147 572 132 579T103 597T78 625T61 660T54
700H538Q542 700 544 699T547 695T549 689V586Q549 584 541 564T521 512T494 442T463 364T434 291Q419 254 405 219T376 149T348 77T317 0Z" />
<glyph unicode="8" horiz-adv-x="600" d="M300 720Q370 720 421 697T500 632T528 532V521Q528 481 514 452T471 404T402 379L432 398V339L280 400Q339 416 370 442T401 502V517Q401 534 397 547T383 571Q373 580 353 587T301 594Q266 594 243 584T209 557T198
514Q198 489 204 474T225 449T265 429L412 374Q449 361 474 345T515 306T540 255T548 189V167Q548 114 518 72T432 5T299 -20Q225 -20 170 2T83 64T52 158V171Q52 212 67 245T115 300T203 330L173 315V367L320 307Q270 295 239 278T194 239T179 187Q179 158 192
140T232 114T299 106Q362 106 391 125T421 188Q421 212 415 228T393 256T349 278L203 332Q155 350 126 372T84 427T71 511V532Q71 584 98 626T177 694T300 720Z" />
<glyph unicode="9" horiz-adv-x="600" d="M291 720Q353 720 400 702T480 648T530 560T547 441V284Q547 211 529 154T474 59T383 0T259 -20Q227 -20 193 -16T133 -4T94 12Q89 15 87 18T84 29Q84 32 84 42T84 66T84 93T84 117T84 131H103Q144 114 179 107T261 100Q298
100 327 110T370 135Q387 151 397 185T408 266V446Q408 489 400 520T375 567Q361 581 342 587T291 594Q240 594 211 567T182 496V458Q182 434 187 418T203 390Q215 378 233 373T278 367Q320 367 356 378T424 417V307H372L400 325Q380 284 340 265T246 246Q187 246
143 269T75 336T50 439V505Q50 568 81 616T167 692T291 720Z" />
<glyph unicode=":" horiz-adv-x="350" d="M263 359Q234 359 208 359T155 359T98 359Q95 359 93 360T89 364T87 370V536Q117 536 143 536T196 536T252 536Q256 536 258 535T261 531T263 525V359ZM263 -9Q234 -9 208 -9T155 -9T98 -9Q95 -9 93 -8T89 -4T87 2V168Q117
168 143 168T196 168T252 168Q256 168 258 167T261 163T263 157V-9Z" />
<glyph unicode=";" horiz-adv-x="350" d="M263 359Q234 359 208 359T155 359T98 359Q95 359 93 360T89 364T87 370V536Q117 536 143 536T196 536T252 536Q256 536 258 535T261 531T263 525V359ZM399 27Q374 27 341 27T281 27Q290 70 298 114T315 204T332 293T349
381Q377 381 399 381T446 381T502 381Q506 381 508 380T511 375T510 368Q500 335 488 294T462 208T435 120T409 34Q408 30 406 29T399 27Z" />
<glyph unicode="&lt;" horiz-adv-x="600" d="M79 395Q128 417 182 441T293 491T407 541T519 591Q519 561 519 529T519 466Q519 459 517 456T508 448Q494 442 467 430T404 402T329 369T252 335T182 303L198 334V265L182 296Q223 278 272 257T369 214T453 177T508
152Q515 148 517 145T519 134Q519 103 519 72T519 8Q448 40 378 71T236 133T94 196Q89 198 86 201T81 207T79 216Q79 261 79 306T79 395Z" />
<glyph unicode="=" horiz-adv-x="600" d="M62 493H526Q531 493 533 492T536 488T538 482Q538 451 538 423T538 364H74Q70 364 68 365T64 369T62 375Q62 406 62 434T62 493ZM62 234H526Q531 234 533 233T536 229T538 223Q538 193 538 165T538 106H74Q70 106 68
107T64 111T62 117Q62 148 62 176T62 234Z" />
<glyph unicode="&gt;" horiz-adv-x="600" d="M521 205Q472 183 418 159T307 109T193 58T81 8Q81 40 81 71T81 134Q81 142 83 145T92 152Q106 158 133 170T196 198T271 231T348 265T418 297L402 266V335L418 304Q377 322 328 343T231 386T147 423T92 448Q85 452
83 455T81 466Q81 497 81 529T81 591Q152 560 223 529T364 467T506 404Q511 402 514 399T519 392T521 384Q521 339 521 295T521 205Z" />
<glyph unicode="?" horiz-adv-x="600" d="M375 -9Q332 -9 287 -9T197 -9Q194 -9 192 -8T188 -4T186 2V170Q230 170 275 170T364 170Q368 170 370 169T373 165T375 159V-9ZM295 720Q357 720 402 707T475 670T517 616T531 554V523Q531 486 523 458T494 405T432 354L399
333Q378 319 366 308T350 286T346 256V250H220Q216 250 214 251T210 254T209 261V284Q209 312 217 334T247 377T306 425L332 443Q361 462 374 474T391 498T396 527Q396 536 394 543T386 556Q377 570 355 577T294 585Q239 585 192 574T100 536H81Q81 567 81 598T81
662Q81 666 82 668T85 672Q97 684 127 695T201 713T295 720Z" />
<glyph unicode="@" horiz-adv-x="1050" d="M525 747Q635 747 719 719T859 640T943 525T972 385V290Q972 238 959 197T920 128T852 85T756 70H751Q692 70 654 86T598 133T580 214Q580 237 580 263T580 318T580 373T580 425Q580 426 585 436T598 461T613 491H696Q701
491 704 488T707 480Q707 455 707 423T707 354T707 282T707 215Q707 194 717 182T751 170H754Q793 170 815 180T848 217T858 290V384Q858 416 851 445T830 502T793 553Q766 580 728 600T639 631T525 642Q410 642 337 607T228 512T192 384V185Q192 148 198 116T218
56T253 7Q293 -33 363 -54T538 -75Q609 -75 661 -67T753 -47T825 -21H844V-111Q844 -115 843 -117T840 -121Q831 -130 798 -144T701 -169T538 -180Q410 -180 322 -153T180 -78T102 37T78 181V382Q78 458 106 524T191 640T331 718T525 747ZM454 67Q422 67 397 80T357
124T342 202V365Q342 401 350 426T374 468T409 492T454 500Q495 500 523 483T572 437H609L607 337Q573 363 550 370T508 377Q499 377 491 375T478 368T471 355T469 337V234Q469 213 479 204T508 194Q521 194 534 198T565 213T607 243L619 139H583Q559 101 528 84T454
67Z" />
<glyph unicode="A" horiz-adv-x="650" d="M149 280H364Q380 280 395 280T425 280L460 289L474 225L488 162H158Q155 162 153 163T149 167T147 173L149 280ZM170 0Q139 0 107 0T44 0Q42 0 40 1T37 5T36 13Q43 38 53 80T77 176T105 289T135 409T163 525T188 626T208
701Q265 701 325 701T434 701Q438 701 440 700T443 696T446 690Q460 634 476 571T509 439T545 294T583 139Q591 106 599 71T614 0Q586 0 553 0T491 0Q485 0 482 1T477 7T472 19Q450 110 431 186T396 327T369 443T348 539T334 616L373 592H280L319 616Q313 582 304
540T283 444T253 326T216 180T170 0Z" />
<glyph unicode="B" horiz-adv-x="600" d="M331 0Q301 0 262 0T185 0T121 0T90 0Q85 0 82 3T79 11Q79 93 79 168T79 317T79 466T79 624H225L218 604Q218 571 218 541T218 482Q218 437 218 394T218 306T218 216T218 120Q235 120 250 120T282 120T314 120Q343 120
361 128T389 153T398 193V224Q398 248 389 264T361 288T308 296H147L152 381H413V345Q473 336 505 300T538 199V171Q538 110 512 73T440 18T331 0ZM30 700Q101 700 172 700T313 700Q376 700 418 687T486 650T524 597T536 536V513Q536 475 522 447T483 399T421 371T341
361Q283 361 243 361T169 361L152 348L147 412Q188 412 229 412T310 412Q341 412 360 420T387 446T396 488V513Q396 528 392 540T379 561Q369 571 353 575T314 580Q269 580 224 580T133 580T41 580Q36 580 33 583T30 591Q30 621 30 646T30 700Z" />
<glyph unicode="C" horiz-adv-x="600" d="M341 -20Q269 -20 215 -2T125 52T72 138T54 254V456Q54 515 72 563T125 647T212 701T330 720Q381 720 421 711T490 687T535 656Q537 654 538 651T539 645T540 639Q540 602 540 555T540 464Q511 464 482 464T424 464Q419
464 416 467T413 475Q413 493 413 511T413 551T413 604L441 562Q416 578 389 584T328 591Q288 591 259 577T214 531T198 452V265Q198 220 206 190T235 139Q253 121 280 114T342 106Q397 106 439 119T527 161H546Q546 147 546 134T546 107T546 80T546 51Q546 46
545 42T540 36Q526 21 497 9T428 -12T341 -20Z" />
<glyph unicode="D" horiz-adv-x="650" d="M592 239Q592 182 576 138T527 63T451 16T351 0Q328 0 297 0T233 0T170 0T118 0T90 0Q85 0 82 3T79 11Q79 88 79 165T79 320T79 475T79 630H232L223 608Q223 581 223 550T223 492Q223 444 223 399T223 310T223 221T223
128Q235 128 259 128T308 128T348 128Q388 128 411 142T446 183T457 247V453Q457 476 454 494T445 525T429 549Q420 557 408 562T382 569T346 572Q315 572 275 572T193 572T111 572T41 572Q38 572 36 573T32 577T30 583Q30 610 30 641T30 700Q61 700 100 700T183
700T266 700T340 700Q407 700 455 684T533 636T578 561T592 462V239Z" />
<glyph unicode="E" horiz-adv-x="550" d="M29 700H488Q491 700 493 699T497 695T499 689Q499 658 499 634T499 578H40Q37 578 35 579T31 583T29 589Q29 620 29 645T29 700ZM166 411H429Q432 411 434 409T438 405T440 400Q440 379 440 362T440 328T440 293H166V411ZM89
0Q86 0 84 1T81 3T78 7T77 11Q77 38 77 89T77 207T77 347T77 493T77 627H229L221 605Q221 582 221 558T221 510Q221 464 221 415T221 317T221 219T221 122H488Q493 122 496 119T499 111Q499 82 499 56T499 0H89Z" />
<glyph unicode="F" horiz-adv-x="550" d="M241 0Q208 0 175 0T108 0Q105 0 103 1T99 5T97 11Q97 92 97 168T97 319T97 470T97 626H252L241 599Q241 572 241 545T241 492Q241 426 241 362T241 232T241 98Q241 72 241 47T241 0ZM49 700H479Q483 700 485 699T488
695T490 689Q490 668 490 651T490 616T490 578H60Q57 578 55 579T51 583T49 589Q49 620 49 645T49 700ZM178 386H446Q451 386 454 383T457 375Q457 354 457 335T457 299T457 263H178V386Z" />
<glyph unicode="G" horiz-adv-x="650" d="M336 383H601Q604 383 606 382T610 378T612 372V265H347Q344 265 342 265T339 267T337 271T336 276Q336 303 336 329T336 383ZM346 720Q389 720 424 715T487 700T535 680T566 657Q570 654 571 650T572 641Q572 621 572
596T572 545T572 496Q543 496 514 496T456 496Q451 496 448 499T445 507Q445 520 445 535T445 567T445 606L472 563Q446 578 414 584T338 591Q303 591 275 582T228 555T199 508T189 442V245Q189 209 199 182T225 139Q241 123 266 115T334 106Q361 106 384 110T423
123T448 138Q448 171 448 198T448 251T448 307H580L575 283Q575 231 575 185T575 84Q575 77 574 73T569 65Q550 40 515 21T435 -9T346 -20Q269 -20 214 -1T123 53T71 138T54 251V447Q54 509 72 559T127 645T218 700T346 720Z" />
<glyph unicode="H" horiz-adv-x="650" d="M73 700Q107 700 140 700T206 700Q211 700 214 697T217 689Q217 603 217 517T217 345T217 172T217 0Q184 0 151 0T84 0Q81 0 79 1T75 5T73 11Q73 108 73 205T73 400T73 594Q73 621 73 647T73 700ZM135 411H375Q391 411
406 411T436 411L471 420L499 289H146Q143 289 141 290T138 292T136 296T135 300V411ZM577 0Q544 0 511 0T444 0Q441 0 439 1T435 5T433 11Q433 97 433 183T433 355T433 528T433 700Q467 700 500 700T566 700Q568 700 570 699T573 697T576 693T577 689Q577 617
577 544T577 399T577 254T577 109Q577 79 577 52T577 0Z" />
<glyph unicode="I" horiz-adv-x="500" d="M322 75H174L178 116Q178 133 178 154T178 192Q178 246 178 300T178 407T178 515T178 625H326L322 584Q322 568 322 548T322 511Q322 456 322 402T322 293T322 184T322 75ZM429 0H82Q80 0 78 1T75 3T72 7T71 11Q71 31
71 49T71 84T71 122H417Q420 122 423 121T427 117T429 111Q429 91 429 74T429 38T429 0ZM71 700H417Q423 700 426 697T429 689Q429 675 429 661T429 634T429 607T429 578H82Q78 578 75 581T71 589Q71 604 71 617T71 644T71 672T71 700Z" />
<glyph unicode="J" horiz-adv-x="500" d="M198 115Q224 115 241 120T270 138Q279 146 284 158T292 188T295 230Q295 276 295 320T295 411T295 505T295 605L315 559L277 601L323 578Q291 578 265 578T213 578T161 578T102 578Q99 578 97 579T93 583T91 589Q91 618
91 644T91 700Q137 700 177 700T254 700T332 700T419 700Q422 700 424 699T428 695T430 689Q430 633 430 577T430 463T430 345T430 222Q430 164 416 119T374 43T302 -4T200 -20Q162 -20 131 -15T78 -2T48 14Q46 16 45 18T44 22T43 28Q43 56 43 86T43 147H62Q86
137 107 130T150 119T198 115Z" />
<glyph unicode="K" horiz-adv-x="600" d="M325 415Q366 351 408 285T490 153Q502 134 511 129T539 123Q547 123 551 123T563 123H569Q569 107 569 89T569 55T569 26T569 11Q569 6 566 3T558 0Q554 0 549 0T536 0T518 0Q483 0 459 5T414 27T371 80Q353 111 340
133T318 173T302 209T289 246H237L325 415ZM569 700Q572 700 574 699T577 696T578 692Q578 690 577 687T570 674T551 646Q535 625 513 592T461 518T399 430T330 331T258 228T185 125V355H223Q229 375 236 393T252 429T272 465T295 503Q313 532 334 567T378 637T417
700H569ZM64 700Q98 700 129 700T193 700Q198 700 201 697T204 689Q204 603 204 517T204 345T204 172T204 0Q171 0 140 0T75 0Q70 0 67 3T64 11Q64 108 64 205T64 400T64 594Q64 621 64 647T64 700Z" />
<glyph unicode="L" horiz-adv-x="550" d="M84 0Q82 0 80 1T77 3T74 7T73 11Q73 88 73 166T73 321T73 472T73 617Q73 638 73 658T73 700Q107 700 140 700T206 700Q209 700 211 699T215 695T217 689Q217 619 217 548T217 406T217 263T217 122H391Q417 122 435 116T466
94T485 56T499 0H84ZM372 199Q392 199 411 199T448 199T488 199Q491 199 493 198T497 194T499 188Q499 169 499 145T499 95T499 44T499 0Q450 4 422 18T383 55T372 108Q372 122 372 138T372 170T372 199Z" />
<glyph unicode="M" horiz-adv-x="800" d="M208 0Q178 0 147 0T84 0Q81 0 79 1T75 5T73 11Q73 85 73 158T73 305T73 453T73 600Q73 625 73 650T73 700Q94 700 126 700T189 700T238 700Q244 700 248 698T255 692T262 677Q278 639 293 602T322 528T351 454T379 377T409
295L365 341H437L392 295Q407 338 421 378T450 456T479 534T509 615T543 700Q563 700 596 700T662 700T716 700Q719 700 721 699T725 695T727 689Q727 646 727 600T727 505T727 404T727 302T727 200T727 99Q727 83 727 67T727 34T727 0Q696 0 665 0T603 0Q600 0
598 1T594 5T592 11Q592 33 592 53T592 95T592 137Q592 166 592 194T593 250T596 308T601 371T608 441T617 521L636 491H565L606 520Q591 483 576 444T544 365T513 286T482 208T452 133Q428 133 404 133T355 133Q352 133 349 134T343 141Q330 173 316 209T286 285T255
364T224 443T193 520L233 491H163L181 521Q187 480 191 443T198 374T203 311T206 252T207 195T208 137Q208 103 208 69T208 0Z" />
<glyph unicode="N" horiz-adv-x="650" d="M190 0Q159 0 128 0T65 0Q62 0 60 1T56 5T54 11Q54 84 54 157T54 302T54 448T54 594Q54 621 54 647T54 700Q76 700 103 700T157 700T205 700Q211 700 214 699T221 691T233 669Q256 626 278 586T321 505T363 426T404 347T445
269T485 188L446 215H514L493 203Q485 248 480 287T470 361T464 430T461 496T460 563Q460 592 460 627T460 700Q492 700 523 700T585 700Q590 700 593 697T596 689Q596 617 596 545T596 400T596 255T596 110Q596 82 596 55T596 0Q576 0 554 0T511 0T473 0Q467 0
459 4T438 32Q394 107 357 172T288 298T227 416T167 537L212 503H143L161 518Q169 471 173 429T181 350T187 279T189 216T190 163Q190 124 190 83T190 0Z" />
<glyph unicode="O" horiz-adv-x="650" d="M325 720Q400 720 460 689T556 595T592 440V249Q592 163 557 103T462 12T325 -20Q250 -20 190 11T94 103T58 249V440Q58 533 95 595T193 688T325 720ZM193 258Q193 201 207 173T236 132Q251 120 274 112T329 104Q367 104
395 121T440 173T457 259V451Q457 483 453 504T441 541T421 567Q406 582 383 590T327 598Q281 598 252 580T208 529T193 451V258Z" />
<glyph unicode="P" horiz-adv-x="600" d="M223 0Q190 0 157 0T90 0Q85 0 82 3T79 11Q79 92 79 167T79 318T79 469T79 625H234L223 598Q223 571 223 548T223 499Q223 434 223 369T223 237T223 98Q223 71 223 46T223 0ZM30 700Q98 700 174 700T311 700Q360 700 398
691T463 665T508 622T535 563T544 488V427Q544 377 531 338T491 271T419 229T312 214Q286 214 259 214T205 214L194 210V336Q227 336 258 336T312 336Q334 336 350 341T378 356T394 382T399 422V495Q399 518 395 533T380 559Q370 570 353 574T312 579Q268 579 222
579T130 579T41 579Q36 579 33 582T30 590Q30 619 30 645T30 700Z" />
<glyph unicode="Q" horiz-adv-x="650" d="M489 105Q507 76 519 56T548 6Q557 -8 566 -11T586 -15Q590 -15 593 -15T600 -15H619Q619 -45 619 -78T619 -143Q619 -148 616 -151T608 -154Q601 -154 589 -154T568 -154Q534 -154 512 -146T474 -121T443 -77Q424 -43
408 -13T373 52L489 105ZM325 720Q400 720 460 689T556 595T592 440V249Q592 163 557 103T462 12T325 -20Q250 -20 190 11T94 103T58 249V440Q58 533 95 595T193 688T325 720ZM193 258Q193 201 207 173T236 132Q251 120 274 112T329 104Q367 104 395 121T440 173T457
259V451Q457 483 453 504T441 541T421 567Q406 582 383 590T327 598Q281 598 252 580T208 529T193 451V258Z" />
<glyph unicode="R" horiz-adv-x="600" d="M397 320Q423 274 445 235T492 148Q501 133 508 128T527 122Q532 122 534 122T541 122H560Q560 92 560 67T560 11Q560 6 557 3T549 0Q542 0 531 0T509 0Q475 0 452 5T413 25T382 66Q356 117 331 167T279 268L397 320ZM30
700Q99 700 168 700T306 700Q367 700 410 686T480 645T519 579T532 494V438Q532 392 518 356T478 294T413 255T327 242Q297 242 267 242T205 242L194 236V360Q223 360 252 360T311 360Q339 360 357 368T383 393T392 436V501Q392 520 388 534T373 558Q364 567 349
572T311 578Q266 578 221 578T131 578T41 578Q36 578 33 581T30 589Q30 618 30 644T30 700ZM218 0Q185 0 155 0T90 0Q85 0 82 3T79 11Q79 92 79 167T79 318T79 469T79 625H230L218 598Q218 565 218 533T218 470Q218 408 218 349T218 228T218 98Q218 71 218 46T218
0Z" />
<glyph unicode="S" horiz-adv-x="600" d="M321 719Q391 719 441 703T514 663Q518 659 519 655T520 645Q520 626 520 602T520 554T520 507Q492 507 462 507T403 507Q398 507 395 510T392 518Q392 528 392 538T392 559T392 584T392 613L420 577Q396 588 374 592T321
597Q292 597 271 593T234 580T211 556T203 521V500Q203 481 209 467T233 443T286 422L382 393Q428 379 459 363T509 325T535 277T543 215V169Q543 111 512 69T423 4T282 -19Q234 -19 192 -13T118 5T68 34Q65 37 64 40T62 53Q62 71 62 88T62 124T62 163H81Q126 133
175 119T291 104Q353 104 381 124T410 172V206Q410 223 405 234T382 256T328 277L233 306Q184 321 152 340T103 382T78 429T70 483V531Q70 572 87 606T138 666T217 705T321 719Z" />
<glyph unicode="T" horiz-adv-x="600" d="M51 700H537Q542 700 545 697T549 689Q549 658 549 634T549 578H63Q60 578 58 579T53 583T51 589Q51 620 51 645T51 700ZM372 0Q339 0 306 0T239 0Q234 0 231 3T228 11Q228 92 228 168T228 320T228 474T228 631H383L372
604Q372 584 372 562T372 518T372 478Q372 414 372 354T372 231T372 99Q372 71 372 46T372 0Z" />
<glyph unicode="U" horiz-adv-x="650" d="M577 0Q555 0 533 0T489 0T444 0Q442 0 440 0T437 2T435 4T434 7T433 11Q433 97 433 183T433 355T433 528T433 700Q456 700 477 700T521 700T566 700Q569 700 571 699T575 695T577 689Q577 617 577 544T577 399T577 254T577
109Q577 79 577 52T577 0ZM237 -11Q194 -11 163 1T112 36T82 94T72 173Q72 239 72 309T72 453T72 600Q72 625 72 650T72 700Q106 700 139 700T205 700Q209 700 211 699T214 695T216 689Q216 605 216 518T216 346T216 182Q216 146 231 131T281 115Q314 115 343 127T401
166T455 234V92H413Q394 59 369 36T311 1T237 -11Z" />
<glyph unicode="V" horiz-adv-x="650" d="M164 700Q169 700 172 698T177 692T183 675Q210 560 230 473T266 318T295 193T320 82L286 108H364L329 82Q338 124 348 169T371 265T400 379T435 521T479 700Q511 700 543 700T607 700Q609 700 611 699T615 695T615 687Q608
661 594 609T563 489T528 349T493 208T461 84T439 -1Q382 -1 326 -1T227 -1Q217 -1 213 3T205 22Q195 61 184 106T160 203T133 309T105 424T74 546Q68 571 62 596T49 648T35 700Q68 700 101 700T164 700Z" />
<glyph unicode="W" horiz-adv-x="950" d="M28 700Q48 700 71 700T117 700T159 700Q163 700 166 699T171 694T173 686Q179 657 186 618T202 529T221 420T240 292T259 145L232 155H298L276 146Q286 201 301 271T336 416T372 564T405 700H534Q537 700 539 699T543
695T546 689Q559 640 573 584T603 469T633 354T660 243T679 145L656 155H720L696 147Q706 230 714 293T729 408T744 505T760 598T778 700Q798 700 821 700T868 700T911 700Q915 700 918 699T922 694T922 685Q918 665 910 623T891 524T867 399T841 262T815 124T791
-1Q774 -1 750 -1T702 -1T655 -1T619 -1Q609 -1 605 3T598 20Q585 71 570 127T539 248T508 384T480 536L510 507H442L470 536Q460 472 446 404T417 270T388 149T363 54T350 -1Q325 -1 292 -1T228 -1T177 -1Q167 -1 163 3T156 20Q149 59 140 109T119 216T97 337T73
467T48 601Q44 626 39 651T28 700Z" />
<glyph unicode="X" horiz-adv-x="600" d="M439 0Q435 0 432 1T427 4T422 10Q407 40 385 84T339 178T293 270L228 324Q194 387 160 449T92 575T23 700Q60 700 94 700T164 700Q169 700 172 699T178 695T182 689Q203 646 224 603T267 517T312 430L373 381Q425 287
477 191T581 0Q546 0 510 0T439 0ZM562 700Q567 700 570 698T573 691T571 681Q563 668 546 639T507 571T459 487T409 400T363 320L275 434H330Q334 468 338 492T349 536T364 578T389 629T427 700Q461 700 495 700T562 700ZM36 0Q32 0 29 2T25 9T28 19Q35 32 52
61T92 130T140 214T190 301T236 381L330 265H276Q270 232 266 209T255 167T238 125T212 74T172 0Q139 0 105 0T36 0Z" />
<glyph unicode="Y" horiz-adv-x="650" d="M397 0Q375 0 353 0T309 0T264 0Q261 0 259 1T255 5T253 11Q253 82 253 157T253 303H397Q397 271 397 236T397 167T397 100Q397 75 397 50T397 0ZM20 700Q56 700 89 700T154 700Q161 700 165 698T173 692T181 678Q203
634 223 592T261 507T296 418T328 321L292 355H368L331 321Q346 374 361 420T395 511T434 602T480 700Q515 700 547 700T610 700Q619 700 622 695T620 676Q598 633 576 588T529 496T481 401T432 307T384 216Q342 216 318 216T282 217T267 221T260 228Q254 239 236
275T192 363T135 474T76 593T20 700Z" />
<glyph unicode="Z" horiz-adv-x="600" d="M553 0H62Q57 0 54 3T51 11V146Q93 196 133 246T214 346T298 449Q312 467 325 481T351 507T377 528T406 547T438 567L412 528V597L428 572Q371 572 332 572T263 572T205 572H171Q142 572 121 580T84 605T62 645T54 700H538Q542
700 544 699T547 695T549 689V554Q514 512 475 465T395 367T310 261Q294 240 280 225T253 198T226 176T197 156T164 134L189 171V102L173 128Q230 128 280 128T373 128T453 128H542Q547 128 550 125T553 117Q553 88 553 59T553 0ZM181 516Q151 516 124 516T65 516Q62
516 60 517T56 521T54 527Q54 544 54 566T54 613T54 660T54 700Q105 700 132 690T170 655T181 592Q181 582 181 568T181 540T181 516Z" />
<glyph unicode="[" horiz-adv-x="450" d="M394 -160H90Q87 -160 85 -160T82 -158T80 -154T79 -149Q79 -49 79 51T79 251T79 452T79 653Q79 679 79 706T79 760Q93 760 106 760T133 760H383Q388 760 391 757T394 749Q394 717 394 690T394 631H223Q223 549 223 466T223
300T223 134T223 -32H383Q388 -32 391 -35T394 -43Q394 -72 394 -101T394 -160Z" />
<glyph unicode="\" horiz-adv-x="600" d="M66 750Q100 750 132 750T197 750Q200 750 202 750T206 748T209 743Q258 616 307 489T406 234T504 -21Q514 -48 524 -75T546 -130Q512 -130 481 -130T416 -130Q412 -130 408 -128T401 -119Q345 26 290 171T178 461T66 750Z" />
<glyph unicode="]" horiz-adv-x="450" d="M57 760H361Q364 760 366 760T369 758T371 754T372 749Q372 649 372 549T372 348T372 148T372 -53Q372 -79 372 -106T372 -160Q358 -160 345 -160T318 -160H68Q63 -160 60 -157T57 -149Q57 -117 57 -90T57 -32H228Q228
51 228 134T228 300T228 466T228 631H68Q63 631 60 634T57 642Q57 672 57 701T57 760Z" />
<glyph unicode="^" horiz-adv-x="600" d="M203 750Q249 750 293 750T383 750Q390 750 395 747T403 736Q426 683 446 637T485 547T524 458T567 359Q537 359 505 359T442 359Q435 359 432 361T424 370Q407 409 393 440T367 501T341 562T309 633L335 618H254L294
644Q275 599 259 563T228 494T199 429T167 358H43Q40 358 38 359T34 362T33 367Q33 370 34 374T41 389Q49 406 66 444T106 533T154 641T203 750Z" />
<glyph unicode="_" horiz-adv-x="600" d="M54 -57H535Q539 -57 541 -58T544 -62T546 -68Q546 -99 546 -127T546 -186H65Q62 -186 60 -185T56 -181T54 -175Q54 -144 54 -116T54 -57Z" />
<glyph unicode="`" horiz-adv-x="350" d="M211 746Q227 702 245 651T282 550T315 456Q284 456 256 456T193 456Q185 456 180 457T173 463Q156 494 138 530T100 603T65 672T36 730Q33 735 35 740T43 746Q76 746 101 746T151 746T211 746Z" />
<glyph unicode="a" horiz-adv-x="600" d="M510 341Q510 316 510 293T510 245T510 196T510 148Q510 140 511 134T517 124Q520 121 525 120T538 118Q541 118 543 118T549 118H568Q568 91 568 65T568 11Q568 6 565 3T557 0Q552 0 533 0T498 0Q470 0 448 9T409 34T383
74T374 126Q374 157 374 189T374 252Q374 269 374 284T374 316T374 348Q374 377 364 393T332 417T271 424Q243 424 217 421T165 413T113 399H94Q94 426 94 453T94 506Q94 510 95 512T97 515Q103 521 130 529T196 542T271 548Q334 548 379 537T453 500T496 436T510
341ZM190 152Q190 131 201 121T237 110Q264 110 290 116T341 136T393 172V86H363Q350 56 327 35T272 2T204 -10Q158 -10 125 8T73 58T55 134V169Q55 202 66 228T97 273T147 302T212 313Q247 313 280 313T344 313T402 313Q411 313 415 297T421 262T422 229Q390 229
360 229T300 229T237 229Q225 229 217 226T202 217Q197 211 194 204T190 187V152Z" />
<glyph unicode="b" horiz-adv-x="600" d="M175 0Q165 0 148 0T114 0T87 0Q84 0 82 1T78 5T76 11Q76 86 76 160T76 310T76 460T76 610Q76 645 76 680T76 750Q92 750 107 750T138 750T169 750T200 750Q204 750 206 749T209 745T211 739Q211 659 211 580T211 423T211
265T211 106Q211 106 208 95T199 69T188 37T179 11T175 0ZM180 83L196 194Q226 157 262 139T331 121Q356 121 372 131T398 160T407 208V333Q407 357 402 373T386 400Q377 409 363 414T331 419Q310 419 287 409T241 380T200 334V458H228Q244 487 267 507T317 539T376
550Q414 550 444 537T496 499T530 437T542 355V186Q542 139 530 103T497 42T445 3T376 -10Q345 -10 316 1T264 32T221 83H180Z" />
<glyph unicode="c" horiz-adv-x="500" d="M312 550Q349 550 377 546T422 535T446 522Q448 521 448 519T449 513Q449 485 449 456T449 398H430Q403 410 374 416T311 422Q278 422 252 410T212 370T198 300V237Q198 205 206 182T231 143Q245 129 265 123T311 116Q334
116 354 118T393 126T430 139H449Q449 110 449 81T449 23Q449 21 449 19T446 15Q441 10 424 4T378 -7T312 -12Q252 -12 205 4T125 51T75 128T58 230V302Q58 376 90 431T179 518T312 550Z" />
<glyph unicode="d" horiz-adv-x="600" d="M224 550Q259 550 286 540T334 510T370 464H404V345Q374 382 339 400T269 419Q245 419 228 409T202 380T193 332V207Q193 183 198 166T214 140Q223 130 237 126T269 121Q292 121 315 128T360 153T404 197V78H370Q354 51
332 31T282 1T224 -10Q186 -10 156 3T104 41T70 102T58 184V354Q58 400 70 436T103 498T156 536T224 550ZM513 750Q517 750 519 749T522 745T524 739Q524 665 524 590T524 439T524 289T524 142Q524 105 524 70T524 0Q509 0 494 0T462 0T431 0T400 0Q397 0 395 1T391
5T389 11Q389 91 389 171T389 330T389 490T389 650Q389 675 389 700T389 750Q404 750 419 750T451 750T482 750T513 750Z" />
<glyph unicode="e" horiz-adv-x="600" d="M302 550Q370 550 420 522T499 444T527 327V244Q527 241 526 239T523 235T517 234H287Q270 234 253 234T218 234H177L174 318H396Q396 322 396 325T396 332Q396 361 390 381T371 414Q360 426 343 431T302 436Q252 436
228 412T203 332V210Q203 186 209 168T228 136Q244 120 270 113T332 106Q368 106 396 109T448 119T495 134H514Q514 109 514 84T514 32Q514 30 513 28T510 24Q502 16 475 8T409 -6T330 -12Q265 -12 216 3T134 48T85 118T68 212V326Q68 377 84 418T132 488T206 534T302
550Z" />
<glyph unicode="f" horiz-adv-x="400" d="M31 512H347Q351 512 353 511T356 507T358 501Q358 473 358 448T358 394H42Q39 394 37 395T33 399T31 405Q31 434 31 459T31 512ZM231 11Q231 7 228 4T220 0Q188 0 158 0T95 0Q95 25 95 50T95 100Q95 164 95 220T95 331T95
444T95 572Q95 617 108 653T145 715T204 755T285 769Q312 769 333 766T368 757T387 748Q389 747 389 745T390 740Q390 714 390 688T390 635H371Q359 640 348 643T324 649T299 651Q286 651 273 647T250 635Q240 625 236 611T231 571Q231 524 231 467T231 347T231
224T231 109T231 11Z" />
<glyph unicode="g" horiz-adv-x="600" d="M100 77Q100 100 108 118T133 151T178 173V205L241 181Q238 166 237 151T235 118Q235 106 240 102T257 97H386Q445 97 483 77T539 22T558 -60V-97Q558 -131 548 -159T515 -207T461 -239T384 -250H180Q128 -250 94 -237T42
-198T24 -134V-116Q24 -86 36 -63T72 -25T126 -5V33L200 -12Q183 -17 175 -26T162 -46T157 -73V-104Q157 -121 162 -132T180 -148T212 -153H370Q385 -153 395 -150T411 -140Q418 -133 421 -122T424 -96V-69Q424 -41 412 -29T370 -17H190Q167 -17 147 -5T113 30T100
77ZM339 439L433 446V419Q468 407 484 386T500 331V316Q500 272 476 241T402 193T278 175Q204 175 153 195T75 255T49 348V370Q49 425 75 464T152 525T278 547Q346 547 414 547T550 547Q550 522 550 497T550 445Q550 441 547 438T539 434Q496 434 455 434T371 434T278
434Q230 434 205 417T180 364V347Q180 332 184 322T197 303Q209 291 229 285T278 279Q326 279 348 296T370 350V371Q370 385 367 396T358 418T339 439Z" />
<glyph unicode="h" horiz-adv-x="600" d="M87 0Q84 0 82 1T78 5T76 11Q76 91 76 171T76 331T76 492T76 652Q76 680 76 705T76 750Q101 750 121 750T161 750T200 750Q204 750 206 749T209 745T211 739Q211 647 211 555T211 370T211 185T211 0Q189 0 170 0T130 0T87
0ZM195 333V451H230Q245 473 262 491T300 523T343 543T392 550Q424 550 450 540T495 509T523 459T533 394Q533 346 533 297T533 199T533 100Q533 75 533 50T533 0Q500 0 472 0T409 0Q406 0 404 1T400 5T398 11Q398 70 398 129T398 247T398 366Q398 393 386 406T348
419Q331 419 311 414T270 398T230 371T195 333Z" />
<glyph unicode="i" horiz-adv-x="350" d="M123 11Q123 38 123 78T123 166T123 260T123 348T123 417H116Q110 417 103 417T87 417T70 417T53 417Q48 417 45 420T42 428Q42 455 42 483T42 538Q59 538 80 538T126 538T173 538T215 538T247 538Q251 538 253 537T256
533T258 527Q258 480 258 425T258 312T258 200T258 97Q258 82 258 66T258 33T258 0Q225 0 197 0T134 0Q129 0 126 3T123 11ZM99 794Q118 794 138 794T180 794T222 794T262 794Q267 794 270 791T273 783V654Q254 654 234 654T192 654T150 654T110 654Q105 654 102
657T99 665V794Z" />
<glyph unicode="j" horiz-adv-x="350" d="M260 538Q264 538 266 537T269 533T271 527Q271 476 271 426T271 326T271 222T271 113T271 -5Q271 -59 262 -97T233 -157T186 -190T119 -200Q86 -200 62 -197T23 -188T0 -175Q-1 -173 -2 -171T-3 -167Q-3 -136 -3 -102T-3
-36H16Q29 -43 39 -47T60 -53T82 -55Q96 -55 105 -52T122 -42Q126 -37 129 -31T133 -18T135 0Q135 66 135 120T135 223T135 316T135 410H129Q124 410 115 410T96 410T76 410T58 410Q53 410 50 413T47 421Q47 450 47 479T47 538Q82 538 112 538T168 538T217 538T260
538ZM114 794Q133 794 153 794T195 794T237 794T277 794Q282 794 285 791T288 783V654Q269 654 249 654T207 654T165 654T125 654Q120 654 117 657T114 665V794Z" />
<glyph unicode="k" horiz-adv-x="600" d="M211 0Q189 0 170 0T130 0T87 0Q84 0 82 1T78 5T76 11Q76 91 76 171T76 331T76 492T76 652Q76 680 76 705T76 750Q101 750 121 750T161 750T200 750Q204 750 206 749T209 745T211 739Q211 647 211 555T211 370T211 185T211
0ZM434 0Q422 0 416 3T404 14Q400 19 393 29T377 53T357 82T336 111Q323 130 314 146T299 181T289 222H248L331 328Q373 272 414 218T497 109T581 0Q559 0 539 0T494 0T434 0ZM192 309H230Q237 330 244 347T259 379T276 407T298 434Q311 450 324 465T352 498T386
538H535Q538 538 540 537T544 534T545 529Q545 526 544 524T537 515Q506 480 476 448T416 383T359 320T302 258T247 197T192 138V309Z" />
<glyph unicode="l" horiz-adv-x="350" d="M13 750Q20 750 40 750T87 750T139 750T186 750T216 750Q220 750 222 749T225 745T227 739Q227 684 227 626T227 510T227 392T227 275T227 162Q227 153 228 147T234 136Q239 131 246 130T264 128Q271 128 281 128T296
128H307Q307 101 307 70T307 11Q307 7 306 5T302 2T296 0Q290 0 276 0T247 0T222 0Q191 0 167 9T126 36T101 82T92 147Q92 193 92 242T92 341T92 441T92 539T92 632H86Q82 632 70 632T44 632T24 632Q19 632 16 635T13 643Q13 670 13 696T13 750Z" />
<glyph unicode="m" horiz-adv-x="850" d="M774 0Q756 0 731 0T682 0T641 0Q638 0 636 1T632 5T630 11Q630 48 630 85T630 158T630 231T630 301T630 367Q630 394 620 405T589 416Q570 416 552 406T517 374T485 321L465 461H516Q532 491 550 510T594 540T650 550Q674
550 696 542T736 516T764 473T774 412Q774 383 774 347T774 271T774 187T774 100Q774 75 774 50T774 0ZM497 0Q482 0 455 0T403 0T364 0Q361 0 359 1T355 5T353 11Q353 48 353 85T353 159T353 231T353 301T353 368Q353 386 349 397T337 412T318 416Q299 416 280
406T243 374T206 319L181 461H230Q248 489 269 509T315 539T367 550Q394 550 417 542T459 518T487 477T497 418Q497 398 497 362T497 274T497 154T497 0ZM220 0Q206 0 189 0T153 0T118 0T87 0Q84 0 82 0T79 2T77 6T76 11Q76 83 76 154T76 296T76 438Q76 465 76
490T76 538Q87 538 101 538T130 538T160 538T185 538Q185 538 190 521T202 480T214 439T220 421Q220 355 220 285T220 144T220 0Z" />
<glyph unicode="n" horiz-adv-x="600" d="M533 0Q500 0 472 0T409 0Q406 0 404 1T400 5T398 11Q398 70 398 129T398 248T398 366Q398 393 386 406T348 419Q331 419 311 414T270 398T230 371T195 333V451H230Q250 481 274 503T328 537T392 550Q424 550 450 540T495
509T523 459T533 394Q533 346 533 297T533 199T533 100Q533 75 533 50T533 0ZM211 0Q189 0 170 0T130 0T87 0Q84 0 82 0T79 2T77 6T76 11Q76 65 76 118T76 225T76 332T76 440Q76 468 76 493T76 538Q101 538 121 538T161 538T200 538Q204 538 206 537T209 533T211
527Q211 440 211 352T211 176T211 0Z" />
<glyph unicode="o" horiz-adv-x="600" d="M300 550Q354 550 398 533T475 486T524 413T542 320V219Q542 151 512 99T427 18T300 -12Q246 -12 202 5T125 52T76 125T58 218V319Q58 387 88 439T174 520T300 550ZM301 427Q267 427 243 414T206 375T193 313V225Q193
197 201 176T223 138Q236 125 255 118T299 111Q333 111 357 124T394 164T407 225V313Q407 344 400 365T379 401Q366 415 347 421T301 427Z" />
<glyph unicode="p" horiz-adv-x="600" d="M76 538Q98 538 118 538T158 538T200 538Q204 538 206 537T209 533T211 527Q211 436 211 345T211 163T211 -19T211 -200Q190 -200 170 -200T129 -200T87 -200Q84 -200 82 -199T78 -195T76 -189Q76 -111 76 -33T76 124T76
281T76 437Q76 465 76 490T76 538ZM376 550Q427 550 464 527T521 460T542 355V186Q542 140 530 104T497 42T445 3T376 -10Q347 -10 320 0T269 29T228 71H199V179Q226 151 261 136T331 121Q356 121 372 131T397 160T407 208V333Q407 357 402 373T386 400Q377 409
363 414T331 419Q310 419 287 409T241 379T200 333V457H228Q244 487 267 507T317 538T376 550Z" />
<glyph unicode="q" horiz-adv-x="600" d="M389 538Q421 538 451 538T513 538Q517 538 519 537T522 533T524 527Q524 454 524 381T524 233T524 86T524 -58Q524 -95 524 -130T524 -200Q492 -200 462 -200T400 -200Q397 -200 395 -199T391 -195T389 -189Q389 -111
389 -33T389 124T389 281T389 438Q389 455 389 471T389 505T389 538ZM401 84H373Q358 54 335 33T284 1T224 -10Q173 -10 136 13T79 79T58 184V354Q58 400 70 436T103 498T156 536T224 550Q254 550 280 540T330 510T372 466H401V356Q373 387 338 403T269 419Q245
419 228 409T202 380T193 332V207Q193 183 198 166T214 140Q223 130 237 126T269 121Q290 121 313 131T359 160T401 206V84Z" />
<glyph unicode="r" horiz-adv-x="450" d="M201 442H241Q253 479 269 502T308 537T362 548Q378 548 388 545T403 539Q407 536 408 534T409 526Q409 510 409 495T409 464T409 434T409 402H390Q380 405 368 407T341 409Q310 409 287 397T243 364T201 313V442ZM220
0Q198 0 176 0T131 0T87 0Q84 0 82 0T79 2T77 6T76 11Q76 48 76 89T76 175T76 263T76 352T76 440Q76 468 76 493T76 538Q101 538 123 538T167 538T209 538Q213 538 215 537T218 533T220 527Q220 481 220 430T220 326T220 218T220 108T220 0Z" />
<glyph unicode="s" horiz-adv-x="550" d="M268 121Q328 121 350 134T372 166Q372 177 367 186T348 201T309 212L206 227Q158 235 126 254T79 304T63 371Q63 413 79 445T128 501T207 536T314 548Q346 548 373 546T422 539T461 530Q468 528 471 526T475 519T476
507Q476 486 476 455T476 396H458Q431 403 406 408T355 415T300 417Q260 417 238 412T206 397T197 376Q197 365 202 357T221 343T257 334L351 320Q400 314 434 295T486 244T505 168Q505 114 478 74T397 12T267 -10Q231 -10 200 -8T143 -1T95 10T59 23Q53 25 52
28T50 39Q50 62 50 94T50 156H68Q92 146 114 140T160 129T210 123T268 121Z" />
<glyph unicode="t" horiz-adv-x="500" d="M41 538H427Q433 538 436 535T439 527Q439 506 439 488T439 451T439 412H53Q51 412 49 413T45 415T42 419T41 423Q41 443 41 462T41 499T41 538ZM439 129Q439 99 439 70T439 11Q439 7 436 4T428 0Q418 0 408 0T387 0T366
0T345 0Q293 0 252 12T182 51T138 118T123 215Q123 264 123 312T123 408T123 504T123 600Q123 626 123 650T123 700Q154 700 185 700T247 700Q250 700 252 699T256 695T258 689Q258 631 258 574T258 458T258 343T258 227Q258 197 264 178T282 147Q293 137 309 133T350
129Q363 129 375 129T401 129T427 129H439Z" />
<glyph unicode="u" horiz-adv-x="600" d="M200 538Q204 538 206 537T209 533T211 527Q211 483 211 437T211 344T211 255T211 172Q211 150 222 138T255 126Q278 126 298 130T337 144T373 169T406 205V87H371Q353 56 331 34T282 0T216 -12Q186 -12 160 -2T115 29T86
77T76 139Q76 184 76 229T76 319T76 409Q76 441 76 473T76 538Q107 538 138 538T200 538ZM514 538Q518 538 520 537T523 533T525 527Q525 455 525 384T525 242T525 98Q525 79 525 62T525 29T525 0Q503 0 482 0T440 0T400 0Q397 0 395 1T391 5T389 11Q389 99 389
187T389 362T389 538Q411 538 431 538T472 538T514 538Z" />
<glyph unicode="v" horiz-adv-x="600" d="M171 538Q176 538 178 536T183 531T187 523Q204 461 221 398T256 261T292 97H311Q322 151 333 199T355 292T376 378T397 459T418 538Q449 538 480 538T544 538Q549 538 552 536T556 529T556 520Q536 455 516 390T477 260T438
130T397 0Q353 0 310 0T229 0Q219 0 212 3T201 14T190 39Q177 84 163 131T133 229T103 330T71 433T39 538Q73 538 105 538T171 538Z" />
<glyph unicode="w" horiz-adv-x="800" d="M332 538H456Q459 538 461 537T465 534T468 527Q483 462 495 408T518 306T536 209T549 108H573Q575 162 580 216T593 325T609 434T626 538Q647 538 669 538T713 538T756 538Q760 538 762 538T766 534T766 525Q752 462
738 397T710 266T681 132T653 0Q635 0 615 0T574 0T533 0T495 0Q488 0 484 5T475 26Q464 72 456 102T443 157T433 208T423 274T411 374H391Q384 324 380 289T371 229T362 181T352 135T338 79T317 0Q294 0 266 0T210 0T161 0Q154 0 150 5T142 28Q132 72 122 121T101
222T78 327T56 433T33 538Q53 538 74 538T118 538T161 538Q165 538 167 537T171 534T174 525Q183 472 191 420T208 317T221 213T229 108H253Q258 160 265 212T284 317T307 425T332 538Z" />
<glyph unicode="x" horiz-adv-x="600" d="M51 538Q86 538 123 538T195 538Q202 538 206 536T214 528Q240 477 265 425T317 323L364 305Q412 229 460 153T557 0Q539 0 521 0T487 0T455 0T428 0Q411 0 404 4T389 21Q381 35 363 69T324 145T283 222L234 243Q188 317
143 390T51 538ZM237 306L341 183H287Q273 152 258 122T228 62T198 0H62Q56 0 53 3T50 11Q50 14 51 17T57 27Q102 97 147 167T237 306ZM537 538Q542 538 545 536T549 526Q549 525 548 523T545 516Q501 447 456 377T366 237L267 352H317Q331 383 344 414T370 476T398
538H537Z" />
<glyph unicode="y" horiz-adv-x="600" d="M547 538Q552 538 556 534T559 522Q540 449 523 383T488 251T452 113T413 -40Q400 -95 376 -130T314 -183T223 -200Q210 -200 193 -200T159 -200T130 -200T115 -200Q110 -200 107 -197T104 -189V-82H123Q144 -82 165 -82T207
-82Q241 -82 262 -66T291 -13Q298 12 308 56T332 159T361 281T391 412T421 538Q435 538 450 538T481 538T513 538T547 538ZM173 538Q183 538 187 535T193 524Q212 454 226 404T251 316T270 247T286 186T303 118H363L340 34H232Q223 34 217 36T206 44T197 63Q192
77 180 112T151 199T115 308T77 426T42 538Q57 538 73 538T106 538T139 538T173 538Z" />
<glyph unicode="z" horiz-adv-x="550" d="M63 538H475Q480 538 482 537T485 533T487 527V397Q461 370 440 346T399 302T363 264T332 231T304 202Q283 182 267 170T234 147V128Q257 128 281 128T328 128H476Q481 128 484 125T487 117Q487 88 487 59T487 0H75Q71
0 69 1T65 5T63 11V142Q107 188 141 224T203 288T257 341Q274 356 289 367T323 391V410Q296 410 269 410T215 410H74Q71 410 69 411T65 415T63 421Q63 450 63 479T63 538Z" />
<glyph unicode="{" horiz-adv-x="550" d="M388 156Q388 129 382 109T366 73T348 44T335 18Q334 13 334 8T333 -3Q334 -20 341 -26T368 -32Q395 -32 422 -32T476 -32H495Q495 -62 495 -91T495 -150Q495 -155 492 -158T484 -161H309Q267 -161 243 -144T208 -102T197
-59V-17Q197 18 205 41T225 80T244 114T253 155Q253 180 234 198T178 226T87 236H66Q61 236 58 239T55 247Q55 276 55 305T55 364H87Q141 364 178 373T234 400T253 444Q253 468 245 485T225 518T206 558T197 616V658Q197 678 208 701T243 742T309 760H484Q489 760
492 757T495 749Q495 719 495 690T495 631H476Q449 631 422 631T368 631Q349 631 342 625T333 602Q333 598 333 594T333 587Q336 573 344 560T363 530T380 493T388 443Q388 392 362 360T277 309V291Q336 276 362 241T388 156Z" />
<glyph unicode="|" horiz-adv-x="300" d="M78 760Q112 760 145 760T211 760Q216 760 219 757T222 749Q222 658 222 567T222 385T222 204T222 22T222 -160Q189 -160 156 -160T89 -160Q85 -160 82 -157T78 -149Q78 -49 78 51T78 252T78 453T78 654Q78 681 78 707T78 760Z" />
<glyph unicode="}" horiz-adv-x="550" d="M162 443Q162 470 168 490T184 526T202 555T215 581Q217 586 217 591T217 602Q216 619 209 625T182 631Q155 631 128 631T74 631H55Q55 661 55 690T55 749Q55 754 58 757T66 760H241Q283 760 307 743T342 702T353 658V616Q353
581 345 558T325 519T306 485T297 444Q297 419 316 401T372 373T463 363H484Q489 363 492 360T495 352Q495 323 495 294T495 235H463Q410 235 373 226T316 199T297 155Q297 132 305 115T325 81T344 41T353 -17V-59Q353 -78 343 -102T308 -143T241 -161H66Q61 -161
58 -158T55 -150Q55 -120 55 -91T55 -32H74Q101 -32 128 -32T182 -32Q201 -32 208 -26T217 -3Q217 1 217 5T217 12Q214 26 206 39T187 69T170 106T162 156Q162 207 188 239T273 290V308Q214 323 188 358T162 443Z" />
<glyph unicode="~" horiz-adv-x="600" d="M395 144Q449 144 486 169T543 242T562 362V433Q562 442 559 445T547 449Q522 449 497 449T447 449V437Q447 426 447 415T447 395Q447 340 436 321T404 301Q388 301 377 312T357 341T338 378T311 416T270 445T205 456Q151
456 114 431T57 358T38 238V167Q38 158 41 155T53 151Q78 151 103 151T153 151V163Q153 174 153 185T153 207Q153 260 164 279T196 299Q212 299 223 288T243 259T262 222T289 184T331 155T395 144Z" />
<glyph unicode="&#xa1;" horiz-adv-x="350" d="M126 255H214Q217 255 219 255T222 252Q224 251 225 246T230 221T240 158T257 36V-52Q257 -80 257 -106T257 -162Q228 -162 190 -162T104 -162Q101 -162 99 -161T95 -157T93 -151V36Q98 73 103 109T114 182T126 255ZM87
547Q117 547 143 547T196 547T252 547Q256 547 258 546T261 542T263 536V370Q234 370 208 370T155 370T98 370Q95 370 93 371T89 375T87 381V547Z" />
<glyph unicode="&#xa2;" horiz-adv-x="600" d="M345 622Q392 622 427 616T483 600T513 582Q516 580 516 578T517 573Q517 564 517 543T517 497T517 453H498Q459 469 422 478T342 487Q303 487 273 477T227 441T210 372V313Q210 283 217 261T240 225Q256 210 281
203T341 196Q370 196 396 199T447 210T498 228H517Q517 209 517 186T517 142T517 108Q517 106 517 104T514 100Q506 92 483 83T424 67T339 61Q274 61 225 77T140 124T88 201T70 305V375Q70 448 104 504T200 591T345 622ZM390 360L328 376Q324 377 322 379T318 384T317
391Q317 430 317 470T317 549T317 628Q317 652 317 684T317 741Q342 741 359 741T394 741T436 741Q439 741 441 740T445 736T446 728Q441 696 436 661T425 587T413 511T402 435T390 360ZM313 313L375 298Q379 297 381 295T385 290T386 283Q386 242 386 201T386
119T386 36Q386 12 386 -20T386 -78Q361 -78 344 -78T309 -78T267 -78Q264 -78 262 -77T258 -72T257 -65Q264 -18 271 29T285 123T299 218T313 313Z" />
<glyph unicode="&#xa3;" horiz-adv-x="600" d="M61 404H439Q443 404 445 403T448 399T450 393Q450 386 450 367T450 330T450 304H72Q69 304 67 305T63 309T61 315Q61 321 61 339T61 377T61 404ZM382 591Q352 591 332 587T298 571Q287 563 281 549T275 513Q275
480 275 446T275 379T275 314T275 253Q275 228 271 206T251 163T203 126L227 161V93L197 122Q223 122 252 122T310 122T368 122T421 122Q437 122 456 122T494 122T530 122H549Q549 94 549 67T549 11Q549 7 546 4T538 0Q516 0 491 0T439 0T384 0T329 0T277 0T229
0H210Q188 0 163 0T111 0T52 0Q47 0 44 3T41 11Q41 24 41 38T41 66T41 94T41 122H65Q87 122 104 129T130 154T140 199Q140 234 140 274T140 357T140 440T140 516V535Q140 591 168 632T251 696T380 720Q441 720 478 707T526 684Q528 683 528 681T528 677Q528 658
528 639T528 600T528 561H509Q475 577 447 584T382 591Z" />
<glyph unicode="&#xa4;" horiz-adv-x="600" d="M252 423Q237 409 218 390T182 353Q180 351 178 351T174 350T170 353Q147 376 122 401T74 450Q88 464 106 482T143 519Q145 521 146 521T149 522Q152 522 155 519Q179 496 204 471T252 423ZM346 423Q369 446 394
471T443 519Q446 522 449 522Q451 522 452 522T455 519Q473 502 490 485T524 450Q502 427 477 402T428 353Q426 351 424 351T420 350T416 353Q413 357 403 366T381 388T359 410T346 423ZM346 175Q362 190 381 209T416 245Q419 248 422 248T428 245Q451 223 476
197T524 149Q510 134 492 116T455 79Q454 78 453 77T449 76Q446 76 443 79Q419 102 394 127T346 175ZM252 175Q229 153 204 128T155 79Q152 76 149 76Q148 76 147 77T143 79Q126 97 109 114T74 149Q96 171 121 197T170 245Q172 247 174 247T178 248T182 245Q185
242 195 232T217 210T239 188T252 175ZM121 306Q121 356 144 394T207 453T300 475Q353 475 393 454T456 394T479 306V291Q479 244 456 207T393 148T300 126Q247 126 207 147T144 206T121 291V306ZM228 296Q228 274 232 262T245 240Q254 233 267 229T300 225Q338
225 355 242T372 296V309Q372 327 369 339T356 359Q348 368 334 372T300 376Q262 376 245 360T228 309V296Z" />
<glyph unicode="&#xa5;" horiz-adv-x="600" d="M17 465H212V365H28Q25 365 23 366T19 370T17 376Q17 383 17 402T17 439T17 465ZM388 465H572Q577 465 580 462T583 454Q583 445 583 426T583 390T583 365H388V465ZM583 133H28Q23 133 20 136T17 144Q17 150 17 168T17
207T17 234H572Q576 234 578 233T581 229T583 223Q583 215 583 196T583 159T583 133ZM372 263Q372 232 372 198T372 137T372 100Q372 83 372 57T372 0Q365 0 347 0T306 0T265 0T239 0Q236 0 234 1T230 5T228 11Q228 21 228 47T228 110T228 187T228 264Q219 283
204 313T169 384T126 474T76 580T19 700Q43 700 66 700T113 700T160 700Q164 700 166 699T171 695T175 689Q198 634 215 591T246 509T274 425T304 319L265 354H342L305 319Q320 380 333 425T359 511T390 596T430 700Q465 700 498 700T564 700Q571 700 574 696T574
684Q549 632 524 580T474 475T423 370T372 263Z" />
<glyph unicode="&#xa6;" horiz-adv-x="350" d="M103 760Q136 760 169 760T236 760Q238 760 240 760T244 757Q246 756 246 754T247 749V369Q213 369 180 369T114 369Q110 369 107 372T103 380V661Q103 686 103 710T103 760ZM103 231Q136 231 169 231T236 231Q241
231 244 228T247 220V-160Q213 -160 180 -160T114 -160Q111 -160 109 -159T105 -155T103 -149V231Z" />
<glyph unicode="&#xa7;" horiz-adv-x="600" d="M319 719Q357 719 389 715T446 705T489 691T514 674Q517 672 518 670T519 664T520 655Q520 619 520 584T520 512Q490 512 461 512T400 512Q395 512 392 515T389 523Q389 535 389 546T389 569T389 592T389 616L421
578Q375 595 321 595Q292 595 271 591T234 577T211 553T203 520V501Q203 481 210 468T235 445T290 424L385 395Q446 377 480 357T529 310T543 243V223Q543 200 533 180T504 145T463 126V98L359 99Q378 115 389 128T405 154T410 180V207Q410 224 405 236T383 258T329
280L235 309Q168 330 133 358T84 419T70 482V526Q70 567 88 601T140 662T219 704T319 719ZM291 -119Q354 -119 382 -100T410 -54V-45Q410 -28 405 -17T382 4T328 25L234 54Q180 71 144 93T89 144T70 203V221Q70 264 94 292T150 327V354L255 351Q236 342 225 331T208
305T203 271V247Q203 228 209 215T234 191T287 169L383 141Q445 122 479 97T528 38T543 -36V-58Q543 -100 526 -135T474 -196T392 -236T282 -250Q246 -250 213 -247T152 -236T101 -218T65 -193Q64 -191 63 -189T62 -185Q62 -154 62 -122T62 -58H81Q127 -89 175
-104T291 -119Z" />
<glyph unicode="&#xa8;" horiz-adv-x="600" d="M119 766Q152 766 186 766T253 766Q257 766 259 765T262 761T264 755V621Q231 621 197 621T130 621Q127 621 125 622T121 626T119 632V766ZM336 766Q369 766 403 766T470 766Q474 766 476 765T479 761T481 755V621Q448
621 414 621T347 621Q344 621 342 622T338 626T336 632V766Z" />
<glyph unicode="&#xa9;" horiz-adv-x="600" d="M300 715Q387 715 451 683T551 587T586 429V270Q586 177 550 114T449 18T300 -15Q213 -15 149 17T49 113T14 271V430Q14 524 50 587T151 682T300 715ZM300 655Q231 655 181 630T105 557T78 446V255Q78 205 94 165T142
97Q171 72 210 59T300 45Q370 45 419 70T495 143T522 254V445Q522 495 506 535T459 602Q430 628 390 641T300 655ZM308 566Q344 566 371 554T416 522Q419 519 420 517T421 511Q421 488 421 466T421 420Q404 420 388 420T354 420Q348 420 346 423T343 431Q343 451
343 471T343 512L360 468Q349 481 337 485T308 490Q289 490 277 483T259 462T252 429V277Q252 259 255 248T267 228Q274 221 285 217T313 213Q345 213 366 224T409 260H421Q421 241 421 223T421 186Q421 181 420 179T417 174Q402 155 372 145T307 134Q259 134 229
151T183 199T168 273V428Q168 494 204 530T308 566Z" />
<glyph unicode="&#xaa;" horiz-adv-x="600" d="M226 291Q195 291 170 302T126 334T98 385T88 454V596Q88 648 105 684T153 740T227 760Q266 760 296 742T342 694H375L372 599Q348 625 322 638T267 651Q248 651 234 643T212 618T205 577V473Q205 453 209 439T222
417Q230 409 241 405T267 400Q285 400 303 408T338 433T371 472L382 375H346Q332 336 300 314T226 291ZM523 398Q523 376 523 354T523 310Q523 305 520 302T512 299Q503 299 494 299T477 299Q437 299 412 313T374 352T361 405Q361 444 361 482T361 559T361 637Q361
656 361 675T361 712T361 750Q387 750 414 750T467 750Q472 750 474 747T477 739Q477 686 477 633T477 527T477 420Q477 409 482 404T496 398Q498 398 500 398T504 398H523Z" />
<glyph unicode="&#xab;" horiz-adv-x="600" d="M333 97V78Q307 78 282 78T231 78Q221 78 217 80T205 90Q201 94 185 111T147 151T103 197T63 239T40 263Q33 271 32 275T30 285Q30 295 30 305T30 325Q53 350 79 377T131 432T176 480T207 512Q214 519 219 520T233
522Q258 522 283 522T333 522V503Q292 460 259 426T198 361T141 299Q169 270 196 241T255 178T333 97ZM563 97V78Q537 78 512 78T461 78Q451 78 447 80T435 90Q431 94 415 111T377 151T333 197T293 239T270 263Q263 271 262 275T260 285Q260 295 260 305T260 325Q283
350 309 377T361 432T406 480T437 512Q444 519 449 520T463 522Q488 522 513 522T563 522V503Q522 460 489 426T428 361T371 299Q399 270 426 241T485 178T563 97Z" />
<glyph unicode="&#xac;" horiz-adv-x="600" d="M62 453H526Q531 453 533 452T536 448T538 442Q538 367 538 292T538 141Q509 141 482 141T425 141Q422 141 420 142T416 146T414 152Q414 210 414 267T414 383L457 329H73Q70 329 68 330T64 334T62 340Q62 369 62
397T62 453Z" />
<glyph unicode="&#xad;" horiz-adv-x="600" d="M60 364H379Q383 364 385 363T388 359T390 353Q390 323 390 295T390 235H71Q68 235 66 235T63 237T61 241T60 246Q60 277 60 305T60 364Z" />
<glyph unicode="&#xae;" horiz-adv-x="600" d="M300 760Q362 760 409 746T489 704T539 636T556 542V415Q556 363 539 323T490 256T410 214T300 200Q222 200 165 224T76 297T44 417V543Q44 596 61 636T112 704T193 746T300 760ZM300 700Q252 700 216 690T156 660T120
613T108 551V409Q108 373 121 345T161 297Q185 279 220 270T300 260Q350 260 386 270T446 300T481 346T492 408V549Q492 582 482 608T451 654Q429 676 391 688T300 700ZM225 608H263Q265 599 265 591T265 572Q265 530 265 488T265 402Q265 383 265 365T265 327Q249
327 233 327T200 327Q195 327 192 330T189 338Q189 383 189 428T189 518T189 608H225ZM324 635Q358 635 381 625T415 594T427 546V512Q427 494 422 479T405 452T378 434T342 427Q323 427 304 427T268 427Q262 427 255 427T237 428V458V491H323Q336 491 344 498T352
517V543Q352 549 351 554T345 563Q338 569 323 569Q299 569 275 569T228 569T180 569Q175 569 172 572T169 580Q169 594 169 607T169 635Q208 635 246 635T324 635ZM363 475Q369 459 376 442T389 408Q392 401 395 399T408 396Q414 396 417 396T425 396H428Q428
381 428 364T428 335Q428 330 426 327T417 324H406Q374 324 357 334T329 371Q322 391 314 411T298 451L363 475Z" />
<glyph unicode="&#xaf;" horiz-adv-x="600" d="M121 768H468Q473 768 476 765T479 757Q479 740 479 724T479 691T479 656H132Q129 656 127 657T123 661T121 667Q121 685 121 701T121 734T121 768Z" />
<glyph unicode="&#xb0;" horiz-adv-x="600" d="M300 710Q353 710 392 693T452 643T473 566V507Q473 463 452 430T392 379T300 361Q247 361 208 379T148 430T127 507V566Q127 610 148 642T208 692T300 710ZM300 451Q338 451 359 468T381 514V557Q381 583 365 599Q355
609 339 614T300 620Q262 620 241 604T219 557V514Q219 488 236 472Q246 462 262 457T300 451Z" />
<glyph unicode="&#xb1;" horiz-adv-x="600" d="M232 597Q269 597 297 597T357 597Q362 597 365 594T368 585Q368 540 368 495T368 404T368 314T368 223Q335 223 306 223T243 223Q238 223 235 226T232 234Q232 278 232 322T232 411T232 497Q232 524 232 549T232
597ZM62 471H526Q531 471 533 470T536 466T538 460Q538 430 538 405T538 348H74Q68 348 65 351T62 359Q62 390 62 415T62 471ZM62 163H526Q531 163 533 162T536 158T538 152Q538 121 538 96T538 39H74Q70 39 68 40T64 44T62 50Q62 82 62 107T62 163Z" />
<glyph unicode="&#xb2;" horiz-adv-x="400" d="M340 357Q338 357 318 357T268 357T205 357T143 357T93 357T70 357Q67 357 65 358T61 362T59 368V446Q59 480 67 509T98 559T161 595Q194 607 211 616T234 634T240 655Q240 666 237 672T229 684Q225 689 213 692T179
695Q148 695 124 690T80 676H68Q68 680 68 693T68 722T68 750T68 767Q68 770 69 773T76 779Q89 785 119 790T192 795Q243 795 275 780T322 739T338 675V668Q338 635 327 609T291 562T220 525Q191 515 176 505T155 478T145 435L150 497V423L131 447Q155 454 181
456T251 458H329Q334 458 337 455T340 447Q340 443 340 431T340 403T340 374T340 357Z" />
<glyph unicode="&#xb3;" horiz-adv-x="400" d="M336 684Q336 645 312 614T230 574L263 597V550L229 571Q271 567 295 552T330 515T341 465V459Q341 421 323 396T271 359T191 347Q141 347 112 354T66 370Q62 373 61 376T60 384Q60 389 60 400T60 426T60 453T60
469H72Q96 458 122 453T179 448Q218 448 233 458T248 488Q248 501 239 510T203 525T124 530Q119 530 116 533T112 541Q112 546 112 562T112 593T112 613Q165 613 193 617T233 630T244 656Q244 676 228 685T175 695Q147 695 123 690T78 675H66Q66 679 66 691T66
720T66 748T66 765Q66 768 67 772T75 778Q88 784 114 789T183 795Q239 795 272 781T321 743T336 690V684Z" />
<glyph unicode="&#xb4;" horiz-adv-x="600" d="M347 809Q390 809 424 809T500 809Q507 809 509 804T507 794Q483 766 461 741T415 689T362 629Q360 626 356 624T345 621Q316 621 291 621T239 621Q257 652 275 683T311 746T347 809Z" />
<glyph unicode="&#xb5;" horiz-adv-x="600" d="M76 157H178L183 13L163 -9Q189 -61 204 -97T220 -135Q220 -157 220 -167T220 -200Q199 -200 162 -200T87 -200Q84 -200 82 -199T78 -196T76 -189Q76 -130 76 -73T76 41T76 157ZM209 538Q213 538 215 537T218 533T220
527V359Q220 330 220 300T220 239T220 178Q220 155 230 144T260 132Q278 132 295 137T330 155T369 187T413 239V83H373Q350 50 326 30T278 -1T229 -12Q197 -12 170 0T121 32T88 80T76 140Q76 214 76 288T76 435Q76 453 76 470T76 504T76 538Q110 538 143 538T209
538ZM391 538Q425 538 458 538T524 538Q524 439 524 342T524 146Q524 138 525 133T531 124Q538 118 549 118Q553 118 559 118T569 118H576Q576 88 576 59T576 1Q576 -2 575 -4T571 -8T565 -10H523Q476 -10 444 7T396 53T380 116Q380 219 380 321T380 527Q380 530
381 532T385 536T391 538Z" />
<glyph unicode="&#xb6;" horiz-adv-x="600" d="M306 576Q283 576 266 567T240 540T231 491V373Q231 351 236 339T251 323T279 318H309V215Q288 215 271 215T239 215H208Q155 215 117 239T58 305T37 402V488Q37 558 64 605T142 676T260 700H565Q568 700 570 700T574
697Q576 696 576 694T577 689Q577 650 577 629T577 597T577 576H566Q533 576 488 576T396 576T306 576ZM277 636H323Q327 636 329 635T332 631T334 625Q334 532 334 436T334 241T334 45T334 -150Q309 -150 285 -150T236 -150Q231 -150 228 -147T225 -139Q225 -75
225 -11T225 119T225 248T225 377T225 507T225 636H277ZM467 636H516Q520 636 522 635T525 631T527 625Q527 542 527 459T527 293T527 126T527 -40Q527 -70 527 -98T527 -150Q502 -150 478 -150T428 -150Q423 -150 420 -147T417 -139Q417 -61 417 16T417 171T417
326T417 481T417 636H467Z" />
<glyph unicode="&#xb7;" horiz-adv-x="350" d="M263 230Q234 230 208 230T155 230T98 230Q95 230 93 231T89 235T87 241V407Q117 407 143 407T196 407T252 407Q256 407 258 406T261 402T263 396V230Z" />
<glyph unicode="&#xb8;" horiz-adv-x="600" d="M335 51Q332 42 330 32T325 12T320 -7T316 -22L314 -32Q360 -33 387 -58T415 -127Q415 -185 379 -215T268 -246Q231 -246 211 -242T182 -231T173 -214Q173 -199 173 -185T173 -157T173 -132H185Q198 -138 213 -142T248
-146Q268 -146 282 -138T297 -109Q297 -90 284 -81T244 -71Q239 -71 236 -67T235 -57Q241 -43 245 -31T254 -8T263 14T272 36Q275 42 279 45T296 49T335 51Z" />
<glyph unicode="&#xb9;" horiz-adv-x="400" d="M61 458H328Q333 458 336 455T339 447Q339 443 339 431T339 403T339 374T339 357H72Q67 357 64 360T61 368Q61 376 61 385T61 405T61 430T61 458ZM259 396H156L162 413Q162 419 162 424T162 433T162 442Q162 444
162 464T162 516T162 581T162 647T162 701L182 671H129L155 697Q147 670 139 651T122 617T98 588Q88 577 83 574T74 571Q71 571 70 573T68 578V708Q78 717 89 726T113 746Q127 757 139 767T161 785Q166 785 179 785T206 785T232 785T249 785Q253 785 256 782T259
774Q259 772 259 744T259 674T259 585T259 496T259 426T259 396Z" />
<glyph unicode="&#xba;" horiz-adv-x="600" d="M302 762Q363 762 409 736T481 662T507 550V494Q507 434 481 387T407 314T298 288Q236 288 190 314T119 388T93 501V556Q93 617 119 663T193 736T302 762ZM305 655Q273 655 251 644T218 611T206 559V494Q206 469
212 450T229 419Q240 407 256 401T295 395Q327 395 348 407T382 440T394 491V556Q394 582 389 599T374 629Q362 642 345 648T305 655Z" />
<glyph unicode="&#xbb;" horiz-adv-x="600" d="M268 503V522Q294 522 319 522T370 522Q380 522 384 520T396 510Q400 506 416 489T454 449T498 403T538 361T561 337Q568 330 569 326T571 315Q571 305 571 295T571 275Q548 250 522 223T470 168T425 120T394 88Q387
81 382 80T368 78Q343 78 318 78T268 78V97Q310 141 342 175T403 239T460 301Q433 330 406 359T346 422T268 503ZM38 503V522Q64 522 89 522T140 522Q150 522 154 520T166 510Q170 506 186 489T224 449T268 403T308 361T331 337Q338 330 339 326T341 315Q341 305
341 295T341 275Q318 250 292 223T240 168T195 120T164 88Q157 81 152 80T138 78Q113 78 88 78T38 78V97Q80 141 112 175T173 239T230 301Q203 330 176 359T116 422T38 503Z" />
<glyph unicode="&#xbc;" horiz-adv-x="800" d="M426 414Q430 420 440 442T463 497T490 563T517 629T539 682T551 710Q555 710 572 710T612 710T652 710T674 710Q680 710 681 707T680 697Q676 690 666 670T641 620T611 559T581 498T556 448T542 421Q540 417 538
416T531 414Q527 414 513 414T479 414T445 414T426 414ZM374 287Q370 281 360 259T337 204T310 138T283 72T261 19T249 -9Q245 -9 228 -9T188 -9T148 -9T126 -9Q120 -9 119 -6T120 4Q124 11 134 31T159 81T189 142T219 203T244 253T258 280Q260 285 262 286T269
287Q273 287 287 287T321 287T355 287T374 287ZM715 -85Q711 -85 700 -85T674 -85T649 -85T633 -85Q628 -85 625 -83T622 -74V95Q622 97 624 109T630 138T637 167T642 187H704Q710 187 712 184T715 176V-34Q715 -41 715 -59T715 -85ZM759 -3H452Q447 -3 444 0T441
8V76Q441 76 448 94T467 141T491 202T516 263T536 312T546 335Q549 340 552 341T560 343Q564 343 577 343T605 343T634 343T651 343V331Q650 328 642 309T621 262T595 203T569 144T548 96T537 71L550 126V68L536 83Q553 89 568 92T602 96T643 98H748Q753 98 756
95T759 87Q759 83 759 71T759 43T759 14T759 -3ZM61 458H328Q333 458 336 455T339 447Q339 443 339 431T339 403T339 374T339 357H72Q67 357 64 360T61 368Q61 376 61 385T61 405T61 430T61 458ZM259 396H156L162 413Q162 419 162 424T162 433T162 442Q162 444
162 464T162 516T162 581T162 647T162 701L182 671H129L155 697Q147 670 139 651T122 617T98 588Q88 577 83 574T74 571Q71 571 70 572T68 578V708Q78 717 89 726T113 746Q127 757 139 767T161 785Q166 785 179 785T206 785T232 785T248 785Q253 785 256 782T259
774Q259 772 259 744T259 674T259 585T259 496T259 426T259 396Z" />
<glyph unicode="&#xbd;" horiz-adv-x="600" d="M359 405Q362 412 369 435T385 490T405 558T425 626T442 681T451 710Q455 710 471 710T508 710T545 710T565 710Q571 710 573 707T573 697Q570 690 561 669T539 617T511 555T484 492T461 441T448 412Q446 408 444
407T438 405Q433 405 416 405T382 405T359 405ZM241 296Q238 289 231 266T214 210T194 143T174 75T158 20T149 -9Q145 -9 130 -9T95 -9T59 -9T35 -9Q29 -9 27 -6T27 4Q30 10 39 31T61 83T89 146T116 209T139 260T152 289Q154 294 156 295T162 296Q169 296 184 296T217
296T241 296ZM562 -85Q559 -85 539 -85T490 -85T427 -85T364 -85T314 -85T291 -85Q288 -85 286 -84T282 -80T280 -74V3Q280 38 289 66T320 116T382 152Q416 164 432 173T455 191T461 213Q461 224 459 230T451 241Q446 246 434 249T401 252Q370 252 346 247T301
233H289Q289 237 289 250T289 279T289 307T289 324Q289 327 290 330T298 336Q310 342 340 347T413 353Q464 353 496 338T543 296T559 233V226Q559 193 549 166T513 119T441 82Q412 72 397 62T376 35T367 -8L372 54V-19L352 4Q376 11 402 13T473 15H551Q556 15 559
12T562 4Q562 0 562 -12T562 -40T562 -68T562 -85ZM22 458H289Q294 458 297 455T300 447Q300 443 300 431T300 403T300 374T300 357H33Q28 357 25 360T22 368Q22 376 22 385T22 405T22 430T22 458ZM221 396H118L124 413Q124 419 124 424T124 433T124 442Q124 444
124 464T124 516T124 581T124 647T124 701L143 671H91L116 697Q108 670 100 651T83 617T60 588Q49 577 45 574T36 571Q33 571 32 572T30 578V708Q40 717 51 726T74 746Q88 757 100 767T123 785Q128 785 140 785T168 785T194 785T210 785Q215 785 218 782T221 774Q221
772 221 744T221 674T221 585T221 496T221 426T221 396Z" />
<glyph unicode="&#xbe;" horiz-adv-x="800" d="M426 414Q430 420 440 442T463 497T490 563T517 629T539 682T551 710Q555 710 572 710T612 710T652 710T674 710Q680 710 681 707T680 697Q676 690 666 670T641 620T611 559T581 498T556 448T542 421Q540 417 538
416T531 414Q527 414 513 414T479 414T445 414T426 414ZM374 287Q370 281 360 259T337 204T310 138T283 72T261 19T249 -9Q245 -9 228 -9T188 -9T148 -9T126 -9Q120 -9 119 -6T120 4Q124 11 134 31T159 81T189 142T219 203T244 253T258 280Q260 285 262 286T269
287Q273 287 287 287T321 287T355 287T374 287ZM715 -85Q711 -85 700 -85T674 -85T649 -85T633 -85Q628 -85 625 -83T622 -74V95Q622 97 624 109T630 138T637 167T642 187H704Q710 187 712 184T715 176V-34Q715 -41 715 -59T715 -85ZM759 -3H452Q447 -3 444 0T441
8V76Q441 76 448 94T467 141T491 202T516 263T536 312T546 335Q549 340 552 341T560 343Q564 343 577 343T605 343T634 343T651 343V331Q650 328 642 309T621 262T595 203T569 144T548 96T537 71L550 126V68L536 83Q553 89 568 92T602 96T643 98H748Q753 98 756
95T759 87Q759 83 759 71T759 43T759 14T759 -3ZM336 684Q336 645 312 614T230 574L263 597V550L229 571Q271 567 295 552T330 515T341 465V459Q341 421 323 396T271 359T191 347Q141 347 112 354T66 370Q62 373 61 376T60 384Q60 389 60 400T60 426T60 453T60
469H72Q96 458 122 453T179 448Q218 448 233 458T248 488Q248 501 239 510T203 525T124 530Q119 530 116 533T112 541Q112 546 112 562T112 593T112 613Q165 613 193 617T233 630T244 656Q244 676 228 685T175 695Q147 695 123 690T78 675H66Q66 679 66 691T66
720T66 748T66 765Q66 768 67 772T75 778Q88 784 114 789T183 795Q239 795 272 781T321 743T336 690V684Z" />
<glyph unicode="&#xbf;" horiz-adv-x="600" d="M225 547Q268 547 314 547T403 547Q407 547 409 546T412 542T414 536V367Q371 367 325 367T236 367Q233 367 231 368T227 372T225 378V547ZM305 -182Q243 -182 198 -169T125 -132T83 -78T69 -16V15Q69 52 77 80T107
133T168 184L201 205Q223 220 234 230T250 253T254 282V288H380Q384 288 386 287T390 284T391 277V254Q391 226 383 204T353 161T294 113L268 95Q240 76 227 64T209 41T204 11Q204 2 206 -5T214 -18Q223 -33 245 -40T306 -47Q362 -47 409 -36T500 2H519Q519 -29
519 -60T519 -124Q519 -128 518 -130T515 -134Q503 -146 473 -157T399 -175T305 -182Z" />
<glyph unicode="&#xc0;" horiz-adv-x="650" d="M149 280H364Q380 280 395 280T425 280L460 289L474 225L488 162H158Q155 162 153 163T149 167T147 173L149 280ZM170 0Q139 0 107 0T44 0Q42 0 40 1T37 5T36 13Q43 38 53 80T77 176T105 289T135 409T163 525T188
626T208 701Q265 701 325 701T434 701Q438 701 440 700T443 696T446 690Q460 634 476 571T509 439T545 294T583 139Q591 106 599 71T614 0Q586 0 553 0T491 0Q485 0 482 1T477 7T472 19Q450 110 431 186T396 327T369 443T348 539T334 616L373 592H280L319 616Q313
582 304 540T283 444T253 326T216 180T170 0ZM283 946Q301 916 317 888T350 833T384 775Q367 775 353 775T322 775T276 775Q270 775 266 777T260 781Q234 810 217 829T186 863T158 895T124 932Q120 937 122 941T131 946Q163 946 182 946T224 946T283 946Z" />
<glyph unicode="&#xc1;" horiz-adv-x="650" d="M149 280H364Q380 280 395 280T425 280L460 289L474 225L488 162H158Q155 162 153 163T149 167T147 173L149 280ZM170 0Q139 0 107 0T44 0Q42 0 40 1T37 5T36 13Q43 38 53 80T77 176T105 289T135 409T163 525T188
626T208 701Q265 701 325 701T434 701Q438 701 440 700T443 696T446 690Q460 634 476 571T509 439T545 294T583 139Q591 106 599 71T614 0Q586 0 553 0T491 0Q485 0 482 1T477 7T472 19Q450 110 431 186T396 327T369 443T348 539T334 616L373 592H280L319 616Q313
582 304 540T283 444T253 326T216 180T170 0ZM368 946Q406 946 427 946T468 946T519 946Q525 946 527 942T525 932Q506 911 492 895T465 864T434 829T390 781Q388 779 384 777T374 775Q346 775 329 775T297 775T266 775Q284 806 300 833T334 888T368 946Z" />
<glyph unicode="&#xc2;" horiz-adv-x="650" d="M149 280H364Q380 280 395 280T425 280L460 289L474 225L488 162H158Q155 162 153 163T149 167T147 173L149 280ZM170 0Q139 0 107 0T44 0Q42 0 40 1T37 5T36 13Q43 38 53 80T77 176T105 289T135 409T163 525T188
626T208 701Q265 701 325 701T434 701Q438 701 440 700T443 696T446 690Q460 634 476 571T509 439T545 294T583 139Q591 106 599 71T614 0Q586 0 553 0T491 0Q485 0 482 1T477 7T472 19Q450 110 431 186T396 327T369 443T348 539T334 616L373 592H280L319 616Q313
582 304 540T283 444T253 326T216 180T170 0ZM251 946Q266 946 293 946T346 946T387 946Q394 946 399 943T419 927Q427 919 443 903T481 865T525 820T569 775Q543 775 509 775T449 775Q438 775 434 777T421 785Q405 797 377 821T308 884L360 863Q344 863 328 863T294
863L345 885Q306 849 275 823T219 775H105Q101 775 99 775T95 778T94 782Q94 786 97 790T115 808Q128 822 145 839T182 876T219 914T251 946Z" />
<glyph unicode="&#xc3;" horiz-adv-x="650" d="M149 280H364Q380 280 395 280T425 280L460 289L474 225L488 162H158Q155 162 153 163T149 167T147 173L149 280ZM170 0Q139 0 107 0T44 0Q42 0 40 1T37 5T36 13Q43 38 53 80T77 176T105 289T135 409T163 525T188
626T208 701Q265 701 325 701T434 701Q438 701 440 700T443 696T446 690Q460 634 476 571T509 439T545 294T583 139Q591 106 599 71T614 0Q586 0 553 0T491 0Q485 0 482 1T477 7T472 19Q450 110 431 186T396 327T369 443T348 539T334 616L373 592H280L319 616Q313
582 304 540T283 444T253 326T216 180T170 0ZM431 885Q455 885 474 894T509 926H528Q528 901 528 877T528 833Q528 825 527 821T521 812Q505 795 483 785T426 775Q394 775 367 783T316 803T269 822T219 831Q195 831 176 821T141 790H122Q122 815 122 839T122 883Q122
890 123 894T129 905Q145 922 167 932T224 942Q256 942 283 933T334 914T381 894T431 885Z" />
<glyph unicode="&#xc4;" horiz-adv-x="650" d="M149 280H364Q380 280 395 280T425 280L460 289L474 225L488 162H158Q155 162 153 163T149 167T147 173L149 280ZM170 0Q139 0 107 0T44 0Q42 0 40 1T37 5T36 13Q43 38 53 80T77 176T105 289T135 409T163 525T188
626T208 701Q265 701 325 701T434 701Q438 701 440 700T443 696T446 690Q460 634 476 571T509 439T545 294T583 139Q591 106 599 71T614 0Q586 0 553 0T491 0Q485 0 482 1T477 7T472 19Q450 110 431 186T396 327T369 443T348 539T334 616L373 592H280L319 616Q313
582 304 540T283 444T253 326T216 180T170 0ZM144 928Q177 928 211 928T278 928Q282 928 284 927T287 923T289 917V791Q256 791 222 791T155 791Q152 791 150 792T146 796T144 802V928ZM361 928Q394 928 428 928T495 928Q499 928 501 927T504 923T506 917V791Q473
791 439 791T372 791Q369 791 367 792T363 796T361 802V928Z" />
<glyph unicode="&#xc5;" horiz-adv-x="650" d="M149 280H364Q380 280 395 280T425 280L460 289L474 225L488 162H158Q155 162 153 163T149 167T147 173L149 280ZM170 0Q139 0 107 0T44 0Q42 0 40 1T37 5T36 13Q43 38 53 80T77 176T105 289T135 409T163 525T188
626T208 701Q265 701 325 701T434 701Q438 701 440 700T443 696T446 690Q460 634 476 571T509 439T545 294T583 139Q591 106 599 71T614 0Q586 0 553 0T491 0Q485 0 482 1T477 7T472 19Q450 110 431 186T396 327T369 443T348 539T334 616L373 592H280L319 616Q313
582 304 540T283 444T253 326T216 180T170 0ZM326 899Q379 899 416 883T473 839T493 773V747Q493 709 473 681T416 637T325 621Q272 621 235 636T177 680T157 747V773Q157 811 177 839T235 883T326 899ZM325 815Q297 815 282 803T266 767V752Q266 741 270 732T282
716Q290 710 300 707T325 704Q353 704 368 716T384 752V767Q384 778 381 787T369 803Q362 809 351 812T325 815Z" />
<glyph unicode="&#xc6;" horiz-adv-x="800" d="M151 0Q130 0 109 0T67 0T23 0Q21 0 17 3T14 13Q41 95 69 182T127 358T183 532T237 700Q257 700 277 700T317 700T357 700H742Q747 700 750 697T753 689Q753 660 753 632T753 574H310L348 603Q323 526 298 449T249
297T200 147T151 0ZM357 603H499L495 587Q495 578 495 570T495 553Q495 499 495 446T495 339T495 232T495 126H742Q747 126 750 123T753 115Q753 86 753 58T753 0H368Q365 0 363 0T359 2T357 7Q357 82 357 156T357 305T357 454T357 603ZM156 259H333Q342 259 351
259T371 259L382 262V138H167Q163 138 160 141T156 149V259ZM393 411H702Q707 411 710 408T713 400Q713 372 713 347T713 292H393V411Z" />
<glyph unicode="&#xc7;" horiz-adv-x="600" d="M341 -20Q269 -20 215 -2T125 52T72 138T54 254V456Q54 515 72 563T125 647T212 701T330 720Q381 720 421 711T490 687T535 656Q537 654 538 651T539 645T540 639Q540 602 540 555T540 464Q511 464 482 464T424 464Q419
464 416 467T413 475Q413 493 413 511T413 551T413 604L441 562Q416 578 389 584T328 591Q288 591 259 577T214 531T198 452V265Q198 220 206 190T235 139Q253 121 280 114T342 106Q397 106 439 119T527 161H546Q546 147 546 134T546 107T546 80T546 51Q546 46
545 42T540 36Q526 21 497 9T428 -12T341 -20ZM437 -127Q437 -185 401 -215T290 -246Q253 -246 233 -242T204 -231T195 -214Q195 -199 195 -185T195 -157T195 -132H207Q220 -138 235 -142T270 -146Q290 -146 304 -138T319 -109Q319 -90 306 -81T266 -71Q261 -71
258 -67T257 -57Q263 -43 267 -31T276 -8T285 14T294 36Q297 42 301 45T318 49T357 51Q354 42 352 32T347 12T343 -6T338 -22L336 -32Q382 -33 409 -58T437 -127Z" />
<glyph unicode="&#xc8;" horiz-adv-x="550" d="M29 700H488Q491 700 493 699T497 695T499 689Q499 658 499 634T499 578H40Q37 578 35 579T31 583T29 589Q29 620 29 645T29 700ZM166 411H429Q432 411 434 409T438 405T440 400Q440 379 440 362T440 328T440 293H166V411ZM89
0Q86 0 84 1T81 3T78 7T77 11Q77 38 77 89T77 207T77 347T77 493T77 627H229L221 605Q221 582 221 558T221 510Q221 464 221 415T221 317T221 219T221 122H488Q493 122 496 119T499 111Q499 82 499 56T499 0H89ZM220 946Q238 916 254 888T287 833T321 775Q304 775
290 775T259 775T213 775Q207 775 203 777T197 781Q171 810 154 829T123 863T95 895T61 932Q57 937 59 941T68 946Q100 946 119 946T161 946T220 946Z" />
<glyph unicode="&#xc9;" horiz-adv-x="550" d="M29 700H488Q491 700 493 699T497 695T499 689Q499 658 499 634T499 578H40Q37 578 35 579T31 583T29 589Q29 620 29 645T29 700ZM166 411H429Q432 411 434 409T438 405T440 400Q440 379 440 362T440 328T440 293H166V411ZM89
0Q86 0 84 1T81 3T78 7T77 11Q77 38 77 89T77 207T77 347T77 493T77 627H229L221 605Q221 582 221 558T221 510Q221 464 221 415T221 317T221 219T221 122H488Q493 122 496 119T499 111Q499 82 499 56T499 0H89ZM305 946Q343 946 364 946T405 946T456 946Q462 946
464 942T462 932Q443 911 429 895T402 864T371 829T327 781Q325 779 321 777T311 775Q283 775 266 775T234 775T203 775Q221 806 237 833T271 888T305 946Z" />
<glyph unicode="&#xca;" horiz-adv-x="550" d="M29 700H488Q491 700 493 699T497 695T499 689Q499 658 499 634T499 578H40Q37 578 35 579T31 583T29 589Q29 620 29 645T29 700ZM166 411H429Q432 411 434 409T438 405T440 400Q440 379 440 362T440 328T440 293H166V411ZM89
0Q86 0 84 1T81 3T78 7T77 11Q77 38 77 89T77 207T77 347T77 493T77 627H229L221 605Q221 582 221 558T221 510Q221 464 221 415T221 317T221 219T221 122H488Q493 122 496 119T499 111Q499 82 499 56T499 0H89ZM188 946Q203 946 230 946T283 946T324 946Q331 946
336 943T356 927Q364 919 380 903T418 865T462 820T506 775Q480 775 446 775T386 775Q375 775 371 777T358 785Q342 797 314 821T245 884L297 863Q281 863 265 863T231 863L282 885Q243 849 212 823T156 775H42Q38 775 36 775T32 778T31 782Q31 786 34 790T52 808Q65
822 82 839T119 876T156 914T188 946Z" />
<glyph unicode="&#xcb;" horiz-adv-x="550" d="M29 700H488Q491 700 493 699T497 695T499 689Q499 658 499 634T499 578H40Q37 578 35 579T31 583T29 589Q29 620 29 645T29 700ZM166 411H429Q432 411 434 409T438 405T440 400Q440 379 440 362T440 328T440 293H166V411ZM89
0Q86 0 84 1T81 3T78 7T77 11Q77 38 77 89T77 207T77 347T77 493T77 627H229L221 605Q221 582 221 558T221 510Q221 464 221 415T221 317T221 219T221 122H488Q493 122 496 119T499 111Q499 82 499 56T499 0H89ZM81 928Q114 928 148 928T215 928Q219 928 221 927T224
923T226 917V791Q193 791 159 791T92 791Q89 791 87 792T83 796T81 802V928ZM298 928Q331 928 365 928T432 928Q436 928 438 927T441 923T443 917V791Q410 791 376 791T309 791Q306 791 304 792T300 796T298 802V928Z" />
<glyph unicode="&#xcc;" horiz-adv-x="500" d="M322 75H174L178 116Q178 133 178 154T178 192Q178 246 178 300T178 407T178 515T178 625H326L322 584Q322 568 322 548T322 511Q322 456 322 402T322 293T322 184T322 75ZM429 0H82Q80 0 78 1T75 3T72 7T71 11Q71
31 71 49T71 84T71 122H417Q420 122 423 121T427 117T429 111Q429 91 429 74T429 38T429 0ZM71 700H417Q423 700 426 697T429 689Q429 675 429 661T429 634T429 607T429 578H82Q78 578 75 581T71 589Q71 604 71 617T71 644T71 672T71 700ZM208 946Q226 916 242
888T275 833T309 775Q292 775 278 775T247 775T201 775Q195 775 191 777T185 781Q159 810 142 829T111 863T83 895T49 932Q45 937 47 941T56 946Q88 946 107 946T149 946T208 946Z" />
<glyph unicode="&#xcd;" horiz-adv-x="500" d="M322 75H174L178 116Q178 133 178 154T178 192Q178 246 178 300T178 407T178 515T178 625H326L322 584Q322 568 322 548T322 511Q322 456 322 402T322 293T322 184T322 75ZM429 0H82Q80 0 78 1T75 3T72 7T71 11Q71
31 71 49T71 84T71 122H417Q420 122 423 121T427 117T429 111Q429 91 429 74T429 38T429 0ZM71 700H417Q423 700 426 697T429 689Q429 675 429 661T429 634T429 607T429 578H82Q78 578 75 581T71 589Q71 604 71 617T71 644T71 672T71 700ZM293 946Q331 946 352
946T393 946T444 946Q450 946 452 942T450 932Q431 911 417 895T390 864T359 829T315 781Q313 779 309 777T299 775Q271 775 254 775T222 775T191 775Q209 806 225 833T259 888T293 946Z" />
<glyph unicode="&#xce;" horiz-adv-x="500" d="M322 75H174L178 116Q178 133 178 154T178 192Q178 246 178 300T178 407T178 515T178 625H326L322 584Q322 568 322 548T322 511Q322 456 322 402T322 293T322 184T322 75ZM429 0H82Q80 0 78 1T75 3T72 7T71 11Q71
31 71 49T71 84T71 122H417Q420 122 423 121T427 117T429 111Q429 91 429 74T429 38T429 0ZM71 700H417Q423 700 426 697T429 689Q429 675 429 661T429 634T429 607T429 578H82Q78 578 75 581T71 589Q71 604 71 617T71 644T71 672T71 700ZM176 946Q191 946 218
946T271 946T312 946Q319 946 324 943T344 927Q352 919 368 903T406 865T450 820T494 775Q468 775 434 775T374 775Q363 775 359 777T346 785Q330 797 302 821T233 884L285 863Q269 863 253 863T219 863L270 885Q231 849 200 823T144 775H30Q26 775 24 775T20 778T19
782Q19 786 22 790T40 808Q53 822 70 839T107 876T144 914T176 946Z" />
<glyph unicode="&#xcf;" horiz-adv-x="500" d="M322 75H174L178 116Q178 133 178 154T178 192Q178 246 178 300T178 407T178 515T178 625H326L322 584Q322 568 322 548T322 511Q322 456 322 402T322 293T322 184T322 75ZM429 0H82Q80 0 78 1T75 3T72 7T71 11Q71
31 71 49T71 84T71 122H417Q420 122 423 121T427 117T429 111Q429 91 429 74T429 38T429 0ZM71 700H417Q423 700 426 697T429 689Q429 675 429 661T429 634T429 607T429 578H82Q78 578 75 581T71 589Q71 604 71 617T71 644T71 672T71 700ZM69 928Q102 928 136 928T203
928Q207 928 209 927T212 923T214 917V791Q181 791 147 791T80 791Q77 791 75 792T71 796T69 802V928ZM286 928Q319 928 353 928T420 928Q424 928 426 927T429 923T431 917V791Q398 791 364 791T297 791Q294 791 292 792T288 796T286 802V928Z" />
<glyph unicode="&#xd0;" horiz-adv-x="650" d="M12 406H317Q322 406 325 403T328 395Q328 372 328 351T328 305H23Q18 305 15 308T12 316Q12 340 12 361T12 406ZM592 239Q592 182 576 138T527 63T451 16T351 0Q328 0 297 0T233 0T170 0T118 0T90 0Q85 0 82 3T79
11Q79 88 79 165T79 320T79 475T79 630H232L223 608Q223 581 223 550T223 492Q223 444 223 399T223 310T223 221T223 128Q235 128 259 128T308 128T348 128Q388 128 411 142T446 183T457 247V453Q457 476 454 494T445 525T429 549Q420 557 408 562T382 569T346
572Q315 572 275 572T193 572T111 572T41 572Q38 572 36 573T32 577T30 583Q30 610 30 641T30 700Q61 700 100 700T183 700T266 700T340 700Q407 700 455 684T533 636T578 561T592 462V239Z" />
<glyph unicode="&#xd1;" horiz-adv-x="650" d="M190 0Q159 0 128 0T65 0Q62 0 60 1T56 5T54 11Q54 84 54 157T54 302T54 448T54 594Q54 621 54 647T54 700Q76 700 103 700T157 700T205 700Q211 700 214 699T221 691T233 669Q256 626 278 586T321 505T363 426T404
347T445 269T485 188L446 215H514L493 203Q485 248 480 287T470 361T464 430T461 496T460 563Q460 592 460 627T460 700Q492 700 523 700T585 700Q590 700 593 697T596 689Q596 617 596 545T596 400T596 255T596 110Q596 82 596 55T596 0Q576 0 554 0T511 0T473
0Q467 0 459 4T438 32Q394 107 357 172T288 298T227 416T167 537L212 503H143L161 518Q169 471 173 429T181 350T187 279T189 216T190 163Q190 124 190 83T190 0ZM456 885Q480 885 499 894T534 926H553Q553 901 553 877T553 833Q553 825 552 821T546 812Q530 795
508 785T451 775Q419 775 392 783T341 803T294 822T244 831Q220 831 201 821T166 790H147Q147 815 147 839T147 883Q147 890 148 894T154 905Q170 922 192 932T249 942Q281 942 308 933T359 914T406 894T456 885Z" />
<glyph unicode="&#xd2;" horiz-adv-x="650" d="M325 720Q400 720 460 689T556 595T592 440V249Q592 163 557 103T462 12T325 -20Q250 -20 190 11T94 103T58 249V440Q58 533 95 595T193 688T325 720ZM193 258Q193 201 207 173T236 132Q251 120 274 112T329 104Q367
104 395 121T440 173T457 259V451Q457 483 453 504T441 541T421 567Q406 582 383 590T327 598Q281 598 252 580T208 529T193 451V258ZM283 946Q301 916 317 888T350 833T384 775Q367 775 353 775T322 775T276 775Q270 775 266 777T260 781Q234 810 217 829T186
863T158 895T124 932Q120 937 122 941T131 946Q163 946 182 946T224 946T283 946Z" />
<glyph unicode="&#xd3;" horiz-adv-x="650" d="M325 720Q400 720 460 689T556 595T592 440V249Q592 163 557 103T462 12T325 -20Q250 -20 190 11T94 103T58 249V440Q58 533 95 595T193 688T325 720ZM193 258Q193 201 207 173T236 132Q251 120 274 112T329 104Q367
104 395 121T440 173T457 259V451Q457 483 453 504T441 541T421 567Q406 582 383 590T327 598Q281 598 252 580T208 529T193 451V258ZM368 946Q406 946 427 946T468 946T519 946Q525 946 527 942T525 932Q506 911 492 895T465 864T434 829T390 781Q388 779 384
777T374 775Q346 775 329 775T297 775T266 775Q284 806 300 833T334 888T368 946Z" />
<glyph unicode="&#xd4;" horiz-adv-x="650" d="M325 720Q400 720 460 689T556 595T592 440V249Q592 163 557 103T462 12T325 -20Q250 -20 190 11T94 103T58 249V440Q58 533 95 595T193 688T325 720ZM193 258Q193 201 207 173T236 132Q251 120 274 112T329 104Q367
104 395 121T440 173T457 259V451Q457 483 453 504T441 541T421 567Q406 582 383 590T327 598Q281 598 252 580T208 529T193 451V258ZM251 946Q266 946 293 946T346 946T387 946Q394 946 399 943T419 927Q427 919 443 903T481 865T525 820T569 775Q543 775 509
775T449 775Q438 775 434 777T421 785Q405 797 377 821T308 884L360 863Q344 863 328 863T294 863L345 885Q306 849 275 823T219 775H105Q101 775 99 775T95 778T94 782Q94 786 97 790T115 808Q128 822 145 839T182 876T219 914T251 946Z" />
<glyph unicode="&#xd5;" horiz-adv-x="650" d="M325 720Q400 720 460 689T556 595T592 440V249Q592 163 557 103T462 12T325 -20Q250 -20 190 11T94 103T58 249V440Q58 533 95 595T193 688T325 720ZM193 258Q193 201 207 173T236 132Q251 120 274 112T329 104Q367
104 395 121T440 173T457 259V451Q457 483 453 504T441 541T421 567Q406 582 383 590T327 598Q281 598 252 580T208 529T193 451V258ZM431 885Q455 885 474 894T509 926H528Q528 901 528 877T528 833Q528 825 527 821T521 812Q505 795 483 785T426 775Q394 775
367 783T316 803T269 822T219 831Q195 831 176 821T141 790H122Q122 815 122 839T122 883Q122 890 123 894T129 905Q145 922 167 932T224 942Q256 942 283 933T334 914T381 894T431 885Z" />
<glyph unicode="&#xd6;" horiz-adv-x="650" d="M325 720Q400 720 460 689T556 595T592 440V249Q592 163 557 103T462 12T325 -20Q250 -20 190 11T94 103T58 249V440Q58 533 95 595T193 688T325 720ZM193 258Q193 201 207 173T236 132Q251 120 274 112T329 104Q367
104 395 121T440 173T457 259V451Q457 483 453 504T441 541T421 567Q406 582 383 590T327 598Q281 598 252 580T208 529T193 451V258ZM144 928Q177 928 211 928T278 928Q282 928 284 927T287 923T289 917V791Q256 791 222 791T155 791Q152 791 150 792T146 796T144
802V928ZM361 928Q394 928 428 928T495 928Q499 928 501 927T504 923T506 917V791Q473 791 439 791T372 791Q369 791 367 792T363 796T361 802V928Z" />
<glyph unicode="&#xd7;" horiz-adv-x="600" d="M178 511Q181 511 184 508Q263 429 349 343T513 179Q494 160 471 137T426 92Q425 91 424 90T420 89Q419 89 418 90T414 92Q363 144 306 200T193 313T85 421Q103 439 126 462T172 508Q174 510 175 510T178 511ZM85
179Q162 256 248 342T414 508Q416 510 417 510T420 511Q422 511 423 511T426 508Q430 504 442 492T470 464T497 437T513 421Q462 370 406 313T293 200T184 92Q183 91 182 90T178 89Q177 89 176 90T172 92Q168 96 156 108T128 136T101 163T85 179Z" />
<glyph unicode="&#xd8;" horiz-adv-x="650" d="M587 776Q559 721 532 667T479 561L501 518H414L428 533Q426 496 417 454T393 375Q375 334 357 292T319 208T282 123Q272 103 261 85T239 45Q230 24 221 5T203 -31T187 -64Q183 -73 180 -74T170 -76Q165 -76 149
-76T115 -76T81 -76T62 -76Q73 -53 87 -22T115 38T138 84L183 182H241L222 158Q226 188 232 219T248 281T269 338Q289 384 310 428T349 514T385 592Q394 612 400 630T415 667Q428 694 438 716T456 757Q462 770 466 773T480 776Q499 776 516 776T550 776T587 776ZM325
720Q400 720 460 689T556 595T592 440V249Q592 163 557 103T462 12T325 -20Q250 -20 190 11T94 103T58 249V440Q58 533 95 595T193 688T325 720ZM193 258Q193 201 207 173T236 132Q251 120 274 112T329 104Q367 104 395 121T440 173T457 259V451Q457 483 453 504T441
541T421 567Q406 582 383 590T327 598Q281 598 252 580T208 529T193 451V258Z" />
<glyph unicode="&#xd9;" horiz-adv-x="650" d="M577 0Q555 0 533 0T489 0T444 0Q442 0 440 0T437 2T435 4T434 7T433 11Q433 97 433 183T433 355T433 528T433 700Q456 700 477 700T521 700T566 700Q569 700 571 699T575 695T577 689Q577 617 577 544T577 399T577
254T577 109Q577 79 577 52T577 0ZM237 -11Q194 -11 163 1T112 36T82 94T72 173Q72 239 72 309T72 453T72 600Q72 625 72 650T72 700Q106 700 139 700T205 700Q209 700 211 699T214 695T216 689Q216 605 216 518T216 346T216 182Q216 146 231 131T281 115Q314 115
343 127T401 166T455 234V92H413Q394 59 369 36T311 1T237 -11ZM283 946Q301 916 317 888T350 833T384 775Q367 775 353 775T322 775T276 775Q270 775 266 777T260 781Q234 810 217 829T186 863T158 895T124 932Q120 937 122 941T131 946Q163 946 182 946T224 946T283
946Z" />
<glyph unicode="&#xda;" horiz-adv-x="650" d="M577 0Q555 0 533 0T489 0T444 0Q442 0 440 0T437 2T435 4T434 7T433 11Q433 97 433 183T433 355T433 528T433 700Q456 700 477 700T521 700T566 700Q569 700 571 699T575 695T577 689Q577 617 577 544T577 399T577
254T577 109Q577 79 577 52T577 0ZM237 -11Q194 -11 163 1T112 36T82 94T72 173Q72 239 72 309T72 453T72 600Q72 625 72 650T72 700Q106 700 139 700T205 700Q209 700 211 699T214 695T216 689Q216 605 216 518T216 346T216 182Q216 146 231 131T281 115Q314 115
343 127T401 166T455 234V92H413Q394 59 369 36T311 1T237 -11ZM368 946Q406 946 427 946T468 946T519 946Q525 946 527 942T525 932Q506 911 492 895T465 864T434 829T390 781Q388 779 384 777T374 775Q346 775 329 775T297 775T266 775Q284 806 300 833T334 888T368
946Z" />
<glyph unicode="&#xdb;" horiz-adv-x="650" d="M577 0Q555 0 533 0T489 0T444 0Q442 0 440 0T437 2T435 4T434 7T433 11Q433 97 433 183T433 355T433 528T433 700Q456 700 477 700T521 700T566 700Q569 700 571 699T575 695T577 689Q577 617 577 544T577 399T577
254T577 109Q577 79 577 52T577 0ZM237 -11Q194 -11 163 1T112 36T82 94T72 173Q72 239 72 309T72 453T72 600Q72 625 72 650T72 700Q106 700 139 700T205 700Q209 700 211 699T214 695T216 689Q216 605 216 518T216 346T216 182Q216 146 231 131T281 115Q314 115
343 127T401 166T455 234V92H413Q394 59 369 36T311 1T237 -11ZM251 946Q266 946 293 946T346 946T387 946Q394 946 399 943T419 927Q427 919 443 903T481 865T525 820T569 775Q543 775 509 775T449 775Q438 775 434 777T421 785Q405 797 377 821T308 884L360 863Q344
863 328 863T294 863L345 885Q306 849 275 823T219 775H105Q101 775 99 775T95 778T94 782Q94 786 97 790T115 808Q128 822 145 839T182 876T219 914T251 946Z" />
<glyph unicode="&#xdc;" horiz-adv-x="650" d="M577 0Q555 0 533 0T489 0T444 0Q442 0 440 0T437 2T435 4T434 7T433 11Q433 97 433 183T433 355T433 528T433 700Q456 700 477 700T521 700T566 700Q569 700 571 699T575 695T577 689Q577 617 577 544T577 399T577
254T577 109Q577 79 577 52T577 0ZM237 -11Q194 -11 163 1T112 36T82 94T72 173Q72 239 72 309T72 453T72 600Q72 625 72 650T72 700Q106 700 139 700T205 700Q209 700 211 699T214 695T216 689Q216 605 216 518T216 346T216 182Q216 146 231 131T281 115Q314 115
343 127T401 166T455 234V92H413Q394 59 369 36T311 1T237 -11ZM144 928Q177 928 211 928T278 928Q282 928 284 927T287 923T289 917V791Q256 791 222 791T155 791Q152 791 150 792T146 796T144 802V928ZM361 928Q394 928 428 928T495 928Q499 928 501 927T504
923T506 917V791Q473 791 439 791T372 791Q369 791 367 792T363 796T361 802V928Z" />
<glyph unicode="&#xdd;" horiz-adv-x="650" d="M397 0Q375 0 353 0T309 0T264 0Q261 0 259 1T255 5T253 11Q253 82 253 157T253 303H397Q397 271 397 236T397 167T397 100Q397 75 397 50T397 0ZM20 700Q56 700 89 700T154 700Q161 700 165 698T173 692T181 678Q203
634 223 592T261 507T296 418T328 321L292 355H368L331 321Q346 374 361 420T395 511T434 602T480 700Q515 700 547 700T610 700Q619 700 622 695T620 676Q598 633 576 588T529 496T481 401T432 307T384 216Q342 216 318 216T282 217T267 221T260 228Q254 239 236
275T192 363T135 474T76 593T20 700ZM368 946Q406 946 427 946T468 946T519 946Q525 946 527 942T525 932Q506 911 492 895T465 864T434 829T390 781Q388 779 384 777T374 775Q346 775 329 775T297 775T266 775Q284 806 300 833T334 888T368 946Z" />
<glyph unicode="&#xde;" horiz-adv-x="600" d="M72 700Q106 700 139 700T205 700Q210 700 213 697T216 689Q216 603 216 517T216 345T216 172T216 0Q183 0 150 0T83 0Q80 0 78 1T74 5T72 11Q72 84 72 156T72 302T72 448T72 594Q72 621 72 647T72 700ZM153 592Q190
592 228 592T305 592Q368 592 413 579T487 538T530 471T544 381V326Q544 278 530 240T487 175T420 134T332 119Q290 119 248 119T164 119L153 114V248Q195 248 238 248T324 248Q349 248 365 257T390 284T399 327V381Q399 404 395 419T380 445Q370 455 353 459T310
464Q286 464 263 464T215 464Q202 464 190 464T164 464Q159 464 156 467T153 475Q153 505 153 534T153 592Z" />
<glyph unicode="&#xdf;" horiz-adv-x="600" d="M312 769Q365 769 406 759T475 731T517 683T531 615V592Q531 567 526 546T509 507T477 472L447 446Q423 426 415 416T407 398Q407 389 415 380T446 354L475 331Q510 304 528 281T553 233T561 171V155Q561 105 540
68T481 11T390 -9Q342 -9 315 0T282 16Q281 18 281 19T280 23Q280 53 280 83T280 144H299Q317 133 335 128T382 122Q396 122 406 126T424 137Q431 144 434 154T438 175Q438 189 434 200T417 224T378 257L339 288Q309 312 295 337T281 391V406Q281 426 287 443T306
477T337 510L378 545Q392 557 399 565T410 582T413 600Q413 620 393 630T325 640Q290 640 268 635T232 617Q225 610 220 600T213 576T211 543Q211 488 211 433T211 322T211 212T211 101Q211 84 211 68T211 34T211 0Q180 0 149 0T86 0Q83 0 81 1T77 5T75 11Q75 82
75 152T75 294T75 435T75 577Q75 635 104 678T186 745T312 769Z" />
<glyph unicode="&#xe0;" horiz-adv-x="600" d="M510 341Q510 316 510 293T510 245T510 196T510 148Q510 140 511 134T517 124Q520 121 525 120T538 118Q541 118 543 118T549 118H568Q568 91 568 65T568 11Q568 6 565 3T557 0Q552 0 533 0T498 0Q470 0 448 9T409
34T383 74T374 126Q374 157 374 189T374 252Q374 269 374 284T374 316T374 348Q374 377 364 393T332 417T271 424Q243 424 217 421T165 413T113 399H94Q94 426 94 453T94 506Q94 510 95 512T97 515Q103 521 130 529T196 542T271 548Q334 548 379 537T453 500T496
436T510 341ZM190 152Q190 131 201 121T237 110Q264 110 290 116T341 136T393 172V86H363Q350 56 327 35T272 2T204 -10Q158 -10 125 8T73 58T55 134V169Q55 202 66 228T97 273T147 302T212 313Q247 313 280 313T344 313T402 313Q411 313 415 297T421 262T422 229Q390
229 360 229T300 229T237 229Q225 229 217 226T202 217Q197 211 194 204T190 187V152ZM255 809Q273 778 291 746T327 683T363 621Q338 621 312 621T257 621Q251 621 247 623T240 629Q211 663 187 689T142 740T94 794Q90 799 92 804T101 809Q129 809 153 809T201
809T255 809Z" />
<glyph unicode="&#xe1;" horiz-adv-x="600" d="M510 341Q510 316 510 293T510 245T510 196T510 148Q510 140 511 134T517 124Q520 121 525 120T538 118Q541 118 543 118T549 118H568Q568 91 568 65T568 11Q568 6 565 3T557 0Q552 0 533 0T498 0Q470 0 448 9T409
34T383 74T374 126Q374 157 374 189T374 252Q374 269 374 284T374 316T374 348Q374 377 364 393T332 417T271 424Q243 424 217 421T165 413T113 399H94Q94 426 94 453T94 506Q94 510 95 512T97 515Q103 521 130 529T196 542T271 548Q334 548 379 537T453 500T496
436T510 341ZM190 152Q190 131 201 121T237 110Q264 110 290 116T341 136T393 172V86H363Q350 56 327 35T272 2T204 -10Q158 -10 125 8T73 58T55 134V169Q55 202 66 228T97 273T147 302T212 313Q247 313 280 313T344 313T402 313Q411 313 415 297T421 262T422 229Q390
229 360 229T300 229T237 229Q225 229 217 226T202 217Q197 211 194 204T190 187V152ZM348 809Q391 809 425 809T501 809Q508 809 510 804T508 794Q484 766 462 741T416 689T363 629Q361 626 357 624T346 621Q317 621 292 621T240 621Q258 652 276 683T312 746T348
809Z" />
<glyph unicode="&#xe2;" horiz-adv-x="600" d="M510 341Q510 316 510 293T510 245T510 196T510 148Q510 140 511 134T517 124Q520 121 525 120T538 118Q541 118 543 118T549 118H568Q568 91 568 65T568 11Q568 6 565 3T557 0Q552 0 533 0T498 0Q470 0 448 9T409
34T383 74T374 126Q374 157 374 189T374 252Q374 269 374 284T374 316T374 348Q374 377 364 393T332 417T271 424Q243 424 217 421T165 413T113 399H94Q94 426 94 453T94 506Q94 510 95 512T97 515Q103 521 130 529T196 542T271 548Q334 548 379 537T453 500T496
436T510 341ZM190 152Q190 131 201 121T237 110Q264 110 290 116T341 136T393 172V86H363Q350 56 327 35T272 2T204 -10Q158 -10 125 8T73 58T55 134V169Q55 202 66 228T97 273T147 302T212 313Q247 313 280 313T344 313T402 313Q411 313 415 297T421 262T422 229Q390
229 360 229T300 229T237 229Q225 229 217 226T202 217Q197 211 194 204T190 187V152ZM252 813Q273 813 294 813T337 813Q345 813 350 809T367 791Q374 782 392 762T432 714T477 660T518 611Q492 611 467 611T416 611Q405 611 400 613T387 622Q376 633 351 659T282
729L332 708H270L318 731Q278 688 251 661T202 611H105Q101 611 99 612T96 615T95 620Q95 625 98 629T113 648Q124 662 143 684T183 732T223 779T252 813Z" />
<glyph unicode="&#xe3;" horiz-adv-x="600" d="M510 341Q510 316 510 293T510 245T510 196T510 148Q510 140 511 134T517 124Q520 121 525 120T538 118Q541 118 543 118T549 118H568Q568 91 568 65T568 11Q568 6 565 3T557 0Q552 0 533 0T498 0Q470 0 448 9T409
34T383 74T374 126Q374 157 374 189T374 252Q374 269 374 284T374 316T374 348Q374 377 364 393T332 417T271 424Q243 424 217 421T165 413T113 399H94Q94 426 94 453T94 506Q94 510 95 512T97 515Q103 521 130 529T196 542T271 548Q334 548 379 537T453 500T496
436T510 341ZM190 152Q190 131 201 121T237 110Q264 110 290 116T341 136T393 172V86H363Q350 56 327 35T272 2T204 -10Q158 -10 125 8T73 58T55 134V169Q55 202 66 228T97 273T147 302T212 313Q247 313 280 313T344 313T402 313Q411 313 415 297T421 262T422 229Q390
229 360 229T300 229T237 229Q225 229 217 226T202 217Q197 211 194 204T190 187V152ZM393 748Q421 748 444 760T485 798H504Q504 781 504 765T504 733T504 704Q504 697 503 693T496 681Q481 661 452 649T388 636Q355 636 333 644T292 662T255 680T209 688Q181
688 158 675T117 638H98Q98 655 98 671T98 702T98 731Q98 739 99 743T106 755Q121 775 150 787T214 799Q247 799 269 792T310 774T347 756T393 748Z" />
<glyph unicode="&#xe4;" horiz-adv-x="600" d="M510 341Q510 316 510 293T510 245T510 196T510 148Q510 140 511 134T517 124Q520 121 525 120T538 118Q541 118 543 118T549 118H568Q568 91 568 65T568 11Q568 6 565 3T557 0Q552 0 533 0T498 0Q470 0 448 9T409
34T383 74T374 126Q374 157 374 189T374 252Q374 269 374 284T374 316T374 348Q374 377 364 393T332 417T271 424Q243 424 217 421T165 413T113 399H94Q94 426 94 453T94 506Q94 510 95 512T97 515Q103 521 130 529T196 542T271 548Q334 548 379 537T453 500T496
436T510 341ZM190 152Q190 131 201 121T237 110Q264 110 290 116T341 136T393 172V86H363Q350 56 327 35T272 2T204 -10Q158 -10 125 8T73 58T55 134V169Q55 202 66 228T97 273T147 302T212 313Q247 313 280 313T344 313T402 313Q411 313 415 297T421 262T422 229Q390
229 360 229T300 229T237 229Q225 229 217 226T202 217Q197 211 194 204T190 187V152ZM120 764Q153 764 187 764T254 764Q258 764 260 763T263 759T265 753V619Q232 619 198 619T131 619Q128 619 126 620T122 624T120 630V764ZM337 764Q370 764 404 764T471 764Q475
764 477 763T480 759T482 753V619Q449 619 415 619T348 619Q345 619 343 620T339 624T337 630V764Z" />
<glyph unicode="&#xe5;" horiz-adv-x="600" d="M510 341Q510 316 510 293T510 245T510 196T510 148Q510 140 511 134T517 124Q520 121 525 120T538 118Q541 118 543 118T549 118H568Q568 91 568 65T568 11Q568 6 565 3T557 0Q552 0 533 0T498 0Q470 0 448 9T409
34T383 74T374 126Q374 157 374 189T374 252Q374 269 374 284T374 316T374 348Q374 377 364 393T332 417T271 424Q243 424 217 421T165 413T113 399H94Q94 426 94 453T94 506Q94 510 95 512T97 515Q103 521 130 529T196 542T271 548Q334 548 379 537T453 500T496
436T510 341ZM190 152Q190 131 201 121T237 110Q264 110 290 116T341 136T393 172V86H363Q350 56 327 35T272 2T204 -10Q158 -10 125 8T73 58T55 134V169Q55 202 66 228T97 273T147 302T212 313Q247 313 280 313T344 313T402 313Q411 313 415 297T421 262T422 229Q390
229 360 229T300 229T237 229Q225 229 217 226T202 217Q197 211 194 204T190 187V152ZM301 863Q344 863 374 849T422 807T439 744V715Q439 661 402 629T301 596Q238 596 201 628T163 715V744Q163 780 180 807T228 848T301 863ZM301 786Q277 786 264 774T250 737V720Q250
710 253 702T263 686Q269 680 279 677T301 673Q325 673 338 686T352 720V737Q352 748 349 757T340 772Q334 779 324 782T301 786Z" />
<glyph unicode="&#xe6;" horiz-adv-x="850" d="M238 550Q288 550 327 538T396 500T443 436L409 475H453L417 436Q439 491 483 520T586 550Q644 550 687 528T753 459T777 340Q777 316 777 292T777 241Q777 238 776 236T773 232T767 231Q732 231 698 231T628 231T559
231T490 231L441 228V315Q469 315 494 315T542 315T589 315T642 315Q642 318 642 320T642 326T642 332Q642 358 638 375T624 402Q615 413 601 417T568 422Q542 422 525 412T500 382T492 334V212Q492 186 501 168T529 136Q547 124 573 118T630 112Q658 112 678 114T717
122T755 135H774Q774 108 774 81T774 26Q774 24 773 22T769 17Q754 7 721 -2T629 -12Q576 -12 534 1T461 41T411 106L446 72H400L438 106Q418 69 386 43T312 3T224 -10Q166 -10 129 10T74 63T55 133V177Q55 208 66 235T98 282T148 313T214 325Q261 325 295 319T353
303T387 286H413V227Q381 229 351 230T294 232T249 233Q228 233 218 229T202 219Q197 213 194 205T190 186V165Q190 136 205 124T246 112H250Q285 112 309 122T345 150T358 195V339Q358 370 345 387T304 413T231 421Q197 421 164 416T95 400H76Q76 428 76 456T76
512Q76 514 77 516T79 520Q86 527 107 533T162 545T238 550Z" />
<glyph unicode="&#xe7;" horiz-adv-x="500" d="M312 550Q349 550 377 546T422 535T446 522Q448 521 448 519T449 513Q449 485 449 456T449 398H430Q403 410 374 416T311 422Q278 422 252 410T212 370T198 300V237Q198 205 206 182T231 143Q245 129 265 123T311
116Q334 116 354 118T393 126T430 139H449Q449 110 449 81T449 23Q449 21 449 19T446 15Q441 10 424 4T378 -7T312 -12Q252 -12 205 4T125 51T75 128T58 230V302Q58 376 90 431T179 518T312 550ZM321 50Q318 41 316 31T311 11T306 -8T302 -23L300 -33Q346 -34 373
-59T401 -128Q401 -186 365 -216T254 -247Q217 -247 197 -243T168 -232T159 -215Q159 -200 159 -186T159 -158T159 -133H171Q184 -139 199 -143T234 -147Q254 -147 268 -139T283 -110Q283 -91 270 -82T230 -72Q225 -72 222 -68T221 -58Q227 -44 231 -32T240 -9T249
13T258 35Q261 41 265 44T282 48T321 50Z" />
<glyph unicode="&#xe8;" horiz-adv-x="600" d="M302 550Q370 550 420 522T499 444T527 327V244Q527 241 526 239T523 235T517 234H287Q270 234 253 234T218 234H177L174 318H396Q396 322 396 325T396 332Q396 361 390 381T371 414Q360 426 343 431T302 436Q252
436 228 412T203 332V210Q203 186 209 168T228 136Q244 120 270 113T332 106Q368 106 396 109T448 119T495 134H514Q514 109 514 84T514 32Q514 30 513 28T510 24Q502 16 475 8T409 -6T330 -12Q265 -12 216 3T134 48T85 118T68 212V326Q68 377 84 418T132 488T206
534T302 550ZM255 811Q273 780 291 748T327 685T363 623Q338 623 312 623T257 623Q251 623 247 625T240 631Q211 665 187 691T142 742T94 796Q90 801 92 806T101 811Q129 811 153 811T201 811T255 811Z" />
<glyph unicode="&#xe9;" horiz-adv-x="600" d="M302 550Q370 550 420 522T499 444T527 327V244Q527 241 526 239T523 235T517 234H287Q270 234 253 234T218 234H177L174 318H396Q396 322 396 325T396 332Q396 361 390 381T371 414Q360 426 343 431T302 436Q252
436 228 412T203 332V210Q203 186 209 168T228 136Q244 120 270 113T332 106Q368 106 396 109T448 119T495 134H514Q514 109 514 84T514 32Q514 30 513 28T510 24Q502 16 475 8T409 -6T330 -12Q265 -12 216 3T134 48T85 118T68 212V326Q68 377 84 418T132 488T206
534T302 550ZM348 811Q391 811 425 811T501 811Q508 811 510 806T508 796Q484 768 462 743T416 691T363 631Q361 628 357 626T346 623Q317 623 292 623T240 623Q258 654 276 685T312 748T348 811Z" />
<glyph unicode="&#xea;" horiz-adv-x="600" d="M302 550Q370 550 420 522T499 444T527 327V244Q527 241 526 239T523 235T517 234H287Q270 234 253 234T218 234H177L174 318H396Q396 322 396 325T396 332Q396 361 390 381T371 414Q360 426 343 431T302 436Q252
436 228 412T203 332V210Q203 186 209 168T228 136Q244 120 270 113T332 106Q368 106 396 109T448 119T495 134H514Q514 109 514 84T514 32Q514 30 513 28T510 24Q502 16 475 8T409 -6T330 -12Q265 -12 216 3T134 48T85 118T68 212V326Q68 377 84 418T132 488T206
534T302 550ZM252 815Q273 815 294 815T337 815Q345 815 350 811T367 793Q374 784 392 764T432 716T477 662T518 613Q492 613 467 613T416 613Q405 613 400 615T387 624Q376 635 351 661T282 731L332 710H270L318 733Q278 690 251 663T202 613H105Q101 613 99 614T96
617T95 622Q95 627 98 631T113 650Q124 664 143 686T183 734T223 781T252 815Z" />
<glyph unicode="&#xeb;" horiz-adv-x="600" d="M302 550Q370 550 420 522T499 444T527 327V244Q527 241 526 239T523 235T517 234H287Q270 234 253 234T218 234H177L174 318H396Q396 322 396 325T396 332Q396 361 390 381T371 414Q360 426 343 431T302 436Q252
436 228 412T203 332V210Q203 186 209 168T228 136Q244 120 270 113T332 106Q368 106 396 109T448 119T495 134H514Q514 109 514 84T514 32Q514 30 513 28T510 24Q502 16 475 8T409 -6T330 -12Q265 -12 216 3T134 48T85 118T68 212V326Q68 377 84 418T132 488T206
534T302 550ZM120 766Q153 766 187 766T254 766Q258 766 260 765T263 761T265 755V621Q232 621 198 621T131 621Q128 621 126 622T122 626T120 632V766ZM337 766Q370 766 404 766T471 766Q475 766 477 765T480 761T482 755V621Q449 621 415 621T348 621Q345 621
343 622T339 626T337 632V766Z" />
<glyph unicode="&#xec;" horiz-adv-x="350" d="M123 11Q123 38 123 78T123 166T123 260T123 348T123 417H116Q110 417 103 417T87 417T70 417T53 417Q48 417 45 420T42 428Q42 455 42 483T42 538Q59 538 80 538T126 538T173 538T215 538T247 538Q251 538 253 537T256
533T258 527Q258 480 258 425T258 312T258 200T258 97Q258 82 258 66T258 33T258 0Q225 0 197 0T134 0Q129 0 126 3T123 11ZM140 811Q158 780 176 748T212 685T248 623Q223 623 197 623T142 623Q136 623 132 625T125 631Q96 665 72 691T27 742T-21 796Q-25 801
-23 806T-14 811Q14 811 38 811T86 811T140 811Z" />
<glyph unicode="&#xed;" horiz-adv-x="350" d="M123 11Q123 38 123 78T123 166T123 260T123 348T123 417H116Q110 417 103 417T87 417T70 417T53 417Q48 417 45 420T42 428Q42 455 42 483T42 538Q59 538 80 538T126 538T173 538T215 538T247 538Q251 538 253 537T256
533T258 527Q258 480 258 425T258 312T258 200T258 97Q258 82 258 66T258 33T258 0Q225 0 197 0T134 0Q129 0 126 3T123 11ZM233 811Q276 811 310 811T386 811Q393 811 395 806T393 796Q369 768 347 743T301 691T248 631Q246 628 242 626T231 623Q202 623 177 623T125
623Q143 654 161 685T197 748T233 811Z" />
<glyph unicode="&#xee;" horiz-adv-x="350" d="M123 11Q123 38 123 78T123 166T123 260T123 348T123 417H116Q110 417 103 417T87 417T70 417T53 417Q48 417 45 420T42 428Q42 455 42 483T42 538Q59 538 80 538T126 538T173 538T215 538T247 538Q251 538 253 537T256
533T258 527Q258 480 258 425T258 312T258 200T258 97Q258 82 258 66T258 33T258 0Q225 0 197 0T134 0Q129 0 126 3T123 11ZM137 815Q158 815 179 815T222 815Q230 815 235 811T252 793Q259 784 277 764T317 716T362 662T403 613Q377 613 352 613T301 613Q290 613
285 615T272 624Q261 635 236 661T167 731L217 710H155L203 733Q163 690 136 663T87 613H-10Q-14 613 -16 614T-19 617T-20 622Q-20 627 -17 631T-2 650Q9 664 28 686T68 734T108 781T137 815Z" />
<glyph unicode="&#xef;" horiz-adv-x="350" d="M123 11Q123 38 123 78T123 166T123 260T123 348T123 417H116Q110 417 103 417T87 417T70 417T53 417Q48 417 45 420T42 428Q42 455 42 483T42 538Q59 538 80 538T126 538T173 538T215 538T247 538Q251 538 253 537T256
533T258 527Q258 480 258 425T258 312T258 200T258 97Q258 82 258 66T258 33T258 0Q225 0 197 0T134 0Q129 0 126 3T123 11ZM5 766Q38 766 72 766T139 766Q143 766 145 765T148 761T150 755V621Q117 621 83 621T16 621Q13 621 11 622T7 626T5 632V766ZM222 766Q255
766 289 766T356 766Q360 766 362 765T365 761T367 755V621Q334 621 300 621T233 621Q230 621 228 622T224 626T222 632V766Z" />
<glyph unicode="&#xf0;" horiz-adv-x="600" d="M546 744Q546 724 546 704T546 664Q546 659 545 656T542 650T533 646L403 611Q392 608 378 608T349 608T322 603L117 547Q117 568 117 587T117 626Q117 635 120 638T131 644L261 678Q278 683 293 683T321 684T344
687L546 744ZM240 494Q289 494 319 481T373 444H416V321Q386 349 356 364T283 379Q255 379 235 368T205 334T195 281V219Q195 202 198 187T207 160T222 139Q234 128 252 122T294 115Q331 115 355 129T392 168T405 229V323Q405 371 395 412T366 491T318 568T251
646T164 733V751Q201 751 238 751T312 751Q317 751 321 750T332 743Q374 701 407 661T466 580T508 499T532 414T541 323V233Q541 161 510 106T424 19T298 -12Q227 -12 173 15T89 92T59 209V293Q59 353 83 398T148 469T240 494Z" />
<glyph unicode="&#xf1;" horiz-adv-x="600" d="M533 0Q500 0 472 0T409 0Q406 0 404 1T400 5T398 11Q398 70 398 129T398 248T398 366Q398 393 386 406T348 419Q331 419 311 414T270 398T230 371T195 333V451H230Q250 481 274 503T328 537T392 550Q424 550 450
540T495 509T523 459T533 394Q533 346 533 297T533 199T533 100Q533 75 533 50T533 0ZM211 0Q189 0 170 0T130 0T87 0Q84 0 82 0T79 2T77 6T76 11Q76 65 76 118T76 225T76 332T76 440Q76 468 76 493T76 538Q101 538 121 538T161 538T200 538Q204 538 206 537T209
533T211 527Q211 440 211 352T211 176T211 0ZM392 750Q420 750 443 762T484 800H503Q503 783 503 767T503 735T503 706Q503 699 502 695T495 683Q480 663 451 651T387 638Q354 638 332 646T291 664T254 682T208 690Q180 690 157 677T116 640H97Q97 657 97 673T97
704T97 733Q97 741 98 745T105 757Q120 777 149 789T213 801Q246 801 268 794T309 776T346 758T392 750Z" />
<glyph unicode="&#xf2;" horiz-adv-x="600" d="M300 550Q354 550 398 533T475 486T524 413T542 320V219Q542 151 512 99T427 18T300 -12Q246 -12 202 5T125 52T76 125T58 218V319Q58 387 88 439T174 520T300 550ZM301 427Q267 427 243 414T206 375T193 313V225Q193
197 201 176T223 138Q236 125 255 118T299 111Q333 111 357 124T394 164T407 225V313Q407 344 400 365T379 401Q366 415 347 421T301 427ZM252 811Q270 780 288 748T324 685T360 623Q335 623 309 623T254 623Q248 623 244 625T237 631Q208 665 184 691T139 742T91
796Q87 801 89 806T98 811Q126 811 150 811T198 811T252 811Z" />
<glyph unicode="&#xf3;" horiz-adv-x="600" d="M300 550Q354 550 398 533T475 486T524 413T542 320V219Q542 151 512 99T427 18T300 -12Q246 -12 202 5T125 52T76 125T58 218V319Q58 387 88 439T174 520T300 550ZM301 427Q267 427 243 414T206 375T193 313V225Q193
197 201 176T223 138Q236 125 255 118T299 111Q333 111 357 124T394 164T407 225V313Q407 344 400 365T379 401Q366 415 347 421T301 427ZM345 811Q388 811 422 811T498 811Q505 811 507 806T505 796Q481 768 459 743T413 691T360 631Q358 628 354 626T343 623Q314
623 289 623T237 623Q255 654 273 685T309 748T345 811Z" />
<glyph unicode="&#xf4;" horiz-adv-x="600" d="M300 550Q354 550 398 533T475 486T524 413T542 320V219Q542 151 512 99T427 18T300 -12Q246 -12 202 5T125 52T76 125T58 218V319Q58 387 88 439T174 520T300 550ZM301 427Q267 427 243 414T206 375T193 313V225Q193
197 201 176T223 138Q236 125 255 118T299 111Q333 111 357 124T394 164T407 225V313Q407 344 400 365T379 401Q366 415 347 421T301 427ZM249 815Q270 815 291 815T334 815Q342 815 347 811T364 793Q371 784 389 764T429 716T474 662T515 613Q489 613 464 613T413
613Q402 613 397 615T384 624Q373 635 348 661T279 731L329 710H267L315 733Q275 690 248 663T199 613H102Q98 613 96 614T93 617T92 622Q92 627 95 631T110 650Q121 664 140 686T180 734T220 781T249 815Z" />
<glyph unicode="&#xf5;" horiz-adv-x="600" d="M300 550Q354 550 398 533T475 486T524 413T542 320V219Q542 151 512 99T427 18T300 -12Q246 -12 202 5T125 52T76 125T58 218V319Q58 387 88 439T174 520T300 550ZM301 427Q267 427 243 414T206 375T193 313V225Q193
197 201 176T223 138Q236 125 255 118T299 111Q333 111 357 124T394 164T407 225V313Q407 344 400 365T379 401Q366 415 347 421T301 427ZM390 750Q418 750 441 762T482 800H501Q501 783 501 767T501 735T501 706Q501 699 500 695T493 683Q478 663 449 651T385
638Q352 638 330 646T289 664T252 682T206 690Q178 690 155 677T114 640H95Q95 657 95 673T95 704T95 733Q95 741 96 745T103 757Q118 777 147 789T211 801Q244 801 266 794T307 776T344 758T390 750Z" />
<glyph unicode="&#xf6;" horiz-adv-x="600" d="M300 550Q354 550 398 533T475 486T524 413T542 320V219Q542 151 512 99T427 18T300 -12Q246 -12 202 5T125 52T76 125T58 218V319Q58 387 88 439T174 520T300 550ZM301 427Q267 427 243 414T206 375T193 313V225Q193
197 201 176T223 138Q236 125 255 118T299 111Q333 111 357 124T394 164T407 225V313Q407 344 400 365T379 401Q366 415 347 421T301 427ZM117 766Q150 766 184 766T251 766Q255 766 257 765T260 761T262 755V621Q229 621 195 621T128 621Q125 621 123 622T119
626T117 632V766ZM334 766Q367 766 401 766T468 766Q472 766 474 765T477 761T479 755V621Q446 621 412 621T345 621Q342 621 340 622T336 626T334 632V766Z" />
<glyph unicode="&#xf7;" horiz-adv-x="600" d="M62 363H526Q532 363 535 360T538 352Q538 322 538 295T538 237H74Q70 237 68 238T64 242T62 248Q62 279 62 306T62 363ZM218 573Q248 573 271 573T318 573T371 573Q375 573 377 572T380 568T382 562V436Q353 436
330 436T283 436T229 436Q226 436 224 437T220 441T218 447V573ZM218 164Q248 164 271 164T318 164T371 164Q375 164 377 163T380 159T382 153V27Q353 27 330 27T283 27T229 27Q226 27 224 28T220 32T218 38V164Z" />
<glyph unicode="&#xf8;" horiz-adv-x="600" d="M522 603Q509 580 497 558T473 515T451 473L465 362H370L381 382Q379 354 370 323T348 267Q323 220 297 172T244 76Q244 70 244 63T245 48Q235 29 225 10T206 -26T190 -56Q187 -62 184 -63T176 -65Q171 -65 157 -65T126
-65T95 -65T77 -65Q86 -48 98 -24T123 23T143 60L169 177H227L219 159Q222 182 228 206T244 254T265 298Q291 343 315 386T362 469Q359 474 357 479T352 490Q364 515 376 539T398 585Q404 597 408 600T420 603Q428 603 442 603T472 603T502 603T522 603ZM300 550Q354
550 398 533T475 486T524 413T542 320V219Q542 151 512 99T427 18T300 -12Q246 -12 202 5T125 52T76 125T58 218V319Q58 387 88 439T174 520T300 550ZM301 427Q267 427 243 414T206 375T193 313V225Q193 197 201 176T223 138Q236 125 255 118T299 111Q333 111 357
124T394 164T407 225V313Q407 344 400 365T379 401Q366 415 347 421T301 427Z" />
<glyph unicode="&#xf9;" horiz-adv-x="600" d="M200 538Q204 538 206 537T209 533T211 527Q211 483 211 437T211 344T211 255T211 172Q211 150 222 138T255 126Q278 126 298 130T337 144T373 169T406 205V87H371Q353 56 331 34T282 0T216 -12Q186 -12 160 -2T115
29T86 77T76 139Q76 184 76 229T76 319T76 409Q76 441 76 473T76 538Q107 538 138 538T200 538ZM514 538Q518 538 520 537T523 533T525 527Q525 455 525 384T525 242T525 98Q525 79 525 62T525 29T525 0Q503 0 482 0T440 0T400 0Q397 0 395 1T391 5T389 11Q389
99 389 187T389 362T389 538Q411 538 431 538T472 538T514 538ZM254 811Q272 780 290 748T326 685T362 623Q337 623 311 623T256 623Q250 623 246 625T239 631Q210 665 186 691T141 742T93 796Q89 801 91 806T100 811Q128 811 152 811T200 811T254 811Z" />
<glyph unicode="&#xfa;" horiz-adv-x="600" d="M200 538Q204 538 206 537T209 533T211 527Q211 483 211 437T211 344T211 255T211 172Q211 150 222 138T255 126Q278 126 298 130T337 144T373 169T406 205V87H371Q353 56 331 34T282 0T216 -12Q186 -12 160 -2T115
29T86 77T76 139Q76 184 76 229T76 319T76 409Q76 441 76 473T76 538Q107 538 138 538T200 538ZM514 538Q518 538 520 537T523 533T525 527Q525 455 525 384T525 242T525 98Q525 79 525 62T525 29T525 0Q503 0 482 0T440 0T400 0Q397 0 395 1T391 5T389 11Q389
99 389 187T389 362T389 538Q411 538 431 538T472 538T514 538ZM347 811Q390 811 424 811T500 811Q507 811 509 806T507 796Q483 768 461 743T415 691T362 631Q360 628 356 626T345 623Q316 623 291 623T239 623Q257 654 275 685T311 748T347 811Z" />
<glyph unicode="&#xfb;" horiz-adv-x="600" d="M200 538Q204 538 206 537T209 533T211 527Q211 483 211 437T211 344T211 255T211 172Q211 150 222 138T255 126Q278 126 298 130T337 144T373 169T406 205V87H371Q353 56 331 34T282 0T216 -12Q186 -12 160 -2T115
29T86 77T76 139Q76 184 76 229T76 319T76 409Q76 441 76 473T76 538Q107 538 138 538T200 538ZM514 538Q518 538 520 537T523 533T525 527Q525 455 525 384T525 242T525 98Q525 79 525 62T525 29T525 0Q503 0 482 0T440 0T400 0Q397 0 395 1T391 5T389 11Q389
99 389 187T389 362T389 538Q411 538 431 538T472 538T514 538ZM251 815Q272 815 293 815T336 815Q344 815 349 811T366 793Q373 784 391 764T431 716T476 662T517 613Q491 613 466 613T415 613Q404 613 399 615T386 624Q375 635 350 661T281 731L331 710H269L317
733Q277 690 250 663T201 613H104Q100 613 98 614T95 617T94 622Q94 627 97 631T112 650Q123 664 142 686T182 734T222 781T251 815Z" />
<glyph unicode="&#xfc;" horiz-adv-x="600" d="M200 538Q204 538 206 537T209 533T211 527Q211 483 211 437T211 344T211 255T211 172Q211 150 222 138T255 126Q278 126 298 130T337 144T373 169T406 205V87H371Q353 56 331 34T282 0T216 -12Q186 -12 160 -2T115
29T86 77T76 139Q76 184 76 229T76 319T76 409Q76 441 76 473T76 538Q107 538 138 538T200 538ZM514 538Q518 538 520 537T523 533T525 527Q525 455 525 384T525 242T525 98Q525 79 525 62T525 29T525 0Q503 0 482 0T440 0T400 0Q397 0 395 1T391 5T389 11Q389
99 389 187T389 362T389 538Q411 538 431 538T472 538T514 538ZM119 766Q152 766 186 766T253 766Q257 766 259 765T262 761T264 755V621Q231 621 197 621T130 621Q127 621 125 622T121 626T119 632V766ZM336 766Q369 766 403 766T470 766Q474 766 476 765T479
761T481 755V621Q448 621 414 621T347 621Q344 621 342 622T338 626T336 632V766Z" />
<glyph unicode="&#xfd;" horiz-adv-x="600" d="M547 538Q552 538 556 534T559 522Q540 449 523 383T488 251T452 113T413 -40Q400 -95 376 -130T314 -183T223 -200Q210 -200 193 -200T159 -200T130 -200T115 -200Q110 -200 107 -197T104 -189V-82H123Q144 -82
165 -82T207 -82Q241 -82 262 -66T291 -13Q298 12 308 56T332 159T361 281T391 412T421 538Q435 538 450 538T481 538T513 538T547 538ZM173 538Q183 538 187 535T193 524Q212 454 226 404T251 316T270 247T286 186T303 118H363L340 34H232Q223 34 217 36T206 44T197
63Q192 77 180 112T151 199T115 308T77 426T42 538Q57 538 73 538T106 538T139 538T173 538ZM357 811Q400 811 434 811T510 811Q517 811 519 806T517 796Q493 768 471 743T425 691T372 631Q370 628 366 626T355 623Q326 623 301 623T249 623Q267 654 285 685T321
748T357 811Z" />
<glyph unicode="&#xfe;" horiz-adv-x="600" d="M76 717Q97 717 118 717T159 717T200 717Q204 717 206 716T209 712T211 706Q211 630 211 539T211 350T211 154T211 -35T211 -203Q190 -203 170 -203T129 -203T87 -203Q84 -203 82 -202T78 -198T76 -192Q76 -137 76
-72T76 66T76 212T76 358T76 496T76 616Q76 645 76 670T76 717ZM376 550Q428 550 465 527T522 459T542 354V188Q542 141 530 105T497 43T444 4T374 -10Q344 -10 318 0T268 28T228 69H200V175Q220 157 241 145T284 127T330 121Q355 121 372 131T398 161T407 211V329Q407
354 402 371T387 399Q378 409 364 414T333 419Q311 419 288 410T242 382T199 338V461H228Q245 490 268 509T318 539T376 550Z" />
<glyph unicode="&#xff;" horiz-adv-x="600" d="M547 538Q552 538 556 534T559 522Q540 449 523 383T488 251T452 113T413 -40Q400 -95 376 -130T314 -183T223 -200Q210 -200 193 -200T159 -200T130 -200T115 -200Q110 -200 107 -197T104 -189V-82H123Q144 -82
165 -82T207 -82Q241 -82 262 -66T291 -13Q298 12 308 56T332 159T361 281T391 412T421 538Q435 538 450 538T481 538T513 538T547 538ZM173 538Q183 538 187 535T193 524Q212 454 226 404T251 316T270 247T286 186T303 118H363L340 34H232Q223 34 217 36T206 44T197
63Q192 77 180 112T151 199T115 308T77 426T42 538Q57 538 73 538T106 538T139 538T173 538ZM129 766Q162 766 196 766T263 766Q267 766 269 765T272 761T274 755V621Q241 621 207 621T140 621Q137 621 135 622T131 626T129 632V766ZM346 766Q379 766 413 766T480
766Q484 766 486 765T489 761T491 755V621Q458 621 424 621T357 621Q354 621 352 622T348 626T346 632V766Z" />
<glyph unicode="&#x2013;" horiz-adv-x="600" d="M50 364H539Q543 364 545 363T548 359T550 353Q550 323 550 295T550 235H61Q58 235 56 236T52 240T50 246Q50 277 50 305T50 364Z" />
<glyph unicode="&#x2014;" horiz-adv-x="600" d="M-11 364H600Q604 364 606 363T609 359T611 353Q611 323 611 295T611 235H0Q-3 235 -5 236T-9 240T-11 246Q-11 277 -11 305T-11 364Z" />
<glyph unicode="&#x2018;" horiz-adv-x="350" d="M180 750Q223 750 255 750T313 750Q301 697 290 645T267 542T243 439Q215 439 192 439T148 439T108 439T62 439Q58 439 56 440T53 445T54 452Q71 495 91 544T131 644T170 743Q172 748 174 749T180 750Z" />
<glyph unicode="&#x2019;" horiz-adv-x="350" d="M203 439Q161 439 129 439T70 439Q82 493 93 544T116 646T140 750Q169 750 192 750T235 750T276 750T322 750Q326 750 328 749T331 744T330 737Q312 694 292 645T252 545T213 446Q212 442 210 441T203 439Z" />
<glyph unicode="&#x201a;" horiz-adv-x="350" d="M203 -106Q161 -106 129 -106T70 -106Q82 -53 93 -1T116 101T140 205Q169 205 192 205T235 205T276 205T322 205Q326 205 328 204T331 199T330 192Q312 149 292 100T252 -1T213 -99Q212 -103 210 -104T203 -106Z" />
<glyph unicode="&#x201c;" horiz-adv-x="600" d="M309 746Q300 706 291 667T273 590T255 512T237 435Q209 435 188 435T151 435T117 435T73 435Q67 435 65 438T65 448Q80 485 94 521T121 593T149 664T178 739Q180 744 182 745T188 746Q209 746 226 746T257 746T284
746T309 746ZM552 746Q543 706 534 667T516 590T498 512T480 435Q451 435 431 435T394 435T359 435T316 435Q310 435 308 438T308 448Q323 485 336 521T364 593T392 664T420 739Q422 744 424 745T430 746Q452 746 468 746T499 746T526 746T552 746Z" />
<glyph unicode="&#x201d;" horiz-adv-x="600" d="M321 435Q330 475 339 514T357 591T375 668T393 746Q421 746 441 746T478 746T513 746T557 746Q563 746 565 743T565 733Q550 695 536 659T509 587T481 516T452 442Q451 438 449 437T442 435Q421 435 404 435T373
435T346 435T321 435ZM78 435Q87 475 96 514T114 591T132 668T150 746Q179 746 199 746T236 746T271 746T314 746Q320 746 322 743T322 733Q307 695 294 659T266 587T238 516T210 442Q209 438 207 437T200 435Q178 435 162 435T131 435T104 435T78 435Z" />
<glyph unicode="&#x201e;" horiz-adv-x="600" d="M321 -109Q330 -69 339 -30T357 47T375 124T393 202Q421 202 441 202T478 202T513 202T557 202Q563 202 565 199T565 189Q550 151 536 115T509 43T481 -28T452 -102Q451 -106 449 -107T442 -109Q421 -109 404 -109T373
-109T346 -109T321 -109ZM78 -109Q87 -69 96 -30T114 47T132 124T150 202Q179 202 199 202T236 202T271 202T314 202Q320 202 322 199T322 189Q307 151 294 115T266 43T238 -28T210 -102Q209 -106 207 -107T200 -109Q178 -109 162 -109T131 -109T104 -109T78 -109Z"
/>
<glyph unicode="&#x2022;" horiz-adv-x="600" d="M443 157Q416 157 380 157T306 157T232 157T168 157Q163 157 160 160T157 168V443Q185 443 220 443T294 443T369 443T432 443Q437 443 440 440T443 432V157Z" />
<glyph unicode="&#x2039;" horiz-adv-x="400" d="M369 97V78Q335 78 301 78T233 78Q223 78 219 80T207 90Q203 94 187 111T149 151T105 197T65 239T42 263Q35 271 34 275T32 285Q32 295 32 305T32 325Q55 350 81 377T133 432T178 480T209 512Q216 519 221 520T235
522Q269 522 302 522T369 522V503Q328 460 296 426T235 361T177 299Q205 270 232 241T292 178T369 97Z" />
<glyph unicode="&#x203a;" horiz-adv-x="400" d="M32 504V523Q66 523 100 523T168 523Q178 523 182 521T194 511Q198 507 214 490T252 450T296 404T336 362T359 338Q366 331 367 327T369 316Q369 306 369 296T369 276Q346 251 320 224T268 169T223 121T192 89Q185
82 180 81T166 79Q132 79 99 79T32 79V98Q74 141 106 175T166 240T224 302Q197 331 170 359T109 422T32 504Z" />
</font>
</defs>
</svg>
