<?xml version="1.0" standalone="no"?>
<!DOCTYPE svg PUBLIC "-//W3C//DTD SVG 1.1//EN" "http://www.w3.org/Graphics/SVG/1.1/DTD/svg11.dtd">
<svg xmlns="http://www.w3.org/2000/svg">
<defs >
<font id="Rubik" horiz-adv-x="544" ><font-face
    font-family="Rubik Light SemiBold"
    units-per-em="1000"
    panose-1="0 0 0 0 0 0 0 0 0 0"
    ascent="935"
    descent="-250"
    alphabetic="0" />
<glyph unicode=" " horiz-adv-x="225" />
<glyph unicode="!" horiz-adv-x="279" d="M72 207Q61 207 56 214T53 232L148 675Q150 686 158 693T177 700H274Q285 700 290 693T294 675L200 232Q198 221 189 214T169 207H72ZM23 0Q13 0 7 7T3 25L26 132Q28 143 37 150T56 157H164Q174 157 179 150T183 132L161
25Q159 14 151 7T131 0H23Z" />
<glyph unicode="&quot;" horiz-adv-x="431" d="M123 457Q110 457 106 464T103 482L124 682Q126 695 133 702T153 710H253Q264 710 269 703T270 682L207 482Q204 472 197 465T175 457H123ZM319 457Q305 457 302 464T299 482L320 682Q321 695 329 702T348 710H448Q460
710 465 703T466 682L402 482Q399 472 392 465T370 457H319Z" />
<glyph unicode="#" horiz-adv-x="689" d="M113 39Q104 39 99 45T96 61L133 163H55Q45 163 40 169T36 186L51 254Q53 264 61 270T80 277H174L225 417H135Q125 417 120 423T116 440L131 508Q133 518 141 524T160 531H266L304 634Q307 642 314 648T331 655H399Q408
655 413 649T416 633L379 531H493L531 634Q534 642 541 648T558 655H626Q635 655 640 649T643 633L606 531H683Q694 531 699 525T702 508L687 440Q686 430 678 424T659 417H565L515 277H603Q614 277 619 271T622 254L607 186Q606 176 598 170T579 163H473L436 60Q432
51 425 45T408 39H340Q331 39 326 45T323 61L360 163H246L209 60Q205 51 198 45T181 39H113ZM288 277H401L452 417H338L288 277Z" />
<glyph unicode="$" horiz-adv-x="656" d="M209 -100Q199 -100 194 -93T190 -75L205 -5Q133 5 88 33T23 101T10 187Q12 195 19 201T36 208H143Q156 208 162 203T172 189Q175 172 187 156T224 130T286 119Q351 119 389 140T436 197Q442 223 428 239T379 268T284
296Q213 312 167 340T104 412T99 515Q115 595 178 646T345 707L361 775Q363 786 371 793T391 800H462Q473 800 478 793T481 775L465 702Q528 690 570 660T632 592T644 519Q643 511 636 505T619 498H506Q497 498 490 502T479 516Q479 542 453 561T384 581Q335 581
301 563T259 508Q254 484 265 468T308 439T395 411Q479 393 528 365T594 295T598 193Q579 101 509 51T324 -7L311 -75Q309 -86 300 -93T281 -100H209Z" />
<glyph unicode="%" horiz-adv-x="824" d="M60 0Q45 0 42 10T48 31L679 681Q688 690 696 695T718 700H785Q800 700 803 690T797 669L166 19Q157 10 149 5T127 0H60ZM576 -5Q535 -5 504 12T456 59T446 130Q449 156 454 175T466 223Q482 283 522 319T637 355Q681
355 712 338T759 290T767 219Q763 191 759 171T747 125Q731 65 689 30T576 -5ZM582 77Q611 77 627 94T650 133Q657 156 660 174T667 216Q670 230 668 242T658 263T630 271Q600 271 584 254T562 216Q556 193 552 175T545 133Q543 119 545 106T556 85T582 77ZM209
345Q168 345 137 362T90 409T79 480Q83 506 87 525T99 573Q116 634 156 669T270 705Q314 705 345 688T392 641T401 569Q397 541 393 522T381 476Q364 416 322 381T209 345ZM216 428Q244 428 261 445T284 483Q290 507 294 525T301 566Q304 580 302 593T291 614T263
622Q233 622 217 605T195 566Q189 544 186 526T178 483Q177 470 179 457T189 436T216 428Z" />
<glyph unicode="&amp;" horiz-adv-x="730" d="M245 -10Q170 -10 119 14T47 85T39 193Q49 237 73 271T134 332T217 383Q185 427 176 463T174 537Q184 583 216 622T300 685T420 710Q484 710 524 687T580 624T586 539Q577 498 552 466T489 407T405 357L509 226Q522
243 543 273T587 350Q593 366 611 366H698Q707 366 711 361T713 346Q709 327 695 302T662 248T620 193T574 143L660 33Q666 26 664 18Q663 10 657 5T641 0H526Q516 0 511 3T501 10L462 58Q415 25 362 8T245 -10ZM270 105Q302 105 334 115T396 150L279 295Q245 278
218 255T183 198Q177 169 188 148T221 116T270 105ZM345 440Q373 454 396 467T435 497T456 535Q462 566 446 584T397 602Q368 602 342 584T310 535Q306 515 313 494T345 440Z" />
<glyph unicode="&apos;" horiz-adv-x="235" d="M123 457Q110 457 106 464T103 482L124 682Q126 695 133 702T153 710H253Q264 710 269 703T270 682L206 481Q203 471 197 464T175 457H123Z" />
<glyph unicode="(" horiz-adv-x="371" d="M227 -159Q182 -159 145 -143T80 -91T38 0T25 132T48 309Q75 434 107 522T184 667T287 749T425 776Q435 776 441 769T445 751L430 680Q428 669 419 662T401 655Q360 653 328 631T270 566T225 459T185 309Q167 223 160
159T160 52T190 -13T254 -38Q263 -38 268 -45T272 -63L256 -134Q255 -144 246 -151T227 -159Z" />
<glyph unicode=")" horiz-adv-x="371" d="M-49 -159Q-59 -159 -65 -152T-70 -134L-54 -63Q-52 -52 -44 -45T-26 -38Q16 -36 48 -14T106 51T152 159T191 309Q209 394 216 458T216 565T186 630T122 655Q113 655 108 662T104 680L119 751Q121 761 130 768T149 776Q194
776 231 760T296 708T338 617T351 485T328 309Q301 184 270 95T196 -50T93 -132T-49 -159Z" />
<glyph unicode="*" horiz-adv-x="445" d="M246 614L245 700Q244 712 252 721T273 730H353Q367 730 369 720T368 700L329 614L415 660Q424 665 435 664T448 649L457 571Q459 558 450 551T430 543L338 534L394 477Q401 470 400 460T387 441L311 392Q301 386 291
389T278 404L261 486L207 402Q202 394 192 389T171 392L116 441Q106 450 110 460T124 477L204 535L117 542Q107 543 101 552T101 572L144 651Q150 662 161 664T178 661L246 614Z" />
<glyph unicode="+" horiz-adv-x="606" d="M213 33Q203 33 197 40T193 58L233 247H48Q38 247 33 254T29 271L42 334Q44 345 52 352T72 359H257L296 542Q298 553 307 560T326 567H396Q407 567 412 560T415 542L376 359H561Q571 359 576 352T580 334L567 271Q565
261 557 254T537 247H352L312 58Q310 47 302 40T283 33H213Z" />
<glyph unicode="," horiz-adv-x="277" d="M34 129Q39 142 49 152T75 162H184Q194 162 197 154T196 138L85 -48Q79 -58 70 -66T46 -75H-19Q-27 -75 -32 -68T-33 -52L34 129Z" />
<glyph unicode="-" horiz-adv-x="478" d="M70 236Q59 236 54 243T51 260L68 340Q70 350 78 357T97 364H408Q418 364 424 357T427 340L410 260Q408 250 400 243T380 236H70Z" />
<glyph unicode="." horiz-adv-x="273" d="M21 0Q10 0 5 7T1 25L24 137Q26 148 35 155T55 162H167Q178 162 183 155T187 137L163 25Q161 14 153 7T133 0H21Z" />
<glyph unicode="/" horiz-adv-x="526" d="M-34 -84Q-45 -84 -50 -75T-47 -54L467 763Q471 771 480 778T505 786H584Q597 786 600 777T597 756L81 -61Q77 -68 68 -76T43 -84H-34Z" />
<glyph unicode="0" horiz-adv-x="667" d="M281 -10Q196 -9 139 22T58 113T47 256Q52 284 58 317T72 384T88 446Q109 529 150 588T255 678T407 710Q491 710 548 679T631 588T643 446Q638 417 632 384T618 318T602 256Q581 173 541 113T437 22T281 -10ZM293 120Q349
120 385 154T439 261Q447 290 454 320T467 381T478 441Q490 511 473 546T397 582Q339 581 304 546T251 441Q244 412 237 382T224 321T212 261Q200 189 217 155T293 120Z" />
<glyph unicode="1" horiz-adv-x="476" d="M211 0Q201 0 195 7T191 25L295 511L133 404Q122 398 113 399T99 410L59 482Q55 491 58 501T73 517L338 693Q345 697 349 698T362 700H469Q479 700 485 693T489 675L350 25Q348 14 340 7T321 0H211Z" />
<glyph unicode="2" horiz-adv-x="634" d="M19 0Q8 0 3 7T0 25L13 85Q15 93 22 106T48 133L207 264Q291 320 345 359T429 430T464 492Q472 531 456 556T392 582Q360 582 336 569T295 533T268 485Q262 472 252 467T231 462H125Q116 462 112 468T108 483Q119 529
146 570T213 643T306 693T419 712Q503 712 554 685T624 609T630 498Q620 450 592 409T519 331T414 253L271 135H543Q554 135 559 128T562 110L544 25Q542 14 534 7T514 0H19Z" />
<glyph unicode="3" horiz-adv-x="644" d="M267 -10Q193 -10 144 8T66 54T28 115T24 180Q26 189 33 195T50 201H160Q171 201 177 197T187 181Q189 158 204 144T243 125T295 119Q350 119 387 145T436 218Q446 266 420 287T340 308H233Q223 308 217 315T214 332L224
381Q226 393 232 401T245 413L451 571H169Q158 571 153 578T149 595L166 675Q168 686 176 693T196 700H640Q651 700 656 693T660 675L644 603Q642 592 636 585T624 573L427 412L437 411Q494 405 535 382T594 317T597 209Q583 141 536 92T419 17T267 -10Z" />
<glyph unicode="4" horiz-adv-x="676" d="M340 0Q330 0 324 7T320 25L346 145H22Q11 145 6 152T2 170L20 251Q22 261 26 267T35 279L416 683Q432 700 456 700H593Q604 700 609 693T613 675L528 278H617Q629 278 634 271T637 254L619 170Q617 159 609 152T589 145H500L474
25Q472 14 464 7T445 0H340ZM195 273H377L431 530L195 273Z" />
<glyph unicode="5" horiz-adv-x="632" d="M258 -11Q171 -11 113 17T30 92T12 194Q14 203 21 209T37 215H150Q162 215 169 210T177 195Q178 168 190 151T223 126T270 118Q303 118 333 131T385 171T415 235Q426 286 403 316T325 346Q299 346 281 340T248 326T224
311T202 304H91Q81 304 77 311T75 329L182 671Q187 685 197 692T219 700H607Q618 700 623 693T627 675L610 595Q607 585 599 578T580 571H291L245 424Q267 437 297 447T381 458Q429 458 469 442T538 394T577 320T577 225Q562 153 522 100T416 18T258 -11Z" />
<glyph unicode="6" horiz-adv-x="638" d="M274 -10Q186 -10 129 22T48 110T39 238Q45 268 60 298T94 354T131 402T161 436L393 680Q398 685 408 692T432 700H544Q553 700 557 694T560 678Q559 674 558 671T554 665L375 476Q384 478 394 479T413 480Q461 478 501
460T570 411T610 336T610 240Q596 173 550 116T432 25T274 -10ZM300 119Q333 119 363 132T417 173T448 238Q456 277 445 303T408 343T350 357Q317 357 286 344T233 304T202 238Q194 200 205 173T241 133T300 119Z" />
<glyph unicode="7" horiz-adv-x="558" d="M94 0Q85 0 81 6T78 22Q79 27 82 31L431 566H124Q114 566 109 573T105 590L123 675Q125 686 134 693T153 700H606Q618 700 623 693T626 675L610 600Q607 585 602 576T590 556L243 24Q238 18 229 9T203 0H94Z" />
<glyph unicode="8" horiz-adv-x="664" d="M279 -10Q189 -10 129 20T42 101T28 211Q40 268 78 309T164 372Q137 395 123 432T118 516Q129 573 167 616T265 685T406 710Q486 710 540 683T620 611T634 509Q625 462 600 429T532 372Q573 346 590 300T597 202Q584 141
545 93T439 18T279 -10ZM287 105Q324 105 355 118T409 154T438 207Q448 255 419 282T337 309Q302 309 270 297T215 262T186 207Q177 159 206 132T287 105ZM354 418Q386 419 414 430T461 460T487 506Q496 547 472 570T398 594Q365 594 337 583T290 553T265 506Q256
466 278 442T354 418Z" />
<glyph unicode="9" horiz-adv-x="629" d="M130 0Q121 0 117 6T114 22Q115 27 117 30T121 35L307 233Q289 229 271 230Q223 232 184 249T118 298T81 371T81 464Q91 510 118 554T187 633T285 689T411 710Q480 710 528 691T606 639T644 562T642 469Q633 425 610 387T557
316T500 252L282 20Q277 15 268 8T243 0H130ZM335 348Q369 348 398 362T449 402T478 464Q486 501 476 527T442 567T385 581Q352 581 323 567T272 527T243 464Q235 428 245 402T279 362T335 348Z" />
<glyph unicode=":" horiz-adv-x="283" d="M97 350Q86 350 81 357T78 375L100 482Q102 493 111 500T130 507H243Q253 507 259 500T262 482L240 375Q237 364 229 357T209 350H97ZM23 0Q12 0 7 7T3 25L25 132Q27 143 36 150T56 157H168Q179 157 184 150T188 132L165
25Q163 14 155 7T135 0H23Z" />
<glyph unicode=";" horiz-adv-x="293" d="M-1 -75Q-10 -75 -13 -69T-14 -53L52 129Q57 142 67 152T94 162H198Q206 162 210 157T213 143Q212 140 208 131L100 -48Q93 -58 84 -66T59 -75H-1ZM124 350Q113 350 108 357T104 375L127 482Q129 493 137 500T157 507H269Q280
507 285 500T289 482L266 375Q264 364 256 357T236 350H124Z" />
<glyph unicode="&lt;" horiz-adv-x="510" d="M385 11Q381 11 376 13T368 18L69 256Q57 266 52 276T50 300L55 328Q59 343 68 352T94 372L493 609Q498 612 504 614T514 617Q522 617 527 612T530 596L510 505Q507 490 498 482T476 467L213 314L411 160Q420 154 426
146T429 123L410 32Q408 22 401 17T385 11Z" />
<glyph unicode="=" horiz-adv-x="569" d="M52 117Q41 117 36 124T32 142L46 208Q48 219 56 226T76 233H466Q477 233 482 226T485 208L471 142Q469 131 461 124T442 117H52ZM105 367Q94 367 89 374T85 392L99 458Q101 469 109 476T129 483H519Q530 483 535 476T538
458L525 392Q523 381 514 374T495 367H105Z" />
<glyph unicode="&gt;" horiz-adv-x="510" d="M34 11Q25 11 21 16T18 31L37 123Q41 138 50 145T72 160L335 314L138 467Q129 474 122 482T118 505L138 596Q140 606 147 611T163 617Q167 617 171 615T180 609L478 371Q491 361 496 352T498 328L492 300Q489 286 480
276T454 256L55 18Q50 16 44 14T34 11Z" />
<glyph unicode="?" horiz-adv-x="580" d="M230 199Q222 199 218 205T214 219Q215 226 216 233T220 247Q232 284 256 313T308 368T365 414T413 458T440 502Q448 528 440 545T412 572T368 582Q324 582 293 561T242 495Q236 484 228 478T207 472H104Q94 472 89 479T86
497Q96 537 122 575T189 643T284 692T404 710Q476 710 519 692T585 646T612 585T610 523Q601 486 581 457T534 402T481 354T431 306T394 256Q391 248 388 241T382 225Q375 212 368 206T348 199H230ZM187 0Q176 0 171 7T167 25L189 125Q191 135 199 142T218 150H331Q341
150 347 143T351 125L329 25Q327 14 318 7T299 0H187Z" />
<glyph unicode="@" horiz-adv-x="841" d="M348 -127Q259 -127 197 -105T99 -41T49 58T43 186Q45 200 49 223T58 272T69 321T79 357Q100 422 137 479T229 579T353 648T508 673Q609 673 674 650T774 585T819 484T819 357Q816 335 811 311T801 265T792 230Q778 181
751 147T687 96T611 79Q578 79 556 88T522 110T504 131Q494 119 477 104T432 79T361 69Q287 69 256 123T244 273Q264 368 318 423T446 478Q486 478 506 465T536 432L539 445Q542 456 550 463T569 470H615Q625 470 630 463T634 445L590 240Q583 205 594 187T631
169Q653 169 667 181T690 209T701 240Q706 260 713 290T724 352Q736 429 718 480T645 557T489 582Q405 582 343 554T238 474T173 352Q167 335 160 304T147 242T139 191Q128 83 182 23T368 -37Q433 -37 473 -29T538 -7T583 19Q592 25 599 29T616 33H679Q689 33 694
26T697 8Q696 4 694 1T689 -6Q655 -38 607 -65T495 -110T348 -127ZM396 159Q440 159 465 188T503 273Q511 311 508 336T489 374T444 388Q403 388 377 359T337 273Q330 239 333 213T352 173T396 159Z" />
<glyph unicode="A" horiz-adv-x="708" d="M-29 0Q-41 0 -45 10T-44 30L330 673Q336 684 346 692T373 700H507Q523 700 530 692T538 673L640 30Q642 16 635 8T617 0H515Q500 0 494 7T486 23L466 132H184L117 20Q112 13 104 7T82 0H-29ZM249 261H456L413 549L249 261Z" />
<glyph unicode="B" horiz-adv-x="696" d="M36 0Q26 0 20 7T16 25L154 675Q156 686 165 693T184 700H471Q549 700 599 676T671 608T680 505Q672 466 653 438T610 393T567 367Q602 347 623 307T632 209Q618 146 585 99T494 26T353 0H36ZM195 117H348Q395 117 427
144T467 210Q476 249 459 275T388 302H234L195 117ZM258 417H400Q446 417 476 440T515 501Q523 538 506 560T443 583H294L258 417Z" />
<glyph unicode="C" horiz-adv-x="692" d="M301 -10Q233 -10 180 7T93 60T46 145T44 261Q51 302 61 349T82 439Q104 525 148 585T262 678T427 710Q492 710 545 694T635 646T687 571T693 473Q692 464 686 458T670 452H554Q542 452 536 458T528 478Q531 535 500 558T416
581Q354 581 309 547T245 434Q224 352 209 266Q195 187 223 153T312 119Q364 119 405 141T473 222Q481 237 488 242T508 248H623Q632 248 637 242T641 227Q627 175 599 132T529 56T430 7T301 -10Z" />
<glyph unicode="D" horiz-adv-x="709" d="M36 0Q26 0 20 7T16 25L154 675Q156 686 165 693T184 700H420Q486 700 540 682T630 630T682 544T685 427Q677 383 670 350T652 274Q629 181 588 120T479 30T308 0H36ZM197 129H314Q365 129 399 144T456 191T491 276Q499
305 504 328T513 374T523 425Q537 500 509 535T404 571H291L197 129Z" />
<glyph unicode="E" horiz-adv-x="629" d="M36 0Q26 0 20 7T16 25L154 675Q156 686 165 693T184 700H637Q648 700 653 693T657 675L640 595Q638 585 630 578T610 571H286L252 414H554Q565 414 570 407T574 389L558 315Q556 305 548 298T528 291H227L192 129H524Q535
129 540 122T544 104L527 25Q525 14 517 7T497 0H36Z" />
<glyph unicode="F" horiz-adv-x="610" d="M36 0Q26 0 20 7T16 25L154 675Q156 686 165 693T184 700H631Q642 700 647 693T651 675L632 590Q630 579 622 572T603 565H288L251 396H546Q557 396 562 389T566 371L548 286Q546 276 538 269T518 262H223L172 25Q170
14 162 7T143 0H36Z" />
<glyph unicode="G" horiz-adv-x="710" d="M304 -10Q210 -10 150 21T67 113T58 260Q66 303 76 352T98 445Q118 529 167 588T291 678T457 710Q531 710 583 691T666 642T710 575T716 506Q715 497 708 491T690 484H566Q556 484 552 488T544 500Q542 518 531 536T495
568T429 581Q367 581 323 548T261 440Q250 397 241 353T223 265Q210 187 240 153T333 119Q375 119 410 133T471 179T507 258L512 283H403Q393 283 388 290T384 308L398 372Q400 383 408 390T428 397H673Q684 397 689 390T693 372L669 263Q652 177 601 116T474 23T304
-10Z" />
<glyph unicode="H" horiz-adv-x="737" d="M36 0Q26 0 20 7T16 25L154 675Q156 686 165 693T184 700H293Q304 700 309 693T313 675L260 425H531L585 675Q587 686 595 693T614 700H723Q734 700 739 693T743 675L605 25Q603 14 595 7T575 0H466Q456 0 450 7T446 25L501
283H230L175 25Q173 14 165 7T145 0H36Z" />
<glyph unicode="I" horiz-adv-x="311" d="M36 0Q25 0 20 7T16 25L155 675Q157 686 165 693T184 700H298Q308 700 314 693T318 675L179 25Q177 14 169 7T150 0H36Z" />
<glyph unicode="J" horiz-adv-x="657" d="M258 -10Q208 -10 160 4T73 46T16 117T6 215Q8 224 14 230T31 237H146Q160 237 165 230T172 210Q170 162 195 141T268 119Q330 119 366 156T418 261L483 567H151Q141 567 136 574T132 591L150 675Q152 686 160 693T179
700H650Q661 700 666 693T670 675L581 257Q563 171 523 112T418 21T258 -10Z" />
<glyph unicode="K" horiz-adv-x="639" d="M36 0Q26 0 20 7T16 25L154 675Q156 686 164 693T183 700H291Q302 700 307 693T311 675L263 452L505 681Q510 687 520 693T547 700H671Q686 700 689 688T684 667L364 354L570 33Q578 20 570 10T550 0H432Q416 0 408 6T397
19L227 279L172 25Q170 14 163 7T144 0H36Z" />
<glyph unicode="L" horiz-adv-x="583" d="M36 0Q26 0 20 7T16 25L155 675Q157 686 165 693T184 700H296Q306 700 312 693T316 675L200 134H510Q521 134 526 127T530 109L512 25Q510 14 502 7T483 0H36Z" />
<glyph unicode="M" horiz-adv-x="820" d="M37 0Q26 0 20 7T16 25L154 675Q156 686 165 693T185 700H278Q293 700 299 692T307 680L420 341L677 680Q680 684 689 692T713 700H806Q817 700 822 693T826 675L688 25Q686 14 678 7T658 0H556Q546 0 540 7T536 25L621
421L448 191Q441 182 432 175T409 168H363Q349 168 343 175T334 191L254 434L168 25Q166 14 158 7T139 0H37Z" />
<glyph unicode="N" horiz-adv-x="714" d="M36 0Q26 0 20 7T16 25L154 675Q156 686 164 693T184 700H274Q289 700 295 694T302 682L481 262L569 675Q571 686 579 693T599 700H700Q711 700 716 693T720 675L582 25Q580 15 572 8T553 0H462Q447 0 442 7T434 18L253
426L168 25Q166 14 158 7T138 0H36Z" />
<glyph unicode="O" horiz-adv-x="703" d="M300 -10Q238 -10 186 7T98 58T48 143T45 263Q52 306 61 348T81 435Q114 570 199 640T426 710Q488 710 540 693T628 640T678 554T681 435Q673 391 664 349T644 263Q610 125 525 58T300 -10ZM311 119Q371 119 417 154T481
268Q492 312 500 350T516 432Q531 510 504 545T415 581Q354 581 309 546T245 432Q234 389 226 351T210 268Q196 190 222 155T311 119Z" />
<glyph unicode="P" horiz-adv-x="668" d="M36 0Q26 0 20 7T16 25L154 675Q156 686 165 693T184 700H445Q505 700 553 686T632 644T676 573T676 474Q652 360 577 306T376 251H228L180 25Q178 14 170 7T150 0H36ZM252 375H381Q429 375 465 400T513 475Q519 505 516
527T492 562T429 575H295L252 375Z" />
<glyph unicode="Q" horiz-adv-x="703" d="M459 -65Q444 -65 438 -57T427 -42L401 6Q355 -10 300 -10Q209 -10 150 20T66 110T58 263Q66 306 75 348T95 435Q117 525 168 586T292 679T453 710Q541 710 601 679T686 587T694 435Q687 391 678 349T658 263Q625 135
544 68L594 -34Q596 -39 595 -44Q594 -52 587 -58T570 -65H459ZM328 119Q387 119 432 154T495 268Q506 312 514 350T529 432Q539 484 529 517T492 565T426 581Q368 581 323 546T258 432Q248 389 240 351T224 268Q214 216 224 183T262 135T328 119Z" />
<glyph unicode="R" horiz-adv-x="682" d="M50 0Q39 0 34 7T31 25L168 675Q170 686 179 693T199 700H464Q589 700 648 643T685 477Q670 404 625 355T515 282L603 32Q604 29 604 27T604 21Q602 13 595 7T578 0H467Q449 0 443 9T433 27L360 256H239L189 25Q187 14
179 7T159 0H50ZM265 383H394Q448 383 480 408T522 478Q531 523 511 549T435 575H306L265 383Z" />
<glyph unicode="S" horiz-adv-x="651" d="M273 -10Q177 -10 116 17T28 90T9 187Q10 195 16 201T32 208H141Q154 208 160 203T171 189Q174 172 186 156T223 130T284 119Q350 119 388 140T434 197Q440 223 426 239T377 268T283 296Q211 312 165 340T102 412T97 515Q116
605 193 657T393 710Q457 710 505 692T586 645T633 583T642 519Q641 511 635 505T619 498H505Q495 498 488 502T477 516Q477 542 452 561T383 581Q334 581 300 563T257 508Q252 484 263 468T306 439T393 411Q477 393 526 365T592 295T597 193Q576 93 493 42T273
-10Z" />
<glyph unicode="T" horiz-adv-x="614" d="M188 0Q178 0 172 7T168 25L283 561H101Q91 561 85 568T81 585L100 675Q102 686 110 693T130 700H654Q665 700 670 693T674 675L654 585Q652 575 644 568T625 561H444L329 25Q327 14 319 7T299 0H188Z" />
<glyph unicode="U" horiz-adv-x="719" d="M307 -10Q243 -10 191 6T105 57T58 143T61 267L148 675Q150 686 158 693T178 700H287Q298 700 303 693T307 675L220 268Q204 194 227 158T318 122Q385 122 427 158T485 268L572 675Q574 686 583 693T602 700H712Q722 700
727 693T731 675L645 267Q614 124 533 57T307 -10Z" />
<glyph unicode="V" horiz-adv-x="684" d="M212 0Q196 0 188 8T179 29L105 673Q104 686 111 693T129 700H231Q246 700 252 692T260 676L312 187L571 676Q574 684 583 692T608 700H723Q735 700 738 691T736 670L391 29Q385 17 374 9T346 0H212Z" />
<glyph unicode="W" horiz-adv-x="816" d="M124 0Q108 0 101 9T94 31L111 677Q111 686 118 693T135 700H237Q251 700 257 694T262 676L249 262L384 519Q389 527 398 536T422 545H485Q501 545 506 536T512 519L540 257L704 679Q712 700 738 700H847Q859 700 862
692T862 675L618 31Q613 18 602 9T574 0H491Q474 0 468 8T459 26L411 335L248 26Q243 17 233 9T207 0H124Z" />
<glyph unicode="X" horiz-adv-x="676" d="M-25 0Q-37 0 -42 11T-38 33L263 361L109 668Q103 679 110 689T130 700H239Q257 700 263 693T272 680L374 476L556 680Q561 685 569 692T596 700H716Q729 700 733 689T729 667L443 339L598 31Q603 21 597 11T576 0H468Q451
0 444 7T435 19L332 221L145 19Q142 15 133 8T106 0H-25Z" />
<glyph unicode="Y" horiz-adv-x="670" d="M217 0Q207 0 201 7T197 25L244 245L100 668Q96 680 103 690T124 700H224Q237 700 243 693T252 680L349 406L563 680Q567 686 576 693T599 700H716Q731 700 733 689T727 668L403 245L356 25Q354 14 346 7T326 0H217Z" />
<glyph unicode="Z" horiz-adv-x="634" d="M-1 0Q-11 0 -17 7T-21 25L-2 109Q1 123 8 132T20 145L437 567H129Q119 567 114 574T110 591L127 675Q129 686 137 693T157 700H648Q659 700 664 693T668 675L650 592Q648 581 642 573T630 558L220 134H539Q550 134 555
127T559 109L541 25Q539 14 531 7T512 0H-1Z" />
<glyph unicode="[" horiz-adv-x="368" d="M-8 -159Q-18 -159 -23 -152T-28 -134L161 751Q163 762 171 769T190 776H420Q430 776 436 769T440 751L424 678Q422 668 414 661T394 654H279L133 -28H249Q259 -28 265 -35T269 -52L251 -134Q249 -145 241 -152T222 -159H-8Z" />
<glyph unicode="\" horiz-adv-x="513" d="M323 -84Q307 -84 300 -76T291 -58L123 759Q121 770 127 778T146 786H215Q230 786 237 778T246 760L413 -57Q415 -68 409 -76T391 -84H323Z" />
<glyph unicode="]" horiz-adv-x="367" d="M380 776Q390 776 396 769T400 751L211 -134Q209 -145 201 -152T182 -159H-47Q-57 -159 -62 -152T-67 -134L-49 -52Q-47 -42 -39 -35T-20 -28H96L241 654H126Q115 654 110 661T106 678L122 751Q124 762 132 769T151 776H380Z" />
<glyph unicode="^" horiz-adv-x="456" d="M143 585Q128 585 131 599Q132 607 142 615L264 719Q277 730 285 733T302 736H369Q378 736 385 733T400 719L478 615Q484 607 483 599Q480 585 464 585H422Q414 585 406 586T391 592L316 643L219 592Q211 588 202 587T185
585H143Z" />
<glyph unicode="_" horiz-adv-x="736" d="M0 -64Q-10 -64 -16 -57T-20 -39L-2 40Q0 51 8 58T27 65H618Q628 65 633 58T637 40L620 -39Q618 -50 610 -57T591 -64H0Z" />
<glyph unicode="`" horiz-adv-x="273" d="M173 595Q160 595 153 598T139 609L34 713Q30 719 31 726Q34 746 53 746H174Q187 746 193 743T207 727L270 625Q274 619 272 611Q269 595 253 595H173Z" />
<glyph unicode="a" horiz-adv-x="616" d="M197 -10Q147 -10 111 6T53 54T26 129T28 226Q31 245 34 260T42 294Q55 346 77 389T131 463T205 512T301 530Q363 530 395 512T445 466L451 495Q453 506 461 513T480 520H575Q586 520 591 513T595 495L495 25Q493 14 485
7T466 0H371Q360 0 355 7T351 25L358 59Q328 29 292 10T197 -10ZM254 110Q292 110 318 127T361 170T386 226Q391 245 395 264T402 301Q407 329 402 353T379 394T324 410Q289 410 264 394T223 350T198 291Q194 276 190 260T184 229Q180 197 182 170T202 127T254
110Z" />
<glyph unicode="b" horiz-adv-x="621" d="M307 -10Q250 -10 213 9T158 59L150 25Q148 14 140 7T121 0H25Q15 0 10 7T6 25L146 685Q148 696 156 703T176 710H279Q289 710 294 703T298 685L252 467Q282 495 318 512T405 530Q457 530 493 513T551 465T580 391T578
297Q575 278 572 261T563 224Q545 153 511 101T426 19T307 -10ZM279 110Q316 110 341 126T383 170T409 229Q414 244 417 260T422 291Q427 323 424 350T404 393T348 410Q313 410 286 394T241 354T216 301Q211 283 207 264T201 226Q196 196 200 170T223 127T279 110Z"
/>
<glyph unicode="c" horiz-adv-x="579" d="M236 -10Q168 -10 116 17T39 95T26 219Q29 235 34 259T43 300Q70 409 145 469T335 530Q400 530 444 511T514 464T549 405T556 351Q555 340 547 333T529 326H420Q410 326 405 331T397 347Q396 382 378 398T324 414Q279
414 246 385T197 295Q192 276 188 258T182 224Q172 162 189 134T252 106Q287 106 314 121T360 171Q366 182 372 187T390 192H498Q509 192 514 185T517 167Q511 146 493 116T441 57T357 9T236 -10Z" />
<glyph unicode="d" horiz-adv-x="621" d="M199 -10Q149 -10 112 6T54 54T26 129T27 226Q31 245 34 260T42 294Q55 346 77 389T131 463T205 512T298 530Q352 530 388 513T442 467L488 685Q490 696 498 703T517 710H620Q631 710 636 703T640 685L500 25Q498 14 490
7T470 0H375Q364 0 359 7T355 25L362 59Q332 29 295 10T199 -10ZM256 110Q294 110 321 127T365 170T390 226Q395 245 399 264T406 301Q412 329 406 353T381 394T326 410Q291 410 265 394T223 350T197 291Q193 276 190 260T184 229Q180 197 183 170T203 127T256
110Z" />
<glyph unicode="e" horiz-adv-x="583" d="M244 -10Q168 -10 118 18T48 103T43 240Q45 248 47 261T53 283Q73 360 115 415T220 500T358 530Q442 530 490 496T555 402T555 265L551 242Q549 232 540 225T520 218H194Q194 217 194 215T192 210Q187 178 192 152T215
109T264 93Q288 93 306 100T336 117T356 134Q367 144 373 146T391 149H495Q505 149 510 144T512 128Q508 112 488 89T432 43T350 5T244 -10ZM214 309H410V311Q419 347 413 373T387 415T337 430Q306 430 281 415T240 374T214 311V309Z" />
<glyph unicode="f" horiz-adv-x="425" d="M81 0Q71 0 65 7T61 25L142 402H63Q53 402 48 409T44 427L58 495Q60 506 69 513T88 520H167L175 556Q189 620 220 661T298 721T407 740H494Q504 740 509 733T513 715L498 647Q496 636 488 629T468 622H405Q368 622 348
604T321 551L314 520H437Q447 520 452 513T456 495L441 427Q439 416 431 409T412 402H289L208 25Q206 14 198 7T179 0H81Z" />
<glyph unicode="g" horiz-adv-x="623" d="M203 -220Q131 -220 86 -201T16 -154T-17 -99T-23 -57Q-21 -46 -14 -39T4 -32H114Q123 -32 128 -36T135 -52Q137 -64 143 -77T165 -100T213 -109Q243 -109 269 -99T314 -65T342 0L356 67Q327 41 292 24T203 7Q149 7 112
23T54 70T27 144T30 241Q32 256 34 267T41 294Q55 346 77 389T130 463T202 512T298 530Q353 530 390 509T446 457L454 495Q456 505 465 512T484 520H582Q593 520 598 513T602 495L500 14Q489 -42 466 -85T407 -159T321 -204T203 -220ZM259 124Q295 124 322 140T366
182T392 236Q395 247 399 267T405 299Q409 327 404 352T381 394T326 410Q290 410 264 394T222 350T196 291Q193 280 191 268T186 244Q181 211 184 184T204 141T259 124Z" />
<glyph unicode="h" horiz-adv-x="639" d="M25 0Q15 0 9 7T5 25L146 685Q148 696 156 703T175 710H283Q294 710 299 703T303 685L255 460Q286 492 325 511T419 530Q483 530 525 504T583 427T584 304L524 25Q522 14 514 7T495 0H386Q375 0 370 7T366 25L424 298Q435
351 419 380T353 410Q322 410 295 397T248 359T220 298L162 25Q160 14 152 7T133 0H25Z" />
<glyph unicode="i" horiz-adv-x="275" d="M25 0Q15 0 9 7T5 25L105 495Q107 506 116 513T135 520H235Q246 520 251 513T254 495L154 25Q152 14 144 7T125 0H25ZM150 600Q139 600 134 607T130 625L147 705Q149 716 157 723T177 731H282Q293 731 298 724T302 705L284
625Q283 614 274 607T255 600H150Z" />
<glyph unicode="j" horiz-adv-x="291" d="M-127 -190Q-137 -190 -142 -183T-146 -165L-131 -97Q-129 -86 -121 -79T-102 -72H-68Q-32 -72 -14 -50T12 7L116 495Q118 506 126 513T146 520H250Q261 520 266 513T269 495L165 4Q152 -57 123 -100T45 -167T-72 -190H-127ZM160
600Q150 600 145 607T140 625L158 705Q160 716 168 723T187 731H297Q308 731 313 724T317 705L300 625Q298 614 289 607T270 600H160Z" />
<glyph unicode="k" horiz-adv-x="570" d="M25 0Q15 0 9 7T5 25L146 685Q148 696 156 703T175 710H273Q284 710 289 703T293 685L222 350L404 503Q413 510 421 515T443 520H565Q581 520 583 507T570 481L335 278L498 36Q506 24 500 12T477 0H367Q353 0 347 5T336
16L195 225L152 25Q150 14 142 7T123 0H25Z" />
<glyph unicode="l" horiz-adv-x="276" d="M25 0Q15 0 9 7T5 25L146 685Q148 696 156 703T175 710H275Q286 710 291 703T295 685L154 25Q152 14 144 7T125 0H25Z" />
<glyph unicode="m" horiz-adv-x="909" d="M25 0Q15 0 9 7T5 25L105 495Q107 506 116 513T135 520H228Q238 520 243 513T247 495L240 461Q258 480 278 495T326 520T391 530Q449 530 485 507T536 442Q567 481 608 505T706 530Q760 530 799 507T854 435T855 310L794
25Q792 14 784 7T765 0H666Q656 0 650 7T646 25L706 302Q714 343 709 366T687 400T646 410Q626 410 603 400T561 367T534 302L474 25Q472 14 464 7T445 0H347Q336 0 331 7T327 25L386 302Q395 343 389 366T367 400T327 410Q306 410 283 400T242 366T214 303L155
25Q153 14 145 7T126 0H25Z" />
<glyph unicode="n" horiz-adv-x="633" d="M25 0Q15 0 9 7T5 25L105 495Q107 506 116 513T135 520H233Q244 520 249 513T252 495L244 456Q275 488 318 509T417 530Q483 530 523 504T578 427T578 304L518 25Q516 14 508 7T488 0H382Q372 0 366 7T362 25L420 298Q432
354 418 382T351 410Q300 410 265 381T218 298L160 25Q158 14 150 7T131 0H25Z" />
<glyph unicode="o" horiz-adv-x="600" d="M242 -10Q164 -10 112 17T37 96T26 215Q28 235 33 260T45 305Q63 374 101 424T199 502T341 530Q418 530 470 503T546 425T558 305Q555 286 550 261T539 215Q521 147 484 96T387 18T242 -10ZM254 100Q304 100 337 130T385
220Q389 235 394 260T402 300Q412 358 395 389T329 420Q280 420 247 389T199 300Q195 285 190 260T182 220Q172 161 188 131T254 100Z" />
<glyph unicode="p" horiz-adv-x="621" d="M-15 -190Q-26 -190 -31 -183T-35 -165L106 495Q108 506 116 513T135 520H231Q241 520 246 513T250 495L242 457Q273 489 310 509T406 530Q457 530 493 514T551 466T580 391T578 294Q575 275 572 260T563 226Q550 175
528 132T474 57T401 8T307 -10Q253 -10 218 8T165 59L117 -165Q115 -176 107 -183T88 -190H-15ZM279 110Q315 110 340 126T382 170T409 229Q414 244 417 260T422 291Q426 323 423 350T402 393T349 410Q312 410 285 393T240 350T215 294Q210 276 206 257T199 219Q194
191 199 167T224 126T279 110Z" />
<glyph unicode="q" horiz-adv-x="622" d="M327 -190Q317 -190 312 -183T308 -165L356 59Q326 27 289 9T201 -10Q150 -10 113 7T55 55T26 129T28 223Q31 243 35 260T43 296Q62 368 96 420T180 501T299 530Q356 530 393 510T448 457L456 495Q458 506 466 513T486
520H581Q592 520 597 513T600 495L461 -165Q459 -176 450 -183T430 -190H327ZM258 110Q294 110 321 126T365 166T390 219Q395 238 399 257T406 294Q411 324 406 350T383 393T327 410Q291 410 266 394T224 350T198 291Q194 276 191 260T185 229Q180 197 183 170T203
127T258 110Z" />
<glyph unicode="r" horiz-adv-x="437" d="M25 0Q15 0 9 7T5 25L105 495Q107 505 116 512T135 520H233Q243 520 248 513T252 495L244 455Q268 485 304 502T394 520H447Q457 520 462 513T466 495L447 409Q445 398 437 391T418 384H331Q286 384 257 360T217 290L160
25Q158 14 150 7T130 0H25Z" />
<glyph unicode="s" horiz-adv-x="542" d="M217 -10Q155 -10 114 4T49 40T18 82T11 119Q13 130 21 137T39 144H135Q139 144 141 143T147 138Q158 129 169 118T198 98T242 90Q275 90 301 103T332 142Q336 160 328 172T293 194T212 216Q161 228 128 248T81 298T77
372Q86 411 117 447T202 506T328 530Q383 530 422 517T484 483T517 441T524 403Q523 393 515 386T497 379H409Q404 379 401 380T395 385Q384 393 374 403T349 422T306 430Q273 430 253 416T227 379Q224 365 230 353T262 331T343 310Q408 298 443 274T489 219T492
151Q483 104 447 68T353 11T217 -10Z" />
<glyph unicode="t" horiz-adv-x="442" d="M256 0Q188 0 147 20T93 84T92 192L137 402H59Q48 402 43 409T39 427L53 495Q55 506 64 513T83 520H162L197 685Q199 696 207 703T227 710H325Q335 710 341 703T345 685L309 520H434Q445 520 450 513T453 495L439 427Q437
416 429 409T409 402H284L242 204Q237 179 237 161T246 133T283 123H359Q369 123 374 116T378 99L362 25Q360 14 352 7T333 0H256Z" />
<glyph unicode="u" horiz-adv-x="631" d="M199 -10Q137 -10 96 16T40 93T41 216L100 495Q102 506 110 513T130 520H236Q246 520 251 513T255 495L197 222Q189 185 192 160T213 123T266 110Q314 110 350 139T397 222L455 495Q457 506 466 513T485 520H591Q602 520
607 513T610 495L510 25Q508 14 500 7T481 0H383Q372 0 367 7T363 25L371 64Q349 41 326 24T273 -1T199 -10Z" />
<glyph unicode="v" horiz-adv-x="584" d="M183 0Q168 0 162 7T154 25L65 492Q63 505 69 512T89 520H180Q192 520 198 514T206 497L258 170L452 500Q455 506 463 513T484 520H587Q599 520 604 511T601 489L314 25Q307 15 299 8T276 0H183Z" />
<glyph unicode="w" horiz-adv-x="830" d="M141 0Q127 0 121 7T114 25L68 492Q67 503 74 511T95 520H179Q192 520 197 514T204 500L231 191L392 498Q396 505 404 512T426 520H485Q499 520 504 513T511 498L544 191L701 500Q704 506 711 513T732 520H827Q841 520
844 511T842 490L600 25Q595 14 586 7T563 0H485Q471 0 465 7T456 25L415 321L256 25Q250 14 241 7T217 0H141Z" />
<glyph unicode="x" horiz-adv-x="575" d="M-20 0Q-35 0 -39 13T-34 36L188 271L78 486Q73 497 80 508T100 520H200Q212 520 217 514T226 503L300 364L434 503Q439 508 446 514T469 520H575Q589 520 593 507T588 484L375 258L488 34Q494 23 489 12T467 0H365Q353
0 348 5T339 16L262 161L122 16Q118 12 111 6T89 0H-20Z" />
<glyph unicode="y" horiz-adv-x="591" d="M54 -190Q42 -190 38 -180T42 -158L164 34L66 491Q64 502 70 511T92 520H183Q195 520 200 514T207 500L268 190L464 500Q469 508 476 514T497 520H599Q610 520 615 511T613 490L187 -170Q183 -178 175 -184T154 -190H54Z" />
<glyph unicode="z" horiz-adv-x="540" d="M1 0Q-10 0 -16 7T-20 25L-5 92Q-3 101 1 107T11 119L316 404H94Q84 404 79 411T75 428L89 495Q91 506 99 513T119 520H509Q520 520 525 513T528 495L514 423Q511 409 498 398L199 116H444Q455 116 460 109T463 92L449
25Q447 14 439 7T420 0H1Z" />
<glyph unicode="{" horiz-adv-x="411" d="M276 -158Q218 -158 176 -140T108 -86T77 5T87 131Q96 175 89 204T57 248L46 253Q23 268 28 293L35 325Q39 339 46 348T70 365L83 370Q115 386 134 414T163 487Q178 559 206 613T275 703T365 757T474 776H480Q489 776
494 770T497 754L481 677Q479 667 472 661T456 655H452Q408 652 379 633T330 575T296 471Q284 409 255 367T188 309Q208 299 219 276T233 219T227 147Q214 84 216 44T240 -15T304 -37H309Q317 -38 321 -44T324 -59L308 -136Q306 -146 299 -152T281 -158H276Z" />
<glyph unicode="|" horiz-adv-x="256" d="M-18 -208Q-28 -208 -33 -201T-37 -183L187 871Q189 882 198 889T217 896H294Q305 896 310 889T313 871L89 -183Q87 -194 79 -201T59 -208H-18Z" />
<glyph unicode="}" horiz-adv-x="411" d="M168 776Q227 775 269 757T337 703T367 613T358 487Q348 442 355 414T388 369L398 364Q421 350 416 325L409 292Q404 267 374 253L361 247Q330 232 311 203T282 131Q266 58 238 5T169 -85T79 -139T-30 -158H-36Q-45 -158
-50 -152T-53 -136L-37 -59Q-35 -50 -28 -44T-11 -37H-7Q37 -34 66 -16T115 43T148 146Q161 209 190 250T257 309Q237 320 225 343T211 398T217 471Q231 535 229 574T205 633T141 654L136 655Q128 655 124 661T120 677L136 754Q138 763 145 769T163 776H168Z" />
<glyph unicode="~" horiz-adv-x="556" d="M81 221Q70 221 68 228T67 248L81 315Q85 332 103 347T148 372T206 382Q240 382 265 376T311 363T355 350T409 344Q436 344 456 354T488 372Q493 375 497 376T506 379Q517 379 520 372T519 352L505 285Q502 268 484 253T439
227T381 217Q347 217 323 223T278 236T233 250T177 256Q151 256 131 245T99 227Q95 225 91 223T81 221Z" />
<glyph unicode="&#xa0;" horiz-adv-x="225" />
<glyph unicode="&#xa1;" horiz-adv-x="272" d="M365 311Q376 311 381 304T384 286L290 -157Q288 -168 280 -175T261 -182H163Q153 -182 148 -175T143 -157L238 286Q240 297 248 304T268 311H365ZM414 518Q425 518 430 511T434 493L411 386Q409 375 401 368T381
361H273Q263 361 258 368T254 386L277 493Q279 504 287 511T306 518H414Z" />
<glyph unicode="&#xa2;" horiz-adv-x="589" d="M167 -100Q156 -100 151 -93T147 -75L162 1Q90 19 53 75T30 219Q33 235 38 259T47 300Q70 393 128 451T275 524L288 585Q290 596 298 603T317 610H402Q412 610 418 603T421 585L408 521Q468 509 502 479T550 413T560
351Q559 340 551 333T533 326H424Q414 326 409 331T401 347Q400 382 382 398T328 414Q283 414 250 385T201 295Q196 276 192 258T186 224Q176 162 193 134T256 106Q291 106 318 121T364 171Q370 182 376 187T394 192H502Q513 192 518 185T521 167Q516 147 501 121T458
69T390 22T294 -5L281 -75Q279 -86 271 -93T251 -100H167Z" />
<glyph unicode="&#xa3;" horiz-adv-x="709" d="M436 -8Q401 -8 375 0T328 20T289 44T251 65T208 73Q176 73 158 58T126 15Q123 10 119 5T104 0H14Q6 0 2 5T-1 18Q15 83 55 126T148 187Q152 210 153 233T156 282H80Q70 282 65 289T61 306L75 371Q77 382 85 389T105
396H157Q159 409 161 422T166 451Q184 531 226 589T334 679T487 711Q570 711 624 682T702 601T712 480Q710 471 703 465T686 458H572Q561 458 554 464T545 483Q544 531 524 556T460 582Q408 582 376 546T330 450Q328 436 326 423T322 396H482Q493 396 498 389T501
371L488 306Q486 296 477 289T458 282H304Q302 258 299 235T291 184Q316 179 334 169T369 147T401 128T442 120Q477 120 499 138T536 185Q539 189 545 194T558 199H637Q646 199 650 194T652 180Q639 120 605 78T526 14T436 -8Z" />
<glyph unicode="&#xa4;" horiz-adv-x="607" d="M69 58L35 103Q30 110 31 120T42 137L96 182Q74 235 88 300Q101 365 147 418L112 463Q106 470 108 480T119 497L173 542Q182 549 192 549T207 542L242 497Q271 513 303 522T367 531Q400 531 428 522T479 497L533
542Q541 549 551 549T567 542L602 497Q607 490 606 480T595 463L541 418Q550 393 553 363T549 300Q542 267 527 237T490 182L525 137Q531 130 529 120T518 103L464 58Q455 51 445 51T430 58L395 103Q335 69 269 69Q204 69 158 103L104 58Q95 51 85 51T69 58ZM293
181Q326 181 356 197T409 240T438 300Q445 333 435 360T401 403T344 419Q311 419 281 403T229 360T199 300Q192 267 202 240T236 197T293 181Z" />
<glyph unicode="&#xa5;" horiz-adv-x="670" d="M206 0Q195 0 190 7T186 25L235 256L100 668Q97 674 98 679Q99 688 106 694T124 700H224Q238 700 244 693T253 680L342 419L543 680Q547 686 556 693T580 700H694Q702 700 707 694T711 679Q710 676 709 674T705 668L395
257L345 25Q344 14 336 7T316 0H206ZM66 77Q55 77 50 84T45 101L60 169Q62 179 71 186T90 193H514Q525 193 530 186T533 169L519 101Q517 91 509 84T490 77H66ZM96 222Q86 222 81 229T77 247L91 314Q93 325 101 332T121 339H545Q556 339 561 332T564 314L550 247Q548
237 540 230T520 222H96Z" />
<glyph unicode="&#xa6;" horiz-adv-x="262" d="M130 475Q120 475 115 482T111 500L176 804Q178 815 187 822T206 829H283Q294 829 299 822T302 804L237 500Q235 489 227 482T207 475H130ZM30 0Q20 0 14 7T10 25L75 329Q77 340 86 347T105 354H182Q193 354 198
347T201 329L136 25Q134 14 126 7T107 0H30Z" />
<glyph unicode="&#xa7;" horiz-adv-x="596" d="M211 -140Q155 -140 116 -126T53 -90T20 -42T14 6Q16 16 23 21T40 27H134Q143 27 148 23T157 11Q160 0 166 -10T188 -27T233 -34Q269 -34 290 -15T318 30Q322 50 316 64T287 89T212 114Q143 134 105 160T54 223T53
312Q62 355 89 388T155 446Q147 463 147 483T151 526Q161 574 194 616T282 684T408 710Q483 710 528 686T591 629T605 565Q604 555 596 550T579 544H485Q475 544 471 548T462 561Q459 571 452 581T430 597T387 604Q351 604 329 585T301 540Q297 520 303 506T333
481T407 456Q477 436 515 410T565 347T566 258Q557 215 530 182T464 124Q472 107 472 87T468 44Q458 -4 425 -46T337 -114T211 -140ZM371 196Q395 204 409 218T428 252Q433 272 428 287T401 316T339 341Q308 351 288 358T248 374Q224 366 210 352T191 318Q187 299
192 284T218 255T282 228Q324 214 371 196Z" />
<glyph unicode="&#xa8;" horiz-adv-x="374" d="M246 611Q236 611 232 617T228 633L246 715Q248 725 255 731T273 738H355Q365 738 370 732T373 715L356 633Q354 623 346 617T328 611H246ZM49 611Q39 611 34 617T31 633L49 715Q51 725 58 731T76 738H158Q168 738
173 732T176 715L159 633Q157 623 149 617T131 611H49Z" />
<glyph unicode="&#xa9;" horiz-adv-x="813" d="M349 -10Q276 -10 216 19T115 98T58 214T58 355Q74 430 114 494T211 607T339 683T486 710Q559 710 619 681T721 602T778 486T778 345Q762 270 722 206T624 93T496 17T349 -10ZM354 66Q413 66 469 88T572 149T652
240T697 350Q710 408 700 460T660 551T585 612T481 634Q423 634 367 612T264 551T184 460T138 350Q126 292 136 240T175 149T250 88T354 66ZM384 158Q335 158 300 178T250 234T241 314Q242 322 244 336T250 365T256 388Q268 433 292 468T356 523T450 544Q506 544
541 525T591 479T603 426Q602 416 594 410T576 404H519Q508 404 504 410T498 424Q497 443 485 452T444 462Q416 462 399 450T371 420T356 385Q354 378 351 365T346 338T342 317Q339 300 340 282T352 252T390 240Q418 240 437 249T468 278Q472 285 479 291T497 298H554Q564
298 569 292T572 276Q565 251 544 224T484 177T384 158Z" />
<glyph unicode="&#xaa;" horiz-adv-x="356" d="M168 429Q124 429 101 452T82 508Q89 546 124 568T216 600L275 609Q276 616 277 623T274 635T253 640Q235 640 226 636T210 627T193 622H140Q124 622 127 636Q131 648 144 664T184 692T256 705Q316 705 346 677T365
596L334 452Q333 444 327 439T313 434H259Q251 434 247 439T244 452L247 462Q234 447 213 438T168 429ZM194 494Q221 494 239 510T262 551L223 544Q197 540 186 532T172 513Q171 505 176 500T194 494Z" />
<glyph unicode="&#xab;" horiz-adv-x="618" d="M507 71Q504 71 499 73T490 80L329 277Q324 284 322 292T320 308L329 350Q331 358 336 366T351 381L596 578Q602 583 608 585T617 587Q626 587 630 581T633 565L616 485Q613 470 608 462T590 444L447 329L540 214Q548
204 550 196T550 173L533 93Q531 84 524 78T507 71ZM237 71Q234 71 229 73T220 80L59 277Q54 284 52 292T50 308L59 350Q61 358 66 366T81 381L326 578Q332 583 338 585T347 587Q356 587 360 581T363 565L346 485Q343 470 338 462T320 444L177 329L270 214Q278
204 280 196T280 173L263 93Q261 84 254 78T237 71Z" />
<glyph unicode="&#xac;" horiz-adv-x="574" d="M384 140Q374 140 369 147T365 165L386 265H78Q68 265 62 272T58 289L73 356Q75 366 83 373T103 380H503Q514 380 519 373T522 356L482 165Q480 154 472 147T452 140H384Z" />
<glyph unicode="&#xad;" horiz-adv-x="600" d="M70 236Q59 236 54 243T51 260L68 340Q70 350 78 357T97 364H408Q418 364 424 357T427 340L410 260Q408 250 400 243T380 236H70Z" />
<glyph unicode="&#xae;" horiz-adv-x="814" d="M349 -10Q276 -10 216 19T115 98T58 214T58 355Q74 430 114 494T211 607T339 683T486 710Q559 710 619 681T721 602T778 486T778 345Q762 270 723 206T625 93T497 17T349 -10ZM355 66Q413 66 469 88T572 149T653
240T699 350Q711 408 701 460T661 551T585 612T481 634Q424 634 368 612T265 551T184 460T138 350Q125 292 135 240T175 149T251 88T355 66ZM257 168Q247 168 243 174T240 190L308 512Q313 534 335 534H462Q497 534 531 523T584 485T595 413Q587 373 564 348T509
310L543 204Q544 201 544 198T544 190Q543 182 536 175T517 168H469Q459 168 453 172T444 187L414 292H358L337 190Q332 168 310 168H257ZM375 371H436Q465 371 479 384T496 413Q500 431 493 443T455 456H393L375 371Z" />
<glyph unicode="&#xaf;" horiz-adv-x="354" d="M49 608Q39 608 34 614T31 631L44 691Q46 701 53 707T71 713H336Q346 713 350 707T353 691L341 631Q339 621 332 615T314 608H49Z" />
<glyph unicode="&#xb0;" horiz-adv-x="404" d="M222 386Q174 386 140 407T92 466T87 548Q97 594 126 631T197 689T285 710Q334 710 367 689T415 631T420 548Q411 503 382 466T310 408T222 386ZM235 472Q268 472 295 493T330 548Q337 582 322 603T273 624Q240 624
213 603T178 548Q171 514 185 493T235 472Z" />
<glyph unicode="&#xb1;" horiz-adv-x="564" d="M227 189Q217 189 212 196T208 214L240 363H94Q84 363 79 370T74 388L88 451Q90 461 98 468T117 475H263L294 620Q296 630 305 637T324 644H394Q405 644 410 637T414 620L383 475H527Q538 475 543 468T547 451L533
388Q532 377 524 370T504 363H359L327 214Q325 203 317 196T298 189H227ZM27 0Q17 0 11 7T7 25L20 87Q23 98 31 105T50 112H440Q451 112 456 105T459 87L446 25Q444 14 436 7T417 0H27Z" />
<glyph unicode="&#xb2;" horiz-adv-x="352" d="M75 350Q65 350 61 356T58 372L64 403Q66 411 72 418T95 436Q162 479 204 505T266 550T292 590Q295 607 287 617T259 627Q241 627 231 622T216 609T207 597Q198 586 193 583T179 579H128Q108 579 114 598Q122 628
146 652T204 690T276 705Q338 705 368 674T388 593Q381 561 361 536T305 486T219 430H346Q356 430 360 424T363 408L356 372Q351 350 329 350H75Z" />
<glyph unicode="&#xb3;" horiz-adv-x="351" d="M195 345Q142 345 114 359T75 394T67 434Q69 444 76 448T88 453H124Q133 453 140 451T154 446Q161 442 165 437T178 428T209 424Q234 424 250 433T271 459Q274 478 262 485T226 492H181Q172 492 168 498T165 513L170
536Q172 543 175 548T185 558L263 617H145Q135 617 130 623T127 639L136 678Q141 700 162 700H381Q391 700 396 694T399 678L391 644Q390 635 386 629T370 614L294 560Q339 553 359 527T370 457Q363 423 339 398T278 359T195 345Z" />
<glyph unicode="&#xb4;" horiz-adv-x="318" d="M44 595Q28 595 31 611Q33 619 39 624L146 727Q159 739 166 742T187 746H302Q319 746 317 728Q317 719 309 714L159 609Q149 602 141 599T119 595H44Z" />
<glyph unicode="&#xb5;" horiz-adv-x="643" d="M-17 -199Q-27 -199 -32 -192T-36 -175L106 495Q108 506 117 513T136 520H245Q256 520 261 513T264 495L206 222Q199 187 207 162T235 124T281 110Q308 110 334 123T381 162T409 222L467 495Q469 506 478 513T497
520H603Q614 520 619 513T622 495L522 25Q520 14 512 7T493 0H395Q385 0 379 7T375 25L384 64Q351 29 309 12T211 -6Q177 -6 152 5T110 33T80 73L185 120L122 -175Q120 -185 112 -192T92 -199H-17Z" />
<glyph unicode="&#xb6;" horiz-adv-x="604" d="M73 513Q84 565 118 607T201 674T300 700H593Q604 700 610 693T614 675L454 -75Q452 -86 443 -93T423 -100H353Q343 -100 338 -93T334 -75L476 595H397L255 -75Q253 -86 245 -93T225 -100H155Q144 -100 139 -93T136
-75L221 325Q170 325 133 350T79 418T73 513Z" />
<glyph unicode="&#xb7;" horiz-adv-x="335" d="M54 310Q61 344 83 371T136 414T200 431Q234 431 257 415T291 371T295 310Q288 278 266 250T213 206T149 190Q116 190 92 206T58 250T54 310Z" />
<glyph unicode="&#xb8;" horiz-adv-x="252" d="M115 -220Q88 -220 65 -211T33 -190T37 -169L57 -153Q67 -146 72 -149T87 -158T117 -164Q132 -164 144 -155T159 -132Q162 -119 154 -110T130 -101Q118 -101 107 -104T87 -109T73 -103L56 -80Q51 -74 54 -66T64 -47L113
27H181L125 -51Q132 -48 142 -47T160 -45Q194 -45 210 -71T219 -135Q212 -173 186 -196T115 -220Z" />
<glyph unicode="&#xb9;" horiz-adv-x="301" d="M173 350Q163 350 159 356T156 372L201 588L139 547Q132 542 123 543T109 552L92 583Q88 591 91 599T103 614L224 693Q235 700 248 700H300Q310 700 315 694T318 678L253 372Q248 350 226 350H173Z" />
<glyph unicode="&#xba;" horiz-adv-x="353" d="M210 429Q150 429 117 458T92 542Q93 550 97 567T103 592Q118 648 155 676T255 705Q292 705 320 692T364 654T372 592Q371 585 367 568T361 542Q352 505 334 480T285 442T210 429ZM216 499Q236 499 248 510T267 545Q269
553 272 567T277 589Q280 611 275 623T248 635Q228 635 215 623T196 589Q194 582 191 568T186 545Q183 521 189 510T216 499Z" />
<glyph unicode="&#xbb;" horiz-adv-x="618" d="M313 71Q304 71 300 77T297 93L314 173Q317 188 323 196T340 214L483 329L390 444Q383 454 380 462T380 485L397 565Q399 574 406 580T423 587Q427 587 431 585T440 578L601 381Q607 374 609 366T610 350L601 308Q599
300 594 292T579 277L334 80Q328 75 323 73T313 71ZM43 71Q34 71 30 77T27 93L44 173Q47 188 53 196T70 214L213 329L120 444Q113 454 110 462T110 485L127 565Q129 574 136 580T153 587Q157 587 161 585T170 578L331 381Q337 374 339 366T340 350L331 308Q329
300 324 292T309 277L64 80Q58 75 53 73T43 71Z" />
<glyph unicode="&#xbc;" horiz-adv-x="855" d="M173 350Q163 350 159 356T156 372L201 588L139 547Q132 542 123 543T109 552L92 583Q88 591 91 599T103 614L224 693Q235 700 248 700H300Q310 700 315 694T318 678L253 372Q248 350 226 350H173ZM66 0Q51 0 48
10T54 31L685 681Q694 690 702 695T724 700H776Q791 700 794 690T788 669L157 19Q148 10 140 5T118 0H66ZM655 0Q645 0 641 6T638 22L645 60H497Q486 60 482 66T479 82L488 123Q489 125 491 133T506 153L677 332Q687 343 695 346T710 350H779Q789 350 794 344T797
328L758 144H793Q803 144 807 138T810 122L802 82Q797 60 775 60H740L732 22Q727 0 705 0H655ZM592 142H664L686 244L592 142Z" />
<glyph unicode="&#xbd;" horiz-adv-x="842" d="M173 350Q163 350 159 356T156 372L201 588L139 547Q132 542 123 543T109 552L92 583Q88 591 91 599T103 614L224 693Q235 700 248 700H300Q310 700 315 694T318 678L253 372Q248 350 226 350H173ZM66 0Q51 0 48
10T54 31L685 681Q694 690 702 695T724 700H776Q791 700 794 690T788 669L157 19Q148 10 140 5T118 0H66ZM490 0Q480 0 476 6T473 22L479 53Q481 61 487 68T510 86Q577 129 619 155T681 200T707 240Q710 257 702 267T674 277Q656 277 646 272T631 259T622 247Q613
236 608 233T594 229H543Q523 229 529 248Q537 278 561 302T619 340T691 355Q753 355 783 324T803 243Q796 211 776 186T720 136T634 80H761Q771 80 775 74T778 58L771 22Q766 0 744 0H490Z" />
<glyph unicode="&#xbe;" horiz-adv-x="905" d="M195 345Q142 345 114 359T75 394T67 434Q69 444 76 448T88 453H124Q133 453 140 451T154 446Q161 442 165 437T178 428T209 424Q234 424 250 433T271 459Q274 478 262 485T226 492H181Q172 492 168 498T165 513L170
536Q172 543 175 548T185 558L263 617H145Q135 617 130 623T127 639L136 678Q141 700 162 700H381Q391 700 396 694T399 678L391 644Q390 635 386 629T370 614L294 560Q339 553 359 527T370 457Q363 423 339 398T278 359T195 345ZM116 0Q101 0 98 10T104 31L735
681Q744 690 752 695T774 700H826Q841 700 844 690T838 669L207 19Q198 10 190 5T168 0H116ZM705 0Q695 0 691 6T688 22L695 60H547Q536 60 532 66T529 82L538 123Q539 125 541 133T556 153L727 332Q737 343 745 346T760 350H829Q839 350 844 344T847 328L808 144H843Q853
144 857 138T860 122L852 82Q847 60 825 60H790L782 22Q777 0 755 0H705ZM642 142H714L736 244L642 142Z" />
<glyph unicode="&#xbf;" horiz-adv-x="574" d="M508 320Q517 320 522 314T525 300Q523 293 522 286T518 272Q506 235 482 206T430 151T374 104T326 61T298 17Q290 -8 299 -26T327 -53T370 -63Q414 -63 446 -42T496 24Q503 36 511 41T531 47H635Q645 47 650 40T652
22Q643 -18 617 -56T550 -124T455 -173T334 -191Q263 -191 219 -173T153 -127T126 -66T128 -4Q138 33 158 62T204 117T258 165T307 213T344 263Q347 271 350 278T356 294Q364 307 371 313T390 320H508ZM552 519Q562 519 567 512T571 494L550 394Q548 384 540 377T520
369H408Q397 369 392 376T388 394L409 494Q411 505 420 512T440 519H552Z" />
<glyph unicode="&#xc0;" horiz-adv-x="708" d="M-29 0Q-41 0 -45 10T-44 30L330 673Q336 684 346 692T373 700H507Q523 700 530 692T538 673L640 30Q642 16 635 8T617 0H515Q500 0 494 7T486 23L466 132H184L117 20Q112 13 104 7T82 0H-29ZM249 261H456L413 549L249
261ZM415 750Q402 750 395 753T381 764L276 868Q271 873 273 881Q276 901 296 901H414Q427 901 433 898T447 882L510 779Q514 773 512 766Q508 750 493 750H415Z" />
<glyph unicode="&#xc1;" horiz-adv-x="708" d="M-29 0Q-41 0 -45 10T-44 30L330 673Q336 684 346 692T373 700H507Q523 700 530 692T538 673L640 30Q642 16 635 8T617 0H515Q500 0 494 7T486 23L466 132H184L117 20Q112 13 104 7T82 0H-29ZM249 261H456L413 549L249
261ZM392 750Q376 750 378 764Q379 772 386 778L494 882Q506 894 514 897T535 901H657Q666 901 670 896T673 883Q672 874 664 869L514 764Q504 757 496 754T474 750H392Z" />
<glyph unicode="&#xc2;" horiz-adv-x="708" d="M-29 0Q-41 0 -45 10T-44 30L330 673Q336 684 346 692T373 700H507Q523 700 530 692T538 673L640 30Q642 16 635 8T617 0H515Q500 0 494 7T486 23L466 132H184L117 20Q112 13 104 7T82 0H-29ZM249 261H456L413 549L249
261ZM275 750Q261 750 263 763Q264 771 271 777L397 884Q409 895 417 898T435 901H506Q516 901 523 898T537 884L617 778Q622 772 620 764Q618 750 603 750H561Q553 750 546 751T533 757L458 808L362 757Q354 753 347 752T332 750H275Z" />
<glyph unicode="&#xc3;" horiz-adv-x="708" d="M-29 0Q-41 0 -45 10T-44 30L330 673Q336 684 346 692T373 700H507Q523 700 530 692T538 673L640 30Q642 16 635 8T617 0H515Q500 0 494 7T486 23L466 132H184L117 20Q112 13 104 7T82 0H-29ZM249 261H456L413 549L249
261ZM515 745Q489 745 472 754T441 771T410 780Q394 780 386 773T372 758T355 750H302Q295 750 291 755T288 767Q291 783 300 803T324 842T361 873T411 886Q438 886 455 877T486 859T517 850Q533 850 541 858T555 873T572 881H625Q633 881 636 876T639 863Q636
848 627 828T603 789T566 758T515 745Z" />
<glyph unicode="&#xc4;" horiz-adv-x="708" d="M-29 0Q-41 0 -45 10T-44 30L330 673Q336 684 346 692T373 700H507Q523 700 530 692T538 673L640 30Q642 16 635 8T617 0H515Q500 0 494 7T486 23L466 132H184L117 20Q112 13 104 7T82 0H-29ZM249 261H456L413 549L249
261ZM518 750Q508 750 503 756T500 773L517 855Q519 865 527 871T545 878H627Q637 878 642 872T645 855L628 773Q626 762 618 756T600 750H518ZM291 750Q281 750 276 756T273 773L290 855Q292 865 300 871T318 878H400Q410 878 415 872T418 855L401 773Q399 762
391 756T373 750H291Z" />
<glyph unicode="&#xc5;" horiz-adv-x="708" d="M-29 0Q-41 0 -45 10T-44 30L330 673Q336 684 346 692T373 700H507Q523 700 530 692T538 673L640 30Q642 16 635 8T617 0H515Q500 0 494 7T486 23L466 132H184L117 20Q112 13 104 7T82 0H-29ZM249 261H456L413 549L249
261ZM444 740Q407 740 385 764T370 825Q379 862 409 886T477 911Q514 911 536 887T551 825Q543 788 512 764T444 740ZM452 795Q466 795 476 803T490 825Q493 838 487 846T468 855Q454 855 444 847T430 825Q427 812 433 804T452 795Z" />
<glyph unicode="&#xc6;" horiz-adv-x="980" d="M-22 0Q-37 0 -40 11T-37 32L335 674Q342 685 352 692T377 700H988Q999 700 1004 693T1008 675L991 595Q989 585 981 578T961 571H653L619 414H905Q916 414 921 407T925 389L909 315Q907 305 899 298T879 291H593L558
129H875Q886 129 891 122T894 104L878 25Q876 14 868 7T848 0H402Q392 0 386 7T382 25L406 132H189L122 20Q118 13 110 7T87 0H-22ZM254 261H432L498 567H428L254 261Z" />
<glyph unicode="&#xc7;" horiz-adv-x="692" d="M237 -220Q211 -220 191 -211T165 -190T169 -169L190 -153Q200 -145 206 -148T221 -158T250 -164Q265 -164 277 -155T292 -132Q295 -119 287 -110T263 -101Q251 -101 240 -104T221 -109T206 -103L191 -84Q187 -78
189 -71T199 -52L229 -6Q156 3 110 36T48 126T44 261Q51 302 61 349T82 439Q104 525 153 585T275 678T440 710Q507 710 558 693T643 644T689 569T693 473Q691 464 684 458T667 452H552Q540 452 535 458T528 478Q526 537 495 559T412 581Q351 581 308 547T244 434Q234
393 226 351T209 266Q195 187 224 153T314 119Q367 119 407 141T474 222Q481 237 489 242T509 248H623Q632 248 637 242T640 227Q628 174 597 131T519 56T413 7T287 -10L258 -51Q265 -48 276 -47T294 -45Q329 -45 345 -69T354 -131Q346 -169 315 -194T237 -220Z"
/>
<glyph unicode="&#xc8;" horiz-adv-x="629" d="M36 0Q26 0 20 7T16 25L154 675Q156 686 165 693T184 700H637Q648 700 653 693T657 675L640 595Q638 585 630 578T610 571H286L252 414H554Q565 414 570 407T574 389L558 315Q556 305 548 298T528 291H227L192 129H524Q535
129 540 122T544 104L527 25Q525 14 517 7T497 0H36ZM386 750Q373 750 366 753T352 764L247 868Q242 873 244 881Q247 901 267 901H385Q398 901 404 898T418 882L481 779Q485 773 483 766Q479 750 464 750H386Z" />
<glyph unicode="&#xc9;" horiz-adv-x="629" d="M36 0Q26 0 20 7T16 25L154 675Q156 686 165 693T184 700H637Q648 700 653 693T657 675L640 595Q638 585 630 578T610 571H286L252 414H554Q565 414 570 407T574 389L558 315Q556 305 548 298T528 291H227L192 129H524Q535
129 540 122T544 104L527 25Q525 14 517 7T497 0H36ZM362 750Q346 750 348 764Q349 772 356 778L464 882Q476 894 484 897T505 901H627Q636 901 640 896T643 883Q642 874 634 869L484 764Q474 757 466 754T444 750H362Z" />
<glyph unicode="&#xca;" horiz-adv-x="629" d="M36 0Q26 0 20 7T16 25L154 675Q156 686 165 693T184 700H637Q648 700 653 693T657 675L640 595Q638 585 630 578T610 571H286L252 414H554Q565 414 570 407T574 389L558 315Q556 305 548 298T528 291H227L192 129H524Q535
129 540 122T544 104L527 25Q525 14 517 7T497 0H36ZM245 750Q231 750 233 763Q234 771 241 777L367 884Q379 895 387 898T405 901H476Q486 901 493 898T507 884L587 778Q592 772 590 764Q588 750 573 750H531Q523 750 516 751T503 757L428 808L332 757Q324 753
317 752T302 750H245Z" />
<glyph unicode="&#xcb;" horiz-adv-x="629" d="M36 0Q26 0 20 7T16 25L154 675Q156 686 165 693T184 700H637Q648 700 653 693T657 675L640 595Q638 585 630 578T610 571H286L252 414H554Q565 414 570 407T574 389L558 315Q556 305 548 298T528 291H227L192 129H524Q535
129 540 122T544 104L527 25Q525 14 517 7T497 0H36ZM488 750Q478 750 473 756T470 773L487 855Q489 865 497 871T515 878H597Q607 878 612 872T615 855L598 773Q596 762 588 756T570 750H488ZM261 750Q251 750 246 756T243 773L260 855Q262 865 270 871T288 878H370Q380
878 385 872T388 855L371 773Q369 762 361 756T343 750H261Z" />
<glyph unicode="&#xcc;" horiz-adv-x="311" d="M36 0Q25 0 20 7T16 25L155 675Q157 686 165 693T184 700H298Q308 700 314 693T318 675L179 25Q177 14 169 7T150 0H36ZM222 750Q209 750 202 753T188 764L83 868Q78 873 80 881Q83 901 103 901H221Q234 901 240
898T254 882L317 779Q321 773 319 766Q315 750 300 750H222Z" />
<glyph unicode="&#xcd;" horiz-adv-x="311" d="M36 0Q25 0 20 7T16 25L155 675Q157 686 165 693T184 700H298Q308 700 314 693T318 675L179 25Q177 14 169 7T150 0H36ZM198 750Q182 750 184 764Q185 772 192 778L300 882Q312 894 320 897T341 901H463Q472 901
476 896T479 883Q478 874 470 869L320 764Q310 757 302 754T280 750H198Z" />
<glyph unicode="&#xce;" horiz-adv-x="311" d="M36 0Q25 0 20 7T16 25L155 675Q157 686 165 693T184 700H298Q308 700 314 693T318 675L179 25Q177 14 169 7T150 0H36ZM81 750Q67 750 69 763Q70 771 77 777L203 884Q215 895 223 898T241 901H312Q322 901 329 898T343
884L423 778Q428 772 426 764Q424 750 409 750H367Q359 750 352 751T339 757L264 808L168 757Q160 753 153 752T138 750H81Z" />
<glyph unicode="&#xcf;" horiz-adv-x="311" d="M36 0Q25 0 20 7T16 25L155 675Q157 686 165 693T184 700H298Q308 700 314 693T318 675L179 25Q177 14 169 7T150 0H36ZM325 750Q315 750 310 756T307 773L324 855Q326 865 334 871T352 878H434Q444 878 449 872T452
855L435 773Q433 762 425 756T407 750H325ZM98 750Q88 750 83 756T80 773L97 855Q99 865 107 871T125 878H207Q217 878 222 872T225 855L208 773Q206 762 198 756T180 750H98Z" />
<glyph unicode="&#xd0;" horiz-adv-x="723" d="M51 0Q40 0 35 7T31 25L89 298H39Q28 298 23 305T20 322L32 382Q34 393 43 400T62 407H112L169 675Q171 686 179 693T199 700H435Q501 700 554 682T645 630T697 544T699 427Q691 383 684 350T666 274Q644 181 603
120T493 30T322 0H51ZM212 129H329Q379 129 414 144T471 191T506 276Q514 305 519 328T528 374T538 425Q552 500 523 535T418 571H306L271 407H373Q383 407 388 400T392 382L380 322Q378 312 369 305T350 298H248L212 129Z" />
<glyph unicode="&#xd1;" horiz-adv-x="714" d="M36 0Q26 0 20 7T16 25L154 675Q156 686 164 693T184 700H274Q289 700 295 694T302 682L481 262L569 675Q571 686 579 693T599 700H700Q711 700 716 693T720 675L582 25Q580 15 572 8T553 0H462Q447 0 442 7T434
18L253 426L168 25Q166 14 158 7T138 0H36ZM512 745Q486 745 469 754T438 771T407 780Q391 780 383 773T369 758T352 750H299Q292 750 288 755T285 767Q288 783 297 803T321 842T358 873T408 886Q435 886 452 877T483 859T514 850Q530 850 538 858T552 873T569
881H622Q630 881 633 876T636 863Q633 848 624 828T600 789T563 758T512 745Z" />
<glyph unicode="&#xd2;" horiz-adv-x="703" d="M300 -10Q238 -10 186 7T98 58T48 143T45 263Q52 306 61 348T81 435Q114 570 199 640T426 710Q488 710 540 693T628 640T678 554T681 435Q673 391 664 349T644 263Q610 125 525 58T300 -10ZM311 119Q371 119 417
154T481 268Q492 312 500 350T516 432Q531 510 504 545T415 581Q354 581 309 546T245 432Q234 389 226 351T210 268Q196 190 222 155T311 119ZM412 750Q399 750 392 753T378 764L273 868Q268 873 270 881Q273 901 293 901H411Q424 901 430 898T444 882L507 779Q511
773 509 766Q505 750 490 750H412Z" />
<glyph unicode="&#xd3;" horiz-adv-x="703" d="M300 -10Q238 -10 186 7T98 58T48 143T45 263Q52 306 61 348T81 435Q114 570 199 640T426 710Q488 710 540 693T628 640T678 554T681 435Q673 391 664 349T644 263Q610 125 525 58T300 -10ZM311 119Q371 119 417
154T481 268Q492 312 500 350T516 432Q531 510 504 545T415 581Q354 581 309 546T245 432Q234 389 226 351T210 268Q196 190 222 155T311 119ZM388 750Q372 750 374 764Q375 772 382 778L490 882Q502 894 510 897T531 901H653Q662 901 666 896T669 883Q668 874
660 869L510 764Q500 757 492 754T470 750H388Z" />
<glyph unicode="&#xd4;" horiz-adv-x="703" d="M300 -10Q238 -10 186 7T98 58T48 143T45 263Q52 306 61 348T81 435Q114 570 199 640T426 710Q488 710 540 693T628 640T678 554T681 435Q673 391 664 349T644 263Q610 125 525 58T300 -10ZM311 119Q371 119 417
154T481 268Q492 312 500 350T516 432Q531 510 504 545T415 581Q354 581 309 546T245 432Q234 389 226 351T210 268Q196 190 222 155T311 119ZM271 750Q257 750 259 763Q260 771 267 777L393 884Q405 895 413 898T431 901H502Q512 901 519 898T533 884L613 778Q618
772 616 764Q614 750 599 750H557Q549 750 542 751T529 757L454 808L358 757Q350 753 343 752T328 750H271Z" />
<glyph unicode="&#xd5;" horiz-adv-x="703" d="M300 -10Q238 -10 186 7T98 58T48 143T45 263Q52 306 61 348T81 435Q114 570 199 640T426 710Q488 710 540 693T628 640T678 554T681 435Q673 391 664 349T644 263Q610 125 525 58T300 -10ZM311 119Q371 119 417
154T481 268Q492 312 500 350T516 432Q531 510 504 545T415 581Q354 581 309 546T245 432Q234 389 226 351T210 268Q196 190 222 155T311 119ZM512 745Q486 745 469 754T438 771T407 780Q391 780 383 773T369 758T352 750H299Q292 750 288 755T285 767Q288 783
297 803T321 842T358 873T408 886Q435 886 452 877T483 859T514 850Q530 850 538 858T552 873T569 881H622Q630 881 633 876T636 863Q633 848 624 828T600 789T563 758T512 745Z" />
<glyph unicode="&#xd6;" horiz-adv-x="703" d="M300 -10Q238 -10 186 7T98 58T48 143T45 263Q52 306 61 348T81 435Q114 570 199 640T426 710Q488 710 540 693T628 640T678 554T681 435Q673 391 664 349T644 263Q610 125 525 58T300 -10ZM311 119Q371 119 417
154T481 268Q492 312 500 350T516 432Q531 510 504 545T415 581Q354 581 309 546T245 432Q234 389 226 351T210 268Q196 190 222 155T311 119ZM515 750Q505 750 500 756T497 773L514 855Q516 865 524 871T542 878H624Q634 878 639 872T642 855L625 773Q623 762
615 756T597 750H515ZM288 750Q278 750 273 756T270 773L287 855Q289 865 297 871T315 878H397Q407 878 412 872T415 855L398 773Q396 762 388 756T370 750H288Z" />
<glyph unicode="&#xd7;" horiz-adv-x="587" d="M85 64L27 137Q22 145 24 155T35 172L198 305L95 440Q89 448 91 457T102 475L175 534Q183 541 193 541T209 534L313 398L480 535Q489 543 498 543T514 535L572 462Q578 455 576 445T565 428L399 292L504 158Q509
151 507 141T497 124L424 65Q415 58 406 58T390 65L284 198L120 64Q111 57 101 57T85 64Z" />
<glyph unicode="&#xd8;" horiz-adv-x="703" d="M300 -10Q238 -10 186 7T98 58T48 143T45 263Q52 306 61 348T81 435Q114 570 199 640T426 710Q488 710 540 693T628 640T678 554T681 435Q673 391 664 349T644 263Q610 125 525 58T300 -10ZM311 119Q371 119 417
154T481 268Q492 312 500 350T516 432Q531 510 504 545T415 581Q354 581 309 546T245 432Q234 389 226 351T210 268Q196 190 222 155T311 119ZM33 191Q21 191 16 202T20 225L652 1007Q654 1010 660 1015T676 1021H707Q719 1021 724 1011T721 988L88 206Q86 203
80 197T63 191H33Z" />
<glyph unicode="&#xd9;" horiz-adv-x="719" d="M307 -10Q243 -10 191 6T105 57T58 143T61 267L148 675Q150 686 158 693T178 700H287Q298 700 303 693T307 675L220 268Q204 194 227 158T318 122Q385 122 427 158T485 268L572 675Q574 686 583 693T602 700H712Q722
700 727 693T731 675L645 267Q614 124 533 57T307 -10ZM416 750Q403 750 396 753T382 764L277 868Q272 873 274 881Q277 901 297 901H415Q428 901 434 898T448 882L511 779Q515 773 513 766Q509 750 494 750H416Z" />
<glyph unicode="&#xda;" horiz-adv-x="719" d="M307 -10Q243 -10 191 6T105 57T58 143T61 267L148 675Q150 686 158 693T178 700H287Q298 700 303 693T307 675L220 268Q204 194 227 158T318 122Q385 122 427 158T485 268L572 675Q574 686 583 693T602 700H712Q722
700 727 693T731 675L645 267Q614 124 533 57T307 -10ZM392 750Q376 750 378 764Q379 772 386 778L494 882Q506 894 514 897T535 901H657Q666 901 670 896T673 883Q672 874 664 869L514 764Q504 757 496 754T474 750H392Z" />
<glyph unicode="&#xdb;" horiz-adv-x="719" d="M307 -10Q243 -10 191 6T105 57T58 143T61 267L148 675Q150 686 158 693T178 700H287Q298 700 303 693T307 675L220 268Q204 194 227 158T318 122Q385 122 427 158T485 268L572 675Q574 686 583 693T602 700H712Q722
700 727 693T731 675L645 267Q614 124 533 57T307 -10ZM275 750Q261 750 263 763Q264 771 271 777L397 884Q409 895 417 898T435 901H506Q516 901 523 898T537 884L617 778Q622 772 620 764Q618 750 603 750H561Q553 750 546 751T533 757L458 808L362 757Q354 753
347 752T332 750H275Z" />
<glyph unicode="&#xdc;" horiz-adv-x="719" d="M307 -10Q243 -10 191 6T105 57T58 143T61 267L148 675Q150 686 158 693T178 700H287Q298 700 303 693T307 675L220 268Q204 194 227 158T318 122Q385 122 427 158T485 268L572 675Q574 686 583 693T602 700H712Q722
700 727 693T731 675L645 267Q614 124 533 57T307 -10ZM519 750Q509 750 504 756T501 773L518 855Q520 865 528 871T546 878H628Q638 878 643 872T646 855L629 773Q627 762 619 756T601 750H519ZM292 750Q282 750 277 756T274 773L291 855Q293 865 301 871T319
878H401Q411 878 416 872T419 855L402 773Q400 762 392 756T374 750H292Z" />
<glyph unicode="&#xdd;" horiz-adv-x="670" d="M217 0Q207 0 201 7T197 25L244 245L100 668Q96 680 103 690T124 700H224Q237 700 243 693T252 680L349 406L563 680Q567 686 576 693T599 700H716Q731 700 733 689T727 668L403 245L356 25Q354 14 346 7T326 0H217ZM356
750Q340 750 342 764Q343 772 350 778L458 882Q470 894 478 897T499 901H621Q630 901 634 896T637 883Q636 874 628 869L478 764Q468 757 460 754T438 750H356Z" />
<glyph unicode="&#xde;" horiz-adv-x="669" d="M36 0Q26 0 20 7T16 25L155 675Q157 686 165 693T184 700H299Q309 700 315 693T319 675L298 580H420Q479 580 527 566T607 523T651 452T651 353Q627 240 552 186T350 131H203L180 25Q178 14 170 7T150 0H36ZM227
255H355Q403 255 439 280T487 354Q494 384 490 406T466 442T404 455H269L227 255Z" />
<glyph unicode="&#xdf;" horiz-adv-x="626" d="M39 0Q28 0 23 7T20 25L115 476Q129 541 166 593T265 678T415 710Q503 710 551 681T614 608T618 515Q611 480 595 454T559 408T515 376Q549 362 566 338T588 281T583 209Q575 173 553 137T495 69T407 19T289 0H235Q222
0 217 7T213 25L227 90Q229 100 238 107T260 114H292Q347 114 383 143T428 215Q437 258 414 287T333 316H300Q287 316 283 323T280 340L292 397Q294 408 301 415T322 422H351Q402 423 433 445T473 508Q482 546 459 570T390 595Q344 595 311 567T265 478L168 25Q166
14 158 7T138 0H39Z" />
<glyph unicode="&#xe0;" horiz-adv-x="616" d="M197 -10Q147 -10 111 6T53 54T26 129T28 226Q31 245 34 260T42 294Q55 346 77 389T131 463T205 512T301 530Q363 530 395 512T445 466L451 495Q453 506 461 513T480 520H575Q586 520 591 513T595 495L495 25Q493
14 485 7T466 0H371Q360 0 355 7T351 25L358 59Q328 29 292 10T197 -10ZM254 110Q292 110 318 127T361 170T386 226Q391 245 395 264T402 301Q407 329 402 353T379 394T324 410Q289 410 264 394T223 350T198 291Q194 276 190 260T184 229Q180 197 182 170T202 127T254
110ZM339 595Q326 595 319 598T305 609L200 713Q196 719 197 726Q200 746 219 746H340Q353 746 359 743T373 727L436 625Q440 619 438 611Q435 595 419 595H339Z" />
<glyph unicode="&#xe1;" horiz-adv-x="616" d="M197 -10Q147 -10 111 6T53 54T26 129T28 226Q31 245 34 260T42 294Q55 346 77 389T131 463T205 512T301 530Q363 530 395 512T445 466L451 495Q453 506 461 513T480 520H575Q586 520 591 513T595 495L495 25Q493
14 485 7T466 0H371Q360 0 355 7T351 25L358 59Q328 29 292 10T197 -10ZM254 110Q292 110 318 127T361 170T386 226Q391 245 395 264T402 301Q407 329 402 353T379 394T324 410Q289 410 264 394T223 350T198 291Q194 276 190 260T184 229Q180 197 182 170T202 127T254
110ZM310 595Q294 595 297 611Q299 619 305 624L412 727Q425 739 432 742T453 746H568Q585 746 583 728Q583 719 575 714L425 609Q415 602 407 599T385 595H310Z" />
<glyph unicode="&#xe2;" horiz-adv-x="616" d="M197 -10Q147 -10 111 6T53 54T26 129T28 226Q31 245 34 260T42 294Q55 346 77 389T131 463T205 512T301 530Q363 530 395 512T445 466L451 495Q453 506 461 513T480 520H575Q586 520 591 513T595 495L495 25Q493
14 485 7T466 0H371Q360 0 355 7T351 25L358 59Q328 29 292 10T197 -10ZM254 110Q292 110 318 127T361 170T386 226Q391 245 395 264T402 301Q407 329 402 353T379 394T324 410Q289 410 264 394T223 350T198 291Q194 276 190 260T184 229Q180 197 182 170T202 127T254
110ZM198 595Q184 595 186 608Q187 616 194 622L320 729Q332 740 340 743T358 746H424Q434 746 441 743T455 729L535 623Q540 617 538 609Q535 595 521 595H481Q473 595 467 596T453 602L379 653L283 602Q275 598 268 597T253 595H198Z" />
<glyph unicode="&#xe3;" horiz-adv-x="616" d="M197 -10Q147 -10 111 6T53 54T26 129T28 226Q31 245 34 260T42 294Q55 346 77 389T131 463T205 512T301 530Q363 530 395 512T445 466L451 495Q453 506 461 513T480 520H575Q586 520 591 513T595 495L495 25Q493
14 485 7T466 0H371Q360 0 355 7T351 25L358 59Q328 29 292 10T197 -10ZM254 110Q292 110 318 127T361 170T386 226Q391 245 395 264T402 301Q407 329 402 353T379 394T324 410Q289 410 264 394T223 350T198 291Q194 276 190 260T184 229Q180 197 182 170T202 127T254
110ZM432 590Q406 590 390 599T360 616T330 625Q317 625 309 618T294 603T276 595H223Q216 595 212 600T209 612Q212 628 221 647T244 685T281 716T331 728Q359 728 375 720T404 702T434 693Q448 693 455 701T469 716T487 724H540Q549 724 552 719T554 706Q551
690 543 671T519 633T483 602T432 590Z" />
<glyph unicode="&#xe4;" horiz-adv-x="616" d="M197 -10Q147 -10 111 6T53 54T26 129T28 226Q31 245 34 260T42 294Q55 346 77 389T131 463T205 512T301 530Q363 530 395 512T445 466L451 495Q453 506 461 513T480 520H575Q586 520 591 513T595 495L495 25Q493
14 485 7T466 0H371Q360 0 355 7T351 25L358 59Q328 29 292 10T197 -10ZM254 110Q292 110 318 127T361 170T386 226Q391 245 395 264T402 301Q407 329 402 353T379 394T324 410Q289 410 264 394T223 350T198 291Q194 276 190 260T184 229Q180 197 182 170T202 127T254
110ZM424 611Q414 611 410 617T406 633L424 715Q426 725 433 731T451 738H533Q543 738 548 732T551 715L534 633Q532 623 524 617T506 611H424ZM227 611Q217 611 212 617T209 633L227 715Q229 725 236 731T254 738H336Q346 738 351 732T354 715L337 633Q335 623
327 617T309 611H227Z" />
<glyph unicode="&#xe5;" horiz-adv-x="616" d="M197 -10Q147 -10 111 6T53 54T26 129T28 226Q31 245 34 260T42 294Q55 346 77 389T131 463T205 512T301 530Q363 530 395 512T445 466L451 495Q453 506 461 513T480 520H575Q586 520 591 513T595 495L495 25Q493
14 485 7T466 0H371Q360 0 355 7T351 25L358 59Q328 29 292 10T197 -10ZM254 110Q292 110 318 127T361 170T386 226Q391 245 395 264T402 301Q407 329 402 353T379 394T324 410Q289 410 264 394T223 350T198 291Q194 276 190 260T184 229Q180 197 182 170T202 127T254
110ZM361 590Q324 590 302 614T287 675Q296 712 326 736T394 761Q431 761 453 737T468 675Q460 638 429 614T361 590ZM369 645Q383 645 393 653T407 675Q410 688 404 696T385 705Q371 705 361 697T347 675Q344 662 350 654T369 645Z" />
<glyph unicode="&#xe6;" horiz-adv-x="909" d="M176 -10Q115 -10 75 10T19 66T12 144Q26 215 92 257T256 313L392 333L395 350Q403 389 390 409T331 430Q304 430 285 421T251 401T223 380Q220 375 217 373T208 370H116Q106 370 102 376T98 392Q102 409 119 432T169
477T247 515T353 530Q419 530 455 513T507 468Q542 496 586 513T684 530Q741 530 780 515T842 473T875 412T886 340T878 265L873 242Q871 232 862 225T843 218H521L520 210Q512 168 520 142T547 105T589 93Q613 93 637 103T681 134Q692 144 698 146T716 149H819Q828
149 833 144T836 128Q832 113 813 90T759 44T677 6T569 -10Q502 -10 460 13T394 75Q347 28 291 9T176 -10ZM228 94Q261 94 289 108T339 151T370 224L374 241L277 226Q222 217 193 199T159 155Q155 136 163 122T189 101T228 94ZM541 309H732L733 313Q738 349 734
375T712 415T662 430Q637 430 612 418T568 379T542 313L541 309Z" />
<glyph unicode="&#xe7;" horiz-adv-x="579" d="M199 -220Q172 -220 149 -211T117 -190T121 -169L141 -153Q151 -146 156 -149T171 -158T201 -164Q216 -164 228 -155T243 -132Q246 -119 238 -110T214 -101Q202 -101 191 -104T171 -109T157 -103L140 -80Q135 -74
138 -66T148 -47L176 -4Q124 7 86 36T32 111T26 219Q29 235 34 259T43 300Q70 409 145 469T335 530Q400 530 444 511T514 464T549 405T556 351Q555 340 547 333T529 326H420Q410 326 405 331T397 347Q396 382 378 398T324 414Q279 414 246 385T197 295Q192 276
188 258T182 224Q172 162 189 134T252 106Q287 106 314 121T360 171Q366 182 372 187T390 192H498Q509 192 514 185T517 167Q511 146 493 116T441 58T358 10T238 -10L209 -51Q216 -48 226 -47T244 -45Q278 -45 294 -71T303 -135Q296 -173 270 -196T199 -220Z" />
<glyph unicode="&#xe8;" horiz-adv-x="583" d="M244 -10Q168 -10 118 18T48 103T43 240Q45 248 47 261T53 283Q73 360 115 415T220 500T358 530Q442 530 490 496T555 402T555 265L551 242Q549 232 540 225T520 218H194Q194 217 194 215T192 210Q187 178 192 152T215
109T264 93Q288 93 306 100T336 117T356 134Q367 144 373 146T391 149H495Q505 149 510 144T512 128Q508 112 488 89T432 43T350 5T244 -10ZM214 309H410V311Q419 347 413 373T387 415T337 430Q306 430 281 415T240 374T214 311V309ZM343 595Q330 595 323 598T309
609L204 713Q200 719 201 726Q204 746 223 746H344Q357 746 363 743T377 727L440 625Q444 619 442 611Q439 595 423 595H343Z" />
<glyph unicode="&#xe9;" horiz-adv-x="583" d="M244 -10Q168 -10 118 18T48 103T43 240Q45 248 47 261T53 283Q73 360 115 415T220 500T358 530Q442 530 490 496T555 402T555 265L551 242Q549 232 540 225T520 218H194Q194 217 194 215T192 210Q187 178 192 152T215
109T264 93Q288 93 306 100T336 117T356 134Q367 144 373 146T391 149H495Q505 149 510 144T512 128Q508 112 488 89T432 43T350 5T244 -10ZM214 309H410V311Q419 347 413 373T387 415T337 430Q306 430 281 415T240 374T214 311V309ZM314 595Q298 595 301 611Q303
619 309 624L416 727Q429 739 436 742T457 746H572Q589 746 587 728Q587 719 579 714L429 609Q419 602 411 599T389 595H314Z" />
<glyph unicode="&#xea;" horiz-adv-x="583" d="M244 -10Q168 -10 118 18T48 103T43 240Q45 248 47 261T53 283Q73 360 115 415T220 500T358 530Q442 530 490 496T555 402T555 265L551 242Q549 232 540 225T520 218H194Q194 217 194 215T192 210Q187 178 192 152T215
109T264 93Q288 93 306 100T336 117T356 134Q367 144 373 146T391 149H495Q505 149 510 144T512 128Q508 112 488 89T432 43T350 5T244 -10ZM214 309H410V311Q419 347 413 373T387 415T337 430Q306 430 281 415T240 374T214 311V309ZM202 595Q188 595 190 608Q191
616 198 622L324 729Q336 740 344 743T362 746H428Q438 746 445 743T459 729L539 623Q544 617 542 609Q539 595 525 595H485Q477 595 471 596T457 602L383 653L287 602Q279 598 272 597T257 595H202Z" />
<glyph unicode="&#xeb;" horiz-adv-x="583" d="M244 -10Q168 -10 118 18T48 103T43 240Q45 248 47 261T53 283Q73 360 115 415T220 500T358 530Q442 530 490 496T555 402T555 265L551 242Q549 232 540 225T520 218H194Q194 217 194 215T192 210Q187 178 192 152T215
109T264 93Q288 93 306 100T336 117T356 134Q367 144 373 146T391 149H495Q505 149 510 144T512 128Q508 112 488 89T432 43T350 5T244 -10ZM214 309H410V311Q419 347 413 373T387 415T337 430Q306 430 281 415T240 374T214 311V309ZM428 611Q418 611 414 617T410
633L428 715Q430 725 437 731T455 738H537Q547 738 552 732T555 715L538 633Q536 623 528 617T510 611H428ZM231 611Q221 611 216 617T213 633L231 715Q233 725 240 731T258 738H340Q350 738 355 732T358 715L341 633Q339 623 331 617T313 611H231Z" />
<glyph unicode="&#xec;" horiz-adv-x="275" d="M25 0Q15 0 9 7T5 25L105 495Q107 506 116 513T135 520H235Q246 520 251 513T254 495L154 25Q152 14 144 7T125 0H25ZM177 595Q164 595 157 598T143 609L38 713Q34 719 35 726Q38 746 57 746H178Q191 746 197 743T211
727L274 625Q278 619 276 611Q273 595 257 595H177Z" />
<glyph unicode="&#xed;" horiz-adv-x="275" d="M25 0Q15 0 9 7T5 25L105 495Q107 506 116 513T135 520H235Q246 520 251 513T254 495L154 25Q152 14 144 7T125 0H25ZM148 595Q132 595 135 611Q137 619 143 624L250 727Q263 739 270 742T291 746H406Q423 746 421
728Q421 719 413 714L263 609Q253 602 245 599T223 595H148Z" />
<glyph unicode="&#xee;" horiz-adv-x="275" d="M25 0Q15 0 9 7T5 25L105 495Q107 506 116 513T135 520H235Q246 520 251 513T254 495L154 25Q152 14 144 7T125 0H25ZM292 595Q278 595 280 608Q281 616 288 622L414 729Q426 740 434 743T452 746H518Q528 746 535
743T549 729L629 623Q634 617 632 609Q629 595 615 595H575Q567 595 561 596T547 602L473 653L377 602Q369 598 362 597T347 595H292Z" />
<glyph unicode="&#xef;" horiz-adv-x="275" d="M25 0Q15 0 9 7T5 25L105 495Q107 506 116 513T135 520H235Q246 520 251 513T254 495L154 25Q152 14 144 7T125 0H25ZM262 611Q252 611 248 617T244 633L262 715Q264 725 271 731T289 738H371Q381 738 386 732T389
715L372 633Q370 623 362 617T344 611H262ZM65 611Q55 611 50 617T47 633L65 715Q67 725 74 731T92 738H174Q184 738 189 732T192 715L175 633Q173 623 165 617T147 611H65Z" />
<glyph unicode="&#xf0;" horiz-adv-x="595" d="M244 -10Q164 -10 113 18T43 101T40 230Q56 306 99 359T205 441T346 470Q368 470 384 465T414 451Q410 476 403 497T385 538L269 497Q260 494 256 494Q248 494 244 499T241 513L246 537Q248 549 254 555T274 566L348
592Q334 609 318 626T283 659Q276 665 274 670T272 679Q274 688 281 694T298 700H404Q420 700 429 696T445 687Q457 676 467 665T487 642L586 677Q594 680 599 680Q607 680 611 675T614 661L609 637Q607 625 601 619T581 608L525 588Q559 532 568 454T557 261Q556
253 554 244T550 227Q532 154 491 101T387 19T244 -10ZM267 100Q301 100 326 115T368 156T392 215Q395 223 396 229T399 244Q405 277 400 303T377 344T323 360Q288 360 263 345T222 303T199 244Q196 236 195 230T192 215Q186 183 191 157T214 115T267 100Z" />
<glyph unicode="&#xf1;" horiz-adv-x="633" d="M25 0Q15 0 9 7T5 25L105 495Q107 506 116 513T135 520H233Q244 520 249 513T252 495L244 456Q275 488 318 509T417 530Q483 530 523 504T578 427T578 304L518 25Q516 14 508 7T488 0H382Q372 0 366 7T362 25L420
298Q432 354 418 382T351 410Q300 410 265 381T218 298L160 25Q158 14 150 7T131 0H25ZM446 590Q420 590 404 599T374 616T344 625Q331 625 323 618T308 603T290 595H237Q230 595 226 600T223 612Q226 628 235 647T258 685T295 716T345 728Q373 728 389 720T418
702T448 693Q462 693 469 701T483 716T501 724H554Q563 724 566 719T568 706Q565 690 557 671T533 633T497 602T446 590Z" />
<glyph unicode="&#xf2;" horiz-adv-x="600" d="M242 -10Q164 -10 112 17T37 96T26 215Q28 235 33 260T45 305Q63 374 101 424T199 502T341 530Q418 530 470 503T546 425T558 305Q555 286 550 261T539 215Q521 147 484 96T387 18T242 -10ZM254 100Q304 100 337
130T385 220Q389 235 394 260T402 300Q412 358 395 389T329 420Q280 420 247 389T199 300Q195 285 190 260T182 220Q172 161 188 131T254 100ZM336 595Q323 595 316 598T302 609L197 713Q193 719 194 726Q197 746 216 746H337Q350 746 356 743T370 727L433 625Q437
619 435 611Q432 595 416 595H336Z" />
<glyph unicode="&#xf3;" horiz-adv-x="600" d="M242 -10Q164 -10 112 17T37 96T26 215Q28 235 33 260T45 305Q63 374 101 424T199 502T341 530Q418 530 470 503T546 425T558 305Q555 286 550 261T539 215Q521 147 484 96T387 18T242 -10ZM254 100Q304 100 337
130T385 220Q389 235 394 260T402 300Q412 358 395 389T329 420Q280 420 247 389T199 300Q195 285 190 260T182 220Q172 161 188 131T254 100ZM307 595Q291 595 294 611Q296 619 302 624L409 727Q422 739 429 742T450 746H565Q582 746 580 728Q580 719 572 714L422
609Q412 602 404 599T382 595H307Z" />
<glyph unicode="&#xf4;" horiz-adv-x="600" d="M242 -10Q164 -10 112 17T37 96T26 215Q28 235 33 260T45 305Q63 374 101 424T199 502T341 530Q418 530 470 503T546 425T558 305Q555 286 550 261T539 215Q521 147 484 96T387 18T242 -10ZM254 100Q304 100 337
130T385 220Q389 235 394 260T402 300Q412 358 395 389T329 420Q280 420 247 389T199 300Q195 285 190 260T182 220Q172 161 188 131T254 100ZM196 595Q182 595 184 608Q185 616 192 622L318 729Q330 740 338 743T356 746H422Q432 746 439 743T453 729L533 623Q538
617 536 609Q533 595 519 595H479Q471 595 465 596T451 602L377 653L281 602Q273 598 266 597T251 595H196Z" />
<glyph unicode="&#xf5;" horiz-adv-x="600" d="M242 -10Q164 -10 112 17T37 96T26 215Q28 235 33 260T45 305Q63 374 101 424T199 502T341 530Q418 530 470 503T546 425T558 305Q555 286 550 261T539 215Q521 147 484 96T387 18T242 -10ZM254 100Q304 100 337
130T385 220Q389 235 394 260T402 300Q412 358 395 389T329 420Q280 420 247 389T199 300Q195 285 190 260T182 220Q172 161 188 131T254 100ZM429 590Q403 590 387 599T357 616T327 625Q314 625 306 618T291 603T273 595H220Q213 595 209 600T206 612Q209 628
218 647T241 685T278 716T328 728Q356 728 372 720T401 702T431 693Q445 693 452 701T466 716T484 724H537Q546 724 549 719T551 706Q548 690 540 671T516 633T480 602T429 590Z" />
<glyph unicode="&#xf6;" horiz-adv-x="600" d="M242 -10Q164 -10 112 17T37 96T26 215Q28 235 33 260T45 305Q63 374 101 424T199 502T341 530Q418 530 470 503T546 425T558 305Q555 286 550 261T539 215Q521 147 484 96T387 18T242 -10ZM254 100Q304 100 337
130T385 220Q389 235 394 260T402 300Q412 358 395 389T329 420Q280 420 247 389T199 300Q195 285 190 260T182 220Q172 161 188 131T254 100ZM421 611Q411 611 407 617T403 633L421 715Q423 725 430 731T448 738H530Q540 738 545 732T548 715L531 633Q529 623
521 617T503 611H421ZM224 611Q214 611 209 617T206 633L224 715Q226 725 233 731T251 738H333Q343 738 348 732T351 715L334 633Q332 623 324 617T306 611H224Z" />
<glyph unicode="&#xf7;" horiz-adv-x="537" d="M173 51Q162 51 157 58T153 76L170 158Q172 168 180 175T200 183H287Q297 183 303 176T307 158L289 76Q287 65 279 58T260 51H173ZM250 419Q240 419 235 426T231 443L248 525Q250 536 259 543T278 550H365Q376 550
381 543T385 525L368 443Q366 433 357 426T337 419H250ZM61 243Q51 243 46 250T42 267L57 334Q59 344 67 351T86 358H477Q487 358 492 351T496 334L482 267Q480 257 471 250T452 243H61Z" />
<glyph unicode="&#xf8;" horiz-adv-x="600" d="M242 -10Q164 -10 112 17T37 96T26 215Q28 235 33 260T45 305Q63 374 101 424T199 502T341 530Q418 530 470 503T546 425T558 305Q555 286 550 261T539 215Q521 147 484 96T387 18T242 -10ZM254 100Q304 100 337
130T385 220Q389 235 394 260T402 300Q412 358 395 389T329 420Q280 420 247 389T199 300Q195 285 190 260T182 220Q172 161 188 131T254 100ZM7 -28Q1 -28 -5 -23T-11 -11Q-11 -3 -2 6L530 532Q537 538 543 542T561 547H589Q595 547 600 542T606 530Q606 521 599
513L66 -13Q60 -19 53 -23T35 -28H7Z" />
<glyph unicode="&#xf9;" horiz-adv-x="631" d="M199 -10Q137 -10 96 16T40 93T41 216L100 495Q102 506 110 513T130 520H236Q246 520 251 513T255 495L197 222Q189 185 192 160T213 123T266 110Q314 110 350 139T397 222L455 495Q457 506 466 513T485 520H591Q602
520 607 513T610 495L510 25Q508 14 500 7T481 0H383Q372 0 367 7T363 25L371 64Q349 41 326 24T273 -1T199 -10ZM343 595Q330 595 323 598T309 609L204 713Q200 719 201 726Q204 746 223 746H344Q357 746 363 743T377 727L440 625Q444 619 442 611Q439 595 423
595H343Z" />
<glyph unicode="&#xfa;" horiz-adv-x="631" d="M199 -10Q137 -10 96 16T40 93T41 216L100 495Q102 506 110 513T130 520H236Q246 520 251 513T255 495L197 222Q189 185 192 160T213 123T266 110Q314 110 350 139T397 222L455 495Q457 506 466 513T485 520H591Q602
520 607 513T610 495L510 25Q508 14 500 7T481 0H383Q372 0 367 7T363 25L371 64Q349 41 326 24T273 -1T199 -10ZM314 595Q298 595 301 611Q303 619 309 624L416 727Q429 739 436 742T457 746H572Q589 746 587 728Q587 719 579 714L429 609Q419 602 411 599T389
595H314Z" />
<glyph unicode="&#xfb;" horiz-adv-x="631" d="M199 -10Q137 -10 96 16T40 93T41 216L100 495Q102 506 110 513T130 520H236Q246 520 251 513T255 495L197 222Q189 185 192 160T213 123T266 110Q314 110 350 139T397 222L455 495Q457 506 466 513T485 520H591Q602
520 607 513T610 495L510 25Q508 14 500 7T481 0H383Q372 0 367 7T363 25L371 64Q349 41 326 24T273 -1T199 -10ZM203 595Q189 595 191 608Q192 616 199 622L325 729Q337 740 345 743T363 746H429Q439 746 446 743T460 729L540 623Q545 617 543 609Q540 595 526
595H486Q478 595 472 596T458 602L384 653L288 602Q280 598 273 597T258 595H203Z" />
<glyph unicode="&#xfc;" horiz-adv-x="631" d="M199 -10Q137 -10 96 16T40 93T41 216L100 495Q102 506 110 513T130 520H236Q246 520 251 513T255 495L197 222Q189 185 192 160T213 123T266 110Q314 110 350 139T397 222L455 495Q457 506 466 513T485 520H591Q602
520 607 513T610 495L510 25Q508 14 500 7T481 0H383Q372 0 367 7T363 25L371 64Q349 41 326 24T273 -1T199 -10ZM428 611Q418 611 414 617T410 633L428 715Q430 725 437 731T455 738H537Q547 738 552 732T555 715L538 633Q536 623 528 617T510 611H428ZM231 611Q221
611 216 617T213 633L231 715Q233 725 240 731T258 738H340Q350 738 355 732T358 715L341 633Q339 623 331 617T313 611H231Z" />
<glyph unicode="&#xfd;" horiz-adv-x="591" d="M54 -190Q42 -190 38 -180T42 -158L164 34L66 491Q64 502 70 511T92 520H183Q195 520 200 514T207 500L268 190L464 500Q469 508 476 514T497 520H599Q610 520 615 511T613 490L187 -170Q183 -178 175 -184T154 -190H54ZM306
595Q290 595 293 611Q295 619 301 624L408 727Q421 739 428 742T449 746H564Q581 746 579 728Q579 719 571 714L421 609Q411 602 403 599T381 595H306Z" />
<glyph unicode="&#xfe;" horiz-adv-x="621" d="M-15 -190Q-26 -190 -31 -183T-35 -165L147 685Q149 696 157 703T176 710H279Q289 710 295 703T299 685L251 462Q276 490 311 510T406 530Q457 530 493 514T551 466T580 391T578 294Q575 275 572 260T563 226Q550
175 528 132T474 57T401 8T307 -10Q253 -10 218 9T165 59L117 -165Q115 -176 107 -183T88 -190H-15ZM279 110Q315 110 340 126T382 170T409 229Q414 244 417 260T422 291Q426 323 423 350T402 393T349 410Q312 410 285 393T240 350T215 294Q210 276 206 257T199
219Q194 191 199 167T224 126T279 110Z" />
<glyph unicode="&#xff;" horiz-adv-x="591" d="M54 -190Q42 -190 38 -180T42 -158L164 34L66 491Q64 502 70 511T92 520H183Q195 520 200 514T207 500L268 190L464 500Q469 508 476 514T497 520H599Q610 520 615 511T613 490L187 -170Q183 -178 175 -184T154 -190H54ZM420
611Q410 611 406 617T402 633L420 715Q422 725 429 731T447 738H529Q539 738 544 732T547 715L530 633Q528 623 520 617T502 611H420ZM223 611Q213 611 208 617T205 633L223 715Q225 725 232 731T250 738H332Q342 738 347 732T350 715L333 633Q331 623 323 617T305
611H223Z" />
<glyph unicode="&#x2013;" horiz-adv-x="568" d="M70 236Q59 236 54 243T51 260L68 340Q70 350 78 357T97 364H498Q508 364 514 357T517 340L500 260Q498 250 490 243T470 236H70Z" />
<glyph unicode="&#x2014;" horiz-adv-x="758" d="M70 236Q59 236 54 243T51 260L68 340Q70 350 78 357T97 364H688Q698 364 704 357T707 340L690 260Q688 250 680 243T660 236H70Z" />
<glyph unicode="&#x2018;" horiz-adv-x="268" d="M242 506Q238 493 228 483T201 473H92Q79 473 78 482T80 500L191 683Q197 694 206 702T230 710H295Q303 710 308 703T309 687L242 506Z" />
<glyph unicode="&#x2019;" horiz-adv-x="262" d="M153 677Q158 690 168 700T194 710H303Q317 710 318 701T315 683L205 499Q199 489 190 481T165 473H100Q92 473 88 479T86 495L153 677Z" />
<glyph unicode="&#x201a;" horiz-adv-x="277" d="M34 129Q39 142 49 152T75 162H184Q197 162 199 153T196 135L85 -48Q79 -58 70 -66T46 -75H-19Q-27 -75 -32 -68T-33 -52L34 129Z" />
<glyph unicode="&#x201c;" horiz-adv-x="479" d="M303 473Q290 473 288 482T291 500L401 683Q407 694 416 702T441 710H506Q514 710 518 703T520 687L453 506Q448 493 438 483T412 473H303ZM92 473Q79 473 78 482T80 500L191 683Q197 694 206 702T230 710H295Q303
710 308 703T309 687L242 506Q238 493 228 483T201 473H92Z" />
<glyph unicode="&#x201d;" horiz-adv-x="472" d="M153 677Q158 690 168 700T194 710H303Q317 710 318 701T315 683L205 499Q199 489 190 481T165 473H100Q92 473 88 479T86 495L153 677ZM363 677Q368 690 378 700T404 710H513Q526 710 528 701T525 683L415 499Q409
489 400 481T375 473H310Q302 473 298 479T296 495L363 677Z" />
<glyph unicode="&#x201e;" horiz-adv-x="487" d="M34 129Q39 142 49 152T75 162H184Q197 162 199 153T196 135L85 -48Q79 -58 70 -66T46 -75H-19Q-27 -75 -32 -68T-33 -52L34 129ZM244 129Q249 142 259 152T285 162H394Q407 162 409 153T406 135L295 -48Q289 -58
280 -66T256 -75H190Q182 -75 178 -68T177 -52L244 129Z" />
<glyph unicode="&#x2022;" horiz-adv-x="382" d="M76 326Q83 359 105 386T159 430T223 446Q256 446 280 430T314 387T317 326Q311 293 289 266T236 222T171 205Q138 205 114 221T80 265T76 326Z" />
<glyph unicode="&#x2039;" horiz-adv-x="348" d="M237 71Q234 71 229 73T220 80L59 277Q54 284 52 292T50 308L59 350Q61 358 66 366T81 381L326 578Q332 583 338 585T347 587Q356 587 360 581T363 565L346 485Q343 470 338 462T320 444L177 329L270 214Q278 204
280 196T280 173L263 93Q261 84 254 78T237 71Z" />
<glyph unicode="&#x203a;" horiz-adv-x="348" d="M43 71Q34 71 30 77T27 93L44 173Q47 188 53 196T70 214L213 329L120 444Q113 454 110 462T110 485L127 565Q129 574 136 580T153 587Q157 587 161 585T170 578L331 381Q337 374 339 366T340 350L331 308Q329 300
324 292T309 277L64 80Q58 75 53 73T43 71Z" />
</font>
</defs>
</svg>
