<?xml version="1.0" standalone="no"?>
<!DOCTYPE svg PUBLIC "-//W3C//DTD SVG 1.1//EN" "http://www.w3.org/Graphics/SVG/1.1/DTD/svg11.dtd">
<svg xmlns="http://www.w3.org/2000/svg">
<defs >
<font id="SairaSemiCondensed" horiz-adv-x="502" ><font-face
    font-family="Saira SemiCondensed ExtraLight"
    units-per-em="1000"
    panose-1="0 0 3 6 0 0 0 0 0 0"
    ascent="1135"
    descent="-439"
    alphabetic="0" />
<glyph unicode=" " glyph-name="space" horiz-adv-x="208" />
<glyph unicode="!" glyph-name="exclam" horiz-adv-x="196" d="M78 283Q77 333 75 422T73 552V688H124V552Q124 513 120 359L116 178H81L78 283ZM70 0V72H127V0H70Z" />
<glyph unicode="&quot;" glyph-name="quotedbl" horiz-adv-x="270" d="M66 451L57 602V688H105V602L96 451H66ZM174 451L165 602V688H213V602L204 451H174Z" />
<glyph unicode="#" glyph-name="numbersign" horiz-adv-x="689" d="M315 0L355 200H188L149 0H108L148 200H62V240H156L196 439H94V479H204L246 688H286L244 479H411L453 688H493L451 479H543V439H443L403 240H511V200H395L356 0H315ZM403 439H236L196 240H363L403 439Z" />
<glyph unicode="$" glyph-name="dollar" horiz-adv-x="480" d="M412 161T397 129T350 84T263 68V-8H223V68Q143 70 82 80V121Q156 110 223 109V328L171 334Q130 339 108 353T77 393T68 467Q68 525 85 557T135 603T223 619V696H263V619Q335 617 387 606V565Q334
575 263 577V368L315 362Q355 357 375 345T404 304T412 218Q412 161 397 129ZM223 372V577Q186 576 163 569T127 539T114 473Q114 433 120 414T139 388T180 377L223 372ZM304 111T326 121T357 154T366 217Q366 262 360 282T342 308T303 318L263 323V109Q304 111
326 121Z" />
<glyph unicode="%" glyph-name="percent" horiz-adv-x="712" d="M121 311T96 325T64 378T56 503Q56 589 63 627T96 681T177 696Q233 696 257 681T289 628T297 503Q297 416 290 378T258 326T177 311Q121 311 96 325ZM138 0L531 688H574L181 0H138ZM217 348T232
356T252 394T258 503Q258 583 254 613T234 651T177 659Q137 659 122 651T102 612T96 503Q96 425 101 395T122 356T177 348Q217 348 232 356ZM480 -8T455 6T423 59T415 184Q415 270 422 308T455 362T536 377Q592 377 616 362T648 309T656 184Q656 97 649 59T617
7T536 -8Q480 -8 455 6ZM576 29T591 37T611 75T617 184Q617 265 613 294T593 332T536 340Q496 340 481 332T461 293T455 184Q455 106 460 76T481 37T536 29Q576 29 591 37Z" />
<glyph unicode="&amp;" glyph-name="ampersand" horiz-adv-x="635" d="M602 370V328H497V8Q478 4 424 -2T316 -8Q211 -8 157 13T84 75T65 184Q65 263 91 298T175 349V353Q121 368 96 405T70 515Q70 577 89 615T162 675T315 696Q355 696 406 691T493 679V640Q454
647 410 651T335 656Q240 656 193 642T131 597T116 511Q116 472 124 442T164 391T256 370H349V328H256Q192 328 161 311T120 262T110 179Q110 117 132 86T197 43T317 32Q393 32 452 43V370H602Z" />
<glyph unicode="&apos;" glyph-name="quotesingle" horiz-adv-x="161" d="M66 451L57 602V688H105V602L96 451H66Z" />
<glyph unicode="(" glyph-name="parenleft" horiz-adv-x="258" d="M149 -78T125 -29T90 93T78 297Q78 427 89 500T125 623T201 743H241Q192 671 170 628T136 508T123 297Q123 163 135 87T170 -34T241 -150H201Q149 -78 125 -29Z" />
<glyph unicode=")" glyph-name="parenright" horiz-adv-x="258" d="M66 -78T88 -34T123 86T136 297Q136 431 123 507T89 627T17 743H57Q109 672 133 623T168 501T180 297Q180 167 169 94T133 -29T57 -150H17Q66 -78 88 -34Z" />
<glyph unicode="*" glyph-name="asterisk" horiz-adv-x="422" d="M226 487L232 339H190L196 487L70 408L50 444L181 513L49 583L70 619L196 539L190 688H232L225 539L351 619L372 583L241 513L372 444L351 408L226 487Z" />
<glyph unicode="+" glyph-name="plus" horiz-adv-x="513" d="M236 63V233H66V273H236V443H276V273H447V233H276V63H236Z" />
<glyph unicode="," glyph-name="comma" horiz-adv-x="178" d="M57 -81T67 -76T80 -57T83 -17V0H60V72H117V-4Q117 -46 111 -67T87 -97T34 -106V-81Q57 -81 67 -76Z" />
<glyph unicode="-" glyph-name="hyphen" horiz-adv-x="333" d="M62 264V308H271V264H62Z" />
<glyph unicode="." glyph-name="period" horiz-adv-x="178" d="M60 0V72H117V0H60Z" />
<glyph unicode="/" glyph-name="slash" horiz-adv-x="305" d="M9 -55L251 743H296L53 -55H9Z" />
<glyph unicode="0" glyph-name="zero" horiz-adv-x="585" d="M184 -8T141 16T86 107T74 344Q74 514 85 580T140 671T292 696Q402 696 445 672T499 582T510 344Q510 173 499 107T444 17T292 -8Q184 -8 141 16ZM381 35T413 51T454 125T464 344Q464 505 455 563T413
637T292 653Q203 653 171 637T130 563T121 344Q121 183 130 125T171 51T292 35Q381 35 413 51Z" />
<glyph unicode="1" glyph-name="one" horiz-adv-x="319" d="M165 0V628L41 563V609L177 688H212V0H165Z" />
<glyph unicode="2" glyph-name="two" horiz-adv-x="525" d="M111 43H460V0H65V73Q65 159 69 194T94 253T164 300Q217 327 337 386Q383 409 398 436T413 520Q413 577 400 605T355 643T256 653Q181 653 77 642V682Q111 689 164 692T267 696Q332 696 372 686T436
639T460 529Q460 473 450 440T418 385T352 343Q229 284 159 248Q127 232 118 206Q111 178 111 105V43Z" />
<glyph unicode="3" glyph-name="three" horiz-adv-x="512" d="M181 -8T133 -4T49 7V47Q150 35 219 35Q281 35 318 45T375 87T395 179Q395 259 366 293T268 327H152V370H268Q389 370 389 511Q389 572 371 602T315 643T210 653Q134 653 53 641V681Q88 688 135 692T221
696Q303 696 349 678T415 621T435 515Q435 442 409 404T332 354V350Q386 340 414 302T442 184Q442 117 425 76T360 14T221 -8Q181 -8 133 -4Z" />
<glyph unicode="4" glyph-name="four" horiz-adv-x="556" d="M370 0V172H45V211L279 688H331L96 215H371L375 503H417V215H509V172H417V0H370Z" />
<glyph unicode="5" glyph-name="five" horiz-adv-x="530" d="M175 35T243 35Q317 35 354 50T406 99T420 198Q420 269 405 301T351 344T227 355Q181 355 81 340V688H423V645H126V387Q181 398 265 398Q352 398 395 378T453 317T467 206Q467 123 449 78T384 12T246
-8Q206 -8 158 -4T74 7V47Q175 35 243 35Z" />
<glyph unicode="6" glyph-name="six" horiz-adv-x="565" d="M235 -8T195 0T128 34T88 108Q80 135 77 188T74 335Q74 425 77 481T92 573Q113 643 163 669T312 696Q344 696 390 692T479 681V641Q393 653 321 653Q229 653 189 631T135 547T121 349H126Q144 373 183
387T304 401Q388 401 430 388T492 336T512 212Q512 121 496 76T436 11T302 -8Q235 -8 195 0ZM370 35T404 45T451 88T465 193Q465 272 453 305T407 348T296 357Q218 357 182 345T135 307T124 227Q124 142 139 102T189 49T296 35Q370 35 404 45Z" />
<glyph unicode="7" glyph-name="seven" horiz-adv-x="482" d="M130 0L385 645H36V688H437V651L181 0H130Z" />
<glyph unicode="8" glyph-name="eight" horiz-adv-x="590" d="M201 -8T153 12T87 73T70 184Q70 242 82 275T117 324T179 349V353Q125 364 100 402T75 515Q75 582 94 620T160 677T295 696Q382 696 429 678T496 621T515 515Q515 440 490 402T411 353V349Q450 340
473 324T508 275T520 184Q520 114 503 74T438 13T295 -8Q201 -8 153 12ZM366 369T402 381T453 424T468 511Q468 569 455 598T405 640T295 653Q222 653 186 641T136 599T122 511Q122 454 136 424T187 382T295 369Q366 369 402 381ZM366 35T403 46T457 88T473 179Q473
244 459 274T408 316T295 327Q219 327 183 316T132 275T117 179Q117 119 133 89T186 47T295 35Q366 35 403 46Z" />
<glyph unicode="9" glyph-name="nine" horiz-adv-x="565" d="M219 -8T172 -4T86 7V47Q168 35 244 35Q336 35 376 57T430 141T444 339H438Q421 315 382 301T261 287Q177 287 135 300T73 352T53 476Q53 567 69 612T128 677T262 696Q329 696 370 688T436 657T475
588Q485 554 488 500T491 353Q491 258 487 200T470 104Q449 40 400 16T253 -8Q219 -8 172 -4ZM347 331T383 343T430 381T441 461Q441 546 426 586T376 639T269 653Q195 653 161 643T113 600T99 495Q99 416 112 383T158 340T269 331Q347 331 383 343Z" />
<glyph unicode=":" glyph-name="colon" horiz-adv-x="178" d="M60 438V510H117V438H60ZM60 0V72H117V0H60Z" />
<glyph unicode=";" glyph-name="semicolon" horiz-adv-x="178" d="M60 438V510H117V438H60ZM57 -81T67 -76T80 -57T83 -17V0H60V72H117V-4Q117 -46 111 -67T87 -97T34 -106V-81Q57 -81 67 -76Z" />
<glyph unicode="&lt;" glyph-name="less" horiz-adv-x="514" d="M448 55L67 225V281L448 451V406L104 253L448 100V55Z" />
<glyph unicode="=" glyph-name="equal" horiz-adv-x="513" d="M66 328V368H447V328H66ZM66 138V178H447V138H66Z" />
<glyph unicode="&gt;" glyph-name="greater" horiz-adv-x="514" d="M66 55V100L410 253L66 406V451L447 281V225L66 55Z" />
<glyph unicode="?" glyph-name="question" horiz-adv-x="429" d="M134 264Q134 301 141 320T162 349T207 371L231 381Q269 397 285 410T308 449T315 524Q315 578 303 605T262 643T177 653Q124 653 31 641V682Q68 688 112 692T187 696Q253 696 290 681T345 630T362
534Q362 484 358 453T336 398T284 358L264 350Q221 332 205 321T184 298T179 258V178H134V264ZM128 0V72H185V0H128Z" />
<glyph unicode="@" glyph-name="at" horiz-adv-x="807" d="M238 -108T174 -80T93 22T77 294Q77 491 93 565T173 668T403 696Q569 696 633 669T714 567T730 294Q730 190 720 145T688 87T620 75H521L517 141H513Q500 97 466 83T383 68Q334 68 305 78T262 116T248
194Q248 243 258 270T293 309T364 321Q416 321 514 317V352Q514 413 506 438T474 471T394 479Q368 479 332 476T275 469V508Q332 518 408 518Q472 518 503 504T545 457T557 356V108H630Q656 108 668 117T686 166T693 294Q693 449 685 516T648 615T548 655Q487 663
402 663Q330 663 263 656Q190 648 160 618T122 520T114 294Q114 135 123 68T166 -31T282 -70Q326 -74 403 -74Q520 -74 557 -71V-106Q528 -108 403 -108Q238 -108 174 -80ZM436 106T463 119T502 163T514 252V284H373Q337 284 321 278T298 254T291 195Q291 157 298
139T326 113T387 106Q436 106 463 119Z" />
<glyph unicode="A" glyph-name="A" horiz-adv-x="592" d="M511 0L438 213H152L79 0H31L269 688H322L561 0H511ZM298 623H293L166 256H423L298 623Z" />
<glyph unicode="B" glyph-name="B" horiz-adv-x="594" d="M96 688H353Q443 688 480 643T518 516Q518 376 408 354V350Q477 338 500 293T524 180Q524 99 488 50T346 0H96V688ZM404 370T437 405T471 508Q471 581 443 613T342 645H142V370H342Q404 370 437 405ZM419
43T448 76T478 185Q478 260 447 293T345 327H142V43H345Q419 43 448 76Z" />
<glyph unicode="C" glyph-name="C" horiz-adv-x="493" d="M387 -8T308 -8Q202 -8 155 16T91 111T74 344Q74 504 91 575T155 671T308 696Q342 696 379 693T439 683V643Q381 653 320 653Q224 653 185 634T134 555T121 344Q121 194 133 134T185 54T320 35Q387 35
442 45V3Q387 -8 308 -8Z" />
<glyph unicode="D" glyph-name="D" horiz-adv-x="599" d="M96 688H279Q398 688 447 665T511 574T525 344Q525 181 511 114T448 24T279 0H96V688ZM266 43Q375 43 414 58T465 130T478 344Q478 499 466 557T414 630T266 645H142V43H266Z" />
<glyph unicode="E" glyph-name="E" horiz-adv-x="518" d="M96 0V688H470V645H143V369H430V326H143V43H470V0H96Z" />
<glyph unicode="F" glyph-name="F" horiz-adv-x="487" d="M96 0V688H453V645H143V355H421V312H143V0H96Z" />
<glyph unicode="G" glyph-name="G" horiz-adv-x="587" d="M305 311V354H507V10Q466 2 414 -3T321 -8Q213 -8 163 16T93 113T74 344Q74 501 93 573T163 671T322 696Q366 696 418 691T505 678V637Q467 644 423 648T350 653Q243 653 200 638T139 560T121 344Q121
202 134 140T187 56T321 34Q350 34 391 37T461 46V311H305Z" />
<glyph unicode="H" glyph-name="H" horiz-adv-x="638" d="M496 0V326H142V0H96V688H142V370H496V688H542V0H496Z" />
<glyph unicode="I" glyph-name="I" horiz-adv-x="241" d="M97 0V688H144V0H97Z" />
<glyph unicode="J" glyph-name="J" horiz-adv-x="283" d="M94 44T116 54T143 100T149 241V688H196V256Q196 125 187 78T147 16T29 0V42Q94 44 116 54Z" />
<glyph unicode="K" glyph-name="K" horiz-adv-x="576" d="M492 0L276 328H142V0H96V688H142V370H276L491 688H543L315 350L546 0H492Z" />
<glyph unicode="L" glyph-name="L" horiz-adv-x="460" d="M96 0V688H143V43H436V0H96Z" />
<glyph unicode="M" glyph-name="M" horiz-adv-x="794" d="M652 0V598H648L418 0H374L145 598H141V0H96V688H160L395 77H400L636 688H699V0H652Z" />
<glyph unicode="N" glyph-name="N" horiz-adv-x="638" d="M495 0L145 592H141V0H96V688H144L493 98H497V688H543V0H495Z" />
<glyph unicode="O" glyph-name="O" horiz-adv-x="627" d="M198 -8T150 16T88 109T74 344Q74 510 88 578T150 671T314 696Q430 696 477 672T539 579T553 344Q553 178 539 110T478 17T314 -8Q198 -8 150 16ZM411 35T446 50T494 126T506 344Q506 502 494 562T447
637T314 653Q217 653 181 638T133 562T121 344Q121 186 133 126T181 51T314 35Q411 35 446 50Z" />
<glyph unicode="P" glyph-name="P" horiz-adv-x="564" d="M96 688H341Q419 688 456 661T504 591T514 479Q514 411 504 368T455 297T341 269H142V0H96V688ZM334 312Q394 312 422 331T459 384T467 479Q467 540 459 573T423 626T334 645H142V312H334Z" />
<glyph unicode="Q" glyph-name="Q" horiz-adv-x="627" d="M565 -113V-115H512L435 1Q394 -8 314 -8Q198 -8 150 16T88 109T74 344Q74 510 88 578T150 671T314 696Q430 696 477 672T539 579T553 344Q553 232 548 171T527 73T478 17L565 -113ZM385 35T410 39L291
218H343L453 54Q476 68 487 100T502 187T506 344Q506 502 494 562T447 637T314 653Q217 653 181 638T133 562T121 344Q121 186 133 126T181 51T314 35Q385 35 410 39Z" />
<glyph unicode="R" glyph-name="R" horiz-adv-x="593" d="M479 0L375 290Q364 289 344 289H142V0H96V688H354Q429 688 465 662T511 594T521 489Q521 439 515 403T487 339T421 299L530 0H479ZM399 332T428 350T465 401T474 489Q474 545 467 576T432 626T348 645H142V332H339Q399
332 428 350Z" />
<glyph unicode="S" glyph-name="S" horiz-adv-x="544" d="M234 -8T178 -5T80 4V48Q124 43 178 39T268 35Q317 35 346 40T398 60Q420 74 427 104T434 184Q434 249 429 273T403 308T329 325L175 344Q123 350 99 371T69 423T63 512Q63 584 84 624T151 680T274 696Q325
696 374 693T450 682V641Q415 646 368 649T281 653Q227 653 194 646T141 622Q122 605 116 580T110 511Q110 461 115 438T138 404T192 388L338 370Q381 365 405 359T446 338T472 297Q478 281 479 257T481 190Q481 108 460 66T396 8T281 -8Q234 -8 178 -5Z" />
<glyph unicode="T" glyph-name="T" horiz-adv-x="501" d="M227 0V645H30V688H471V645H274V0H227Z" />
<glyph unicode="U" glyph-name="U" horiz-adv-x="621" d="M533 688V295Q533 163 520 103T460 17T311 -8Q208 -8 162 17T102 103T88 295V688H134V264Q134 162 144 117T191 54T311 35Q394 35 430 53T476 116T486 264V688H533Z" />
<glyph unicode="V" glyph-name="V" horiz-adv-x="566" d="M256 0L27 688H77L281 69H286L491 688H538L309 0H256Z" />
<glyph unicode="W" glyph-name="W" horiz-adv-x="841" d="M587 0L423 604H419L255 0H203L33 688H82L229 79H234L396 688H448L610 79H616L762 688H809L639 0H587Z" />
<glyph unicode="X" glyph-name="X" horiz-adv-x="582" d="M497 0L294 304H287L84 0H30L262 346L33 688H88L289 388H295L495 688H549L320 347L552 0H497Z" />
<glyph unicode="Y" glyph-name="Y" horiz-adv-x="517" d="M234 0V276L12 688H64L256 331H262L454 688H504L281 276V0H234Z" />
<glyph unicode="Z" glyph-name="Z" horiz-adv-x="515" d="M46 0V40L409 645H56V688H466V648L103 43H472V0H46Z" />
<glyph unicode="[" glyph-name="bracketleft" horiz-adv-x="276" d="M96 -150V743H242V704L140 700V-107L242 -111V-150H96Z" />
<glyph unicode="\" glyph-name="backslash" horiz-adv-x="305" d="M251 -55L9 743H54L296 -55H251Z" />
<glyph unicode="]" glyph-name="bracketright" horiz-adv-x="276" d="M34 -150V-111L137 -107V700L34 704V743H181V-150H34Z" />
<glyph unicode="^" glyph-name="asciicircum" horiz-adv-x="444" d="M338 459L222 717L106 459H62L194 749H250L382 459H338Z" />
<glyph unicode="_" glyph-name="underscore" horiz-adv-x="326" d="M0 -163V-123H326V-163H0Z" />
<glyph unicode="`" glyph-name="grave" horiz-adv-x="162" d="M115 604L14 738V743H67L149 609V604H115Z" />
<glyph unicode="a" glyph-name="a" horiz-adv-x="503" d="M154 -8T120 4T69 47T52 139Q52 196 64 227T106 271T191 285Q253 285 375 281V324Q375 396 364 427T324 468T226 478Q195 478 152 474T83 465V506Q146 518 241 518Q317 518 354 502T406 447T420 328V0H383L379
78H375Q358 26 315 9T213 -8Q154 -8 120 4ZM273 32T306 42T355 88Q366 115 370 143T375 209V247H202Q157 247 136 240T106 210T97 140Q97 95 107 73T142 41T219 32Q273 32 306 42Z" />
<glyph unicode="b" glyph-name="b" horiz-adv-x="527" d="M226 -8T186 9T129 78H125L122 0H84V743H129V441H133Q149 482 186 500T287 518Q362 518 399 497T449 421T463 255Q463 144 450 90T399 14T287 -8Q226 -8 186 9ZM340 33T369 48T408 108T418 255Q418 357
408 402T369 462T273 477Q219 477 187 460T144 405Q135 376 132 342T129 255Q129 202 131 169T143 107Q154 68 186 51T273 33Q340 33 369 48Z" />
<glyph unicode="c" glyph-name="c" horiz-adv-x="407" d="M342 -1T309 -4T245 -8Q163 -8 125 17T75 96T63 254Q63 362 77 417T129 495T241 518Q271 518 304 515T359 506V466Q336 471 306 474T250 478Q187 478 158 460T118 397T108 256Q108 157 118 112T158 49T253
32Q279 32 310 36T363 45V4Q342 -1 309 -4Z" />
<glyph unicode="d" glyph-name="d" horiz-adv-x="527" d="M165 -8T128 13T77 89T63 255Q63 366 76 420T127 496T239 518Q302 518 340 500T393 441H397V743H442V0H405L401 78H397Q381 27 341 10T240 -8Q165 -8 128 13ZM308 33T340 50T384 104Q393 135 395 168T397
267Q397 311 395 341T386 395Q373 439 341 458T249 477Q185 477 157 462T118 402T108 255Q108 153 118 108T157 48T253 33Q308 33 340 50Z" />
<glyph unicode="e" glyph-name="e" horiz-adv-x="498" d="M435 240H108Q108 149 118 107T161 49T267 32Q300 32 342 36T417 45V5Q391 -1 348 -4T260 -8Q172 -8 131 14T77 89T63 254Q63 367 74 418T126 493T260 518Q342 518 378 495T425 421T435 256V240ZM187 478T157
464T118 410T108 278H390V296Q390 378 379 416T340 466T257 478Q187 478 157 464Z" />
<glyph unicode="f" glyph-name="f" horiz-adv-x="310" d="M119 470H26V510H119V617Q119 673 136 699T186 734T281 743V706Q233 706 209 700T174 676T164 625V510H281V470H164V0H119V470Z" />
<glyph unicode="g" glyph-name="g" horiz-adv-x="527" d="M154 -203T80 -196V-156Q152 -162 235 -162Q308 -162 342 -144T386 -81T397 57V70H393Q378 28 341 11T240 -7Q164 -7 127 14T77 90T63 255Q63 366 77 420T128 496T240 518Q300 518 340 501T397 432H401L405
510H442V74Q442 -38 428 -95T372 -177T242 -203Q154 -203 80 -196ZM308 34T340 52T384 109Q392 136 394 168T397 255Q397 311 396 341T387 394Q374 439 342 458T253 477Q187 477 158 462T118 402T108 255Q108 153 118 109T157 49T253 34Q308 34 340 52Z" />
<glyph unicode="h" glyph-name="h" horiz-adv-x="532" d="M404 310Q404 386 395 420T359 465T273 477Q205 477 174 451T136 383T129 264V0H84V743H129V441H133Q162 518 287 518Q356 518 390 499T437 439T449 321V0H404V310Z" />
<glyph unicode="i" glyph-name="i" horiz-adv-x="213" d="M81 676V743H132V676H81ZM84 0V510H129V0H84Z" />
<glyph unicode="j" glyph-name="j" horiz-adv-x="213" d="M81 676V743H132V676H81ZM-3 -159Q37 -159 55 -154T78 -138T84 -103V510H129V-90Q129 -139 116 -162T77 -191T-3 -197V-159Z" />
<glyph unicode="k" glyph-name="k" horiz-adv-x="463" d="M378 0L202 238H129V0H84V743H129V280H202L376 510H429L239 262L432 0H378Z" />
<glyph unicode="l" glyph-name="l" horiz-adv-x="213" d="M84 0V743H129V0H84Z" />
<glyph unicode="m" glyph-name="m" horiz-adv-x="797" d="M669 310Q669 386 661 420T629 465T553 477Q491 477 463 453T429 387T422 264V0H377V310Q377 386 369 420T337 465T261 477Q199 477 171 451T136 383T129 264V0H84V510H122L125 432H130Q141 471 173 494T273
518Q339 518 370 498T413 432H418Q430 471 463 494T565 518Q628 518 660 499T703 438T714 321V0H669V310Z" />
<glyph unicode="n" glyph-name="n" horiz-adv-x="532" d="M404 310Q404 386 395 420T359 465T273 477Q205 477 174 451T136 383T129 264V0H84V510H122L125 432H129Q142 472 177 495T287 518Q356 518 390 499T437 439T449 321V0H404V310Z" />
<glyph unicode="o" glyph-name="o" horiz-adv-x="513" d="M164 -8T125 12T75 84T63 254Q63 373 74 424T125 497T256 518Q348 518 387 497T438 425T450 254Q450 135 439 84T388 13T256 -8Q164 -8 125 12ZM331 32T361 48T398 105T405 254Q405 362 398 403T361 461T256
478Q182 478 152 462T115 404T108 254Q108 147 115 106T151 48T256 32Q331 32 361 48Z" />
<glyph unicode="p" glyph-name="p" horiz-adv-x="527" d="M84 510H122L125 432H129Q146 483 186 500T287 518Q362 518 399 497T449 421T463 255Q463 144 450 90T399 14T287 -8Q224 -8 187 10T134 70H129V-197H84V510ZM340 33T369 48T408 108T418 255Q418 357 408
402T369 462T273 477Q218 477 186 459T141 400Q133 373 131 340T129 255Q129 157 139 119Q153 73 185 53T273 33Q340 33 369 48Z" />
<glyph unicode="q" glyph-name="q" horiz-adv-x="527" d="M397 70H393Q378 28 340 10T239 -8Q164 -8 127 13T77 89T63 255Q63 366 77 420T128 496T240 518Q300 518 340 501T397 432H401L405 510H442V-197H397V70ZM309 33T341 52T386 113Q393 138 395 170T397 255Q397
312 395 344T383 406Q373 443 341 460T253 477Q187 477 158 462T118 402T108 255Q108 153 118 108T157 48T253 33Q309 33 341 52Z" />
<glyph unicode="r" glyph-name="r" horiz-adv-x="310" d="M84 510H121L125 406H130Q145 470 184 494T286 518V472Q223 472 189 448T142 377T129 254V0H84V510Z" />
<glyph unicode="s" glyph-name="s" horiz-adv-x="441" d="M186 -8T143 -5T67 3V44Q117 37 151 35T230 32Q278 32 302 43T335 75T343 135Q343 178 338 197T319 222T277 231L151 245Q94 252 74 279T53 372Q53 435 73 466T130 508T229 518Q261 518 299 515T363 505V465Q298
478 217 478Q176 478 152 472T113 443T98 378Q98 340 104 322T123 297T164 287L287 273Q329 268 349 257T379 218T388 135Q388 78 371 48T319 5T222 -8Q186 -8 143 -5Z" />
<glyph unicode="t" glyph-name="t" horiz-adv-x="298" d="M119 0V470H26V510H119V658H164V510H272V470H164V0H119Z" />
<glyph unicode="u" glyph-name="u" horiz-adv-x="532" d="M407 78H403Q390 38 355 15T246 -8Q176 -8 142 11T95 71T83 189V510H128V200Q128 124 137 90T173 45T259 33Q327 33 358 59T396 127T403 246V510H448V0H410L407 78Z" />
<glyph unicode="v" glyph-name="v" horiz-adv-x="464" d="M208 0L29 510H76L230 63H235L389 510H435L256 0H208Z" />
<glyph unicode="w" glyph-name="w" horiz-adv-x="709" d="M476 0L357 431H351L232 0H182L31 510H79L205 68H211L331 510H379L500 68H506L631 510H677L526 0H476Z" />
<glyph unicode="x" glyph-name="x" horiz-adv-x="475" d="M390 0L239 220H235L83 0H31L209 259L37 510H91L235 299H240L385 510H438L266 260L444 0H390Z" />
<glyph unicode="y" glyph-name="y" horiz-adv-x="532" d="M164 -203T96 -196V-156Q163 -162 239 -162Q313 -162 348 -141T393 -78T403 49V71H399Q387 37 353 15T245 -7Q175 -7 141 12T95 73T83 192V510H128V200Q128 125 137 91T173 46T259 34Q327 34 358 60T396
127T403 246V510H448V69Q448 -38 433 -95T376 -177T247 -203Q164 -203 96 -196Z" />
<glyph unicode="z" glyph-name="z" horiz-adv-x="435" d="M45 0V36L331 470H56V510H388V474L103 40H390V0H45Z" />
<glyph unicode="{" glyph-name="braceleft" horiz-adv-x="276" d="M177 -128T149 -75T121 36V151Q121 205 99 242T26 280V313Q76 313 98 350T121 441V557Q121 615 149 668T216 743H258Q218 713 192 664T165 567V447Q165 323 86 299V294Q165 270 165 146V25Q165
-23 191 -71T258 -150H216Q177 -128 149 -75Z" />
<glyph unicode="|" glyph-name="bar" horiz-adv-x="245" d="M100 -161V743H144V-161H100Z" />
<glyph unicode="}" glyph-name="braceright" horiz-adv-x="276" d="M58 -120T84 -72T111 25V146Q111 207 129 244T189 294V299Q148 311 130 348T111 447V567Q111 615 85 664T17 743H59Q99 721 127 668T155 557V441Q155 387 177 350T249 313V280Q199 280 177 243T155
151V36Q155 -22 127 -75T59 -150H17Q58 -120 84 -72Z" />
<glyph unicode="~" glyph-name="asciitilde" horiz-adv-x="468" d="M398 301T386 280T333 258Q309 258 285 264T223 285Q191 296 173 301T135 307Q114 307 108 295T101 247H70Q70 304 82 325T134 346Q158 346 180 340T244 319Q249 317 268 311T303 301T332 297Q353
297 359 309T366 357H398Q398 301 386 280Z" />
<glyph unicode="&#xa0;" glyph-name="uni00A0" horiz-adv-x="208" />
<glyph unicode="&#xa1;" glyph-name="exclamdown" horiz-adv-x="195" d="M69 438V510H126V438H69ZM72 -42Q72 -2 74 87T77 227L80 332H115L119 151Q123 -3 123 -42V-178H72V-42Z" />
<glyph unicode="&#xa2;" glyph-name="cent" horiz-adv-x="423" d="M372 80Q330 70 270 67V-8H230V68Q159 72 125 97T78 178T65 342Q65 454 80 512T130 593T230 619V696H270V619Q318 616 368 607V565Q327 576 270 576V109Q331 112 372 123V80ZM112 248T121 201T154
134T230 110V575Q180 572 155 553T121 486T112 344Q112 248 121 201Z" />
<glyph unicode="&#xa3;" glyph-name="sterling" horiz-adv-x="513" d="M465 43V0H52V43H117V336H52V379H117V403Q117 523 134 584T197 671T333 696Q366 696 400 693T455 683V642Q395 653 346 653Q298 653 268 648T217 630Q185 609 174 554T163 405V379H390V336H163V43H465Z"
/>
<glyph unicode="&#xa4;" glyph-name="currency" horiz-adv-x="672" d="M63 17L170 124Q153 151 148 200T142 345Q142 437 147 486T169 563L63 670L92 698L198 592Q219 606 251 612T335 618Q387 618 420 612T473 591L580 698L608 670L501 563Q518 534 523 485T529
345Q529 253 524 203T501 124L608 17L580 -11L472 96Q451 82 419 76T335 70Q284 70 252 76T199 97L91 -11L63 17ZM410 111T440 127T477 187T484 345Q484 457 477 500T440 561T335 578Q261 578 231 561T194 501T187 345Q187 231 194 188T230 128T335 111Q410 111
440 127Z" />
<glyph unicode="&#xa5;" glyph-name="yen" horiz-adv-x="549" d="M513 688L390 448H483V409H370L312 295H483V257H297V0H250V257H64V295H235L177 409H64V448H158L36 688H87L206 448H345L464 688H513ZM278 314L325 409H225L272 314H278Z" />
<glyph unicode="&#xa6;" glyph-name="brokenbar" horiz-adv-x="245" d="M100 390V743H144V390H100ZM100 -161V192H144V-161H100Z" />
<glyph unicode="&#xa7;" glyph-name="section" horiz-adv-x="608" d="M244 -171T202 -168T135 -159V-117Q163 -122 203 -125T278 -128Q332 -128 363 -121T412 -92T429 -26Q429 13 424 33T405 64T363 83L209 128Q148 146 118 161T75 204T61 282Q61 350 81 392T159
440Q143 458 138 483T132 547Q132 607 154 639T217 684T325 696Q364 696 406 693T474 684V642Q446 647 405 650T330 653Q276 653 245 646T196 617T179 551Q179 511 185 491T208 460T259 439L407 395Q464 378 492 363T534 321T547 243Q547 175 527 132T449 84Q465
66 470 41T476 -22Q476 -82 454 -114T391 -159T283 -171Q244 -171 202 -168ZM462 114T481 142T501 230Q501 269 497 289T482 319T451 334L236 396Q227 399 208 404T180 410Q146 410 127 382T107 294Q107 255 112 235T129 204T168 186L376 126L396 121Q421 114 428
114Q462 114 481 142Z" />
<glyph unicode="&#xa8;" glyph-name="dieresis" horiz-adv-x="270" d="M21 665V731H71V665H21ZM199 665V731H249V665H199Z" />
<glyph unicode="&#xa9;" glyph-name="copyright" horiz-adv-x="650" d="M203 -8T155 15T95 105T82 344Q82 517 94 583T155 672T325 696Q447 696 495 673T555 583T568 344Q568 171 556 105T495 16T325 -8Q203 -8 155 15ZM434 21T474 39T525 118T536 344Q536 509
525 569T474 648T325 667Q216 667 176 648T124 569T113 344Q113 180 124 120T175 40T325 21Q434 21 474 39ZM287 154T262 167T227 218T218 344Q218 430 227 468T262 520T346 534Q394 534 418 527V495Q388 500 351 500Q304 500 285 491T260 450T254 344Q254 268
260 238T285 198T351 188Q390 188 420 193V159Q388 154 346 154Q287 154 262 167Z" />
<glyph unicode="&#xaa;" glyph-name="ordfeminine" horiz-adv-x="366" d="M113 315T89 323T52 355T40 423Q40 465 48 488T79 520T142 530L269 527V554Q269 604 262 625T234 653T165 660Q143 660 112 658T60 651V687Q110 696 177 696Q233 696 260 685T298 644T309
557V319H275L270 363H266Q250 334 222 325T156 315Q113 315 89 323ZM198 350T222 358T257 391Q269 417 269 472V496H150Q120 496 105 491T84 470T78 424Q78 393 85 378T109 356T161 350Q198 350 222 358Z" />
<glyph unicode="&#xab;" glyph-name="guillemotleft" horiz-adv-x="407" d="M162 100L47 304L162 510H199L97 304L199 100H162ZM302 100L186 304L302 510H338L237 304L338 100H302Z" />
<glyph unicode="&#xac;" glyph-name="logicalnot" horiz-adv-x="512" d="M404 63V234H66V276H446V63H404Z" />
<glyph unicode="&#xad;" glyph-name="uni00AD" horiz-adv-x="333" d="M62 264V308H271V264H62Z" />
<glyph unicode="&#xae;" glyph-name="registered" horiz-adv-x="650" d="M447 696T495 673T555 583T568 344Q568 171 556 105T495 16T325 -8Q202 -8 154 15T94 105T82 344Q82 517 94 583T154 672T325 696Q447 696 495 673ZM434 21T474 39T525 118T536 344Q536
509 525 569T474 648T325 667Q216 667 176 648T124 569T113 344Q113 180 124 120T175 40T325 21Q434 21 474 39ZM445 379T435 353T395 316L452 157H413L359 309H348H249V157H213V529H352Q394 529 414 514T439 477T445 419Q445 379 435 353ZM373 342T387 351T405
375T409 419Q409 447 406 462T389 486T348 495H249V342H343Q373 342 387 351Z" />
<glyph unicode="&#xaf;" glyph-name="overscore" horiz-adv-x="333" d="M62 698V742H271V698H62Z" />
<glyph unicode="&#xb0;" glyph-name="degree" horiz-adv-x="350" d="M122 397T99 409T69 450T62 546Q62 613 68 642T98 683T175 696Q229 696 252 684T282 642T289 546Q289 480 283 451T253 409T175 397Q122 397 99 409ZM212 432T227 440T245 470T249 546Q249 601
246 622T227 652T175 661Q138 661 123 652T105 622T101 546Q101 491 104 470T123 441T175 432Q212 432 227 440Z" />
<glyph unicode="&#xb1;" glyph-name="plusminus" horiz-adv-x="513" d="M236 189V360H66V399H236V570H276V399H447V360H276V189H236ZM66 15V54H447V15H66Z" />
<glyph unicode="&#xb2;" glyph-name="uni00B2" horiz-adv-x="322" d="M87 356H272V319H50V360Q50 406 52 425T64 457T98 481Q154 510 195 529Q217 540 224 554T232 596Q232 635 218 647T158 659Q131 659 56 651V688Q112 696 164 696Q200 696 222 690T258 664T272
601Q272 556 259 535T210 496L113 448Q96 439 92 428T87 382V356Z" />
<glyph unicode="&#xb3;" glyph-name="uni00B3" horiz-adv-x="315" d="M98 310T42 319V354Q121 347 139 347Q183 347 203 361T224 416Q224 454 210 471T165 488H97V523H165Q188 523 204 538T220 591Q220 632 201 645T134 659Q95 659 44 651V687Q98 696 141 696Q208
696 234 673T260 593Q260 533 215 510V506Q264 483 264 418Q264 381 254 358T217 322T140 310Q98 310 42 319Z" />
<glyph unicode="&#xb4;" glyph-name="acute" horiz-adv-x="162" d="M14 604V609L96 743H149V738L47 604H14Z" />
<glyph unicode="&#xb5;" glyph-name="uni00B5" horiz-adv-x="533" d="M449 510V0H412L408 78H404Q391 38 356 15T248 -8Q205 -8 177 1T129 29V-190H84V510H129V200Q129 124 138 90T174 45T260 33Q328 33 359 59T397 127T404 246V510H449Z" />
<glyph unicode="&#xb6;" glyph-name="paragraph" horiz-adv-x="492" d="M265 222Q163 222 122 238T70 298T58 454Q58 566 69 610T122 671T265 688H307V-144H265V222ZM365 -144V688H407V-144H365Z" />
<glyph unicode="&#xb7;" glyph-name="middot" horiz-adv-x="178" d="M60 263V336H117V263H60Z" />
<glyph unicode="&#xb8;" glyph-name="cedilla" horiz-adv-x="130" d="M19 -190V-185L78 8H111V3L68 -190H19Z" />
<glyph unicode="&#xb9;" glyph-name="uni00B9" horiz-adv-x="212" d="M104 319V638L37 604V643L114 688H143V319H104Z" />
<glyph unicode="&#xba;" glyph-name="ordmasculine" horiz-adv-x="378" d="M121 314T93 329T56 381T47 504Q47 590 55 627T93 680T189 696Q256 696 285 681T322 628T331 504Q331 418 323 381T286 329T189 314Q121 314 93 329ZM241 349T261 360T286 400T291 504Q291
579 286 608T261 648T189 660Q138 660 118 649T92 608T87 504Q87 429 92 400T117 360T189 349Q241 349 261 360Z" />
<glyph unicode="&#xbb;" glyph-name="guillemotright" horiz-adv-x="407" d="M68 100L170 304L68 510H105L220 304L105 100H68ZM208 100L310 304L208 510H244L360 304L244 100H208Z" />
<glyph unicode="&#xbc;" glyph-name="onequarter" horiz-adv-x="607" d="M104 319V638L38 604V643L114 688H143V319H104ZM60 0L452 688H496L104 0H60ZM466 0V84H292V114L415 370H456L336 121H467L470 272H506V121H554V84H506V0H466Z" />
<glyph unicode="&#xbd;" glyph-name="onehalf" horiz-adv-x="685" d="M104 319V638L38 604V643L114 688H143V319H104ZM452 688H496L104 0H60L452 688ZM432 38H617V0H395V42Q395 87 397 106T409 138T442 162Q510 196 540 210Q562 221 569 235T577 277Q577 316 563
328T503 340Q476 340 401 332V369Q457 377 509 377Q545 377 567 371T603 345T617 282Q617 238 604 217T555 177L524 162L457 128Q440 120 436 108T432 63V38Z" />
<glyph unicode="&#xbe;" glyph-name="threequarters" horiz-adv-x="699" d="M132 347T151 347Q195 347 215 361T236 416Q236 454 223 471T178 488H110V523H178Q201 523 217 538T233 591Q233 632 214 645T147 659Q108 659 57 651V687Q109 696 153 696Q220 696 246
673T272 593Q272 532 227 510V506Q277 484 277 418Q277 381 267 358T230 322T153 310Q111 310 55 319V354Q132 347 151 347ZM155 0L547 688H591L199 0H155ZM557 0V84H383V114L506 370H547L427 121H558L561 272H597V121H645V84H597V0H557Z" />
<glyph unicode="&#xbf;" glyph-name="questiondown" horiz-adv-x="374" d="M237 438V510H294V438H237ZM170 -186T133 -171T78 -121T60 -24Q60 25 65 57T87 113T140 153L186 172Q214 184 225 192T240 213T243 252V332H288V246Q288 209 282 190T261 161T217 139L195
130Q156 114 139 100T114 61T107 -14Q107 -68 119 -95T160 -133T246 -143Q301 -143 392 -131V-172Q356 -178 312 -182T236 -186Q170 -186 133 -171Z" />
<glyph unicode="&#xc0;" glyph-name="Agrave" horiz-adv-x="592" d="M511 0L438 213H152L79 0H31L269 688H322L561 0H511ZM298 623H293L166 256H423L298 623ZM289 750L188 884V889H241L323 755V750H289Z" />
<glyph unicode="&#xc1;" glyph-name="Aacute" horiz-adv-x="592" d="M511 0L438 213H152L79 0H31L269 688H322L561 0H511ZM298 623H293L166 256H423L298 623ZM269 750V755L351 889H404V884L302 750H269Z" />
<glyph unicode="&#xc2;" glyph-name="Acircumflex" horiz-adv-x="592" d="M511 0L438 213H152L79 0H31L269 688H322L561 0H511ZM298 623H293L166 256H423L298 623ZM175 750V755L268 888H322L416 755V750H382L295 855L208 750H175Z" />
<glyph unicode="&#xc3;" glyph-name="Atilde" horiz-adv-x="592" d="M511 0L438 213H152L79 0H31L269 688H322L561 0H511ZM298 623H293L166 256H423L298 623ZM451 803T440 782T391 761Q368 761 346 767T288 787Q259 798 240 804T203 810Q184 810 179 798T173 750H141Q141
807 152 828T201 849Q225 849 249 842T306 822Q333 811 352 806T390 800Q409 800 414 812T419 860H451Q451 803 440 782Z" />
<glyph unicode="&#xc4;" glyph-name="Adieresis" horiz-adv-x="592" d="M511 0L438 213H152L79 0H31L269 688H322L561 0H511ZM298 623H293L166 256H423L298 623ZM182 771V837H232V771H182ZM360 771V837H410V771H360Z" />
<glyph unicode="&#xc5;" glyph-name="Aring" horiz-adv-x="592" d="M561 0H511L438 213H152L79 0H31L262 670Q229 673 214 683T195 710T190 762Q190 801 196 819T225 847T295 856Q344 856 366 847T394 820T401 762Q401 729 397 712T377 684T330 671L561 0ZM228
735T231 723T249 706T295 701Q328 701 342 706T360 723T364 762Q364 790 360 802T342 819T295 825Q263 825 249 820T232 802T228 762Q228 735 231 723ZM166 256H423L298 623H293L166 256Z" />
<glyph unicode="&#xc6;" glyph-name="AE" horiz-adv-x="818" d="M479 0L426 213H140L47 0H-1L303 688H770V645H366L436 369H729V326H446L518 43H770V0H479ZM325 623H320L158 256H416L325 623Z" />
<glyph unicode="&#xc7;" glyph-name="Ccedilla" horiz-adv-x="493" d="M387 35T442 45V3Q387 -8 308 -8Q276 -8 262 -7L221 -190H172V-185L227 -4Q161 4 129 35T86 137T74 344Q74 504 91 575T155 671T308 696Q342 696 379 693T439 683V643Q381 653 320 653Q224
653 185 634T134 555T121 344Q121 194 133 134T185 54T320 35Q387 35 442 45Z" />
<glyph unicode="&#xc8;" glyph-name="Egrave" horiz-adv-x="518" d="M96 0V688H470V645H143V369H430V326H143V43H470V0H96ZM280 750L179 884V889H232L314 755V750H280Z" />
<glyph unicode="&#xc9;" glyph-name="Eacute" horiz-adv-x="518" d="M96 0V688H470V645H143V369H430V326H143V43H470V0H96ZM260 750V755L342 889H395V884L293 750H260Z" />
<glyph unicode="&#xca;" glyph-name="Ecircumflex" horiz-adv-x="518" d="M96 0V688H470V645H143V369H430V326H143V43H470V0H96ZM166 750V755L259 888H313L407 755V750H373L286 855L199 750H166Z" />
<glyph unicode="&#xcb;" glyph-name="Edieresis" horiz-adv-x="518" d="M96 0V688H470V645H143V369H430V326H143V43H470V0H96ZM174 771V837H224V771H174ZM352 771V837H402V771H352Z" />
<glyph unicode="&#xcc;" glyph-name="Igrave" horiz-adv-x="241" d="M97 0V688H144V0H97ZM116 750L15 884V889H68L150 755V750H116Z" />
<glyph unicode="&#xcd;" glyph-name="Iacute" horiz-adv-x="241" d="M97 0V688H144V0H97ZM93 750V755L175 889H228V884L126 750H93Z" />
<glyph unicode="&#xce;" glyph-name="Icircumflex" horiz-adv-x="241" d="M97 0V688H144V0H97ZM0 750V755L93 888H147L241 755V750H207L120 855L33 750H0Z" />
<glyph unicode="&#xcf;" glyph-name="Idieresis" horiz-adv-x="241" d="M97 0V688H144V0H97ZM262 771V837H312V771H262ZM440 771V837H490V771H440Z" />
<glyph unicode="&#xd0;" glyph-name="Eth" horiz-adv-x="599" d="M96 327H31V371H96V688H279Q398 688 447 665T511 574T525 344Q525 181 511 114T448 24T279 0H96V327ZM375 43T414 58T465 130T478 344Q478 499 466 557T414 630T266 645H142V371H262V327H142V43H266Q375
43 414 58Z" />
<glyph unicode="&#xd1;" glyph-name="Ntilde" horiz-adv-x="638" d="M495 0L145 592H141V0H96V688H144L493 98H497V688H543V0H495ZM476 803T465 782T416 761Q393 761 371 767T313 787Q284 798 265 804T228 810Q209 810 204 798T198 750H166Q166 807 177 828T226
849Q250 849 274 842T331 822Q358 811 377 806T415 800Q434 800 439 812T444 860H476Q476 803 465 782Z" />
<glyph unicode="&#xd2;" glyph-name="Ograve" horiz-adv-x="627" d="M198 -8T150 16T88 109T74 344Q74 510 88 578T150 671T314 696Q430 696 477 672T539 579T553 344Q553 178 539 110T478 17T314 -8Q198 -8 150 16ZM411 35T446 50T494 126T506 344Q506 502 494
562T447 637T314 653Q217 653 181 638T133 562T121 344Q121 186 133 126T181 51T314 35Q411 35 446 50ZM301 750L200 884V889H253L335 755V750H301Z" />
<glyph unicode="&#xd3;" glyph-name="Oacute" horiz-adv-x="627" d="M198 -8T150 16T88 109T74 344Q74 510 88 578T150 671T314 696Q430 696 477 672T539 579T553 344Q553 178 539 110T478 17T314 -8Q198 -8 150 16ZM411 35T446 50T494 126T506 344Q506 502 494
562T447 637T314 653Q217 653 181 638T133 562T121 344Q121 186 133 126T181 51T314 35Q411 35 446 50ZM289 750V755L371 889H424V884L322 750H289Z" />
<glyph unicode="&#xd4;" glyph-name="Ocircumflex" horiz-adv-x="627" d="M198 -8T150 16T88 109T74 344Q74 510 88 578T150 671T314 696Q430 696 477 672T539 579T553 344Q553 178 539 110T478 17T314 -8Q198 -8 150 16ZM411 35T446 50T494 126T506 344Q506 502
494 562T447 637T314 653Q217 653 181 638T133 562T121 344Q121 186 133 126T181 51T314 35Q411 35 446 50ZM194 750V755L287 888H341L435 755V750H401L314 855L227 750H194Z" />
<glyph unicode="&#xd5;" glyph-name="Otilde" horiz-adv-x="627" d="M198 -8T150 16T88 109T74 344Q74 510 88 578T150 671T314 696Q430 696 477 672T539 579T553 344Q553 178 539 110T478 17T314 -8Q198 -8 150 16ZM411 35T446 50T494 126T506 344Q506 502 494
562T447 637T314 653Q217 653 181 638T133 562T121 344Q121 186 133 126T181 51T314 35Q411 35 446 50ZM468 803T457 782T408 761Q385 761 363 767T305 787Q276 798 257 804T220 810Q201 810 196 798T190 750H158Q158 807 169 828T218 849Q242 849 266 842T323
822Q350 811 369 806T407 800Q426 800 431 812T436 860H468Q468 803 457 782Z" />
<glyph unicode="&#xd6;" glyph-name="Odieresis" horiz-adv-x="627" d="M198 -8T150 16T88 109T74 344Q74 510 88 578T150 671T314 696Q430 696 477 672T539 579T553 344Q553 178 539 110T478 17T314 -8Q198 -8 150 16ZM411 35T446 50T494 126T506 344Q506 502
494 562T447 637T314 653Q217 653 181 638T133 562T121 344Q121 186 133 126T181 51T314 35Q411 35 446 50ZM199 771V837H249V771H199ZM377 771V837H427V771H377Z" />
<glyph unicode="&#xd7;" glyph-name="multiply" horiz-adv-x="449" d="M224 224L95 95L67 123L196 252L66 382L95 411L225 281L355 411L383 383L253 253L383 123L354 94L224 224Z" />
<glyph unicode="&#xd8;" glyph-name="Oslash" horiz-adv-x="627" d="M504 652Q535 620 544 554T553 344Q553 178 539 110T478 17T314 -8Q258 -8 220 -4T156 13L119 -55H74L124 36Q92 68 83 135T74 344Q74 510 88 578T150 671T314 696Q370 696 408 692T471 675L508
743H553L504 652ZM121 224T126 167T148 81L450 637Q431 647 401 650T314 653Q217 653 181 638T133 562T121 344Q121 224 126 167ZM506 464T501 521T479 607L177 52Q197 41 227 38T314 35Q411 35 446 50T494 126T506 344Q506 464 501 521Z" />
<glyph unicode="&#xd9;" glyph-name="Ugrave" horiz-adv-x="621" d="M533 688V295Q533 163 520 103T460 17T311 -8Q208 -8 162 17T102 103T88 295V688H134V264Q134 162 144 117T191 54T311 35Q394 35 430 53T476 116T486 264V688H533ZM316 750L215 884V889H268L350
755V750H316Z" />
<glyph unicode="&#xda;" glyph-name="Uacute" horiz-adv-x="621" d="M533 688V295Q533 163 520 103T460 17T311 -8Q208 -8 162 17T102 103T88 295V688H134V264Q134 162 144 117T191 54T311 35Q394 35 430 53T476 116T486 264V688H533ZM284 750V755L366 889H419V884L317
750H284Z" />
<glyph unicode="&#xdb;" glyph-name="Ucircumflex" horiz-adv-x="621" d="M533 688V295Q533 163 520 103T460 17T311 -8Q208 -8 162 17T102 103T88 295V688H134V264Q134 162 144 117T191 54T311 35Q394 35 430 53T476 116T486 264V688H533ZM191 750V755L284 888H338L432
755V750H398L311 855L224 750H191Z" />
<glyph unicode="&#xdc;" glyph-name="Udieresis" horiz-adv-x="621" d="M533 688V295Q533 163 520 103T460 17T311 -8Q208 -8 162 17T102 103T88 295V688H134V264Q134 162 144 117T191 54T311 35Q394 35 430 53T476 116T486 264V688H533ZM196 771V837H246V771H196ZM374
771V837H424V771H374Z" />
<glyph unicode="&#xdd;" glyph-name="Yacute" horiz-adv-x="517" d="M234 0V276L12 688H64L256 331H262L454 688H504L281 276V0H234ZM240 750V755L322 889H375V884L273 750H240Z" />
<glyph unicode="&#xde;" glyph-name="Thorn" horiz-adv-x="564" d="M96 688H142V560H341Q419 560 456 533T504 462T514 350Q514 283 504 240T455 169T341 141H142V0H96V688ZM334 184Q394 184 422 203T459 255T467 350Q467 412 459 445T423 498T334 517H142V184H334Z" />
<glyph unicode="&#xdf;" glyph-name="germandbls" horiz-adv-x="542" d="M225 0V40H282Q354 40 383 52T423 103T433 236Q433 309 420 348T377 402T291 418H257V458H291Q364 458 394 486T425 581Q425 630 412 658T368 698T278 710Q223 710 191 696T144 645T128
538V0H84V540Q84 616 103 661T165 728T283 750Q354 750 394 733T452 678T470 580Q470 517 445 485T366 444V440Q424 429 451 385T478 244Q478 146 465 96T414 23T299 0H225Z" />
<glyph unicode="&#xe0;" glyph-name="agrave" horiz-adv-x="503" d="M154 -8T120 4T69 47T52 139Q52 196 64 227T106 271T191 285Q253 285 375 281V324Q375 396 364 427T324 468T226 478Q195 478 152 474T83 465V506Q146 518 241 518Q317 518 354 502T406 447T420
328V0H383L379 78H375Q358 26 315 9T213 -8Q154 -8 120 4ZM273 32T306 42T355 88Q366 115 370 143T375 209V247H202Q157 247 136 240T106 210T97 140Q97 95 107 73T142 41T219 32Q273 32 306 42ZM255 604L154 738V743H207L289 609V604H255Z" />
<glyph unicode="&#xe1;" glyph-name="aacute" horiz-adv-x="503" d="M154 -8T120 4T69 47T52 139Q52 196 64 227T106 271T191 285Q253 285 375 281V324Q375 396 364 427T324 468T226 478Q195 478 152 474T83 465V506Q146 518 241 518Q317 518 354 502T406 447T420
328V0H383L379 78H375Q358 26 315 9T213 -8Q154 -8 120 4ZM273 32T306 42T355 88Q366 115 370 143T375 209V247H202Q157 247 136 240T106 210T97 140Q97 95 107 73T142 41T219 32Q273 32 306 42ZM221 604V609L303 743H356V738L254 604H221Z" />
<glyph unicode="&#xe2;" glyph-name="acircumflex" horiz-adv-x="503" d="M154 -8T120 4T69 47T52 139Q52 196 64 227T106 271T191 285Q253 285 375 281V324Q375 396 364 427T324 468T226 478Q195 478 152 474T83 465V506Q146 518 241 518Q317 518 354 502T406
447T420 328V0H383L379 78H375Q358 26 315 9T213 -8Q154 -8 120 4ZM273 32T306 42T355 88Q366 115 370 143T375 209V247H202Q157 247 136 240T106 210T97 140Q97 95 107 73T142 41T219 32Q273 32 306 42ZM134 605V610L227 743H281L375 610V605H341L254 710L167
605H134Z" />
<glyph unicode="&#xe3;" glyph-name="atilde" horiz-adv-x="503" d="M154 -8T120 4T69 47T52 139Q52 196 64 227T106 271T191 285Q253 285 375 281V324Q375 396 364 427T324 468T226 478Q195 478 152 474T83 465V506Q146 518 241 518Q317 518 354 502T406 447T420
328V0H383L379 78H375Q358 26 315 9T213 -8Q154 -8 120 4ZM273 32T306 42T355 88Q366 115 370 143T375 209V247H202Q157 247 136 240T106 210T97 140Q97 95 107 73T142 41T219 32Q273 32 306 42ZM406 686T395 665T346 644Q323 644 301 650T243 670Q214 681 195
687T158 693Q139 693 134 681T128 633H96Q96 690 107 711T156 732Q180 732 204 725T261 705Q288 694 307 689T345 683Q364 683 369 695T374 743H406Q406 686 395 665Z" />
<glyph unicode="&#xe4;" glyph-name="adieresis" horiz-adv-x="503" d="M154 -8T120 4T69 47T52 139Q52 196 64 227T106 271T191 285Q253 285 375 281V324Q375 396 364 427T324 468T226 478Q195 478 152 474T83 465V506Q146 518 241 518Q317 518 354 502T406 447T420
328V0H383L379 78H375Q358 26 315 9T213 -8Q154 -8 120 4ZM273 32T306 42T355 88Q366 115 370 143T375 209V247H202Q157 247 136 240T106 210T97 140Q97 95 107 73T142 41T219 32Q273 32 306 42ZM140 920V986H190V920H140ZM318 920V986H368V920H318Z" />
<glyph unicode="&#xe5;" glyph-name="aring" horiz-adv-x="503" d="M154 -8T120 4T69 47T52 139Q52 196 64 227T106 271T191 285Q253 285 375 281V324Q375 396 364 427T324 468T226 478Q195 478 152 474T83 465V506Q146 518 241 518Q317 518 354 502T406 447T420
328V0H383L379 78H375Q358 26 315 9T213 -8Q154 -8 120 4ZM273 32T306 42T355 88Q366 115 370 143T375 209V247H202Q157 247 136 240T106 210T97 140Q97 95 107 73T142 41T219 32Q273 32 306 42ZM202 866T180 874T152 901T145 959Q145 998 151 1016T180 1044T250
1053Q299 1053 321 1044T350 1017T357 959Q357 920 351 902T322 875T250 866Q202 866 180 874ZM283 898T297 903T315 920T319 959Q319 986 316 998T298 1015T250 1021Q218 1021 204 1016T187 998T183 959Q183 932 186 920T204 903T250 898Q283 898 297 903Z" />
<glyph unicode="&#xe6;" glyph-name="ae" horiz-adv-x="810" d="M747 243H420Q420 150 430 108T473 49T579 32Q612 32 654 36T729 45V5Q703 -1 660 -4T572 -8Q490 -8 450 12T394 84Q372 27 327 10T215 -8Q155 -8 121 4T69 47T52 139Q52 195 64 225T106 269T191
282Q317 282 375 281V323Q375 396 364 427T324 468T225 478Q195 478 152 474T82 465V506Q147 518 241 518Q312 518 349 504T401 452Q419 487 459 502T572 518Q654 518 690 495T737 422T747 259V243ZM499 478T469 464T430 411T420 281H702V296Q702 379 691 416T653
466T569 478Q499 478 469 464ZM375 243H202Q157 243 136 236T105 208T96 140Q96 95 106 73T141 41T219 32Q274 32 307 43T357 92Q375 139 375 209V243Z" />
<glyph unicode="&#xe7;" glyph-name="ccedilla" horiz-adv-x="407" d="M279 32T310 36T363 45V4Q342 -1 309 -4T245 -8Q228 -8 220 -7L179 -190H130V-185L185 -4Q131 5 105 34T71 113T63 254Q63 362 77 417T129 495T241 518Q271 518 304 515T359 506V466Q336 471
306 474T250 478Q187 478 158 460T118 397T108 256Q108 157 118 112T158 49T253 32Q279 32 310 36Z" />
<glyph unicode="&#xe8;" glyph-name="egrave" horiz-adv-x="498" d="M435 240H108Q108 149 118 107T161 49T267 32Q300 32 342 36T417 45V5Q391 -1 348 -4T260 -8Q172 -8 131 14T77 89T63 254Q63 367 74 418T126 493T260 518Q342 518 378 495T425 421T435 256V240ZM187
478T157 464T118 410T108 278H390V296Q390 378 379 416T340 466T257 478Q187 478 157 464ZM248 604L147 738V743H200L282 609V604H248Z" />
<glyph unicode="&#xe9;" glyph-name="eacute" horiz-adv-x="498" d="M435 240H108Q108 149 118 107T161 49T267 32Q300 32 342 36T417 45V5Q391 -1 348 -4T260 -8Q172 -8 131 14T77 89T63 254Q63 367 74 418T126 493T260 518Q342 518 378 495T425 421T435 256V240ZM187
478T157 464T118 410T108 278H390V296Q390 378 379 416T340 466T257 478Q187 478 157 464ZM229 604V609L311 743H364V738L262 604H229Z" />
<glyph unicode="&#xea;" glyph-name="ecircumflex" horiz-adv-x="498" d="M435 240H108Q108 149 118 107T161 49T267 32Q300 32 342 36T417 45V5Q391 -1 348 -4T260 -8Q172 -8 131 14T77 89T63 254Q63 367 74 418T126 493T260 518Q342 518 378 495T425 421T435
256V240ZM187 478T157 464T118 410T108 278H390V296Q390 378 379 416T340 466T257 478Q187 478 157 464ZM130 605V610L223 743H277L371 610V605H337L250 710L163 605H130Z" />
<glyph unicode="&#xeb;" glyph-name="edieresis" horiz-adv-x="498" d="M435 240H108Q108 149 118 107T161 49T267 32Q300 32 342 36T417 45V5Q391 -1 348 -4T260 -8Q172 -8 131 14T77 89T63 254Q63 367 74 418T126 493T260 518Q342 518 378 495T425 421T435 256V240ZM187
478T157 464T118 410T108 278H390V296Q390 378 379 416T340 466T257 478Q187 478 157 464ZM137 920V986H187V920H137ZM315 920V986H365V920H315Z" />
<glyph unicode="&#xec;" glyph-name="igrave" horiz-adv-x="213" d="M84 0V510H129V0H84ZM354 604L253 738V743H306L388 609V604H354Z" />
<glyph unicode="&#xed;" glyph-name="iacute" horiz-adv-x="213" d="M84 0V510H129V0H84ZM83 604V609L165 743H218V738L116 604H83Z" />
<glyph unicode="&#xee;" glyph-name="icircumflex" horiz-adv-x="213" d="M84 0V510H129V0H84ZM243 605V610L336 743H390L484 610V605H450L363 710L276 605H243Z" />
<glyph unicode="&#xef;" glyph-name="idieresis" horiz-adv-x="213" d="M84 0V510H129V0H84ZM249 920V986H299V920H249ZM427 920V986H477V920H427Z" />
<glyph unicode="&#xf0;" glyph-name="eth" horiz-adv-x="513" d="M164 -8T125 13T74 85T63 254Q63 372 74 423T123 496T252 518Q337 518 377 484L382 486Q357 573 315 639L203 621V658L292 672Q271 699 252 717T230 739V743H282Q313 715 339 680L430 696V659L361
647Q388 600 410 538T441 415Q450 348 450 277Q450 145 441 91T392 15T256 -8Q164 -8 125 13ZM332 32T361 48T398 106T405 254Q405 347 398 389T360 455T256 478Q181 478 152 462T115 404T108 254Q108 147 115 106T151 49T256 32Q332 32 361 48Z" />
<glyph unicode="&#xf1;" glyph-name="ntilde" horiz-adv-x="532" d="M404 310Q404 386 395 420T359 465T273 477Q205 477 174 451T136 383T129 264V0H84V510H122L125 432H129Q142 472 177 495T287 518Q356 518 390 499T437 439T449 321V0H404V310ZM422 686T411
665T362 644Q339 644 317 650T259 670Q230 681 211 687T174 693Q155 693 150 681T144 633H112Q112 690 123 711T172 732Q196 732 220 725T277 705Q304 694 323 689T361 683Q380 683 385 695T390 743H422Q422 686 411 665Z" />
<glyph unicode="&#xf2;" glyph-name="ograve" horiz-adv-x="513" d="M164 -8T125 12T75 84T63 254Q63 373 74 424T125 497T256 518Q348 518 387 497T438 425T450 254Q450 135 439 84T388 13T256 -8Q164 -8 125 12ZM331 32T361 48T398 105T405 254Q405 362 398
403T361 461T256 478Q182 478 152 462T115 404T108 254Q108 147 115 106T151 48T256 32Q331 32 361 48ZM255 604L154 738V743H207L289 609V604H255Z" />
<glyph unicode="&#xf3;" glyph-name="oacute" horiz-adv-x="513" d="M164 -8T125 12T75 84T63 254Q63 373 74 424T125 497T256 518Q348 518 387 497T438 425T450 254Q450 135 439 84T388 13T256 -8Q164 -8 125 12ZM331 32T361 48T398 105T405 254Q405 362 398
403T361 461T256 478Q182 478 152 462T115 404T108 254Q108 147 115 106T151 48T256 32Q331 32 361 48ZM229 604V609L311 743H364V738L262 604H229Z" />
<glyph unicode="&#xf4;" glyph-name="ocircumflex" horiz-adv-x="513" d="M164 -8T125 12T75 84T63 254Q63 373 74 424T125 497T256 518Q348 518 387 497T438 425T450 254Q450 135 439 84T388 13T256 -8Q164 -8 125 12ZM331 32T361 48T398 105T405 254Q405 362
398 403T361 461T256 478Q182 478 152 462T115 404T108 254Q108 147 115 106T151 48T256 32Q331 32 361 48ZM137 605V610L230 743H284L378 610V605H344L257 710L170 605H137Z" />
<glyph unicode="&#xf5;" glyph-name="otilde" horiz-adv-x="513" d="M164 -8T125 12T75 84T63 254Q63 373 74 424T125 497T256 518Q348 518 387 497T438 425T450 254Q450 135 439 84T388 13T256 -8Q164 -8 125 12ZM331 32T361 48T398 105T405 254Q405 362 398
403T361 461T256 478Q182 478 152 462T115 404T108 254Q108 147 115 106T151 48T256 32Q331 32 361 48ZM411 686T400 665T351 644Q328 644 306 650T248 670Q219 681 200 687T163 693Q144 693 139 681T133 633H101Q101 690 112 711T161 732Q185 732 209 725T266
705Q293 694 312 689T350 683Q369 683 374 695T379 743H411Q411 686 400 665Z" />
<glyph unicode="&#xf6;" glyph-name="odieresis" horiz-adv-x="513" d="M164 -8T125 12T75 84T63 254Q63 373 74 424T125 497T256 518Q348 518 387 497T438 425T450 254Q450 135 439 84T388 13T256 -8Q164 -8 125 12ZM331 32T361 48T398 105T405 254Q405 362 398
403T361 461T256 478Q182 478 152 462T115 404T108 254Q108 147 115 106T151 48T256 32Q331 32 361 48ZM143 920V986H193V920H143ZM321 920V986H371V920H321Z" />
<glyph unicode="&#xf7;" glyph-name="divide" horiz-adv-x="513" d="M232 403V464H282V403H232ZM66 233V273H447V233H66ZM232 41V103H282V41H232Z" />
<glyph unicode="&#xf8;" glyph-name="oslash" horiz-adv-x="513" d="M434 461T442 411T450 254Q450 135 439 84T388 13T256 -8Q179 -8 140 6L107 -55H64L108 24Q79 48 71 98T63 254Q63 373 74 424T125 497T256 518Q333 518 372 504L405 565H449L405 485Q434 461
442 411ZM108 164T111 125T130 65L351 467Q321 478 256 478Q182 478 152 462T115 404T108 254Q108 164 111 125ZM331 32T361 48T398 105T405 254Q405 345 402 384T382 444L161 43Q188 32 256 32Q331 32 361 48Z" />
<glyph unicode="&#xf9;" glyph-name="ugrave" horiz-adv-x="532" d="M407 78H403Q390 38 355 15T246 -8Q176 -8 142 11T95 71T83 189V510H128V200Q128 124 137 90T173 45T259 33Q327 33 358 59T396 127T403 246V510H448V0H410L407 78ZM261 604L160 738V743H213L295
609V604H261Z" />
<glyph unicode="&#xfa;" glyph-name="uacute" horiz-adv-x="532" d="M407 78H403Q390 38 355 15T246 -8Q176 -8 142 11T95 71T83 189V510H128V200Q128 124 137 90T173 45T259 33Q327 33 358 59T396 127T403 246V510H448V0H410L407 78ZM245 604V609L327 743H380V738L278
604H245Z" />
<glyph unicode="&#xfb;" glyph-name="ucircumflex" horiz-adv-x="532" d="M407 78H403Q390 38 355 15T246 -8Q176 -8 142 11T95 71T83 189V510H128V200Q128 124 137 90T173 45T259 33Q327 33 358 59T396 127T403 246V510H448V0H410L407 78ZM146 605V610L239 743H293L387
610V605H353L266 710L179 605H146Z" />
<glyph unicode="&#xfc;" glyph-name="udieresis" horiz-adv-x="532" d="M407 78H403Q390 38 355 15T246 -8Q176 -8 142 11T95 71T83 189V510H128V200Q128 124 137 90T173 45T259 33Q327 33 358 59T396 127T403 246V510H448V0H410L407 78ZM151 664V730H201V664H151ZM329
664V730H379V664H329Z" />
<glyph unicode="&#xfd;" glyph-name="yacute" horiz-adv-x="532" d="M164 -203T96 -196V-156Q163 -162 239 -162Q313 -162 348 -141T393 -78T403 49V71H399Q387 37 353 15T245 -7Q175 -7 141 12T95 73T83 192V510H128V200Q128 125 137 91T173 46T259 34Q327 34
358 60T396 127T403 246V510H448V69Q448 -38 433 -95T376 -177T247 -203Q164 -203 96 -196ZM246 604V609L328 743H381V738L279 604H246Z" />
<glyph unicode="&#xfe;" glyph-name="thorn" horiz-adv-x="527" d="M84 743H129V440H133Q149 482 186 500T287 518Q362 518 399 497T449 421T463 255Q463 144 450 90T399 14T287 -8Q224 -8 187 9T133 69H129V-190H84V743ZM340 33T369 48T408 108T418 255Q418 357
408 402T369 462T273 477Q217 477 185 458T140 395Q133 371 131 339T129 255Q129 157 138 124Q153 74 185 54T273 33Q340 33 369 48Z" />
<glyph unicode="&#xff;" glyph-name="ydieresis" horiz-adv-x="532" d="M164 -203T96 -196V-156Q163 -162 239 -162Q313 -162 348 -141T393 -78T403 49V71H399Q387 37 353 15T245 -7Q175 -7 141 12T95 73T83 192V510H128V200Q128 125 137 91T173 46T259 34Q327
34 358 60T396 127T403 246V510H448V69Q448 -38 433 -95T376 -177T247 -203Q164 -203 96 -196ZM153 664V730H203V664H153ZM331 664V730H381V664H331Z" />
<glyph unicode="&#x2013;" glyph-name="endash" horiz-adv-x="449" d="M62 283V325H387V283H62Z" />
<glyph unicode="&#x2014;" glyph-name="emdash" horiz-adv-x="848" d="M62 283V325H787V283H62Z" />
<glyph unicode="&#x2018;" glyph-name="quoteleft" horiz-adv-x="169" d="M55 588Q55 629 61 650T85 679T137 688V663Q105 663 97 651T88 600V583H112V512H55V588Z" />
<glyph unicode="&#x2019;" glyph-name="quoteright" horiz-adv-x="169" d="M64 536T72 548T81 600V617H58V688H114V612Q114 570 108 550T84 521T32 512V536Q64 536 72 548Z" />
<glyph unicode="&#x201a;" glyph-name="quotesinglbase" horiz-adv-x="177" d="M66 -80T74 -68T83 -17V0H60V71H117V-5Q117 -46 111 -67T87 -96T34 -105V-80Q66 -80 74 -68Z" />
<glyph unicode="&#x201c;" glyph-name="quotedblleft" horiz-adv-x="295" d="M55 588Q55 629 61 650T85 679T137 688V663Q105 663 97 651T88 600V583H112V512H55V588ZM181 588Q181 629 187 650T211 679T263 688V663Q231 663 223 651T214 600V583H237V512H181V588Z" />
<glyph unicode="&#x201d;" glyph-name="quotedblright" horiz-adv-x="295" d="M64 536T72 548T81 600V617H58V688H114V612Q114 570 108 550T84 521T32 512V536Q64 536 72 548ZM180 536T190 541T203 560T207 600V617H183V688H240V612Q240 570 234 550T210 521T157
512V536Q180 536 190 541Z" />
<glyph unicode="&#x201e;" glyph-name="quotedblbase" horiz-adv-x="303" d="M66 -80T74 -68T83 -17V0H60V71H117V-5Q117 -46 111 -67T87 -96T34 -105V-80Q66 -80 74 -68ZM192 -80T200 -68T209 -17V0H186V71H242V-5Q242 -46 236 -67T212 -96T160 -105V-80Q192
-80 200 -68Z" />
<glyph unicode="&#x2022;" glyph-name="bullet" horiz-adv-x="326" d="M258 297T253 279T229 255T162 248Q116 248 97 254T73 279T68 342Q68 388 73 406T97 432T162 439Q209 439 228 432T253 407T258 342Q258 297 253 279Z" />
<glyph unicode="&#x2039;" glyph-name="guilsinglleft" horiz-adv-x="267" d="M162 100L47 304L162 510H199L97 304L199 100H162Z" />
<glyph unicode="&#x203a;" glyph-name="guilsinglright" horiz-adv-x="267" d="M68 100L170 304L68 510H105L220 304L105 100H68Z" />
</font>
</defs>
</svg>
