<?xml version="1.0" standalone="no"?>
<!DOCTYPE svg PUBLIC "-//W3C//DTD SVG 1.1//EN" "http://www.w3.org/Graphics/SVG/1.1/DTD/svg11.dtd">
<svg xmlns="http://www.w3.org/2000/svg">
<defs >
<font id="ScopeOne" horiz-adv-x="524" ><font-face
    font-family="Scope One"
    units-per-em="1000"
    panose-1="2 6 4 3 3 5 4 2 2 4"
    ascent="928"
    descent="-455"
    alphabetic="0" />
<glyph unicode=" " glyph-name="space" horiz-adv-x="250" />
<glyph unicode="!" glyph-name="exclam" horiz-adv-x="220" d="M91 170L82 286L81 645Q87 646 95 646T110 647Q116 647 124 647T139 645L138 286L129 170Q119 168 110 168Q101 168 91 170ZM160 37Q160 16 147 3T110 -10Q87 -10 74 3T60 37Q60 58 73 71T110 84Q133
84 146 71T160 37Z" />
<glyph unicode="&quot;" glyph-name="quotedbl" horiz-adv-x="285" d="M59 447L50 580V653Q57 654 65 654T78 655Q82 655 90 655T106 653V580L97 447Q89 445 78 445Q67 445 59 447ZM188 447L179 580V653Q186 654 194 654T207 655Q211 655 219 655T235 653V580L226
447Q218 445 207 445Q196 445 188 447Z" />
<glyph unicode="#" glyph-name="numbersign" horiz-adv-x="560" d="M511 176H371L335 0Q330 -1 325 -1T312 -2Q305 -2 298 -2T286 0L322 176H177L141 0Q136 -1 131 -1T118 -2Q111 -2 104 -2T92 0L128 176H32Q29 188 29 198Q29 211 34 222H138L179 423H47Q44 435
44 445Q44 458 49 469H189L225 645Q230 646 235 646T248 647Q255 647 262 647T274 645L238 469H383L419 645Q424 646 429 646T442 647Q449 647 456 647T468 645L432 469H528Q531 457 531 447Q531 434 526 423H422L381 222H513Q516 210 516 200Q516 187 511 176ZM332
222L373 423H228L187 222H332Z" />
<glyph unicode="$" glyph-name="dollar" horiz-adv-x="560" d="M255 -140L259 -10Q206 -10 163 2T89 30Q83 37 78 45T70 60L68 185Q74 189 84 189Q95 189 104 182L132 59Q189 37 258 37Q331 37 378 71T426 167Q426 218 394 249T286 306Q208 332 164 361T102 425T83
501Q83 567 130 609T259 655L255 785Q260 786 267 786T281 787Q288 787 295 787T307 785L302 653Q335 650 364 641T422 619Q428 612 433 604T441 589L443 469Q437 465 427 465Q416 465 407 472L380 585Q349 598 324 603T274 609Q212 609 176 581T140 501Q140 474
152 450T198 403T297 358Q399 323 441 281T484 167Q484 94 434 49T302 -7L307 -140Q302 -141 295 -141T281 -142Q274 -142 267 -142T255 -140Z" />
<glyph unicode="%" glyph-name="percent" horiz-adv-x="788" d="M197 14L549 655Q560 651 571 645T591 631L239 -10Q228 -6 217 0T197 14ZM614 30Q658 30 684 67T711 172Q711 240 685 277T614 314Q570 314 544 277T517 172Q517 104 543 67T614 30ZM614 -10Q548
-10 508 40T467 172Q467 254 507 304T614 354Q680 354 720 304T761 172Q761 90 721 40T614 -10ZM174 331Q218 331 244 368T271 473Q271 541 245 578T174 615Q130 615 104 578T77 473Q77 405 103 368T174 331ZM174 291Q108 291 68 341T27 473Q27 555 67 605T174
655Q240 655 280 605T321 473Q321 391 281 341T174 291Z" />
<glyph unicode="&amp;" glyph-name="ampersand" horiz-adv-x="668" d="M637 319L545 311Q545 247 527 193T477 98Q519 72 561 55T645 31Q648 22 648 14Q648 5 643 -10Q596 -6 545 13T445 62Q407 28 357 9T248 -10Q148 -10 90 41T32 180Q32 297 148 380Q117 448
117 507Q117 574 158 614T269 655Q295 655 323 650T374 636Q385 623 393 606L394 489Q386 486 379 486Q369 486 360 492L331 606Q306 613 279 613Q228 613 200 585T172 507Q172 462 193 412T250 310T334 211T436 125Q463 161 478 207T493 309H415Q399 309 399 323Q399
329 403 344L405 352H640Q643 344 643 338Q643 330 637 319ZM402 90Q330 140 269 206T168 342Q89 280 89 180Q89 113 133 74T251 34Q340 34 402 90Z" />
<glyph unicode="&apos;" glyph-name="quotesingle" horiz-adv-x="156" d="M59 447L50 580V653Q57 654 65 654T78 655Q82 655 90 655T106 653V580L97 447Q89 445 78 445Q67 445 59 447Z" />
<glyph unicode="(" glyph-name="parenleft" horiz-adv-x="304" d="M250 -119Q156 -37 111 64T65 278Q65 390 110 491T250 675Q269 662 278 642Q202 568 163 475T123 278Q123 174 162 81T278 -86Q269 -106 250 -119Z" />
<glyph unicode=")" glyph-name="parenright" horiz-adv-x="304" d="M26 -86Q102 -12 141 81T181 278Q181 382 142 475T26 642Q35 662 54 675Q148 593 193 492T239 278Q239 166 194 65T54 -119Q35 -106 26 -86Z" />
<glyph unicode="*" glyph-name="asterisk" horiz-adv-x="334" d="M211 355L158 466L78 374Q66 382 59 389T42 408L132 493L20 542Q27 567 41 586L150 526L161 649Q175 649 185 648T209 642L186 520L306 548Q311 534 312 524T314 499L192 483L255 378Q243 369 234
365T211 355Z" />
<glyph unicode="+" glyph-name="plus" horiz-adv-x="560" d="M492 299H305V110Q296 107 290 106T279 105Q272 105 255 108V299H66Q63 311 63 320Q63 329 68 345H255V534Q264 537 270 538T281 539Q288 539 305 536V345H494Q497 333 497 324Q497 315 492 299Z" />
<glyph unicode="," glyph-name="comma" horiz-adv-x="220" d="M98 -7L64 16Q62 21 61 27T60 38Q60 57 74 70T109 84Q160 84 160 25Q160 6 148 -26T116 -92T77 -146Q56 -143 45 -126Q56 -110 67 -87T87 -43T98 -7Z" />
<glyph unicode="-" glyph-name="hyphen" horiz-adv-x="344" d="M290 235L56 213Q51 226 51 242Q51 256 54 265L288 287Q293 274 293 258Q293 244 290 235Z" />
<glyph unicode="." glyph-name="period" horiz-adv-x="220" d="M160 37Q160 16 147 3T110 -10Q87 -10 74 3T60 37Q60 58 73 71T110 84Q133 84 146 71T160 37Z" />
<glyph unicode="/" glyph-name="slash" horiz-adv-x="381" d="M50 10L281 666Q311 665 331 651L100 -5Q70 -4 50 10Z" />
<glyph unicode="0" glyph-name="zero" horiz-adv-x="580" d="M290 37Q341 37 375 61T431 127T461 219T471 323Q471 375 462 425T431 517T376 583T290 608Q239 608 205 584T149 518T119 426T109 323Q109 270 118 220T149 128T204 62T290 37ZM290 -10Q223 -10 177
19T103 97T63 205T50 323Q50 382 62 440T103 547T177 625T290 655Q357 655 403 626T477 548T517 441T530 323Q530 264 518 205T477 98T403 20T290 -10Z" />
<glyph unicode="1" glyph-name="one" horiz-adv-x="403" d="M356 0H63Q59 6 59 16Q59 27 66 36L193 44V576L61 499Q47 513 40 535L215 649Q224 647 233 644T249 635V46H347Q363 46 363 32Q363 25 358 8L356 0Z" />
<glyph unicode="2" glyph-name="two" horiz-adv-x="519" d="M422 0H61Q47 11 37 26V39Q37 82 53 120T109 199T216 293Q274 338 307 371T354 433T368 493Q368 545 334 577T245 609Q162 609 91 529Q69 541 59 559Q90 603 140 629T245 655Q325 655 375 610T425 493Q425
454 409 419T355 345T249 254Q190 208 156 174T107 110T91 46H387L412 160Q421 167 432 167Q442 167 448 163L446 26Q436 11 422 0Z" />
<glyph unicode="3" glyph-name="three" horiz-adv-x="530" d="M451 614L247 373Q252 374 256 374T264 374Q352 374 406 325T460 191Q460 132 429 87T344 16T220 -10Q121 -10 40 43Q45 66 59 83Q140 41 213 41Q302 41 352 81T403 191Q403 256 362 292T251 328Q236
328 218 326T187 320Q182 326 177 334T168 351L376 599H126L101 510Q92 503 81 503Q71 503 65 507L67 619Q77 634 91 645H432Q444 632 451 614Z" />
<glyph unicode="4" glyph-name="four" horiz-adv-x="564" d="M484 0H262Q258 6 258 16Q258 27 265 36L362 44V174H56Q45 187 36 204L383 649Q392 647 401 644T417 635V219H508Q524 219 524 205Q524 198 519 181L517 174H417V46H475Q491 46 491 32Q491 25 486 8L484
0ZM362 219V547L109 219H362Z" />
<glyph unicode="5" glyph-name="five" horiz-adv-x="530" d="M95 353L117 617Q127 635 144 649Q182 635 221 628T296 621Q327 621 363 626T432 644Q444 628 447 605Q432 596 405 589T348 577T289 572Q258 572 225 576T164 587L147 385Q170 390 201 393T257 397Q354
397 412 344T470 196Q470 135 440 89T355 16T230 -10Q131 -10 50 43Q55 66 69 83Q150 41 223 41Q312 41 362 82T413 196Q413 270 370 310T252 350Q219 350 185 344T131 331Q105 342 95 353Z" />
<glyph unicode="6" glyph-name="six" horiz-adv-x="517" d="M94 289Q117 345 163 377T272 410Q328 410 373 382T445 306T472 199Q472 138 445 91T371 17T264 -10Q198 -10 150 21T76 108T50 241Q50 330 90 410T203 554T375 655Q391 643 396 615Q272 562 195 479T94
289ZM264 37Q331 37 372 82T414 200Q414 272 372 317T263 363Q218 363 184 342T130 285T110 200Q110 128 153 83T264 37Z" />
<glyph unicode="7" glyph-name="seven" horiz-adv-x="483" d="M111 22L400 596H101L76 490Q67 483 56 483Q46 483 40 487L42 619Q52 634 66 645H442Q456 629 463 609L162 -5Q128 -2 111 22Z" />
<glyph unicode="8" glyph-name="eight" horiz-adv-x="544" d="M349 349Q426 326 460 280T494 174Q494 115 465 74T386 12T272 -10Q208 -10 158 11T79 74T50 174Q50 233 84 279T195 349Q141 368 115 406T88 492Q88 540 112 577T178 634T272 655Q324 655 365 635T431
577T456 492Q456 445 430 407T349 349ZM436 174Q436 216 415 250T357 303T272 323Q224 323 187 304T129 251T108 174Q108 132 130 102T189 54T272 37Q318 37 355 53T414 101T436 174ZM400 492Q400 543 365 575T272 608Q215 608 180 576T144 492Q144 440 180 405T272
370Q327 370 363 405T400 492Z" />
<glyph unicode="9" glyph-name="nine" horiz-adv-x="517" d="M121 30Q246 82 323 166T423 356Q400 300 353 268T245 235Q189 235 144 263T72 339T45 446Q45 507 72 554T146 628T253 655Q318 655 366 624T441 537T467 404Q467 314 427 234T315 91T142 -10Q126 2
121 30ZM254 282Q299 282 333 303T387 361T407 445Q407 517 364 562T253 608Q186 608 145 563T103 445Q103 373 145 328T254 282Z" />
<glyph unicode=":" glyph-name="colon" horiz-adv-x="220" d="M160 37Q160 16 147 3T110 -10Q87 -10 74 3T60 37Q60 58 73 71T110 84Q133 84 146 71T160 37ZM160 402Q160 381 147 368T110 355Q87 355 74 368T60 402Q60 423 73 436T110 449Q133 449 146 436T160 402Z" />
<glyph unicode=";" glyph-name="semicolon" horiz-adv-x="220" d="M98 -7L64 16Q62 21 61 27T60 38Q60 57 74 70T109 84Q160 84 160 25Q160 6 148 -26T116 -92T77 -146Q56 -143 45 -126Q56 -110 67 -87T87 -43T98 -7ZM160 402Q160 381 147 368T110 355Q87 355
74 368T60 402Q60 423 73 436T110 449Q133 449 146 436T160 402Z" />
<glyph unicode="&lt;" glyph-name="less" horiz-adv-x="560" d="M475 121L56 296Q53 312 53 322Q53 332 56 348L475 523Q480 516 483 504T487 479L116 324L487 169Q487 157 484 143T475 121Z" />
<glyph unicode="=" glyph-name="equal" horiz-adv-x="560" d="M492 467H66Q63 483 63 490Q63 499 68 515H494Q497 499 497 492Q497 483 492 467ZM492 385H66Q63 401 63 408Q63 417 68 433H494Q497 417 497 410Q497 401 492 385Z" />
<glyph unicode="&gt;" glyph-name="greater" horiz-adv-x="560" d="M504 296L85 121Q80 128 77 140T73 165L444 320L73 475Q73 487 76 501T85 523L504 348Q507 332 507 322Q507 312 504 296Z" />
<glyph unicode="?" glyph-name="question" horiz-adv-x="471" d="M178 170L174 220Q172 242 177 257T201 292T264 350Q321 399 343 432T365 500Q365 550 329 579T232 609Q203 609 174 604T123 588L94 461Q85 455 75 455Q68 455 60 458L61 589Q64 596 69 604T80
619Q113 636 154 645T235 655Q320 655 370 613T421 500Q421 455 399 418T323 337Q284 305 262 285T231 250T221 220L216 170Q206 168 197 168Q188 168 178 170ZM247 37Q247 16 234 3T197 -10Q174 -10 161 3T147 37Q147 58 160 71T197 84Q220 84 233 71T247 37Z"
/>
<glyph unicode="@" glyph-name="at" horiz-adv-x="815" d="M494 124V135Q474 99 448 81T397 56T353 50Q300 50 264 86T228 199Q228 266 256 322T330 413T431 447Q488 447 528 409L550 442Q554 443 558 443T567 443Q572 443 576 443T584 442L540 166Q539 161 539
155T538 144Q538 97 582 97Q620 97 650 126T699 207T717 320Q717 399 686 461T595 558T449 594Q372 594 308 565T197 485T124 365T98 216Q98 123 133 54T231 -52T380 -90Q451 -90 526 -60Q539 -75 542 -95Q512 -113 467 -124T380 -136Q277 -136 202 -93T85 29T43
216Q43 306 72 382T156 516T285 604T449 636Q556 636 628 592T736 476T772 320Q772 244 746 183T676 86T578 50Q540 50 517 70T494 124ZM495 228L519 368Q504 382 482 393T434 405Q395 405 361 377T305 304T283 206Q283 95 363 95Q384 95 412 108T463 150T495 228Z"
/>
<glyph unicode="A" glyph-name="A" horiz-adv-x="672" d="M658 0H463Q459 6 459 16Q459 27 466 36L533 44L469 210H197L135 46H193Q209 46 209 32Q209 25 204 8L202 0H10Q6 6 6 16Q6 27 13 36L80 44L314 647Q324 649 336 649Q348 649 358 647L591 46H649Q665 46
665 32Q665 25 660 8L658 0ZM452 255L333 569L214 255H452Z" />
<glyph unicode="B" glyph-name="B" horiz-adv-x="595" d="M363 0H55Q51 6 51 16Q51 27 58 36L125 44V599H67Q51 599 51 613Q51 620 56 637L58 645H335Q389 645 430 625T495 567T519 482Q519 436 492 398T419 340Q486 325 523 282T560 173Q560 122 535 83T466 22T363
0ZM181 46H363Q427 46 464 80T501 172Q501 234 461 273T359 312H181V46ZM181 357H335Q390 357 425 392T460 480Q460 533 425 566T335 599H181V357Z" />
<glyph unicode="C" glyph-name="C" horiz-adv-x="593" d="M503 460L475 582Q410 608 348 608Q276 608 222 573T139 473T109 323Q109 236 139 173T226 76T360 41Q449 41 531 83Q545 66 550 43Q513 19 459 5T351 -10Q260 -10 193 31T88 147T50 323Q50 423 86 497T189
613T344 655Q385 655 431 645T518 617Q524 610 529 602T537 587L539 457Q533 453 523 453Q512 453 503 460Z" />
<glyph unicode="D" glyph-name="D" horiz-adv-x="674" d="M181 46H327Q402 46 455 80T536 177T565 323Q565 406 537 468T455 564T327 599H181V46ZM327 0H55Q51 6 51 16Q51 27 58 36L125 44V599H67Q51 599 51 613Q51 620 56 637L58 645H327Q417 645 483 606T587
495T624 323Q624 223 587 151T484 39T327 0Z" />
<glyph unicode="E" glyph-name="E" horiz-adv-x="596" d="M520 0H55Q51 6 51 16Q51 27 58 36L125 44V599H67Q51 599 51 613Q51 620 56 637L58 645H510Q524 634 534 619L536 487Q530 483 520 483Q509 483 500 490L475 599H181V352H381L390 405Q393 423 407 423Q411
423 423 418L429 415V239Q423 235 413 235Q402 235 393 242L381 307H181V46H485L510 155Q519 162 530 162Q540 162 546 158L544 26Q534 11 520 0Z" />
<glyph unicode="F" glyph-name="F" horiz-adv-x="566" d="M308 0H55Q51 6 51 16Q51 27 58 36L125 44V599H67Q51 599 51 613Q51 620 56 637L58 645H500Q514 634 524 619L526 487Q520 483 510 483Q499 483 490 490L465 599H181V346H371L380 399Q383 417 397 417Q401
417 413 412L419 409V233Q413 229 403 229Q392 229 383 236L371 301H181V46H299Q315 46 315 32Q315 25 310 8L308 0Z" />
<glyph unicode="G" glyph-name="G" horiz-adv-x="667" d="M517 62V269H409Q393 269 393 283Q393 290 398 307L400 315H638Q642 309 642 299Q642 288 635 279L573 271V58Q570 51 565 43T554 28Q517 11 465 1T362 -10Q266 -10 196 30T88 145T50 322Q50 423 88 498T196
614T361 655Q402 655 449 645T536 617Q542 610 547 602T555 587L557 464Q551 460 541 460Q530 460 521 467L494 582Q459 596 428 602T361 608Q284 608 227 573T140 474T109 321Q109 234 140 170T230 72T367 37Q403 37 446 44T517 62Z" />
<glyph unicode="H" glyph-name="H" horiz-adv-x="724" d="M666 0H473Q469 6 469 16Q469 27 476 36L543 44V308H181V46H239Q255 46 255 32Q255 25 250 8L248 0H55Q51 6 51 16Q51 27 58 36L125 44V599H67Q51 599 51 613Q51 620 56 637L58 645H251Q255 639 255 629Q255
618 248 609L181 601V354H543V599H485Q469 599 469 613Q469 620 474 637L476 645H669Q673 639 673 629Q673 618 666 609L599 601V46H657Q673 46 673 32Q673 25 668 8L666 0Z" />
<glyph unicode="I" glyph-name="I" horiz-adv-x="306" d="M258 0H45Q41 6 41 16Q41 27 48 36L125 44V599H57Q41 599 41 613Q41 620 46 637L48 645H261Q265 639 265 629Q265 618 258 609L181 601V46H249Q265 46 265 32Q265 25 260 8L258 0Z" />
<glyph unicode="J" glyph-name="J" horiz-adv-x="296" d="M125 184V599H57Q41 599 41 613Q41 620 46 637L48 645H261Q265 639 265 629Q265 618 258 609L181 601V201Q181 118 164 58T105 -50T-4 -142Q-22 -127 -29 -107Q30 -62 63 -21T111 70T125 184Z" />
<glyph unicode="K" glyph-name="K" horiz-adv-x="662" d="M635 0H437Q433 6 433 16Q433 27 440 36L505 44L303 347L181 208V46H239Q255 46 255 32Q255 25 250 8L248 0H55Q51 6 51 16Q51 27 58 36L125 44V599H67Q51 599 51 613Q51 620 56 637L58 645H251Q255 639
255 629Q255 618 248 609L181 601V274L462 599H409Q393 599 393 613Q393 620 398 637L400 645H593Q597 639 597 629Q597 618 590 609L527 601L338 387L571 46H626Q642 46 642 32Q642 25 637 8L635 0Z" />
<glyph unicode="L" glyph-name="L" horiz-adv-x="551" d="M495 0H55Q51 6 51 16Q51 27 58 36L125 44V599H67Q51 599 51 613Q51 620 56 637L58 645H261Q265 639 265 629Q265 618 258 609L181 601V46H460L485 160Q494 167 505 167Q515 167 521 163L519 26Q509 11 495 0Z" />
<glyph unicode="M" glyph-name="M" horiz-adv-x="864" d="M806 0H613Q609 6 609 16Q609 27 616 36L683 44V557L452 80Q442 78 430 78Q418 78 408 80L177 545V46H235Q251 46 251 32Q251 25 246 8L244 0H55Q51 6 51 16Q51 27 58 36L125 44V599H67Q51 599 51 613Q51
620 56 637L58 645H187L433 151L673 645H809Q813 639 813 629Q813 618 806 609L739 601V46H797Q813 46 813 32Q813 25 808 8L806 0Z" />
<glyph unicode="N" glyph-name="N" horiz-adv-x="711" d="M556 -5L177 556V46H235Q251 46 251 32Q251 25 246 8L244 0H55Q51 6 51 16Q51 27 58 36L125 44V599H67Q51 599 51 613Q51 620 56 637L58 645H182L544 109V599H486Q470 599 470 613Q470 620 475 637L477
645H666Q670 639 670 629Q670 618 663 609L596 601V5Q587 1 577 -1T556 -5Z" />
<glyph unicode="O" glyph-name="O" horiz-adv-x="694" d="M347 37Q419 37 472 72T555 172T585 323Q585 409 556 473T473 572T347 608Q275 608 222 573T139 473T109 323Q109 236 138 172T221 73T347 37ZM347 -10Q258 -10 191 31T87 147T50 323Q50 423 87 497T191
613T347 655Q436 655 503 614T607 498T644 323Q644 222 607 148T503 32T347 -10Z" />
<glyph unicode="P" glyph-name="P" horiz-adv-x="566" d="M298 0H55Q51 6 51 16Q51 27 58 36L125 44V599H67Q51 599 51 613Q51 620 56 637L58 645H307Q370 645 413 627T483 580T522 517T535 449Q535 416 523 382T484 318T414 271T307 253H181V46H289Q305 46 305
32Q305 25 300 8L298 0ZM181 299H307Q385 299 430 339T476 449Q476 518 431 558T307 599H181V299Z" />
<glyph unicode="Q" glyph-name="Q" horiz-adv-x="694" d="M343 -9Q254 -8 189 33T87 148T50 323Q50 423 87 497T191 613T347 655Q436 655 503 614T607 498T644 323Q644 196 584 111T423 1Q449 -16 479 -27T552 -46T655 -61Q657 -71 657 -77Q657 -90 652 -105Q559
-105 479 -81T343 -9ZM347 37Q419 37 472 72T555 172T585 323Q585 409 556 473T473 572T347 608Q275 608 222 573T139 473T109 323Q109 236 138 172T221 73T347 37Z" />
<glyph unicode="R" glyph-name="R" horiz-adv-x="620" d="M430 82L320 273H181V46H239Q255 46 255 32Q255 25 250 8L248 0H55Q51 6 51 16Q51 27 58 36L125 44V599H67Q51 599 51 613Q51 620 56 637L58 645H321Q377 645 416 628T479 582T514 521T525 459Q525 425
511 388T463 320T377 279L487 96Q506 64 521 54T561 43Q569 43 578 43T595 45Q603 31 604 8Q570 -4 540 -4Q508 -4 482 16T430 82ZM181 319H321Q388 319 427 359T466 459Q466 518 427 558T321 599H181V319Z" />
<glyph unicode="S" glyph-name="S" horiz-adv-x="527" d="M52 60L50 185Q56 189 66 189Q77 189 86 182L113 63Q141 51 175 44T248 37Q331 37 377 71T424 168Q424 216 390 246T270 306Q191 332 145 359T78 420T57 498Q57 572 111 613T261 655Q346 655 420 619Q426
612 431 604T439 589L441 469Q435 465 425 465Q414 465 405 472L378 585Q322 609 261 609Q190 609 152 581T114 498Q114 466 128 443T179 400T281 358Q390 320 436 277T482 168Q482 85 420 38T248 -10Q197 -10 150 0T71 30Q65 37 60 45T52 60Z" />
<glyph unicode="T" glyph-name="T" horiz-adv-x="622" d="M436 0H183Q179 6 179 16Q179 27 186 36L283 44V599H101L76 490Q67 483 56 483Q46 483 40 487L42 619Q52 634 66 645H556Q570 634 580 619L582 487Q576 483 566 483Q555 483 546 490L521 599H339V46H427Q443
46 443 32Q443 25 438 8L436 0Z" />
<glyph unicode="U" glyph-name="U" horiz-adv-x="698" d="M530 221V599H472Q456 599 456 613Q456 620 461 637L463 645H653Q657 639 657 629Q657 618 650 609L583 601V221Q583 145 552 94T468 16T349 -10Q284 -10 231 16T146 93T115 221V599H57Q41 599 41 613Q41
620 46 637L48 645H241Q245 639 245 629Q245 618 238 609L171 601V221Q171 142 216 90T349 37Q440 37 485 89T530 221Z" />
<glyph unicode="V" glyph-name="V" horiz-adv-x="644" d="M300 -2L77 599H19Q3 599 3 613Q3 620 8 637L10 645H206Q210 639 210 629Q210 618 203 609L136 601L325 82L514 599H456Q440 599 440 613Q440 620 445 637L447 645H638Q642 639 642 629Q642 618 635 609L568
601L344 -2Q334 -4 322 -4Q310 -4 300 -2Z" />
<glyph unicode="W" glyph-name="W" horiz-adv-x="933" d="M634 -2L468 542L299 -2Q289 -4 277 -4Q265 -4 255 -2L80 599H22Q6 599 6 613Q6 620 11 637L13 645H209Q213 639 213 629Q213 618 206 609L139 601L279 102L449 647Q459 649 471 649Q483 649 493 647L658
100L799 599H741Q725 599 725 613Q725 620 730 637L732 645H923Q927 639 927 629Q927 618 920 609L853 601L678 -2Q668 -4 656 -4Q644 -4 634 -2Z" />
<glyph unicode="X" glyph-name="X" horiz-adv-x="652" d="M625 0H425Q421 6 421 16Q421 27 428 36L495 44L323 297L152 46H210Q226 46 226 32Q226 25 221 8L219 0H24Q20 6 20 16Q20 27 27 36L94 44L293 333L119 599H61Q45 599 45 613Q45 620 50 637L52 645H252Q256
639 256 629Q256 618 249 609L182 601L330 371L478 599H420Q404 599 404 613Q404 620 409 637L411 645H606Q610 639 610 629Q610 618 603 609L536 601L360 334L558 46H616Q632 46 632 32Q632 25 627 8L625 0Z" />
<glyph unicode="Y" glyph-name="Y" horiz-adv-x="594" d="M422 0H169Q165 6 165 16Q165 27 172 36L269 44V230L67 599H9Q-7 599 -7 613Q-7 620 -2 637L0 645H198Q202 639 202 629Q202 618 195 609L128 601L301 278L472 599H414Q398 599 398 613Q398 620 403 637L405
645H598Q602 639 602 629Q602 618 595 609L528 601L325 230V46H413Q429 46 429 32Q429 25 424 8L422 0Z" />
<glyph unicode="Z" glyph-name="Z" horiz-adv-x="557" d="M486 0H61Q49 14 42 31L423 599H130L105 490Q96 483 85 483Q75 483 69 487L71 619Q81 634 95 645H477Q489 632 496 614L115 46H451L476 160Q485 167 496 167Q506 167 512 163L510 26Q500 11 486 0Z" />
<glyph unicode="[" glyph-name="bracketleft" horiz-adv-x="352" d="M319 -106H149Q135 -95 125 -80V636Q135 651 149 662H319Q323 656 323 646Q323 635 316 626L181 616V-60L316 -70Q323 -79 323 -90Q323 -100 319 -106Z" />
<glyph unicode="\" glyph-name="backslash" horiz-adv-x="381" d="M281 -5L50 651Q70 665 100 666L331 10Q311 -4 281 -5Z" />
<glyph unicode="]" glyph-name="bracketright" horiz-adv-x="352" d="M203 -106H33Q29 -100 29 -90Q29 -79 36 -70L171 -60V616L36 626Q29 635 29 646Q29 656 33 662H203Q217 651 227 636V-80Q217 -95 203 -106Z" />
<glyph unicode="^" glyph-name="asciicircum" horiz-adv-x="560" d="M429 223L279 571L129 223Q117 223 104 226T83 235L259 645Q267 647 280 647Q293 647 301 645L477 235Q470 230 456 227T429 223Z" />
<glyph unicode="_" glyph-name="underscore" horiz-adv-x="500" d="M500 -111H-2Q-5 -94 -5 -88Q-5 -79 0 -63H502Q505 -80 505 -86Q505 -95 500 -111Z" />
<glyph unicode="`" glyph-name="grave" horiz-adv-x="616" d="M369 556L270 644L219 697Q229 709 237 716T258 735L309 683L396 581Q387 568 369 556Z" />
<glyph unicode="a" glyph-name="a" horiz-adv-x="523" d="M496 14L397 -5Q380 4 369 17L374 89Q342 42 296 16T193 -10Q124 -10 82 29T39 130Q39 201 95 240T255 280Q278 280 308 278T371 271V311Q371 465 232 465Q196 465 156 453T81 417Q74 423 68 434T62 454Q101
481 145 495T232 510Q423 510 423 311V47H499Q502 40 502 33Q502 24 496 14ZM371 188V228Q339 232 309 234T255 237Q176 237 135 211T94 132Q94 88 122 61T198 34Q242 34 281 56T346 113T371 188Z" />
<glyph unicode="b" glyph-name="b" horiz-adv-x="563" d="M90 -3V623H9Q6 630 6 637Q6 646 12 656L116 675Q133 666 144 653V399Q172 450 218 480T320 510Q378 510 423 478T494 388T520 255Q520 175 491 116T409 23T285 -10Q201 -10 139 46L128 -3Q120 -5 109
-5Q98 -5 90 -3ZM144 266V93Q211 35 285 35Q368 35 415 94T463 255Q463 317 444 364T392 439T315 466Q269 466 230 439T168 366T144 266Z" />
<glyph unicode="c" glyph-name="c" horiz-adv-x="488" d="M396 342L373 448Q330 465 274 465Q222 465 183 438T122 362T100 250Q100 152 150 95T284 38Q319 38 357 46T421 68Q428 60 432 51T438 31Q402 12 360 1T275 -10Q205 -10 153 22T72 113T43 250Q43 328
72 386T152 477T274 510Q308 510 346 503T409 483Q420 470 428 453L430 339Q422 336 415 336Q405 336 396 342Z" />
<glyph unicode="d" glyph-name="d" horiz-adv-x="588" d="M546 14L447 -5Q430 4 419 17L426 115Q400 58 351 24T243 -10Q184 -10 139 22T69 112T43 245Q43 325 72 384T154 477T278 510Q356 510 419 458V623H338Q335 630 335 637Q335 646 341 656L445 675Q462 666
473 653V47H549Q552 40 552 33Q552 24 546 14ZM419 234V407Q352 465 278 465Q196 465 148 406T100 245Q100 183 119 136T171 61T248 34Q294 34 333 61T395 134T419 234Z" />
<glyph unicode="e" glyph-name="e" horiz-adv-x="498" d="M434 261H98V250Q98 153 148 96T284 38Q323 38 364 49T432 74Q440 66 444 57T449 37Q366 -10 275 -10Q205 -10 153 22T72 113T43 250Q43 329 70 387T149 478T269 510Q453 510 453 291Q445 274 434 261ZM102
304H400Q400 466 269 466Q203 466 159 422T102 304Z" />
<glyph unicode="f" glyph-name="f" horiz-adv-x="362" d="M277 0H44Q41 8 41 14Q41 22 47 33L115 41V456H39Q36 464 36 470Q36 480 42 490L115 499V520Q115 592 157 636T274 680Q329 680 376 662Q374 640 365 624Q347 628 325 630T285 633Q169 633 169 520V500H307Q323
500 323 486Q323 480 319 465L317 456H169V43H267Q283 43 283 29Q283 23 279 8L277 0Z" />
<glyph unicode="g" glyph-name="g" horiz-adv-x="533" d="M199 97H313Q396 97 444 61T493 -36Q493 -108 428 -151T255 -195Q150 -195 90 -156T30 -49Q30 24 117 74Q92 94 92 129Q92 177 141 220Q86 266 86 345Q86 419 134 464T262 510Q330 510 375 476L482 489Q498
490 498 475Q498 469 494 454L491 443H408Q422 423 430 399T438 345Q438 271 390 226T262 180Q211 180 171 200Q143 175 143 141Q143 97 199 97ZM313 53H178Q164 53 151 56Q85 13 85 -46Q85 -94 131 -122T255 -151Q338 -151 388 -120T438 -36Q438 6 405 29T313
53ZM387 345Q387 401 353 434T262 467Q205 467 171 434T137 345Q137 289 171 256T262 223Q319 223 353 256T387 345Z" />
<glyph unicode="h" glyph-name="h" horiz-adv-x="616" d="M584 0H391Q388 8 388 14Q388 22 394 33L462 41V325Q462 466 343 466Q296 466 257 439T193 366T169 266V43H227Q243 43 243 29Q243 23 239 8L237 0H44Q41 8 41 14Q41 22 47 33L115 41V623H34Q31 630 31
637Q31 646 37 656L141 675Q158 666 169 653V397Q194 444 239 477T352 510Q432 510 474 463T516 325V43H574Q590 43 590 29Q590 23 586 8L584 0Z" />
<glyph unicode="i" glyph-name="i" horiz-adv-x="284" d="M247 0H34Q31 8 31 14Q31 22 37 33L115 41V453H34Q31 460 31 467Q31 476 37 486L141 505Q158 496 169 483V43H237Q253 43 253 29Q253 23 249 8L247 0ZM172 632Q172 613 160 602T127 590Q106 590 94 601T82
632Q82 651 94 662T127 674Q148 674 160 663T172 632Z" />
<glyph unicode="j" glyph-name="j" horiz-adv-x="239" d="M100 134V453H19Q16 460 16 467Q16 476 22 486L126 505Q143 496 154 483V151Q154 68 137 8T79 -100T-31 -192Q-49 -179 -55 -158Q5 -114 38 -74T86 16T100 134ZM157 632Q157 613 145 602T112 590Q91 590
79 601T67 632Q67 651 79 662T112 674Q133 674 145 663T157 632Z" />
<glyph unicode="k" glyph-name="k" horiz-adv-x="573" d="M382 82L273 275L169 166V43H227Q243 43 243 29Q243 23 239 8L237 0H44Q41 8 41 14Q41 22 47 33L115 41V623H34Q31 630 31 637Q31 646 37 656L141 675Q158 666 169 653V229L386 457H342Q326 457 326 471Q326
477 330 492L332 500H518Q521 492 521 486Q521 478 515 467L447 459L309 314L436 96Q455 64 471 52T512 40Q530 40 546 42Q552 28 553 8Q524 -4 489 -4Q457 -4 434 15T382 82Z" />
<glyph unicode="l" glyph-name="l" horiz-adv-x="284" d="M247 0H34Q31 8 31 14Q31 22 37 33L115 41V623H29Q26 630 26 637Q26 646 32 656L141 675Q158 666 169 653V43H237Q253 43 253 29Q253 23 249 8L247 0Z" />
<glyph unicode="m" glyph-name="m" horiz-adv-x="877" d="M845 0H652Q649 8 649 14Q649 22 655 33L723 41V325Q723 466 623 466Q580 466 546 441T493 370T473 266V43H531Q547 43 547 29Q547 23 543 8L541 0H348Q345 8 345 14Q345 22 351 33L419 41V325Q419 466
319 466Q276 466 242 441T189 370T169 266V43H227Q243 43 243 29Q243 23 239 8L237 0H44Q41 8 41 14Q41 22 47 33L115 41V453H39Q36 460 36 467Q36 476 42 486L141 505Q158 496 169 483L163 399Q216 510 326 510Q442 510 459 392Q514 510 629 510Q701 510 739 463T777
325V43H835Q851 43 851 29Q851 23 847 8L845 0Z" />
<glyph unicode="n" glyph-name="n" horiz-adv-x="616" d="M584 0H391Q388 8 388 14Q388 22 394 33L462 41V325Q462 466 343 466Q296 466 257 439T193 366T169 266V43H227Q243 43 243 29Q243 23 239 8L237 0H44Q41 8 41 14Q41 22 47 33L115 41V453H39Q36 460 36
467Q36 476 42 486L141 505Q158 496 169 483L162 383Q190 444 239 477T352 510Q432 510 474 463T516 325V43H574Q590 43 590 29Q590 23 586 8L584 0Z" />
<glyph unicode="o" glyph-name="o" horiz-adv-x="548" d="M274 34Q326 34 365 61T426 137T448 250Q448 314 427 363T366 439T274 466Q222 466 183 439T122 363T100 250Q100 186 121 137T182 61T274 34ZM274 -10Q204 -10 153 22T72 113T43 250Q43 328 72 386T152
477T274 510Q344 510 395 478T476 387T505 250Q505 172 476 114T396 23T274 -10Z" />
<glyph unicode="p" glyph-name="p" horiz-adv-x="555" d="M277 -185H34Q31 -178 31 -171Q31 -162 37 -152L105 -144V437Q72 426 46 413Q32 430 29 450Q76 477 140 493T261 510Q336 510 392 478T480 388T512 253Q512 175 484 116T405 23T288 -10Q214 -10 159 30V-142H267Q283
-142 283 -156Q283 -162 279 -177L277 -185ZM159 452V82Q220 35 288 35Q338 35 375 62T434 138T455 251Q455 348 401 406T257 465Q234 465 209 462T159 452Z" />
<glyph unicode="q" glyph-name="q" horiz-adv-x="563" d="M541 -185H318Q315 -178 315 -171Q315 -162 321 -152L419 -144V100Q391 49 345 20T243 -10Q184 -10 139 22T69 112T43 245Q43 325 72 384T154 477T278 510Q319 510 356 495T423 454L435 503Q443 505 454
505Q465 505 473 503V-142H531Q547 -142 547 -156Q547 -162 543 -177L541 -185ZM419 234V407Q352 465 278 465Q196 465 148 406T100 245Q100 183 119 136T171 61T248 34Q294 34 333 61T395 134T419 234Z" />
<glyph unicode="r" glyph-name="r" horiz-adv-x="446" d="M277 0H44Q41 8 41 14Q41 22 47 33L115 41V453H39Q36 460 36 467Q36 476 42 486L141 505Q158 496 169 483L156 361Q183 427 231 466T336 506Q347 506 361 505T388 500Q399 487 407 470L409 361Q402 358
394 358Q384 358 375 364L353 461Q349 462 346 462T339 462Q296 462 257 433T194 356T169 256V43H267Q283 43 283 29Q283 23 279 8L277 0Z" />
<glyph unicode="s" glyph-name="s" horiz-adv-x="467" d="M61 53L59 162Q66 165 74 165Q84 165 93 159L114 56Q163 34 227 34Q289 34 325 60T361 130Q361 166 334 191T247 233Q180 252 141 272T86 319T69 383Q69 442 114 476T239 510Q275 510 313 503T371 485Q382
472 390 455L392 356Q384 353 377 353Q367 353 358 359L337 451Q294 467 242 467Q123 467 123 383Q123 360 134 344T175 313T255 283Q339 258 377 222T416 130Q416 65 366 28T227 -10Q185 -10 146 -1T80 23Q69 36 61 53Z" />
<glyph unicode="t" glyph-name="t" horiz-adv-x="350" d="M91 148V456H15Q12 464 12 470Q12 480 18 490L91 499L107 604Q115 606 126 606Q133 606 145 604V500H283Q299 500 299 486Q299 480 295 465L293 456H145V168Q145 121 150 93T173 51T228 38Q246 38 268
41T313 50Q322 34 324 12Q303 2 273 -4T213 -10Q154 -10 123 24T91 148Z" />
<glyph unicode="u" glyph-name="u" horiz-adv-x="606" d="M564 14L465 -5Q448 4 437 17L444 117Q416 56 368 23T257 -10Q182 -10 141 38T100 175V453H24Q21 460 21 467Q21 476 27 486L126 505Q143 496 154 483V175Q154 108 183 71T264 34Q310 34 349 61T413 134T437
234V453H361Q358 460 358 467Q358 476 364 486L463 505Q480 496 491 483V47H567Q570 40 570 33Q570 24 564 14Z" />
<glyph unicode="v" glyph-name="v" horiz-adv-x="577" d="M268 -2L80 457H22Q6 457 6 471Q6 477 10 492L12 500H207Q210 492 210 486Q210 478 204 467L136 459L292 71L445 457H387Q371 457 371 471Q371 477 375 492L377 500H569Q572 492 572 486Q572 478 566 467L498
459L310 -2Q302 -4 289 -4Q276 -4 268 -2Z" />
<glyph unicode="w" glyph-name="w" horiz-adv-x="830" d="M560 -2L415 406L270 -2Q262 -4 249 -4Q236 -4 228 -2L80 457H22Q6 457 6 471Q6 477 10 492L12 500H208Q211 492 211 486Q211 478 205 467L137 459L252 81L397 500Q405 502 418 502Q431 502 439 500L583
86L698 457H640Q624 457 624 471Q624 477 628 492L630 500H822Q825 492 825 486Q825 478 819 467L751 459L602 -2Q594 -4 581 -4Q568 -4 560 -2Z" />
<glyph unicode="x" glyph-name="x" horiz-adv-x="567" d="M549 0H355Q352 8 352 14Q352 22 358 33L421 41L280 226L142 43H190Q206 43 206 29Q206 23 202 8L200 0H15Q12 8 12 14Q12 22 18 33L86 41L251 260L105 457H47Q31 457 31 471Q31 477 35 492L37 500H227Q230
492 230 486Q230 478 224 467L165 459L287 293L408 457H364Q348 457 348 471Q348 477 352 492L354 500H535Q538 492 538 486Q538 478 532 467L464 459L316 260L481 43H539Q555 43 555 29Q555 23 551 8L549 0Z" />
<glyph unicode="y" glyph-name="y" horiz-adv-x="577" d="M262 -3L80 457H22Q6 457 6 471Q6 477 10 492L12 500H207Q210 492 210 486Q210 478 204 467L136 459L289 60L445 457H387Q371 457 371 471Q371 477 375 492L377 500H569Q572 492 572 486Q572 478 566 467L498
459L321 27Q294 -38 261 -86T180 -163T63 -196Q59 -189 58 -181T56 -167Q56 -160 57 -155Q137 -144 186 -100T262 -3Z" />
<glyph unicode="z" glyph-name="z" horiz-adv-x="480" d="M409 0H59Q47 14 40 31L353 456H121L101 366Q92 360 82 360Q74 360 67 363L69 474Q79 489 93 500H404Q416 486 423 469L110 44H381L401 140Q410 146 420 146Q428 146 435 143L433 26Q423 11 409 0Z" />
<glyph unicode="{" glyph-name="braceleft" horiz-adv-x="338" d="M304 -106H247Q187 -106 154 -74T121 20Q121 34 122 51T126 91Q128 111 129 131T130 170Q130 210 110 232T53 255Q50 266 50 278Q50 290 53 301Q90 301 110 323T130 386Q130 404 129 424T126 465Q124
487 123 504T121 536Q121 597 154 629T247 662H304Q308 656 308 646Q308 635 301 626L249 622Q211 619 194 600T177 539Q177 525 178 508T182 468Q184 448 185 428T186 389Q186 342 166 314T112 278Q146 269 166 242T186 167Q186 149 185 129T182 88Q180 66 179
49T177 17Q177 -25 194 -44T249 -66L301 -70Q308 -79 308 -90Q308 -100 304 -106Z" />
<glyph unicode="|" glyph-name="bar" horiz-adv-x="298" d="M124 -182V663Q133 666 139 667T150 668Q158 668 174 665V-180Q165 -183 159 -184T148 -185Q140 -185 124 -182Z" />
<glyph unicode="}" glyph-name="braceright" horiz-adv-x="338" d="M91 -106H34Q30 -100 30 -90Q30 -79 37 -70L89 -66Q127 -63 144 -44T161 17Q161 31 160 48T156 88Q154 108 153 128T152 167Q152 214 171 241T225 278Q191 286 172 314T152 389Q152 407 153 427T156
468Q158 490 159 507T161 539Q161 581 144 600T89 622L37 626Q30 635 30 646Q30 656 34 662H91Q151 662 184 630T217 536Q217 522 216 505T212 465Q210 445 209 425T208 386Q208 346 228 324T285 301Q288 290 288 278Q288 266 285 255Q248 255 228 233T208 170Q208
152 209 132T212 91Q214 69 215 52T217 20Q217 -41 184 -73T91 -106Z" />
<glyph unicode="~" glyph-name="asciitilde" horiz-adv-x="560" d="M511 367Q493 314 459 286T379 258Q353 258 329 267T265 302Q233 322 216 329T180 336Q150 336 130 318T88 253Q66 261 49 277Q67 330 101 358T181 386Q207 386 231 377T295 342Q327 322 344
315T380 308Q410 308 430 326T472 391Q494 383 511 367Z" />
<glyph unicode="&#xa0;" glyph-name="uni00A0" horiz-adv-x="250" />
<glyph unicode="&#xa1;" glyph-name="exclamdown" horiz-adv-x="220" d="M81 -145L82 214L91 330Q101 332 110 332Q119 332 129 330L138 214L139 -145Q133 -146 125 -146T110 -147Q104 -147 96 -147T81 -145ZM160 463Q160 442 147 429T110 416Q87 416 74 429T60
463Q60 484 73 497T110 510Q133 510 146 497T160 463Z" />
<glyph unicode="&#xa2;" glyph-name="cent" horiz-adv-x="560" d="M279 -68L284 63Q194 74 141 143T87 322Q87 432 140 501T284 580L279 712Q284 713 291 713T305 714Q312 714 319 714T331 712L326 582Q357 580 388 573T444 555Q455 542 463 525L465 411Q458 408
450 408Q440 408 431 414L408 521Q369 537 314 537Q263 537 225 510T165 435T144 322Q144 224 192 167T324 110Q359 110 394 118T456 140Q464 132 468 123T473 103Q439 85 403 75T326 62L331 -68Q326 -69 319 -69T305 -70Q298 -70 291 -70T279 -68Z" />
<glyph unicode="&#xa3;" glyph-name="sterling" horiz-adv-x="560" d="M482 0H83Q71 14 64 31Q88 49 116 76T164 139T184 219Q184 238 180 259T164 312L59 306Q58 310 58 317T57 331Q57 338 57 345T59 356L148 351Q136 385 132 412T128 468Q128 554 179 604T318
655Q372 655 420 630T499 559Q494 548 487 542T467 529Q396 609 318 609Q254 609 218 572T181 468Q181 442 186 417T205 350L389 357Q390 352 390 346T391 332Q391 324 391 318T389 307L219 313Q229 284 233 263T237 219Q237 169 211 122T138 46H447L472 160Q481
167 492 167Q502 167 508 163L506 26Q496 11 482 0Z" />
<glyph unicode="&#xa4;" glyph-name="currency" horiz-adv-x="560" d="M474 92L389 185Q367 171 340 163T280 155Q248 155 221 163T171 185L86 92Q78 96 68 107T49 129L139 213Q102 256 102 323Q102 390 139 433L49 517Q57 528 67 539T86 554L171 461Q193 475
220 483T280 491Q312 491 339 483T389 461L474 554Q482 550 492 539T511 517L421 433Q458 390 458 323Q458 256 421 213L511 129Q503 118 493 107T474 92ZM280 201Q338 201 369 232T401 323Q401 382 370 413T280 445Q222 445 191 414T159 323Q159 264 190 233T280
201Z" />
<glyph unicode="&#xa5;" glyph-name="yen" horiz-adv-x="560" d="M404 0H151Q147 6 147 16Q147 27 154 36L251 44V180L81 174Q80 178 80 185T79 199Q79 206 79 213T81 224L251 218V253L221 309L68 304Q67 308 67 315T66 329Q66 336 66 343T68 354L200 349L69 599H11Q-5
599 -5 613Q-5 620 0 637L2 645H185Q189 639 189 629Q189 618 182 609L130 601L281 298L434 599H391Q375 599 375 613Q375 620 380 637L382 645H560Q564 639 564 629Q564 618 557 609L490 601L357 349L490 354Q491 350 491 343T492 329Q492 322 492 315T490 304L336
309L307 253V218L477 224Q478 220 478 213T479 199Q479 192 479 185T477 174L307 180V46H395Q411 46 411 32Q411 25 406 8L404 0Z" />
<glyph unicode="&#xa6;" glyph-name="brokenbar" horiz-adv-x="298" d="M124 311V663Q133 666 139 667T150 668Q158 668 174 665V313Q165 310 159 309T148 308Q140 308 124 311ZM124 -182V170Q133 173 139 174T150 175Q158 175 174 172V-180Q165 -183 159 -184T148
-185Q140 -185 124 -182Z" />
<glyph unicode="&#xa7;" glyph-name="section" horiz-adv-x="483" d="M242 -131Q206 -131 167 -124T109 -106Q98 -93 90 -76L88 23Q96 26 103 26Q113 26 122 20L143 -72Q186 -88 238 -88Q293 -88 324 -66T356 -4Q356 31 328 58T229 117Q159 148 119 175T62 233T45
303Q45 388 146 436Q104 464 88 490T72 553Q72 610 118 645T241 680Q277 680 315 673T374 655Q385 642 393 625L395 526Q388 523 380 523Q370 523 361 529L340 621Q297 637 245 637Q190 637 159 615T127 553Q127 518 155 491T254 432Q324 401 364 374T421 316T438
246Q438 160 336 113Q378 85 394 59T411 -4Q411 -61 365 -96T242 -131ZM250 380Q231 388 215 396T185 412Q146 396 123 367T100 303Q100 264 130 234T233 169Q251 160 267 152T297 136Q336 152 359 181T383 246Q383 285 354 315T250 380Z" />
<glyph unicode="&#xa8;" glyph-name="dieresis" horiz-adv-x="616" d="M265 632Q265 614 253 603T222 592Q203 592 191 603T179 632Q179 650 191 661T222 672Q241 672 253 661T265 632ZM437 632Q437 614 425 603T394 592Q375 592 363 603T351 632Q351 650 363
661T394 672Q413 672 425 661T437 632Z" />
<glyph unicode="&#xa9;" glyph-name="copyright" horiz-adv-x="762" d="M381 -10Q280 -10 206 31T91 146T50 323Q50 424 90 499T205 614T381 655Q482 655 556 615T671 499T712 323Q712 222 672 147T557 31T381 -10ZM381 32Q466 32 528 67T623 168T657 323Q657
412 624 477T528 578T381 613Q296 613 234 578T139 478T105 323Q105 234 138 169T234 68T381 32ZM475 375L456 460Q427 470 398 470Q346 470 313 429T279 322Q279 255 312 216T405 177Q429 177 456 183T501 198Q513 182 515 164Q489 150 457 142T392 133Q316 133
270 184T224 322Q224 410 271 461T398 512Q420 512 446 507T488 492Q499 479 507 462L509 372Q502 369 494 369Q484 369 475 375Z" />
<glyph unicode="&#xaa;" glyph-name="ordfeminine" horiz-adv-x="387" d="M361 310L280 295Q266 302 256 312L259 360Q240 328 208 310T137 291Q91 291 62 318T32 390Q32 440 72 468T181 497Q196 497 217 496T257 491V506Q257 562 236 588T169 614Q110 614 66
582Q58 586 54 595T48 614Q108 655 175 655Q304 655 304 516V339H364Q367 333 367 327Q367 318 361 310ZM257 444V455Q241 457 222 458T188 460Q82 460 82 390Q82 363 99 347T146 331Q176 331 201 346T241 388T257 444ZM344 177H41Q38 186 38 195Q38 206 43 219H346Q349
210 349 201Q349 190 344 177Z" />
<glyph unicode="&#xab;" glyph-name="guillemotleft" horiz-adv-x="554" d="M232 34L53 224Q50 240 50 250Q50 260 53 276L232 466Q252 455 263 440L101 252L264 61Q252 45 232 34ZM447 34L268 224Q265 240 265 250Q265 260 268 276L447 466Q467 455 478 440L316
252L479 61Q467 45 447 34Z" />
<glyph unicode="&#xac;" glyph-name="logicalnot" horiz-adv-x="560" d="M446 225V375H67Q64 392 64 398Q64 407 69 423H496V227Q487 224 481 223T470 222Q462 222 446 225Z" />
<glyph unicode="&#xad;" glyph-name="uni00AD" horiz-adv-x="344" d="M290 235L56 213Q51 226 51 242Q51 256 54 265L288 287Q293 274 293 258Q293 244 290 235Z" />
<glyph unicode="&#xae;" glyph-name="registered" horiz-adv-x="570" d="M520 421Q520 350 491 298T409 216T285 187Q214 187 162 216T80 298T50 421Q50 492 79 544T161 626T285 655Q356 655 408 626T490 545T520 421ZM285 221Q374 221 426 275T479 421Q479 512
427 566T285 621Q196 621 144 567T91 421Q91 330 143 276T285 221ZM325 328L283 398H240V325H260Q272 325 272 316Q272 312 270 306L267 296H173Q172 300 172 302T171 306Q171 315 175 320L203 323V523H183Q171 523 171 532Q171 536 173 542L176 552H296Q331 552
354 531T378 475Q378 447 362 428T321 401L352 351Q362 335 369 330T387 324Q390 324 393 324T401 326Q409 316 409 302Q392 294 377 294Q360 294 349 301T325 328ZM240 427H281Q339 427 339 475Q339 523 281 523H240V427Z" />
<glyph unicode="&#xaf;" glyph-name="overscore" horiz-adv-x="616" d="M437 610H177Q174 622 174 631Q174 640 179 655H439Q442 643 442 634Q442 625 437 610Z" />
<glyph unicode="&#xb0;" glyph-name="degree" horiz-adv-x="392" d="M196 396Q241 396 269 425T297 503Q297 552 269 581T196 610Q151 610 123 581T95 503Q95 454 123 425T196 396ZM352 503Q352 436 308 394T196 351Q128 351 84 393T40 503Q40 570 84 612T196
655Q264 655 308 613T352 503Z" />
<glyph unicode="&#xb1;" glyph-name="plusminus" horiz-adv-x="560" d="M492 0H66Q63 16 63 23Q63 32 68 48H494Q497 32 497 25Q497 16 492 0ZM492 299H305V110Q296 107 290 106T279 105Q272 105 255 108V299H66Q63 311 63 320Q63 329 68 345H255V534Q264 537
270 538T281 539Q288 539 305 536V345H494Q497 333 497 324Q497 315 492 299Z" />
<glyph unicode="&#xb2;" glyph-name="uni00B2" horiz-adv-x="348" d="M267 401H61Q47 412 37 427V433Q37 467 57 496T135 567Q180 600 198 621T216 664Q216 688 201 701T157 715Q111 715 72 671Q53 681 46 697Q63 723 93 739T157 755Q205 755 234 730T263 664Q263
633 242 606T168 541Q122 508 104 486T83 440H245L262 508Q269 513 278 513Q285 513 293 509L291 427Q281 412 267 401Z" />
<glyph unicode="&#xb3;" glyph-name="uni00B3" horiz-adv-x="348" d="M281 718L187 609Q237 607 263 577T290 505Q290 454 253 423T154 391Q123 391 93 399T41 424Q44 443 58 458Q81 445 106 438T153 431Q194 431 218 451T243 506Q243 535 225 554T173 573Q157
573 147 570Q134 584 129 596L222 707H98L81 642Q74 637 65 637Q58 637 50 641L52 718Q53 724 59 732T72 745H261Q267 740 273 732T281 718Z" />
<glyph unicode="&#xb4;" glyph-name="acute" horiz-adv-x="616" d="M346 644L247 556Q229 568 220 581L307 683L358 735Q371 724 379 717T397 697L346 644Z" />
<glyph unicode="&#xb5;" glyph-name="mu" horiz-adv-x="602" d="M569 14L470 -5Q453 4 442 17V122Q394 -10 269 -10Q177 -10 134 63L149 -171Q151 -189 129 -191L90 -195V500L123 505Q140 496 151 483L144 398V190Q144 146 161 111T208 55T275 34Q316 34 351 61T406
134T427 234V500L460 505Q477 496 488 483L481 398V190L496 47H572Q575 40 575 33Q575 24 569 14Z" />
<glyph unicode="&#xb6;" glyph-name="paragraph" horiz-adv-x="545" d="M380 -120V602H284V-120Q279 -121 273 -121T259 -122Q252 -122 246 -122T234 -120V245H204Q152 245 112 269T48 339T25 445Q25 506 48 551T111 620T204 645H501Q504 638 504 631Q504 622
498 612L430 604V-120Q425 -121 419 -121T405 -122Q398 -122 392 -122T380 -120Z" />
<glyph unicode="&#xb7;" glyph-name="middot" horiz-adv-x="220" d="M160 250Q160 229 147 216T110 203Q87 203 74 216T60 250Q60 271 73 284T110 297Q133 297 146 284T160 250Z" />
<glyph unicode="&#xb8;" glyph-name="cedilla" horiz-adv-x="616" d="M265 -75L303 10H340L317 -66Q352 -71 372 -92T392 -145Q392 -182 364 -205T288 -228Q253 -228 224 -213Q224 -195 233 -180Q256 -190 281 -190Q340 -190 340 -148Q340 -126 323 -114T275 -102Q267
-89 265 -75Z" />
<glyph unicode="&#xb9;" glyph-name="uni00B9" horiz-adv-x="348" d="M288 401H65Q64 403 63 407T62 415Q62 424 67 432L155 437V691L68 645Q64 650 59 658T53 675L174 753Q194 749 203 742V437H279Q294 437 294 425Q294 420 290 407L288 401Z" />
<glyph unicode="&#xba;" glyph-name="ordmasculine" horiz-adv-x="402" d="M201 332Q252 332 283 370T314 473Q314 537 283 575T201 614Q150 614 119 576T88 473Q88 409 119 371T201 332ZM201 291Q126 291 81 340T35 473Q35 556 80 605T201 655Q276 655 321 606T367
473Q367 390 322 341T201 291ZM347 177H54Q51 186 51 195Q51 206 56 219H349Q352 210 352 201Q352 190 347 177Z" />
<glyph unicode="&#xbb;" glyph-name="guillemotright" horiz-adv-x="554" d="M286 224L107 34Q87 45 76 60L238 248L75 439Q87 455 107 466L286 276Q289 260 289 250Q289 240 286 224ZM501 224L322 34Q302 45 291 60L453 248L290 439Q302 455 322 466L501 276Q504
260 504 250Q504 240 501 224Z" />
<glyph unicode="&#xbf;" glyph-name="questiondown" horiz-adv-x="471" d="M347 -88L377 39Q386 45 396 45Q404 45 411 42L410 -89Q407 -96 402 -104T391 -119Q358 -136 317 -145T236 -155Q151 -155 101 -113T50 0Q50 45 73 82T148 163Q188 195 209 215T239 250T250
280L255 330Q265 332 274 332Q283 332 293 330L297 280Q299 258 295 243T270 208T207 150Q150 101 128 68T106 0Q106 -50 142 -79T239 -109Q302 -109 347 -88ZM324 463Q324 442 311 429T274 416Q251 416 238 429T224 463Q224 484 237 497T274 510Q297 510 310 497T324
463Z" />
<glyph unicode="&#xc0;" glyph-name="Agrave" horiz-adv-x="672" d="M658 0H463Q459 6 459 16Q459 27 466 36L533 44L469 210H197L135 46H193Q209 46 209 32Q209 25 204 8L202 0H10Q6 6 6 16Q6 27 13 36L80 44L314 647Q324 649 336 649Q348 649 358 647L591 46H649Q665
46 665 32Q665 25 660 8L658 0ZM452 255L333 569L214 255H452ZM379 692L270 765L212 811Q220 824 227 833T247 855L304 812L405 723Q398 708 379 692Z" />
<glyph unicode="&#xc1;" glyph-name="Aacute" horiz-adv-x="672" d="M658 0H463Q459 6 459 16Q459 27 466 36L533 44L469 210H197L135 46H193Q209 46 209 32Q209 25 204 8L202 0H10Q6 6 6 16Q6 27 13 36L80 44L314 647Q324 649 336 649Q348 649 358 647L591 46H649Q665
46 665 32Q665 25 660 8L658 0ZM452 255L333 569L214 255H452ZM460 811L402 765L293 692Q274 708 267 723L368 812L425 855Q438 842 445 833T460 811Z" />
<glyph unicode="&#xc2;" glyph-name="Acircumflex" horiz-adv-x="672" d="M658 0H463Q459 6 459 16Q459 27 466 36L533 44L469 210H197L135 46H193Q209 46 209 32Q209 25 204 8L202 0H10Q6 6 6 16Q6 27 13 36L80 44L314 647Q324 649 336 649Q348 649 358 647L591
46H649Q665 46 665 32Q665 25 660 8L658 0ZM452 255L333 569L214 255H452ZM450 692L335 777L220 692Q202 707 195 722L315 831Q320 832 325 832T336 833Q341 833 346 833T357 831L476 723Q469 708 450 692Z" />
<glyph unicode="&#xc3;" glyph-name="Atilde" horiz-adv-x="672" d="M658 0H463Q459 6 459 16Q459 27 466 36L533 44L469 210H197L135 46H193Q209 46 209 32Q209 25 204 8L202 0H10Q6 6 6 16Q6 27 13 36L80 44L314 647Q324 649 336 649Q348 649 358 647L591 46H649Q665
46 665 32Q665 25 660 8L658 0ZM452 255L333 569L214 255H452ZM475 797Q465 765 443 747T390 729Q374 729 360 734T324 753Q308 764 299 767T282 770Q251 770 230 730Q209 740 197 750Q207 782 229 800T282 818Q298 818 312 813T348 794Q364 784 373 781T390 777Q421
777 442 817Q463 807 475 797Z" />
<glyph unicode="&#xc4;" glyph-name="Adieresis" horiz-adv-x="672" d="M658 0H463Q459 6 459 16Q459 27 466 36L533 44L469 210H197L135 46H193Q209 46 209 32Q209 25 204 8L202 0H10Q6 6 6 16Q6 27 13 36L80 44L314 647Q324 649 336 649Q348 649 358 647L591
46H649Q665 46 665 32Q665 25 660 8L658 0ZM452 255L333 569L214 255H452ZM295 773Q295 754 283 743T251 732Q231 732 219 743T207 773Q207 792 219 803T251 814Q271 814 283 803T295 773ZM465 773Q465 754 453 743T421 732Q401 732 389 743T377 773Q377 792 389
803T421 814Q441 814 453 803T465 773Z" />
<glyph unicode="&#xc5;" glyph-name="Aring" horiz-adv-x="672" d="M658 0H463Q459 6 459 16Q459 27 466 36L533 44L469 210H197L135 46H193Q209 46 209 32Q209 25 204 8L202 0H10Q6 6 6 16Q6 27 13 36L80 44L314 647Q324 649 336 649Q348 649 358 647L591 46H649Q665
46 665 32Q665 25 660 8L658 0ZM452 255L333 569L214 255H452ZM437 805Q437 762 410 736T336 710Q290 710 263 736T235 805Q235 848 262 874T336 900Q382 900 409 874T437 805ZM336 748Q362 748 377 763T393 805Q393 831 378 846T336 862Q310 862 295 847T279 805Q279
779 294 764T336 748Z" />
<glyph unicode="&#xc6;" glyph-name="AE" horiz-adv-x="915" d="M839 0H389Q385 6 385 16Q385 27 392 36L459 44V211H215L134 46H192Q208 46 208 32Q208 25 203 8L201 0H4Q0 6 0 16Q0 27 7 36L74 44L352 599H305Q289 599 289 613Q289 620 294 637L296 645H829Q843
634 853 619L855 487Q849 483 839 483Q828 483 819 490L794 599H515V352H700L709 405Q712 423 726 423Q730 423 742 418L748 415V239Q742 235 732 235Q721 235 712 242L700 307H515V46H804L829 155Q838 162 849 162Q859 162 865 158L863 26Q853 11 839 0ZM459 254V599H406L236
254H459Z" />
<glyph unicode="&#xc7;" glyph-name="Ccedilla" horiz-adv-x="593" d="M503 460L475 582Q410 608 348 608Q276 608 222 573T139 473T109 323Q109 236 139 173T226 76T360 41Q449 41 531 83Q545 66 550 43Q513 19 459 5T351 -10Q260 -10 193 31T88 147T50 323Q50
423 86 497T189 613T344 655Q385 655 431 645T518 617Q524 610 529 602T537 587L539 457Q533 453 523 453Q512 453 503 460ZM288 -74L326 10H365L342 -65Q377 -70 397 -91T417 -146Q417 -184 388 -206T312 -229Q278 -229 247 -213Q247 -198 257 -179Q280 -189 305
-189Q363 -189 363 -148Q363 -103 299 -103Q290 -87 288 -74Z" />
<glyph unicode="&#xc8;" glyph-name="Egrave" horiz-adv-x="596" d="M520 0H55Q51 6 51 16Q51 27 58 36L125 44V599H67Q51 599 51 613Q51 620 56 637L58 645H510Q524 634 534 619L536 487Q530 483 520 483Q509 483 500 490L475 599H181V352H381L390 405Q393 423
407 423Q411 423 423 418L429 415V239Q423 235 413 235Q402 235 393 242L381 307H181V46H485L510 155Q519 162 530 162Q540 162 546 158L544 26Q534 11 520 0ZM358 692L249 765L191 811Q199 824 206 833T226 855L283 812L384 723Q377 708 358 692Z" />
<glyph unicode="&#xc9;" glyph-name="Eacute" horiz-adv-x="596" d="M520 0H55Q51 6 51 16Q51 27 58 36L125 44V599H67Q51 599 51 613Q51 620 56 637L58 645H510Q524 634 534 619L536 487Q530 483 520 483Q509 483 500 490L475 599H181V352H381L390 405Q393 423
407 423Q411 423 423 418L429 415V239Q423 235 413 235Q402 235 393 242L381 307H181V46H485L510 155Q519 162 530 162Q540 162 546 158L544 26Q534 11 520 0ZM439 811L381 765L272 692Q253 708 246 723L347 812L404 855Q417 842 424 833T439 811Z" />
<glyph unicode="&#xca;" glyph-name="Ecircumflex" horiz-adv-x="596" d="M520 0H55Q51 6 51 16Q51 27 58 36L125 44V599H67Q51 599 51 613Q51 620 56 637L58 645H510Q524 634 534 619L536 487Q530 483 520 483Q509 483 500 490L475 599H181V352H381L390 405Q393
423 407 423Q411 423 423 418L429 415V239Q423 235 413 235Q402 235 393 242L381 307H181V46H485L510 155Q519 162 530 162Q540 162 546 158L544 26Q534 11 520 0ZM429 692L314 777L199 692Q181 707 174 722L294 831Q299 832 304 832T315 833Q320 833 325 833T336
831L455 723Q448 708 429 692Z" />
<glyph unicode="&#xcb;" glyph-name="Edieresis" horiz-adv-x="596" d="M520 0H55Q51 6 51 16Q51 27 58 36L125 44V599H67Q51 599 51 613Q51 620 56 637L58 645H510Q524 634 534 619L536 487Q530 483 520 483Q509 483 500 490L475 599H181V352H381L390 405Q393
423 407 423Q411 423 423 418L429 415V239Q423 235 413 235Q402 235 393 242L381 307H181V46H485L510 155Q519 162 530 162Q540 162 546 158L544 26Q534 11 520 0ZM274 773Q274 754 262 743T230 732Q210 732 198 743T186 773Q186 792 198 803T230 814Q250 814 262
803T274 773ZM444 773Q444 754 432 743T400 732Q380 732 368 743T356 773Q356 792 368 803T400 814Q420 814 432 803T444 773Z" />
<glyph unicode="&#xcc;" glyph-name="Igrave" horiz-adv-x="306" d="M258 0H45Q41 6 41 16Q41 27 48 36L125 44V599H57Q41 599 41 613Q41 620 46 637L48 645H261Q265 639 265 629Q265 618 258 609L181 601V46H249Q265 46 265 32Q265 25 260 8L258 0ZM196 692L87
765L29 811Q37 824 44 833T64 855L121 812L222 723Q215 708 196 692Z" />
<glyph unicode="&#xcd;" glyph-name="Iacute" horiz-adv-x="306" d="M258 0H45Q41 6 41 16Q41 27 48 36L125 44V599H57Q41 599 41 613Q41 620 46 637L48 645H261Q265 639 265 629Q265 618 258 609L181 601V46H249Q265 46 265 32Q265 25 260 8L258 0ZM277 811L219
765L110 692Q91 708 84 723L185 812L242 855Q255 842 262 833T277 811Z" />
<glyph unicode="&#xce;" glyph-name="Icircumflex" horiz-adv-x="306" d="M258 0H45Q41 6 41 16Q41 27 48 36L125 44V599H57Q41 599 41 613Q41 620 46 637L48 645H261Q265 639 265 629Q265 618 258 609L181 601V46H249Q265 46 265 32Q265 25 260 8L258 0ZM267
692L152 777L37 692Q19 707 12 722L132 831Q137 832 142 832T153 833Q158 833 163 833T174 831L293 723Q286 708 267 692Z" />
<glyph unicode="&#xcf;" glyph-name="Idieresis" horiz-adv-x="306" d="M258 0H45Q41 6 41 16Q41 27 48 36L125 44V599H57Q41 599 41 613Q41 620 46 637L48 645H261Q265 639 265 629Q265 618 258 609L181 601V46H249Q265 46 265 32Q265 25 260 8L258 0ZM112 773Q112
754 100 743T68 732Q48 732 36 743T24 773Q24 792 36 803T68 814Q88 814 100 803T112 773ZM282 773Q282 754 270 743T238 732Q218 732 206 743T194 773Q194 792 206 803T238 814Q258 814 270 803T282 773Z" />
<glyph unicode="&#xd0;" glyph-name="Eth" horiz-adv-x="674" d="M327 0H55Q51 6 51 16Q51 27 58 36L125 44V305H54Q51 317 51 325Q51 334 56 349H125V599H67Q51 599 51 613Q51 620 56 637L58 645H327Q417 645 483 606T587 495T624 323Q624 223 587 151T484 39T327
0ZM181 46H327Q402 46 455 80T536 177T565 323Q565 406 537 468T455 564T327 599H181V349H349Q352 337 352 329Q352 320 347 305H181V46Z" />
<glyph unicode="&#xd1;" glyph-name="Ntilde" horiz-adv-x="711" d="M556 -5L177 556V46H235Q251 46 251 32Q251 25 246 8L244 0H55Q51 6 51 16Q51 27 58 36L125 44V599H67Q51 599 51 613Q51 620 56 637L58 645H182L544 109V599H486Q470 599 470 613Q470 620 475
637L477 645H666Q670 639 670 629Q670 618 663 609L596 601V5Q587 1 577 -1T556 -5ZM491 797Q481 765 459 747T406 729Q390 729 376 734T340 753Q324 764 315 767T298 770Q267 770 246 730Q225 740 213 750Q223 782 245 800T298 818Q314 818 328 813T364 794Q380
784 389 781T406 777Q437 777 458 817Q479 807 491 797Z" />
<glyph unicode="&#xd2;" glyph-name="Ograve" horiz-adv-x="694" d="M347 37Q419 37 472 72T555 172T585 323Q585 409 556 473T473 572T347 608Q275 608 222 573T139 473T109 323Q109 236 138 172T221 73T347 37ZM347 -10Q258 -10 191 31T87 147T50 323Q50 423
87 497T191 613T347 655Q436 655 503 614T607 498T644 323Q644 222 607 148T503 32T347 -10ZM390 692L281 765L223 811Q231 824 238 833T258 855L315 812L416 723Q409 708 390 692Z" />
<glyph unicode="&#xd3;" glyph-name="Oacute" horiz-adv-x="694" d="M347 37Q419 37 472 72T555 172T585 323Q585 409 556 473T473 572T347 608Q275 608 222 573T139 473T109 323Q109 236 138 172T221 73T347 37ZM347 -10Q258 -10 191 31T87 147T50 323Q50 423
87 497T191 613T347 655Q436 655 503 614T607 498T644 323Q644 222 607 148T503 32T347 -10ZM471 811L413 765L304 692Q285 708 278 723L379 812L436 855Q449 842 456 833T471 811Z" />
<glyph unicode="&#xd4;" glyph-name="Ocircumflex" horiz-adv-x="694" d="M347 37Q419 37 472 72T555 172T585 323Q585 409 556 473T473 572T347 608Q275 608 222 573T139 473T109 323Q109 236 138 172T221 73T347 37ZM347 -10Q258 -10 191 31T87 147T50 323Q50
423 87 497T191 613T347 655Q436 655 503 614T607 498T644 323Q644 222 607 148T503 32T347 -10ZM461 692L346 777L231 692Q213 707 206 722L326 831Q331 832 336 832T347 833Q352 833 357 833T368 831L487 723Q480 708 461 692Z" />
<glyph unicode="&#xd5;" glyph-name="Otilde" horiz-adv-x="694" d="M347 37Q419 37 472 72T555 172T585 323Q585 409 556 473T473 572T347 608Q275 608 222 573T139 473T109 323Q109 236 138 172T221 73T347 37ZM347 -10Q258 -10 191 31T87 147T50 323Q50 423
87 497T191 613T347 655Q436 655 503 614T607 498T644 323Q644 222 607 148T503 32T347 -10ZM486 797Q476 765 454 747T401 729Q385 729 371 734T335 753Q319 764 310 767T293 770Q262 770 241 730Q220 740 208 750Q218 782 240 800T293 818Q309 818 323 813T359
794Q375 784 384 781T401 777Q432 777 453 817Q474 807 486 797Z" />
<glyph unicode="&#xd6;" glyph-name="Odieresis" horiz-adv-x="694" d="M347 37Q419 37 472 72T555 172T585 323Q585 409 556 473T473 572T347 608Q275 608 222 573T139 473T109 323Q109 236 138 172T221 73T347 37ZM347 -10Q258 -10 191 31T87 147T50 323Q50
423 87 497T191 613T347 655Q436 655 503 614T607 498T644 323Q644 222 607 148T503 32T347 -10ZM306 773Q306 754 294 743T262 732Q242 732 230 743T218 773Q218 792 230 803T262 814Q282 814 294 803T306 773ZM476 773Q476 754 464 743T432 732Q412 732 400 743T388
773Q388 792 400 803T432 814Q452 814 464 803T476 773Z" />
<glyph unicode="&#xd7;" glyph-name="multiply" horiz-adv-x="560" d="M435 133L279 289L123 133Q100 146 90 166L246 322L90 478Q106 501 125 511L281 355L437 511Q460 498 470 478L314 322L470 166Q454 143 435 133Z" />
<glyph unicode="&#xd8;" glyph-name="Oslash" horiz-adv-x="694" d="M154 58L97 -10Q86 -4 78 3T62 20L122 92Q88 135 69 193T50 323Q50 423 87 497T191 613T347 655Q463 655 540 587L597 655Q608 649 616 643T632 625L572 553Q606 510 625 452T644 323Q644 222
607 148T503 32T347 -10Q231 -10 154 58ZM159 135L505 546Q443 608 347 608Q275 608 222 573T139 473T109 323Q109 266 122 219T159 135ZM535 510L189 99Q251 37 347 37Q419 37 472 72T555 172T585 323Q585 379 572 426T535 510Z" />
<glyph unicode="&#xd9;" glyph-name="Ugrave" horiz-adv-x="698" d="M530 221V599H472Q456 599 456 613Q456 620 461 637L463 645H653Q657 639 657 629Q657 618 650 609L583 601V221Q583 145 552 94T468 16T349 -10Q284 -10 231 16T146 93T115 221V599H57Q41 599
41 613Q41 620 46 637L48 645H241Q245 639 245 629Q245 618 238 609L171 601V221Q171 142 216 90T349 37Q440 37 485 89T530 221ZM392 692L283 765L225 811Q233 824 240 833T260 855L317 812L418 723Q411 708 392 692Z" />
<glyph unicode="&#xda;" glyph-name="Uacute" horiz-adv-x="698" d="M530 221V599H472Q456 599 456 613Q456 620 461 637L463 645H653Q657 639 657 629Q657 618 650 609L583 601V221Q583 145 552 94T468 16T349 -10Q284 -10 231 16T146 93T115 221V599H57Q41 599
41 613Q41 620 46 637L48 645H241Q245 639 245 629Q245 618 238 609L171 601V221Q171 142 216 90T349 37Q440 37 485 89T530 221ZM473 811L415 765L306 692Q287 708 280 723L381 812L438 855Q451 842 458 833T473 811Z" />
<glyph unicode="&#xdb;" glyph-name="Ucircumflex" horiz-adv-x="698" d="M530 221V599H472Q456 599 456 613Q456 620 461 637L463 645H653Q657 639 657 629Q657 618 650 609L583 601V221Q583 145 552 94T468 16T349 -10Q284 -10 231 16T146 93T115 221V599H57Q41
599 41 613Q41 620 46 637L48 645H241Q245 639 245 629Q245 618 238 609L171 601V221Q171 142 216 90T349 37Q440 37 485 89T530 221ZM463 692L348 777L233 692Q215 707 208 722L328 831Q333 832 338 832T349 833Q354 833 359 833T370 831L489 723Q482 708 463
692Z" />
<glyph unicode="&#xdc;" glyph-name="Udieresis" horiz-adv-x="698" d="M530 221V599H472Q456 599 456 613Q456 620 461 637L463 645H653Q657 639 657 629Q657 618 650 609L583 601V221Q583 145 552 94T468 16T349 -10Q284 -10 231 16T146 93T115 221V599H57Q41
599 41 613Q41 620 46 637L48 645H241Q245 639 245 629Q245 618 238 609L171 601V221Q171 142 216 90T349 37Q440 37 485 89T530 221ZM308 773Q308 754 296 743T264 732Q244 732 232 743T220 773Q220 792 232 803T264 814Q284 814 296 803T308 773ZM478 773Q478
754 466 743T434 732Q414 732 402 743T390 773Q390 792 402 803T434 814Q454 814 466 803T478 773Z" />
<glyph unicode="&#xdd;" glyph-name="Yacute" horiz-adv-x="594" d="M422 0H169Q165 6 165 16Q165 27 172 36L269 44V230L67 599H9Q-7 599 -7 613Q-7 620 -2 637L0 645H198Q202 639 202 629Q202 618 195 609L128 601L301 278L472 599H414Q398 599 398 613Q398
620 403 637L405 645H598Q602 639 602 629Q602 618 595 609L528 601L325 230V46H413Q429 46 429 32Q429 25 424 8L422 0ZM421 811L363 765L254 692Q235 708 228 723L329 812L386 855Q399 842 406 833T421 811Z" />
<glyph unicode="&#xde;" glyph-name="Thorn" horiz-adv-x="555" d="M248 0H55Q51 6 51 16Q51 27 58 36L125 44V599H67Q51 599 51 613Q51 620 56 637L58 645H251Q255 639 255 629Q255 618 248 609L181 601V526H307Q370 526 413 508T483 461T522 398T535 330Q535
297 523 263T484 199T414 152T307 134H181V46H239Q255 46 255 32Q255 25 250 8L248 0ZM181 180H307Q385 180 430 220T476 330Q476 399 431 439T307 480H181V180Z" />
<glyph unicode="&#xdf;" glyph-name="germandbls" horiz-adv-x="576" d="M278 31L276 140Q284 143 291 143Q301 143 310 137L330 38Q343 36 357 35T386 34Q436 34 463 58T491 126Q491 165 471 195T404 257Q352 292 332 318T312 378Q312 403 323 423T364 471Q388
493 397 509T406 545Q406 585 376 610T296 636Q159 636 159 447V43H192Q208 43 208 29Q208 23 204 8L202 0H34Q31 8 31 14Q31 22 37 33L105 41V458Q105 566 154 623T296 680Q369 680 414 643T460 546Q460 518 448 495T406 444Q383 422 375 409T366 378Q366 362
380 344T433 299Q497 253 521 216T546 125Q546 63 503 27T386 -10Q338 -10 297 1Q286 14 278 31Z" />
<glyph unicode="&#xe0;" glyph-name="agrave" horiz-adv-x="523" d="M496 14L397 -5Q380 4 369 17L374 89Q342 42 296 16T193 -10Q124 -10 82 29T39 130Q39 201 95 240T255 280Q278 280 308 278T371 271V311Q371 465 232 465Q196 465 156 453T81 417Q74 423 68
434T62 454Q101 481 145 495T232 510Q423 510 423 311V47H499Q502 40 502 33Q502 24 496 14ZM371 188V228Q339 232 309 234T255 237Q176 237 135 211T94 132Q94 88 122 61T198 34Q242 34 281 56T346 113T371 188ZM277 556L178 644L127 697Q137 709 145 716T166
735L217 683L304 581Q295 568 277 556Z" />
<glyph unicode="&#xe1;" glyph-name="aacute" horiz-adv-x="523" d="M496 14L397 -5Q380 4 369 17L374 89Q342 42 296 16T193 -10Q124 -10 82 29T39 130Q39 201 95 240T255 280Q278 280 308 278T371 271V311Q371 465 232 465Q196 465 156 453T81 417Q74 423 68
434T62 454Q101 481 145 495T232 510Q423 510 423 311V47H499Q502 40 502 33Q502 24 496 14ZM371 188V228Q339 232 309 234T255 237Q176 237 135 211T94 132Q94 88 122 61T198 34Q242 34 281 56T346 113T371 188ZM292 644L193 556Q175 568 166 581L253 683L304
735Q317 724 325 717T343 697L292 644Z" />
<glyph unicode="&#xe2;" glyph-name="acircumflex" horiz-adv-x="523" d="M496 14L397 -5Q380 4 369 17L374 89Q342 42 296 16T193 -10Q124 -10 82 29T39 130Q39 201 95 240T255 280Q278 280 308 278T371 271V311Q371 465 232 465Q196 465 156 453T81 417Q74 423
68 434T62 454Q101 481 145 495T232 510Q423 510 423 311V47H499Q502 40 502 33Q502 24 496 14ZM371 188V228Q339 232 309 234T255 237Q176 237 135 211T94 132Q94 88 122 61T198 34Q242 34 281 56T346 113T371 188ZM350 556L235 660L118 556Q108 564 104 569T95
581L215 714Q219 715 225 715T236 716Q241 716 247 716T257 714L375 583Q367 569 350 556Z" />
<glyph unicode="&#xe3;" glyph-name="atilde" horiz-adv-x="523" d="M496 14L397 -5Q380 4 369 17L374 89Q342 42 296 16T193 -10Q124 -10 82 29T39 130Q39 201 95 240T255 280Q278 280 308 278T371 271V311Q371 465 232 465Q196 465 156 453T81 417Q74 423 68
434T62 454Q101 481 145 495T232 510Q423 510 423 311V47H499Q502 40 502 33Q502 24 496 14ZM371 188V228Q339 232 309 234T255 237Q176 237 135 211T94 132Q94 88 122 61T198 34Q242 34 281 56T346 113T371 188ZM374 657Q364 625 342 607T289 589Q273 589 259
594T223 613Q207 623 199 626T181 630Q150 630 129 590Q106 600 96 608Q106 640 128 658T181 676Q197 676 211 671T247 652Q263 642 271 639T289 635Q320 635 341 675Q364 665 374 657Z" />
<glyph unicode="&#xe4;" glyph-name="adieresis" horiz-adv-x="523" d="M496 14L397 -5Q380 4 369 17L374 89Q342 42 296 16T193 -10Q124 -10 82 29T39 130Q39 201 95 240T255 280Q278 280 308 278T371 271V311Q371 465 232 465Q196 465 156 453T81 417Q74 423
68 434T62 454Q101 481 145 495T232 510Q423 510 423 311V47H499Q502 40 502 33Q502 24 496 14ZM371 188V228Q339 232 309 234T255 237Q176 237 135 211T94 132Q94 88 122 61T198 34Q242 34 281 56T346 113T371 188ZM192 632Q192 614 180 603T149 592Q130 592 118
603T106 632Q106 650 118 661T149 672Q168 672 180 661T192 632ZM364 632Q364 614 352 603T321 592Q302 592 290 603T278 632Q278 650 290 661T321 672Q340 672 352 661T364 632Z" />
<glyph unicode="&#xe5;" glyph-name="aring" horiz-adv-x="523" d="M496 14L397 -5Q380 4 369 17L374 89Q342 42 296 16T193 -10Q124 -10 82 29T39 130Q39 201 95 240T255 280Q278 280 308 278T371 271V311Q371 465 232 465Q196 465 156 453T81 417Q74 423 68
434T62 454Q101 481 145 495T232 510Q423 510 423 311V47H499Q502 40 502 33Q502 24 496 14ZM371 188V228Q339 232 309 234T255 237Q176 237 135 211T94 132Q94 88 122 61T198 34Q242 34 281 56T346 113T371 188ZM235 607Q261 607 276 622T292 664Q292 690 277
705T235 721Q209 721 194 706T178 664Q178 638 193 623T235 607ZM335 664Q335 621 308 596T235 570Q189 570 162 595T135 664Q135 707 162 732T235 758Q281 758 308 733T335 664Z" />
<glyph unicode="&#xe6;" glyph-name="ae" horiz-adv-x="801" d="M737 261L413 247Q414 150 462 94T593 38Q626 38 665 48T735 74Q742 66 746 57T752 37Q666 -10 586 -10Q518 -10 468 20T387 112Q355 53 305 22T192 -10Q124 -10 82 28T39 130Q39 201 93 240T250
285L361 289V311Q361 465 232 465Q154 465 81 417Q74 423 68 434T62 454Q146 510 232 510Q361 510 401 404Q453 510 572 510Q660 510 708 455T756 291Q748 274 737 261ZM361 188V245L250 241Q94 235 94 132Q94 88 121 61T194 34Q238 34 276 56T337 113T361 188ZM414
292L703 304Q703 383 668 424T572 466Q504 466 463 420T414 292Z" />
<glyph unicode="&#xe7;" glyph-name="ccedilla" horiz-adv-x="488" d="M396 342L373 448Q330 465 274 465Q222 465 183 438T122 362T100 250Q100 152 150 95T284 38Q319 38 357 46T421 68Q428 60 432 51T438 31Q402 12 360 1T275 -10Q205 -10 153 22T72 113T43
250Q43 328 72 386T152 477T274 510Q308 510 346 503T409 483Q420 470 428 453L430 339Q422 336 415 336Q405 336 396 342ZM209 -75L247 10H284L261 -66Q296 -71 316 -92T336 -145Q336 -182 308 -205T232 -228Q197 -228 168 -213Q168 -195 177 -180Q200 -190 225
-190Q284 -190 284 -148Q284 -126 267 -114T219 -102Q211 -89 209 -75Z" />
<glyph unicode="&#xe8;" glyph-name="egrave" horiz-adv-x="498" d="M434 261H98V250Q98 153 148 96T284 38Q323 38 364 49T432 74Q440 66 444 57T449 37Q366 -10 275 -10Q205 -10 153 22T72 113T43 250Q43 329 70 387T149 478T269 510Q453 510 453 291Q445 274
434 261ZM102 304H400Q400 466 269 466Q203 466 159 422T102 304ZM302 556L203 644L152 697Q162 709 170 716T191 735L242 683L329 581Q320 568 302 556Z" />
<glyph unicode="&#xe9;" glyph-name="eacute" horiz-adv-x="498" d="M434 261H98V250Q98 153 148 96T284 38Q323 38 364 49T432 74Q440 66 444 57T449 37Q366 -10 275 -10Q205 -10 153 22T72 113T43 250Q43 329 70 387T149 478T269 510Q453 510 453 291Q445 274
434 261ZM102 304H400Q400 466 269 466Q203 466 159 422T102 304ZM317 644L218 556Q200 568 191 581L278 683L329 735Q342 724 350 717T368 697L317 644Z" />
<glyph unicode="&#xea;" glyph-name="ecircumflex" horiz-adv-x="498" d="M434 261H98V250Q98 153 148 96T284 38Q323 38 364 49T432 74Q440 66 444 57T449 37Q366 -10 275 -10Q205 -10 153 22T72 113T43 250Q43 329 70 387T149 478T269 510Q453 510 453 291Q445
274 434 261ZM102 304H400Q400 466 269 466Q203 466 159 422T102 304ZM375 556L260 660L143 556Q133 564 129 569T120 581L240 714Q244 715 250 715T261 716Q266 716 272 716T282 714L400 583Q392 569 375 556Z" />
<glyph unicode="&#xeb;" glyph-name="edieresis" horiz-adv-x="498" d="M434 261H98V250Q98 153 148 96T284 38Q323 38 364 49T432 74Q440 66 444 57T449 37Q366 -10 275 -10Q205 -10 153 22T72 113T43 250Q43 329 70 387T149 478T269 510Q453 510 453 291Q445
274 434 261ZM102 304H400Q400 466 269 466Q203 466 159 422T102 304ZM217 632Q217 614 205 603T174 592Q155 592 143 603T131 632Q131 650 143 661T174 672Q193 672 205 661T217 632ZM389 632Q389 614 377 603T346 592Q327 592 315 603T303 632Q303 650 315 661T346
672Q365 672 377 661T389 632Z" />
<glyph unicode="&#xec;" glyph-name="igrave" horiz-adv-x="284" d="M247 0H34Q31 8 31 14Q31 22 37 33L115 41V453H34Q31 460 31 467Q31 476 37 486L141 505Q158 496 169 483V43H237Q253 43 253 29Q253 23 249 8L247 0ZM169 556L70 644L19 697Q29 709 37 716T58
735L109 683L196 581Q187 568 169 556Z" />
<glyph unicode="&#xed;" glyph-name="iacute" horiz-adv-x="284" d="M247 0H34Q31 8 31 14Q31 22 37 33L115 41V453H34Q31 460 31 467Q31 476 37 486L141 505Q158 496 169 483V43H237Q253 43 253 29Q253 23 249 8L247 0ZM184 644L85 556Q67 568 58 581L145 683L196
735Q209 724 217 717T235 697L184 644Z" />
<glyph unicode="&#xee;" glyph-name="icircumflex" horiz-adv-x="284" d="M247 0H34Q31 8 31 14Q31 22 37 33L115 41V453H34Q31 460 31 467Q31 476 37 486L141 505Q158 496 169 483V43H237Q253 43 253 29Q253 23 249 8L247 0ZM242 556L127 660L10 556Q0 564 -4
569T-13 581L107 714Q111 715 117 715T128 716Q133 716 139 716T149 714L267 583Q259 569 242 556Z" />
<glyph unicode="&#xef;" glyph-name="idieresis" horiz-adv-x="284" d="M247 0H34Q31 8 31 14Q31 22 37 33L115 41V453H34Q31 460 31 467Q31 476 37 486L141 505Q158 496 169 483V43H237Q253 43 253 29Q253 23 249 8L247 0ZM84 632Q84 614 72 603T41 592Q22 592
10 603T-2 632Q-2 650 10 661T41 672Q60 672 72 661T84 632ZM256 632Q256 614 244 603T213 592Q194 592 182 603T170 632Q170 650 182 661T213 672Q232 672 244 661T256 632Z" />
<glyph unicode="&#xf0;" glyph-name="eth" horiz-adv-x="539" d="M376 661L322 611Q404 538 450 445T496 257Q496 178 467 118T386 24T265 -10Q202 -10 152 22T73 109T43 233Q43 302 72 357T152 444T265 476Q313 476 356 455T430 394Q404 448 368 494T289 580L226
522Q208 530 199 551L258 606Q242 618 225 630T191 652Q198 677 213 690Q255 666 291 636L349 690Q367 682 376 661ZM426 345Q398 386 356 409T265 432Q218 432 181 406T122 334T100 233Q100 177 122 132T181 61T265 34Q317 34 356 62T417 140T439 257Q439 278
436 298T426 345Z" />
<glyph unicode="&#xf1;" glyph-name="ntilde" horiz-adv-x="616" d="M584 0H391Q388 8 388 14Q388 22 394 33L462 41V325Q462 466 343 466Q296 466 257 439T193 366T169 266V43H227Q243 43 243 29Q243 23 239 8L237 0H44Q41 8 41 14Q41 22 47 33L115 41V453H39Q36
460 36 467Q36 476 42 486L141 505Q158 496 169 483L162 383Q190 444 239 477T352 510Q432 510 474 463T516 325V43H574Q590 43 590 29Q590 23 586 8L584 0ZM449 657Q439 625 417 607T364 589Q348 589 334 594T298 613Q282 623 274 626T256 630Q225 630 204 590Q181
600 171 608Q181 640 203 658T256 676Q272 676 286 671T322 652Q338 642 346 639T364 635Q395 635 416 675Q439 665 449 657Z" />
<glyph unicode="&#xf2;" glyph-name="ograve" horiz-adv-x="548" d="M274 34Q326 34 365 61T426 137T448 250Q448 314 427 363T366 439T274 466Q222 466 183 439T122 363T100 250Q100 186 121 137T182 61T274 34ZM274 -10Q204 -10 153 22T72 113T43 250Q43 328
72 386T152 477T274 510Q344 510 395 478T476 387T505 250Q505 172 476 114T396 23T274 -10ZM316 556L217 644L166 697Q176 709 184 716T205 735L256 683L343 581Q334 568 316 556Z" />
<glyph unicode="&#xf3;" glyph-name="oacute" horiz-adv-x="548" d="M274 34Q326 34 365 61T426 137T448 250Q448 314 427 363T366 439T274 466Q222 466 183 439T122 363T100 250Q100 186 121 137T182 61T274 34ZM274 -10Q204 -10 153 22T72 113T43 250Q43 328
72 386T152 477T274 510Q344 510 395 478T476 387T505 250Q505 172 476 114T396 23T274 -10ZM331 644L232 556Q214 568 205 581L292 683L343 735Q356 724 364 717T382 697L331 644Z" />
<glyph unicode="&#xf4;" glyph-name="ocircumflex" horiz-adv-x="548" d="M274 34Q326 34 365 61T426 137T448 250Q448 314 427 363T366 439T274 466Q222 466 183 439T122 363T100 250Q100 186 121 137T182 61T274 34ZM274 -10Q204 -10 153 22T72 113T43 250Q43
328 72 386T152 477T274 510Q344 510 395 478T476 387T505 250Q505 172 476 114T396 23T274 -10ZM389 556L274 660L157 556Q147 564 143 569T134 581L254 714Q258 715 264 715T275 716Q280 716 286 716T296 714L414 583Q406 569 389 556Z" />
<glyph unicode="&#xf5;" glyph-name="otilde" horiz-adv-x="548" d="M274 34Q326 34 365 61T426 137T448 250Q448 314 427 363T366 439T274 466Q222 466 183 439T122 363T100 250Q100 186 121 137T182 61T274 34ZM274 -10Q204 -10 153 22T72 113T43 250Q43 328
72 386T152 477T274 510Q344 510 395 478T476 387T505 250Q505 172 476 114T396 23T274 -10ZM413 657Q403 625 381 607T328 589Q312 589 298 594T262 613Q246 623 238 626T220 630Q189 630 168 590Q145 600 135 608Q145 640 167 658T220 676Q236 676 250 671T286
652Q302 642 310 639T328 635Q359 635 380 675Q403 665 413 657Z" />
<glyph unicode="&#xf6;" glyph-name="odieresis" horiz-adv-x="548" d="M274 34Q326 34 365 61T426 137T448 250Q448 314 427 363T366 439T274 466Q222 466 183 439T122 363T100 250Q100 186 121 137T182 61T274 34ZM274 -10Q204 -10 153 22T72 113T43 250Q43
328 72 386T152 477T274 510Q344 510 395 478T476 387T505 250Q505 172 476 114T396 23T274 -10ZM231 632Q231 614 219 603T188 592Q169 592 157 603T145 632Q145 650 157 661T188 672Q207 672 219 661T231 632ZM403 632Q403 614 391 603T360 592Q341 592 329 603T317
632Q317 650 329 661T360 672Q379 672 391 661T403 632Z" />
<glyph unicode="&#xf7;" glyph-name="divide" horiz-adv-x="560" d="M492 298H66Q63 314 63 321Q63 330 68 346H494Q497 330 497 323Q497 314 492 298ZM328 483Q328 463 315 451T280 438Q259 438 246 450T232 483Q232 503 245 515T280 528Q301 528 314 516T328
483ZM328 161Q328 141 315 129T280 116Q259 116 246 128T232 161Q232 181 245 193T280 206Q301 206 314 194T328 161Z" />
<glyph unicode="&#xf8;" glyph-name="oslash" horiz-adv-x="548" d="M127 41L84 -10Q63 1 52 17L98 72Q72 106 58 151T43 250Q43 328 72 386T152 477T274 510Q362 510 421 459L464 510Q485 499 496 483L450 428Q476 394 490 349T505 250Q505 172 476 114T396 23T274
-10Q186 -10 127 41ZM133 114L389 420Q366 442 337 454T274 466Q222 466 183 439T122 363T100 250Q100 210 108 176T133 114ZM415 386L159 80Q182 58 211 46T274 34Q326 34 365 61T426 137T448 250Q448 290 440 324T415 386Z" />
<glyph unicode="&#xf9;" glyph-name="ugrave" horiz-adv-x="606" d="M564 14L465 -5Q448 4 437 17L444 117Q416 56 368 23T257 -10Q182 -10 141 38T100 175V453H24Q21 460 21 467Q21 476 27 486L126 505Q143 496 154 483V175Q154 108 183 71T264 34Q310 34 349
61T413 134T437 234V453H361Q358 460 358 467Q358 476 364 486L463 505Q480 496 491 483V47H567Q570 40 570 33Q570 24 564 14ZM312 556L213 644L162 697Q172 709 180 716T201 735L252 683L339 581Q330 568 312 556Z" />
<glyph unicode="&#xfa;" glyph-name="uacute" horiz-adv-x="606" d="M564 14L465 -5Q448 4 437 17L444 117Q416 56 368 23T257 -10Q182 -10 141 38T100 175V453H24Q21 460 21 467Q21 476 27 486L126 505Q143 496 154 483V175Q154 108 183 71T264 34Q310 34 349
61T413 134T437 234V453H361Q358 460 358 467Q358 476 364 486L463 505Q480 496 491 483V47H567Q570 40 570 33Q570 24 564 14ZM327 644L228 556Q210 568 201 581L288 683L339 735Q352 724 360 717T378 697L327 644Z" />
<glyph unicode="&#xfb;" glyph-name="ucircumflex" horiz-adv-x="606" d="M564 14L465 -5Q448 4 437 17L444 117Q416 56 368 23T257 -10Q182 -10 141 38T100 175V453H24Q21 460 21 467Q21 476 27 486L126 505Q143 496 154 483V175Q154 108 183 71T264 34Q310 34
349 61T413 134T437 234V453H361Q358 460 358 467Q358 476 364 486L463 505Q480 496 491 483V47H567Q570 40 570 33Q570 24 564 14ZM385 556L270 660L153 556Q143 564 139 569T130 581L250 714Q254 715 260 715T271 716Q276 716 282 716T292 714L410 583Q402 569
385 556Z" />
<glyph unicode="&#xfc;" glyph-name="udieresis" horiz-adv-x="606" d="M564 14L465 -5Q448 4 437 17L444 117Q416 56 368 23T257 -10Q182 -10 141 38T100 175V453H24Q21 460 21 467Q21 476 27 486L126 505Q143 496 154 483V175Q154 108 183 71T264 34Q310 34
349 61T413 134T437 234V453H361Q358 460 358 467Q358 476 364 486L463 505Q480 496 491 483V47H567Q570 40 570 33Q570 24 564 14ZM227 632Q227 614 215 603T184 592Q165 592 153 603T141 632Q141 650 153 661T184 672Q203 672 215 661T227 632ZM399 632Q399 614
387 603T356 592Q337 592 325 603T313 632Q313 650 325 661T356 672Q375 672 387 661T399 632Z" />
<glyph unicode="&#xfd;" glyph-name="yacute" horiz-adv-x="577" d="M262 -3L80 457H22Q6 457 6 471Q6 477 10 492L12 500H207Q210 492 210 486Q210 478 204 467L136 459L289 60L445 457H387Q371 457 371 471Q371 477 375 492L377 500H569Q572 492 572 486Q572
478 566 467L498 459L321 27Q294 -38 261 -86T180 -163T63 -196Q59 -189 58 -181T56 -167Q56 -160 57 -155Q137 -144 186 -100T262 -3ZM346 644L247 556Q229 568 220 581L307 683L358 735Q371 724 379 717T397 697L346 644Z" />
<glyph unicode="&#xfe;" glyph-name="thorn" horiz-adv-x="563" d="M262 -185H19Q16 -178 16 -171Q16 -162 22 -152L90 -144V623H9Q6 630 6 637Q6 646 12 656L116 675Q133 666 144 653V399Q172 450 218 480T320 510Q378 510 423 478T494 388T520 255Q520 175 491
116T409 23T285 -10Q204 -10 144 42V-142H252Q268 -142 268 -156Q268 -162 264 -177L262 -185ZM144 266V93Q211 35 285 35Q368 35 415 94T463 255Q463 317 444 364T392 439T315 466Q269 466 230 439T168 366T144 266Z" />
<glyph unicode="&#xff;" glyph-name="ydieresis" horiz-adv-x="577" d="M262 -3L80 457H22Q6 457 6 471Q6 477 10 492L12 500H207Q210 492 210 486Q210 478 204 467L136 459L289 60L445 457H387Q371 457 371 471Q371 477 375 492L377 500H569Q572 492 572 486Q572
478 566 467L498 459L321 27Q294 -38 261 -86T180 -163T63 -196Q59 -189 58 -181T56 -167Q56 -160 57 -155Q137 -144 186 -100T262 -3ZM246 632Q246 614 234 603T203 592Q184 592 172 603T160 632Q160 650 172 661T203 672Q222 672 234 661T246 632ZM418 632Q418
614 406 603T375 592Q356 592 344 603T332 632Q332 650 344 661T375 672Q394 672 406 661T418 632Z" />
<glyph unicode="&#x2013;" glyph-name="endash" horiz-adv-x="500" d="M500 226H-2Q-5 243 -5 249Q-5 258 0 274H502Q505 257 505 251Q505 242 500 226Z" />
<glyph unicode="&#x2014;" glyph-name="emdash" horiz-adv-x="1000" d="M1000 226H-2Q-5 242 -5 249Q-5 258 0 274H1002Q1005 258 1005 251Q1005 242 1000 226Z" />
<glyph unicode="&#x2018;" glyph-name="quoteleft" horiz-adv-x="216" d="M109 530L150 506Q154 496 154 484Q154 464 141 451T106 438Q81 438 66 456T50 503Q50 534 71 577T125 655Q145 648 156 634Q141 614 128 583T109 530Z" />
<glyph unicode="&#x2019;" glyph-name="quoteright" horiz-adv-x="216" d="M107 563L66 587Q62 597 62 609Q62 628 75 641T110 655Q135 655 150 637T166 590Q166 558 145 515T91 438Q71 445 60 459Q75 478 88 509T107 563Z" />
<glyph unicode="&#x201a;" glyph-name="quotesinglbase" horiz-adv-x="216" d="M107 -8L66 16Q62 26 62 38Q62 57 75 70T110 84Q135 84 150 66T166 19Q166 -13 145 -56T91 -133Q71 -126 60 -112Q75 -93 88 -62T107 -8Z" />
<glyph unicode="&#x201c;" glyph-name="quotedblleft" horiz-adv-x="386" d="M109 530L150 506Q154 496 154 484Q154 464 141 451T106 438Q81 438 66 456T50 503Q50 534 71 577T125 655Q145 648 156 634Q141 614 128 583T109 530ZM279 530L320 506Q324 496 324
484Q324 464 311 451T276 438Q251 438 236 456T220 503Q220 534 241 577T295 655Q315 648 326 634Q311 614 298 583T279 530Z" />
<glyph unicode="&#x201d;" glyph-name="quotedblright" horiz-adv-x="386" d="M107 563L66 587Q62 597 62 609Q62 628 75 641T110 655Q135 655 150 637T166 590Q166 558 145 515T91 438Q71 445 60 459Q75 478 88 509T107 563ZM277 563L236 587Q232 597 232 609Q232
628 245 641T280 655Q305 655 320 637T336 590Q336 558 315 515T261 438Q241 445 230 459Q245 478 258 509T277 563Z" />
<glyph unicode="&#x201e;" glyph-name="quotedblbase" horiz-adv-x="386" d="M107 -8L66 16Q62 26 62 38Q62 57 75 70T110 84Q135 84 150 66T166 19Q166 -13 145 -56T91 -133Q71 -126 60 -112Q75 -93 88 -62T107 -8ZM277 -8L236 16Q232 26 232 38Q232 57 245 70T280
84Q305 84 320 66T336 19Q336 -13 315 -56T261 -133Q241 -126 230 -112Q245 -93 258 -62T277 -8Z" />
<glyph unicode="&#x2022;" glyph-name="bullet" horiz-adv-x="384" d="M324 250Q324 194 288 160T192 125Q132 125 96 159T60 250Q60 306 96 340T192 375Q252 375 288 341T324 250Z" />
<glyph unicode="&#x2039;" glyph-name="guilsinglleft" horiz-adv-x="339" d="M232 34L53 224Q50 240 50 250Q50 260 53 276L232 466Q252 455 263 440L101 252L264 61Q252 45 232 34Z" />
<glyph unicode="&#x203a;" glyph-name="guilsinglright" horiz-adv-x="339" d="M286 224L107 34Q87 45 76 60L238 248L75 439Q87 455 107 466L286 276Q289 260 289 250Q289 240 286 224Z" />
</font>
</defs>
</svg>
