<?xml version="1.0" standalone="no"?>
<!DOCTYPE svg PUBLIC "-//W3C//DTD SVG 1.1//EN" "http://www.w3.org/Graphics/SVG/1.1/DTD/svg11.dtd">
<svg xmlns="http://www.w3.org/2000/svg">
<defs >
<font id="Sora" horiz-adv-x="590" ><font-face
    font-family="Sora Light"
    units-per-em="1000"
    panose-1="0 0 0 0 0 0 0 0 0 0"
    ascent="970"
    descent="-290"
    alphabetic="0" />
<glyph unicode=" " horiz-adv-x="233" />
<glyph unicode="!" horiz-adv-x="283" d="M103 202V730H179V202H103ZM95 0V99H188V0H95Z" />
<glyph unicode="&quot;" horiz-adv-x="412" d="M98 468V730H163V468H98ZM249 468V730H314V468H249Z" />
<glyph unicode="#" horiz-adv-x="681" d="M134 0L247 730H315L201 0H134ZM367 0L480 730H548L434 0H367ZM37 215V271H608V215H37ZM73 459V515H643V459H73Z" />
<glyph unicode="$" horiz-adv-x="655" d="M328 1Q240 1 181 29T91 108T61 228H131Q131 186 150 149T213 89T328 65Q424 65 471 105T519 202Q519 256 478 293T354 338L288 344Q195 352 141 399T86 534Q86 593 114 637T195 705T323 729Q399 729 452 702T534 626T562
511H491Q491 551 474 586T420 643T323 665Q269 665 232 648T177 601T158 534Q158 483 192 450T295 411L361 405Q468 395 529 342T591 202Q591 143 560 98T470 27T328 1ZM294 -129V17H361V-129H294ZM290 690V827H357V690H290Z" />
<glyph unicode="%" horiz-adv-x="836" d="M248 0L530 730H591L308 0H248ZM198 342Q144 342 109 367T58 436T41 530V551Q41 605 58 647T110 714T198 739Q252 739 286 715T338 648T355 551V530Q355 479 339 436T288 368T198 342ZM198 395Q249 395 274 432T299 540Q299
613 274 649T198 686Q148 686 123 650T97 540Q97 470 122 433T198 395ZM638 -9Q584 -9 549 16T498 85T481 179V200Q481 254 498 296T550 363T638 388Q692 388 726 364T778 297T795 200V179Q795 128 779 85T728 17T638 -9ZM638 44Q689 44 714 81T739 189Q739 262
714 298T638 335Q588 335 563 299T537 190Q537 119 562 82T638 44Z" />
<glyph unicode="&amp;" horiz-adv-x="675" d="M541 0L232 328Q189 375 164 410T127 477T116 548Q116 610 139 652T214 715T346 737Q381 737 421 734T496 727V661Q474 663 444 665T384 669T332 671Q254 671 221 639T188 547Q188 499 210 461T279 372L629 0H541ZM284
-17Q212 -17 156 10T68 86T36 197V209Q36 281 76 336T177 425L215 372Q167 348 138 303T108 203Q108 152 132 118T197 65T284 47Q359 47 411 89T490 213T517 413H584Q584 314 565 235T508 99T414 13T284 -17ZM393 402V462H646V402H393Z" />
<glyph unicode="&apos;" horiz-adv-x="261" d="M98 468V730H163V468H98Z" />
<glyph unicode="(" horiz-adv-x="369" d="M263 -182Q210 -121 169 -50T105 108T82 301Q82 406 105 492T169 648T263 776H349Q287 708 244 637T178 483T155 301Q155 201 177 118T243 -39T349 -182H263Z" />
<glyph unicode=")" horiz-adv-x="369" d="M106 -182Q159 -121 200 -50T264 108T287 301Q287 406 264 492T200 648T106 776H20Q82 708 125 637T191 483T214 301Q214 201 192 118T126 -39T20 -182H106Z" />
<glyph unicode="*" horiz-adv-x="566" d="M477 381L321 486V576L477 681L513 619L376 553V509L513 443L477 381ZM313 778L300 591L221 546L52 628L88 689L214 605L252 627L241 777L313 778ZM52 434L221 517L300 472L313 284L241 285L252 435L214 457L88 373L52 434Z" />
<glyph unicode="+" horiz-adv-x="588" d="M261 111V578H327V111H261ZM73 314V374H515V314H73Z" />
<glyph unicode="," horiz-adv-x="258" d="M96 -153L35 -131L122 110L185 87L96 -153Z" />
<glyph unicode="-" horiz-adv-x="501" d="M75 246V310H426V246H75Z" />
<glyph unicode="." horiz-adv-x="258" d="M82 0V99H176V0H82Z" />
<glyph unicode="/" horiz-adv-x="323" d="M25 -60L229 780H299L95 -60H25Z" />
<glyph unicode="0" horiz-adv-x="735" d="M368 -17Q291 -17 236 10T146 85T95 199T78 341V388Q78 495 109 576T205 703T368 749Q466 749 530 703T625 576T657 388V341Q657 265 641 200T589 86T499 10T368 -17ZM368 51Q476 51 528 127T581 364Q581 532 528 606T368
681Q261 681 208 607T154 366Q154 204 206 128T368 51Z" />
<glyph unicode="1" horiz-adv-x="416" d="M212 0V691L245 665H46V730H287V0H212Z" />
<glyph unicode="2" horiz-adv-x="614" d="M81 0V111Q81 154 93 184T135 239T217 287L360 354Q412 378 443 417T474 519Q474 596 431 639T311 683Q236 683 192 640T147 519H74Q74 584 101 636T181 718T311 749Q389 749 441 719T520 638T547 526V512Q547 434 503
382T386 295L242 228Q191 205 174 181T156 118V29L134 65H559V0H81Z" />
<glyph unicode="3" horiz-adv-x="609" d="M297 -17Q217 -17 162 14T77 98T48 214H121Q121 138 168 94T297 49Q350 49 389 69T450 126T472 212Q472 287 425 333T298 379Q266 379 243 372T202 353L161 423L452 649L444 665H77V730H514V622L256 421L207 420Q225 428
248 433T301 439Q378 439 432 409T516 329T545 219V205Q545 147 516 96T432 14T297 -17Z" />
<glyph unicode="4" horiz-adv-x="631" d="M51 182V276L361 744L413 703L119 257L127 242H603V182H51ZM433 0V514H503V0H433Z" />
<glyph unicode="5" horiz-adv-x="617" d="M313 -17Q230 -17 174 16T89 105T60 223H133Q133 173 154 134T216 72T313 49Q370 49 410 71T471 133T493 223Q493 272 472 312T411 375T313 399Q273 399 234 386T169 346H100L138 730H501V665H179L200 691L170 391L147
396Q178 427 220 445T316 463Q398 463 454 429T538 342T567 229V216Q567 157 538 104T453 17T313 -17Z" />
<glyph unicode="6" horiz-adv-x="654" d="M345 -19Q272 -19 221 6T139 78T92 187T77 326V368Q77 546 160 640T408 735Q442 735 469 733T527 727V662Q496 667 467 669T404 671Q310 671 253 635T171 529T145 362V291L125 232Q126 308 154 361T235 442T357 470Q435
470 489 438T570 351T598 228Q598 159 570 103T485 14T345 -19ZM345 47Q405 47 445 71T506 136T526 228Q526 279 507 319T448 383T350 407Q293 407 251 385T185 323T161 227Q161 180 181 139T242 73T345 47Z" />
<glyph unicode="7" horiz-adv-x="565" d="M151 0L459 655L453 665H53V730H526V637L229 0H151ZM53 543V730H117V543H53Z" />
<glyph unicode="8" horiz-adv-x="629" d="M314 -17Q236 -17 177 11T86 89T53 201Q53 248 72 285T124 348T194 386V396Q163 408 137 429T95 482T78 555Q78 615 109 658T194 724T314 748Q382 748 435 725T519 658T550 555Q550 513 535 482T493 430T435 396V386Q474
374 506 348T557 285T576 201Q576 138 544 89T453 12T314 -17ZM314 47Q374 47 416 67T480 122T503 204Q503 250 481 285T417 340T314 360Q255 360 213 340T149 285T127 204Q127 158 149 123T213 67T314 47ZM314 420Q388 420 432 453T477 552Q477 617 433 650T314
683Q241 683 197 650T152 552Q152 487 197 454T314 420Z" />
<glyph unicode="9" horiz-adv-x="654" d="M309 749Q382 749 433 724T515 652T562 543T577 404V362Q577 184 494 90T246 -5Q212 -5 185 -3T127 3V68Q158 63 187 61T250 59Q344 59 401 95T483 201T509 368V439L529 498Q528 422 500 369T419 288T297 260Q219 260
165 292T84 379T56 502Q56 571 84 627T169 716T309 749ZM309 683Q249 683 209 659T148 594T128 502Q128 451 147 411T206 347T304 323Q361 323 403 345T469 407T493 503Q493 550 473 591T412 657T309 683Z" />
<glyph unicode=":" horiz-adv-x="258" d="M82 0V99H176V0H82ZM82 377V476H176V377H82Z" />
<glyph unicode=";" horiz-adv-x="258" d="M100 -153L39 -131L126 110L189 87L100 -153ZM87 377V476H181V377H87Z" />
<glyph unicode="&lt;" horiz-adv-x="587" d="M508 530V466L79 320V381L508 530ZM79 338L508 192V130L79 278V338ZM133 361V297H106V361H133Z" />
<glyph unicode="=" horiz-adv-x="588" d="M73 387V447H515V387H73ZM73 216V276H515V216H73Z" />
<glyph unicode="&gt;" horiz-adv-x="587" d="M79 129V193L508 339V278L79 129ZM508 321L79 467V529L508 381V321ZM454 298V362H481V298H454Z" />
<glyph unicode="?" horiz-adv-x="548" d="M209 202V387H267Q343 387 382 429T421 535Q421 581 402 614T350 665T273 683Q225 683 190 663T135 607T115 524H43Q43 585 69 636T147 718T273 749Q340 749 389 721T466 645T493 541V530Q493 474 467 427T389 352T260
324L285 361L284 202H209ZM200 0V99H293V0H200Z" />
<glyph unicode="@" horiz-adv-x="1120" d="M564 -241Q456 -241 366 -206T211 -105T109 51T73 252Q73 359 108 450T210 608T367 712T569 749Q669 749 756 720T910 635T1014 497T1052 309Q1052 221 1026 154T955 48T849 10Q808 10 776 28T724 81T705 167V229H730Q727
157 700 110T628 40T532 17Q471 17 423 47T348 129T320 246V260Q320 326 348 376T425 455T535 484Q590 484 634 461T705 392T736 282H707V473H767V168Q767 133 778 112T809 81T848 72Q886 72 916 100T965 181T984 306Q984 400 952 471T863 589T730 661T570 686Q473
686 394 654T258 563T171 425T141 251Q141 123 194 27T342 -122T564 -176Q596 -176 624 -173T679 -163V-228Q652 -234 624 -237T564 -241ZM543 77Q586 77 622 96T679 154T701 247V268Q701 320 679 354T620 406T543 424Q498 424 463 403T409 344T389 253Q389 201
409 161T463 99T543 77Z" />
<glyph unicode="A" horiz-adv-x="749" d="M33 0L302 730H438L716 0H638L379 682L420 661H315L358 682L109 0H33ZM177 232L202 301H541L567 232H177Z" />
<glyph unicode="B" horiz-adv-x="673" d="M171 -3V64H385Q450 64 486 101T523 201Q523 262 487 299T385 337H171V387H374Q440 387 491 369T571 310T600 205V193Q600 134 575 90T500 21T374 -3H171ZM114 -3V733H190V-3H114ZM171 351V401H358Q427 401 460 438T493
533Q493 592 460 629T358 666H171V733H345Q458 733 514 682T570 541V529Q570 466 542 427T464 369T345 351H171Z" />
<glyph unicode="C" horiz-adv-x="794" d="M425 -17Q327 -17 258 17T145 108T81 229T61 357V376Q61 443 81 509T145 630T257 716T418 749Q512 749 580 716T690 624T740 483H663Q655 548 621 591T535 657T418 679Q349 679 297 655T209 587T156 487T138 366Q138 305
155 249T209 149T299 79T425 53Q525 53 593 103T677 249H754Q743 174 702 114T592 18T425 -17Z" />
<glyph unicode="D" horiz-adv-x="795" d="M170 -4V66H369Q443 66 498 90T592 155T649 251T668 366Q668 429 649 483T591 578T498 641T369 663H170V733H361Q459 733 531 703T651 622T722 506T745 376V357Q745 292 722 228T652 112T533 28T361 -4H170ZM114 -4V733H190V-4H114Z"
/>
<glyph unicode="E" horiz-adv-x="603" d="M114 0V730H190V0H114ZM172 0V69H537V0H172ZM172 337V405H503V337H172ZM172 661V730H526V661H172Z" />
<glyph unicode="F" horiz-adv-x="560" d="M114 0V730H190V0H114ZM170 337V406L493 407V338L170 337ZM170 662V730H512V662H170Z" />
<glyph unicode="G" horiz-adv-x="831" d="M433 -17Q343 -17 274 13T157 95T86 216T61 361V379Q61 449 84 515T153 634T265 718T417 749Q506 749 575 716T686 622T736 483H659Q651 547 617 591T530 657T417 679Q353 679 301 656T213 591T158 493T138 369Q138 298
158 240T216 139T308 74T433 51Q519 51 584 84T686 173L656 79V295H728V113Q681 52 606 18T433 -17ZM406 279V343H793V279H406Z" />
<glyph unicode="H" horiz-adv-x="806" d="M616 0V730H692V0H616ZM114 0V730H190V0H114ZM173 328V396H633V328H173Z" />
<glyph unicode="I" horiz-adv-x="308" d="M116 0V730H192V0H116Z" />
<glyph unicode="J" horiz-adv-x="638" d="M288 -17Q216 -17 160 12T73 99T41 239V265H117V226Q117 144 163 99T288 53Q366 53 413 98T460 226V681H536V239Q536 156 505 99T417 13T288 -17ZM138 661V730H536V661H138Z" />
<glyph unicode="K" horiz-adv-x="658" d="M573 0L255 345H161L504 730H592L276 377L269 432L668 0H573ZM114 0V730H190V0H114Z" />
<glyph unicode="L" horiz-adv-x="539" d="M114 0V730H190V0H114ZM170 0V69H513V0H170Z" />
<glyph unicode="M" horiz-adv-x="905" d="M114 0V730H213L443 225H461L690 730H791V0H715V645L721 644L499 154H399L176 644L184 645V0H114Z" />
<glyph unicode="N" horiz-adv-x="840" d="M114 0V730H241L641 69H673L653 53V730H726V0H598L198 661H166L186 677V0H114Z" />
<glyph unicode="O" horiz-adv-x="867" d="M434 -17Q339 -17 269 17T153 107T84 229T61 358V376Q61 443 84 509T155 630T272 716T434 749Q527 749 596 717T713 630T783 510T807 376V357Q807 294 785 229T716 107T599 17T434 -17ZM434 53Q504 53 559 78T652 148T710
249T730 366Q730 430 710 486T652 585T558 654T434 679Q366 679 311 654T218 586T159 486T138 366Q138 305 158 249T216 149T309 79T434 53Z" />
<glyph unicode="P" horiz-adv-x="630" d="M170 267V334H340Q399 334 436 356T491 416T509 500Q509 547 491 584T436 644T340 666H170V733H327Q415 733 472 704T558 624T587 507V493Q587 428 559 377T473 296T327 267H170ZM114 0V733H190V0H114Z" />
<glyph unicode="Q" horiz-adv-x="867" d="M568 -209Q517 -209 480 -193T422 -142T402 -46V34H472V-57Q472 -97 494 -119T556 -141H680V-209H568ZM434 -17Q339 -17 269 17T153 107T84 229T61 358V376Q61 443 84 509T155 630T272 716T434 749Q527 749 596 717T713
630T783 510T807 376V357Q807 294 785 229T716 107T599 17T434 -17ZM434 53Q504 53 559 78T652 148T710 249T730 366Q730 430 710 486T652 585T558 654T434 679Q366 679 311 654T218 586T159 486T138 366Q138 305 158 249T216 149T309 79T434 53Z" />
<glyph unicode="R" horiz-adv-x="687" d="M114 0V733H190V0H114ZM567 0L318 323H407L660 0H567ZM159 277V345H355Q409 345 445 366T499 423T517 505Q517 551 499 587T445 644T355 666H159V733H342Q423 733 479 708T565 633T595 512V498Q595 427 565 378T479 303T342
277H159Z" />
<glyph unicode="S" horiz-adv-x="697" d="M348 -17Q256 -17 193 12T98 94T65 213H141Q141 171 161 135T227 76T348 53Q417 53 462 73T530 127T553 203Q553 256 512 291T387 334L303 342Q209 350 154 400T98 534Q98 597 128 645T213 721T347 749Q426 749 482 721T569
642T599 526H523Q523 566 505 601T448 657T347 679Q288 679 250 659T193 606T174 534Q174 485 209 451T310 412L394 404Q468 398 520 372T601 303T629 203Q629 139 595 89T497 11T348 -17Z" />
<glyph unicode="T" horiz-adv-x="588" d="M256 0V680H332V0H256ZM28 661V730H560V661H28Z" />
<glyph unicode="U" horiz-adv-x="795" d="M398 -17Q298 -17 232 21T133 127T100 285V730H176V276Q176 209 200 159T274 81T398 53Q471 53 520 80T594 158T619 276V730H695V285Q695 196 662 128T564 21T398 -17Z" />
<glyph unicode="V" horiz-adv-x="699" d="M285 0L24 730H102L344 47L303 69H409L365 47L590 730H667L422 0H285Z" />
<glyph unicode="W" horiz-adv-x="1032" d="M235 0L33 730H111L294 49L259 69H356L318 49L467 698H539L375 0H235ZM674 0L494 698H568L734 49L697 69H796L758 49L923 730H999L814 0H674Z" />
<glyph unicode="X" horiz-adv-x="685" d="M19 0L296 390V371L45 730H131L337 432H351L560 730H643L384 366V385L660 0H574L344 323H330L101 0H19Z" />
<glyph unicode="Y" horiz-adv-x="649" d="M256 286L21 730H101L308 333L276 346H387L354 333L550 730H625L404 286H256ZM292 0V303H367V0H292Z" />
<glyph unicode="Z" horiz-adv-x="657" d="M69 0V97L530 665L527 640L504 679L520 665H77V730H592V633L130 65L132 93L159 47L138 65H607V0H69Z" />
<glyph unicode="[" horiz-adv-x="369" d="M119 -182V776H191V-182H119ZM148 -182V-122H310V-182H148ZM148 716V776H310V716H148Z" />
<glyph unicode="\" horiz-adv-x="323" d="M237 -60L17 780H86L307 -60H237Z" />
<glyph unicode="]" horiz-adv-x="369" d="M250 -182V776H178V-182H250ZM221 -182V-122H59V-182H221ZM221 716V776H59V716H221Z" />
<glyph unicode="^" horiz-adv-x="563" d="M73 319L237 722H328L491 319H428L293 667H271L135 319H73Z" />
<glyph unicode="_" horiz-adv-x="570" d="M0 -121V-64H570V-121H0Z" />
<glyph unicode="`" horiz-adv-x="300" d="M105 612L0 805H81L171 612H105Z" />
<glyph unicode="a" horiz-adv-x="569" d="M419 0V159H407V347Q407 406 376 437T280 469Q250 469 220 468T162 466T113 462V528Q135 530 158 532T205 534T253 535Q334 535 383 515T456 453T479 340V0H419ZM240 -14Q184 -14 141 6T75 64T51 156Q51 209 75 246T146
302T259 322H414V265H254Q191 265 158 235T124 155Q124 105 159 76T254 46Q291 46 325 59T382 105T407 195L429 164Q425 105 401 66T336 6T240 -14Z" />
<glyph unicode="b" horiz-adv-x="684" d="M370 -17Q300 -17 248 14T166 101T134 230H157V0H97V730H172V365L143 298Q145 378 175 433T257 518T375 547Q433 547 480 525T560 465T611 378T629 273V259Q629 205 611 156T560 67T478 6T370 -17ZM362 49Q422 49 465
78T531 156T554 266Q554 328 531 376T464 453T362 481Q308 481 264 457T195 390T169 287V238Q169 182 194 140T264 73T362 49Z" />
<glyph unicode="c" horiz-adv-x="604" d="M320 -17Q253 -17 204 6T121 70T72 160T55 259V273Q55 324 71 372T121 460T203 523T318 547Q384 547 435 523T519 455T557 351H485Q476 406 434 442T318 479Q255 479 214 451T151 374T130 266Q130 208 151 159T214 80T320
50Q369 50 405 67T464 115T491 181H563Q559 121 526 77T439 8T320 -17Z" />
<glyph unicode="d" horiz-adv-x="684" d="M314 -17Q256 -17 209 4T127 64T74 152T55 258V272Q55 326 73 375T124 463T205 524T312 547Q379 547 430 518T512 435T545 301L512 363V730H587V0H527V235H551Q549 152 517 96T432 11T314 -17ZM324 49Q378 49 421 73T490
141T515 244V292Q515 348 490 390T422 457T323 481Q264 481 221 453T154 375T130 265Q130 202 154 153T222 77T324 49Z" />
<glyph unicode="e" horiz-adv-x="609" d="M318 -17Q250 -17 200 6T118 69T71 158T55 259V273Q55 324 70 373T118 461T198 523T312 547Q395 547 450 510T534 416T562 292V253H89V311H510L491 282Q491 341 471 385T411 455T312 481Q250 481 209 452T148 375T127
266Q127 206 147 157T210 78T318 49Q387 49 430 80T483 155H553Q543 102 511 64T430 4T318 -17Z" />
<glyph unicode="f" horiz-adv-x="375" d="M112 0V570Q112 653 155 693T284 733H351V669H270Q228 669 206 647T184 585V0H112ZM35 467V525H362V467H35Z" />
<glyph unicode="g" horiz-adv-x="671" d="M299 -207Q262 -207 225 -204T153 -195V-131Q189 -136 228 -139T303 -143Q379 -143 424 -123T488 -60T508 55V161L536 235Q534 159 504 105T423 21T307 -8Q250 -8 204 14T124 74T73 162T55 265V279Q55 332 73 380T124
466T204 525T310 547Q380 547 432 516T513 430T545 301L521 314V529H580V58Q580 -37 552 -95T463 -180T299 -207ZM320 61Q374 61 416 84T484 151T509 251V300Q509 355 484 396T416 460T320 483Q262 483 219 455T153 380T130 272Q130 211 153 163T220 88T320 61Z"
/>
<glyph unicode="h" horiz-adv-x="635" d="M97 0V730H172V317L150 300Q150 374 171 429T236 514T346 545H350Q446 545 495 482T545 307V0H471V323Q471 394 432 435T327 476Q256 476 214 431T172 311V0H97Z" />
<glyph unicode="i" horiz-adv-x="299" d="M125 0V529H199V0H125ZM40 469V529H199V469H40ZM141 627Q114 627 101 641T87 678Q87 700 100 714T141 729Q168 729 181 715T194 678Q194 656 181 642T141 627Z" />
<glyph unicode="j" horiz-adv-x="307" d="M-3 -203V-136H57Q96 -136 116 -114T137 -49V529H209V-35Q209 -97 193 -134T140 -187T44 -203H-3ZM51 469V529H209V469H51ZM151 636Q124 636 111 650T97 687Q97 709 110 723T151 738Q178 738 191 724T204 687Q204 665
191 651T151 636Z" />
<glyph unicode="k" horiz-adv-x="549" d="M457 0L244 248H158L409 529H489L264 278L269 319L545 0H457ZM97 0V730H172V0H97Z" />
<glyph unicode="l" horiz-adv-x="274" d="M102 0V730H177V0H102ZM25 669V730H177V669H25Z" />
<glyph unicode="m" horiz-adv-x="962" d="M97 0V530H157V307H145Q145 380 165 433T227 515T331 545H334Q397 545 438 516T499 434T519 307H495Q495 380 515 433T577 515T682 545H685Q748 545 789 516T851 434T872 307V0H797V324Q797 394 763 435T665 476Q599 476
561 434T522 319V0H447V324Q447 394 413 435T315 476Q249 476 211 434T172 319V0H97Z" />
<glyph unicode="n" horiz-adv-x="635" d="M97 0V529H157V307H145Q145 381 167 434T233 516T344 545H347Q447 545 496 483T545 307V0H471V323Q471 392 433 434T327 476Q257 476 215 433T172 318V0H97Z" />
<glyph unicode="o" horiz-adv-x="669" d="M334 -17Q266 -17 215 6T128 69T74 158T55 258V272Q55 323 74 372T129 461T216 523T334 547Q401 547 452 524T540 461T594 373T613 272V258Q613 207 595 158T542 70T454 7T334 -17ZM334 50Q400 50 445 79T515 157T539
265Q539 325 515 373T444 450T334 479Q271 479 225 451T155 374T130 265Q130 206 154 158T223 80T334 50Z" />
<glyph unicode="p" horiz-adv-x="684" d="M97 -200V529H157V302L139 300Q143 380 173 435T256 518T374 547Q432 547 479 525T560 464T611 376T629 272V258Q629 204 611 155T560 67T479 6T372 -17Q309 -17 257 11T172 96T136 234L172 159V-200H97ZM362 49Q422 49
465 77T531 155T554 265Q554 327 531 375T464 452T362 481Q308 481 264 457T195 390T169 287V238Q169 182 194 140T264 73T362 49Z" />
<glyph unicode="q" horiz-adv-x="684" d="M512 -200V159L544 234Q542 153 511 97T429 12T312 -17Q254 -17 207 5T126 66T74 155T55 260V274Q55 329 73 377T125 464T206 525T314 547Q385 547 437 516T519 429T551 300L527 306V529H587V-200H512ZM324 51Q378 51
421 75T490 144T515 246V295Q515 351 490 393T422 459T324 483Q264 483 221 455T154 377T130 267Q130 205 154 156T222 79T324 51Z" />
<glyph unicode="r" horiz-adv-x="403" d="M97 0V529H157V308H151Q151 424 202 479T362 535H379V467H348Q262 467 217 423T172 292V0H97Z" />
<glyph unicode="s" horiz-adv-x="529" d="M264 -15Q162 -15 107 29T51 149H121Q123 111 155 80T264 49Q335 49 370 78T406 150Q406 189 377 210T291 238L231 244Q159 252 115 288T70 389Q70 436 94 471T161 525T264 545Q349 545 402 505T457 391H387Q386 429 355
455T264 481Q202 481 172 454T141 388Q141 355 164 334T236 307L296 301Q376 292 426 255T477 149Q477 102 451 65T376 6T264 -15Z" />
<glyph unicode="t" horiz-adv-x="421" d="M289 -6Q234 -6 194 10T132 64T110 168V696H182V157Q182 111 207 87T278 62H373V-6H289ZM15 472V529H373V472H15Z" />
<glyph unicode="u" horiz-adv-x="620" d="M280 -15Q185 -15 135 46T85 218V530H159V203Q159 134 195 94T297 53Q365 53 405 96T446 211V530H521V0H461V221H473Q473 147 452 95T389 14T283 -15H280Z" />
<glyph unicode="v" horiz-adv-x="547" d="M215 0L29 529H106L290 0H215ZM235 0V61H330V0H235ZM276 0L437 529H511L347 0H276Z" />
<glyph unicode="w" horiz-adv-x="827" d="M245 0L358 512H463L594 0H529L398 509H422L308 0H245ZM202 0V61H293V0H202ZM184 0L31 529H103L254 0H184ZM546 0V61H635V0H546ZM585 0L717 529H786L651 0H585Z" />
<glyph unicode="x" horiz-adv-x="547" d="M32 0L228 279V259L44 529H126L266 321H280L413 529H490L317 267V286L523 0H441L279 225H266L109 0H32Z" />
<glyph unicode="y" horiz-adv-x="534" d="M50 -206V-139H118Q153 -139 178 -131T220 -101T249 -43L427 529H500L314 -64Q298 -115 270 -146T203 -192T114 -206H50ZM222 13V76H317V13H222ZM213 13L21 529H98L283 13H213Z" />
<glyph unicode="z" horiz-adv-x="485" d="M60 0V87L367 470L364 453L350 475L361 469H57V529H430V442L122 60L125 75L140 53L129 60H445V0H60Z" />
<glyph unicode="{" horiz-adv-x="369" d="M300 -182Q222 -182 175 -136T127 1V192Q127 226 108 243T61 260V337Q89 337 108 353T127 404V593Q127 684 174 730T300 776H319V716H300Q251 716 225 687T199 597V415Q199 365 177 337T113 302V294Q154 288 176 261T199
182V-3Q199 -64 225 -93T300 -122H319V-182H300Z" />
<glyph unicode="|" horiz-adv-x="373" d="M153 -200V730H220V-200H153Z" />
<glyph unicode="}" horiz-adv-x="369" d="M69 -182Q147 -182 194 -136T242 1V192Q242 226 261 243T308 260V337Q280 337 261 353T242 404V593Q242 684 195 730T69 776H50V716H69Q118 716 144 687T170 597V415Q170 365 192 337T256 302V294Q215 288 193 261T170
182V-3Q170 -64 144 -93T69 -122H50V-182H69Z" />
<glyph unicode="~" horiz-adv-x="477" d="M333 246Q298 246 273 259T228 291T187 322T142 336Q120 336 102 322T75 269L21 268Q26 309 44 337T89 381T144 396Q179 396 204 383T249 351T290 320T335 306Q357 306 375 321T402 373H456Q451 333 433 305T388 261T333 246Z" />
<glyph unicode="&#xa0;" horiz-adv-x="233" />
<glyph unicode="&#xa1;" horiz-adv-x="283" d="M103 327V-201H179V327H103ZM95 529V430H188V529H95Z" />
<glyph unicode="&#xa2;" horiz-adv-x="613" d="M322 105Q255 105 206 127T124 185T75 267T59 360V377Q59 425 75 470T124 552T206 609T321 630Q384 630 434 609T517 549T559 451H487Q478 501 434 533T321 565Q260 565 218 540T154 470T132 368Q132 312 154 267T218
196T322 170Q392 170 439 204T495 290H567Q559 233 525 192T438 128T322 105ZM288 0V137H355V0H288ZM288 593V730H355V593H288Z" />
<glyph unicode="&#xa3;" horiz-adv-x="619" d="M129 0V493Q129 613 192 675T376 737Q400 737 429 736T486 732T534 726V661Q514 664 486 666T428 671T374 673Q320 673 280 656T219 598T197 488V0H129ZM45 0V60H551V0H45ZM51 321V375H453V321H51ZM517 0V163H581V0H517Z" />
<glyph unicode="&#xa4;" horiz-adv-x="657" d="M329 150Q258 150 209 181T133 261T107 362V376Q107 430 133 478T208 557T329 588Q400 588 449 558T524 479T550 376V362Q550 310 525 261T450 181T329 150ZM97 104L52 149L153 249L198 204L97 104ZM153 489L52 589L97
634L198 534L153 489ZM329 212Q377 212 411 233T464 289T483 369Q483 415 464 450T411 505T329 526Q282 526 247 506T194 450T175 369Q175 325 193 290T246 233T329 212ZM560 104L459 204L504 249L605 149L560 104ZM504 489L459 534L560 634L605 589L504 489Z"
/>
<glyph unicode="&#xa5;" horiz-adv-x="607" d="M247 312L23 730H102L300 355L266 363H358L323 355L510 730H585L373 312H247ZM275 0V327H345V0H275ZM58 162V215H561V162H58ZM58 309V363H561V309H58Z" />
<glyph unicode="&#xa6;" horiz-adv-x="373" d="M153 358V730H220V358H153ZM153 -200V160H220V-200H153Z" />
<glyph unicode="&#xa7;" horiz-adv-x="584" d="M286 -76Q186 -76 132 -34T75 82H146Q147 45 179 17T286 -12Q348 -12 380 15T412 84Q412 114 391 132T337 163T265 188Q230 198 195 210T131 241T84 287T66 354Q66 398 86 430T139 484T214 514L283 480Q248 477 215
462T159 421T137 361Q137 326 159 305T218 271T295 246Q329 236 362 224T423 196T466 155T483 94Q483 20 432 -28T286 -76ZM351 184L313 226Q379 239 413 272T447 347Q447 382 426 403T369 437T293 463Q259 473 225 485T162 516T118 561T101 629Q101 674 123 708T187
762T282 782Q367 782 418 744T471 635H401Q400 672 371 694T284 717Q226 717 199 692T172 630Q172 596 193 576T250 542T324 518Q359 508 393 497T456 467T501 422T518 352Q518 311 498 277T441 219T351 184Z" />
<glyph unicode="&#xa8;" horiz-adv-x="300" d="M53 647Q27 647 14 661T0 698Q0 720 13 734T53 749Q81 749 94 735T107 698Q107 676 94 662T53 647ZM250 647Q224 647 211 661T197 698Q197 720 210 734T250 749Q278 749 291 735T304 698Q304 676 291 662T250 647Z" />
<glyph unicode="&#xa9;" horiz-adv-x="725" d="M363 121Q285 121 227 147T131 218T74 318T54 428V444Q54 501 73 555T131 654T228 723T363 749Q440 749 497 724T593 654T651 556T671 444V428Q671 373 652 318T595 219T498 148T363 121ZM363 167Q443 167 501 203T590
301T621 435Q621 510 590 571T501 668T363 704Q282 704 224 668T135 571T104 435Q104 363 135 302T224 204T363 167ZM368 255Q312 255 277 281T224 348T207 430V442Q207 486 225 525T278 590T368 615Q428 615 468 581T513 488H462Q458 523 435 544T368 565Q313
565 288 529T263 436Q263 400 273 370T307 322T368 304Q410 304 435 326T465 381H516Q512 323 470 289T368 255Z" />
<glyph unicode="&#xaa;" horiz-adv-x="398" d="M282 357V465H271V591Q271 627 253 647T194 667Q179 667 158 666T117 664T78 660V718Q93 721 110 722T146 724T181 725Q241 725 274 708T322 660T337 588V357H282ZM163 347Q110 347 74 377T38 463Q38 500 56 525T107
563T184 576H278V533H182Q145 533 126 515T106 465Q106 434 126 416T182 397Q204 397 223 405T256 434T271 490L290 470Q286 410 253 379T163 347Z" />
<glyph unicode="&#xab;" horiz-adv-x="509" d="M176 39L48 239V277L180 483H250L117 269V252L251 39H176ZM377 39L249 239V277L381 483H451L318 269V252L452 39H377Z" />
<glyph unicode="&#xac;" horiz-adv-x="607" d="M73 284V344H534V109H473V318L506 284H73Z" />
<glyph unicode="&#xad;" horiz-adv-x="435" d="M70 246V310H365V246H70Z" />
<glyph unicode="&#xae;" horiz-adv-x="678" d="M339 183Q270 183 217 206T127 270T73 359T54 460V474Q54 526 72 575T128 663T218 726T339 749Q408 749 460 726T550 664T605 575T624 474V460Q624 409 606 360T551 270T462 207T339 183ZM339 227Q413 227 466 260T548
347T577 466Q577 532 549 586T467 673T339 705Q265 705 212 673T130 587T101 466Q101 401 130 347T212 260T339 227ZM236 319V624H283V319H236ZM420 319L320 441H374L476 319H420ZM259 426V468H342Q375 468 391 482T407 525Q407 554 391 567T342 581H259V624H337Q392
624 423 598T455 525Q455 479 424 453T337 426H259Z" />
<glyph unicode="&#xaf;" horiz-adv-x="300" d="M0 671V726H261V671H0Z" />
<glyph unicode="&#xb0;" horiz-adv-x="351" d="M175 444Q133 444 101 463T49 514T30 587Q30 628 49 660T100 711T175 730Q218 730 250 711T302 660T321 587Q321 547 302 515T251 463T175 444ZM175 496Q216 496 240 522T264 587Q264 625 240 651T175 678Q135 678
111 652T86 587Q86 549 110 523T175 496Z" />
<glyph unicode="&#xb1;" horiz-adv-x="601" d="M79 61V121H522V61H79ZM270 187V623L332 624V187H270ZM79 376V436H522V376H79Z" />
<glyph unicode="&#xb2;" horiz-adv-x="375" d="M50 420V490Q50 524 68 547T133 590L211 624Q239 636 255 654T271 703Q271 737 249 758T188 780Q151 780 129 759T106 701H45Q45 760 83 796T188 833Q255 833 293 798T332 707V701Q332 657 308 627T233 576L155 543Q131
533 122 523T112 494V466L96 475H336V420H50Z" />
<glyph unicode="&#xb3;" horiz-adv-x="374" d="M183 410Q114 410 73 446T32 540H93Q93 505 117 484T183 463Q224 463 248 485T272 541Q272 576 249 597T184 619Q165 619 152 615T127 602L96 653L246 759L241 766H50V822H320V762L150 643L126 654Q139 660 153 662T185
665Q253 665 293 632T333 542V536Q333 483 293 447T183 410Z" />
<glyph unicode="&#xb4;" horiz-adv-x="300" d="M0 612L87 805H165L63 612H0Z" />
<glyph unicode="&#xb5;" horiz-adv-x="654" d="M85 -200V530H159V203Q159 134 195 94T297 53Q342 53 375 73T427 129T446 212V530H521V110Q521 87 531 76T564 65H617V0H568Q532 0 506 12T466 50T452 117L463 217H473Q472 145 451 93T389 13T283 -15H280Q244 -15
210 -2T153 39T124 112H146Q146 83 149 54T156 -6T159 -66V-200H85Z" />
<glyph unicode="&#xb6;" horiz-adv-x="616" d="M201 411Q109 411 61 453T12 567V578Q12 650 60 692T201 734H302V411H201ZM271 0V734H348V0H271ZM427 0V734H502V0H427Z" />
<glyph unicode="&#xb7;" horiz-adv-x="258" d="M82 219V318H176V219H82Z" />
<glyph unicode="&#xb8;" horiz-adv-x="300" d="M123 -235Q104 -235 87 -233T55 -227V-175Q69 -179 87 -181T123 -183Q156 -183 171 -172T187 -141Q187 -123 174 -112T129 -101H95V10H143V-85L112 -54H126Q180 -54 211 -77T243 -140Q243 -181 211 -208T123 -235Z" />
<glyph unicode="&#xb9;" horiz-adv-x="258" d="M122 420V777L137 766H32V822H185V420H122Z" />
<glyph unicode="&#xba;" horiz-adv-x="447" d="M224 344Q165 344 124 371T62 442T40 533V544Q40 593 62 636T125 706T224 733Q280 733 321 707T385 637T407 544V533Q407 485 386 442T324 372T224 344ZM224 404Q261 404 286 422T325 471T339 538Q339 576 325 606T286
655T224 673Q187 673 162 655T122 607T108 538Q108 501 121 471T160 423T224 404Z" />
<glyph unicode="&#xbb;" horiz-adv-x="509" d="M333 483L461 283V245L329 39H259L392 253V270L258 483H333ZM132 483L260 283V245L128 39H58L191 253V270L57 483H132Z" />
<glyph unicode="&#xbc;" horiz-adv-x="798" d="M122 255V612L137 601H32V657H185V255H122ZM146 -22L522 680H586L210 -22H146ZM441 89V155L613 409L663 377L507 149L513 140H775V89H441ZM663 0V285H722V0H663Z" />
<glyph unicode="&#xbd;" horiz-adv-x="837" d="M122 255V612L137 601H32V657H185V255H122ZM146 -22L522 680H586L210 -22H146ZM512 0V70Q512 104 530 127T595 170L673 204Q701 216 717 234T733 283Q733 317 711 338T650 360Q613 360 591 339T568 281H507Q507 340
545 376T650 413Q717 413 755 378T794 287V281Q794 237 770 207T695 156L617 123Q593 113 584 103T574 74V46L558 55H798V0H512Z" />
<glyph unicode="&#xbe;" horiz-adv-x="902" d="M183 245Q114 245 73 281T32 375H93Q93 340 117 319T183 298Q224 298 248 320T272 376Q272 411 249 432T184 454Q165 454 152 450T127 437L96 488L246 594L241 601H50V657H320V597L150 478L126 489Q139 495 153 497T185
500Q253 500 293 467T333 377V371Q333 318 293 282T183 245ZM250 -22L626 680H690L314 -22H250ZM545 89V155L717 409L767 377L611 149L617 140H879V89H545ZM767 0V285H826V0H767Z" />
<glyph unicode="&#xbf;" horiz-adv-x="548" d="M339 328V143H281Q205 143 166 101T127 -5Q127 -51 146 -84T198 -135T275 -153Q323 -153 358 -133T413 -77T433 6H505Q505 -55 479 -106T401 -188T275 -219Q208 -219 159 -191T82 -115T55 -11V0Q55 56 81 103T159
178T288 206L263 169L264 328H339ZM348 530V431H255V530H348Z" />
<glyph unicode="&#xc0;" horiz-adv-x="749" d="M33 0L302 730H438L716 0H638L379 682L420 661H315L358 682L109 0H33ZM177 232L202 301H541L567 232H177ZM338 793L201 948H290L410 793H338Z" />
<glyph unicode="&#xc1;" horiz-adv-x="749" d="M33 0L302 730H438L716 0H638L379 682L420 661H315L358 682L109 0H33ZM177 232L202 301H541L567 232H177ZM323 793L445 948H532L393 793H323Z" />
<glyph unicode="&#xc2;" horiz-adv-x="749" d="M33 0L302 730H438L716 0H638L379 682L420 661H315L358 682L109 0H33ZM177 232L202 301H541L567 232H177ZM201 793L323 948H418L541 793H471L378 909H361L270 793H201Z" />
<glyph unicode="&#xc3;" horiz-adv-x="749" d="M33 0L302 730H438L716 0H638L379 682L420 661H315L358 682L109 0H33ZM177 232L202 301H541L567 232H177ZM447 818Q422 818 404 825T371 841T340 858T303 865Q280 865 259 855T225 824L205 870Q219 892 245 906T304
921Q329 921 347 914T381 898T412 881T449 874Q472 874 493 884T527 915L546 869Q532 847 506 833T447 818Z" />
<glyph unicode="&#xc4;" horiz-adv-x="749" d="M33 0L302 730H438L716 0H638L379 682L420 661H315L358 682L109 0H33ZM177 232L202 301H541L567 232H177ZM265 819Q239 819 225 833T210 871Q210 894 224 908T265 923Q292 923 306 909T321 871Q321 848 307 834T265
819ZM475 819Q449 819 435 833T420 871Q420 894 434 908T475 923Q502 923 516 909T531 871Q531 848 517 834T475 819Z" />
<glyph unicode="&#xc5;" horiz-adv-x="749" d="M33 0L302 730H438L716 0H638L379 682L420 661H315L358 682L109 0H33ZM177 232L202 301H541L567 232H177ZM370 772Q317 772 287 803T256 877Q256 920 286 951T370 983Q424 983 454 952T485 877Q485 835 455 804T370
772ZM370 815Q403 815 420 833T438 877Q438 903 421 921T370 939Q337 939 320 921T303 877Q303 852 320 834T370 815Z" />
<glyph unicode="&#xc6;" horiz-adv-x="969" d="M17 0L308 730H500V661H322L363 682L93 0H17ZM176 269L203 338H500V269H176ZM482 0V730H558V0H482ZM539 0V69H903V0H539ZM539 335V404H870V335H539ZM539 661V730H892V661H539Z" />
<glyph unicode="&#xc7;" horiz-adv-x="794" d="M425 -17Q327 -17 258 17T145 108T81 229T61 357V376Q61 443 81 509T145 630T257 716T418 749Q512 749 580 716T690 624T740 483H663Q655 548 621 591T535 657T418 679Q349 679 297 655T209 587T156 487T138 366Q138
305 155 249T209 149T299 79T425 53Q525 53 593 103T677 249H754Q743 174 702 114T592 18T425 -17ZM422 -243Q402 -243 383 -240T350 -233V-178Q365 -182 385 -185T422 -188Q457 -188 475 -177T493 -145Q493 -127 477 -116T430 -105H395V10H446V-86L413 -55H428Q482
-55 516 -78T550 -144Q550 -186 516 -214T422 -243Z" />
<glyph unicode="&#xc8;" horiz-adv-x="603" d="M114 0V730H190V0H114ZM172 0V69H537V0H172ZM172 337V405H503V337H172ZM172 661V730H526V661H172ZM292 793L155 948H244L364 793H292Z" />
<glyph unicode="&#xc9;" horiz-adv-x="603" d="M114 0V730H190V0H114ZM172 0V69H537V0H172ZM172 337V405H503V337H172ZM172 661V730H526V661H172ZM276 793L398 948H485L346 793H276Z" />
<glyph unicode="&#xca;" horiz-adv-x="603" d="M114 0V730H190V0H114ZM172 0V69H537V0H172ZM172 337V405H503V337H172ZM172 661V730H526V661H172ZM154 793L276 948H371L494 793H424L331 909H314L223 793H154Z" />
<glyph unicode="&#xcb;" horiz-adv-x="603" d="M114 0V730H190V0H114ZM172 0V69H537V0H172ZM172 337V405H503V337H172ZM172 661V730H526V661H172ZM218 819Q192 819 178 833T163 871Q163 894 177 908T218 923Q245 923 259 909T274 871Q274 848 260 834T218 819ZM428
819Q402 819 388 833T373 871Q373 894 387 908T428 923Q455 923 469 909T484 871Q484 848 470 834T428 819Z" />
<glyph unicode="&#xcc;" horiz-adv-x="308" d="M116 0V730H192V0H116ZM378 793L241 948H330L450 793H378Z" />
<glyph unicode="&#xcd;" horiz-adv-x="308" d="M116 0V730H192V0H116ZM107 793L229 948H316L177 793H107Z" />
<glyph unicode="&#xce;" horiz-adv-x="308" d="M116 0V730H192V0H116ZM241 793L363 948H458L581 793H511L418 909H401L310 793H241Z" />
<glyph unicode="&#xcf;" horiz-adv-x="308" d="M116 0V730H192V0H116ZM305 819Q279 819 265 833T250 871Q250 894 264 908T305 923Q332 923 346 909T361 871Q361 848 347 834T305 819ZM515 819Q489 819 475 833T460 871Q460 894 474 908T515 923Q542 923 556 909T571
871Q571 848 557 834T515 819Z" />
<glyph unicode="&#xd0;" horiz-adv-x="795" d="M170 -4V66H369Q443 66 498 90T592 155T649 251T668 366Q668 429 649 483T591 578T498 641T369 663H170V733H361Q459 733 531 703T651 622T722 506T745 376V357Q745 292 722 228T652 112T533 28T361 -4H170ZM114
-4V733H190V-4H114ZM25 333V396H385V333H25Z" />
<glyph unicode="&#xd1;" horiz-adv-x="840" d="M114 0V730H241L641 69H673L653 53V730H726V0H598L198 661H166L186 677V0H114ZM515 818Q490 818 472 825T439 841T408 858T371 865Q348 865 327 855T293 824L273 870Q287 892 313 906T372 921Q397 921 415 914T449
898T480 881T517 874Q540 874 561 884T595 915L614 869Q600 847 574 833T515 818Z" />
<glyph unicode="&#xd2;" horiz-adv-x="867" d="M434 -17Q339 -17 269 17T153 107T84 229T61 358V376Q61 443 84 509T155 630T272 716T434 749Q527 749 596 717T713 630T783 510T807 376V357Q807 294 785 229T716 107T599 17T434 -17ZM434 53Q504 53 559 78T652
148T710 249T730 366Q730 430 710 486T652 585T558 654T434 679Q366 679 311 654T218 586T159 486T138 366Q138 305 158 249T216 149T309 79T434 53ZM403 793L266 948H355L475 793H403Z" />
<glyph unicode="&#xd3;" horiz-adv-x="867" d="M434 -17Q339 -17 269 17T153 107T84 229T61 358V376Q61 443 84 509T155 630T272 716T434 749Q527 749 596 717T713 630T783 510T807 376V357Q807 294 785 229T716 107T599 17T434 -17ZM434 53Q504 53 559 78T652
148T710 249T730 366Q730 430 710 486T652 585T558 654T434 679Q366 679 311 654T218 586T159 486T138 366Q138 305 158 249T216 149T309 79T434 53ZM387 793L509 948H596L457 793H387Z" />
<glyph unicode="&#xd4;" horiz-adv-x="867" d="M434 -17Q339 -17 269 17T153 107T84 229T61 358V376Q61 443 84 509T155 630T272 716T434 749Q527 749 596 717T713 630T783 510T807 376V357Q807 294 785 229T716 107T599 17T434 -17ZM434 53Q504 53 559 78T652
148T710 249T730 366Q730 430 710 486T652 585T558 654T434 679Q366 679 311 654T218 586T159 486T138 366Q138 305 158 249T216 149T309 79T434 53ZM265 793L387 948H482L605 793H535L442 909H425L334 793H265Z" />
<glyph unicode="&#xd5;" horiz-adv-x="867" d="M434 -17Q339 -17 269 17T153 107T84 229T61 358V376Q61 443 84 509T155 630T272 716T434 749Q527 749 596 717T713 630T783 510T807 376V357Q807 294 785 229T716 107T599 17T434 -17ZM434 53Q504 53 559 78T652
148T710 249T730 366Q730 430 710 486T652 585T558 654T434 679Q366 679 311 654T218 586T159 486T138 366Q138 305 158 249T216 149T309 79T434 53ZM512 818Q487 818 469 825T436 841T405 858T368 865Q345 865 324 855T290 824L270 870Q284 892 310 906T369 921Q394
921 412 914T446 898T477 881T514 874Q537 874 558 884T592 915L611 869Q597 847 571 833T512 818Z" />
<glyph unicode="&#xd6;" horiz-adv-x="867" d="M434 -17Q339 -17 269 17T153 107T84 229T61 358V376Q61 443 84 509T155 630T272 716T434 749Q527 749 596 717T713 630T783 510T807 376V357Q807 294 785 229T716 107T599 17T434 -17ZM434 53Q504 53 559 78T652
148T710 249T730 366Q730 430 710 486T652 585T558 654T434 679Q366 679 311 654T218 586T159 486T138 366Q138 305 158 249T216 149T309 79T434 53ZM329 819Q303 819 289 833T274 871Q274 894 288 908T329 923Q356 923 370 909T385 871Q385 848 371 834T329 819ZM539
819Q513 819 499 833T484 871Q484 894 498 908T539 923Q566 923 580 909T595 871Q595 848 581 834T539 819Z" />
<glyph unicode="&#xd7;" horiz-adv-x="588" d="M468 127L513 171L120 563L75 519L468 127ZM117 127L513 521L471 563L75 169L117 127Z" />
<glyph unicode="&#xd8;" horiz-adv-x="867" d="M111 -45L680 769H756L187 -45H111ZM434 -17Q339 -17 269 17T153 107T84 229T61 358V376Q61 443 84 509T155 630T272 716T434 749Q527 749 596 717T713 630T783 510T807 376V357Q807 294 785 229T716 107T599 17T434
-17ZM434 53Q504 53 559 78T652 148T710 249T730 366Q730 430 710 486T652 585T558 654T434 679Q366 679 311 654T218 586T159 486T138 366Q138 305 158 249T216 149T309 79T434 53Z" />
<glyph unicode="&#xd9;" horiz-adv-x="795" d="M398 -17Q298 -17 232 21T133 127T100 285V730H176V276Q176 209 200 159T274 81T398 53Q471 53 520 80T594 158T619 276V730H695V285Q695 196 662 128T564 21T398 -17ZM366 793L229 948H318L438 793H366Z" />
<glyph unicode="&#xda;" horiz-adv-x="795" d="M398 -17Q298 -17 232 21T133 127T100 285V730H176V276Q176 209 200 159T274 81T398 53Q471 53 520 80T594 158T619 276V730H695V285Q695 196 662 128T564 21T398 -17ZM351 793L473 948H560L421 793H351Z" />
<glyph unicode="&#xdb;" horiz-adv-x="795" d="M398 -17Q298 -17 232 21T133 127T100 285V730H176V276Q176 209 200 159T274 81T398 53Q471 53 520 80T594 158T619 276V730H695V285Q695 196 662 128T564 21T398 -17ZM229 793L351 948H446L569 793H499L406 909H389L298
793H229Z" />
<glyph unicode="&#xdc;" horiz-adv-x="795" d="M398 -17Q298 -17 232 21T133 127T100 285V730H176V276Q176 209 200 159T274 81T398 53Q471 53 520 80T594 158T619 276V730H695V285Q695 196 662 128T564 21T398 -17ZM292 819Q266 819 252 833T237 871Q237 894
251 908T292 923Q319 923 333 909T348 871Q348 848 334 834T292 819ZM502 819Q476 819 462 833T447 871Q447 894 461 908T502 923Q529 923 543 909T558 871Q558 848 544 834T502 819Z" />
<glyph unicode="&#xdd;" horiz-adv-x="649" d="M256 286L21 730H101L308 333L276 346H387L354 333L550 730H625L404 286H256ZM292 0V303H367V0H292ZM275 793L397 948H484L345 793H275Z" />
<glyph unicode="&#xde;" horiz-adv-x="612" d="M170 145V213H329Q386 213 422 233T474 290T491 371Q491 417 475 453T422 509T329 530H170V597H319Q403 597 458 569T541 490T569 378V365Q569 303 542 253T459 174T319 145H170ZM114 0V731H190V0H114Z" />
<glyph unicode="&#xdf;" horiz-adv-x="609" d="M335 -12Q311 -12 286 -9T240 -2V63Q261 59 288 56T335 53Q414 53 452 94T490 197Q490 247 468 285T405 344T310 366H271V426H299Q340 426 366 445T404 493T417 552Q417 584 405 612T367 659T300 678Q258 678 230
657T189 599T175 516V0H101V505Q101 616 152 679T298 743H302Q363 743 405 717T470 649T492 556Q492 504 469 465T403 404T302 382L306 410Q387 410 445 384T534 309T565 194Q565 135 538 88T460 15T335 -12ZM41 460V521H127V460H41Z" />
<glyph unicode="&#xe0;" horiz-adv-x="569" d="M419 0V159H407V347Q407 406 376 437T280 469Q250 469 220 468T162 466T113 462V528Q135 530 158 532T205 534T253 535Q334 535 383 515T456 453T479 340V0H419ZM240 -14Q184 -14 141 6T75 64T51 156Q51 209 75 246T146
302T259 322H414V265H254Q191 265 158 235T124 155Q124 105 159 76T254 46Q291 46 325 59T382 105T407 195L429 164Q425 105 401 66T336 6T240 -14ZM254 612L149 805H230L320 612H254Z" />
<glyph unicode="&#xe1;" horiz-adv-x="569" d="M419 0V159H407V347Q407 406 376 437T280 469Q250 469 220 468T162 466T113 462V528Q135 530 158 532T205 534T253 535Q334 535 383 515T456 453T479 340V0H419ZM240 -14Q184 -14 141 6T75 64T51 156Q51 209 75 246T146
302T259 322H414V265H254Q191 265 158 235T124 155Q124 105 159 76T254 46Q291 46 325 59T382 105T407 195L429 164Q425 105 401 66T336 6T240 -14ZM236 612L323 805H401L299 612H236Z" />
<glyph unicode="&#xe2;" horiz-adv-x="569" d="M419 0V159H407V347Q407 406 376 437T280 469Q250 469 220 468T162 466T113 462V528Q135 530 158 532T205 534T253 535Q334 535 383 515T456 453T479 340V0H419ZM240 -14Q184 -14 141 6T75 64T51 156Q51 209 75 246T146
302T259 322H414V265H254Q191 265 158 235T124 155Q124 105 159 76T254 46Q291 46 325 59T382 105T407 195L429 164Q425 105 401 66T336 6T240 -14ZM124 612L233 805H321L429 612H366L281 766H273L187 612H124Z" />
<glyph unicode="&#xe3;" horiz-adv-x="569" d="M419 0V159H407V347Q407 406 376 437T280 469Q250 469 220 468T162 466T113 462V528Q135 530 158 532T205 534T253 535Q334 535 383 515T456 453T479 340V0H419ZM240 -14Q184 -14 141 6T75 64T51 156Q51 209 75 246T146
302T259 322H414V265H254Q191 265 158 235T124 155Q124 105 159 76T254 46Q291 46 325 59T382 105T407 195L429 164Q425 105 401 66T336 6T240 -14ZM344 645Q320 645 303 653T272 671T243 688T209 696Q189 696 173 686T142 655L124 704Q139 726 161 739T212 752Q236
752 253 745T284 727T313 709T346 701Q366 701 383 712T414 742L432 694Q417 672 395 659T344 645Z" />
<glyph unicode="&#xe4;" horiz-adv-x="569" d="M419 0V159H407V347Q407 406 376 437T280 469Q250 469 220 468T162 466T113 462V528Q135 530 158 532T205 534T253 535Q334 535 383 515T456 453T479 340V0H419ZM240 -14Q184 -14 141 6T75 64T51 156Q51 209 75 246T146
302T259 322H414V265H254Q191 265 158 235T124 155Q124 105 159 76T254 46Q291 46 325 59T382 105T407 195L429 164Q425 105 401 66T336 6T240 -14ZM178 647Q152 647 139 661T125 698Q125 720 138 734T178 749Q206 749 219 735T232 698Q232 676 219 662T178 647ZM375
647Q349 647 336 661T322 698Q322 720 335 734T375 749Q403 749 416 735T429 698Q429 676 416 662T375 647Z" />
<glyph unicode="&#xe5;" horiz-adv-x="569" d="M419 0V159H407V347Q407 406 376 437T280 469Q250 469 220 468T162 466T113 462V528Q135 530 158 532T205 534T253 535Q334 535 383 515T456 453T479 340V0H419ZM240 -14Q184 -14 141 6T75 64T51 156Q51 209 75 246T146
302T259 322H414V265H254Q191 265 158 235T124 155Q124 105 159 76T254 46Q291 46 325 59T382 105T407 195L429 164Q425 105 401 66T336 6T240 -14ZM277 602Q229 602 199 633T168 711Q168 757 198 788T277 819Q326 819 356 788T387 711Q387 665 357 634T277 602ZM278
645Q307 645 324 663T341 711Q341 739 324 757T278 776Q248 776 231 758T213 711Q213 682 230 664T278 645Z" />
<glyph unicode="&#xe6;" horiz-adv-x="955" d="M665 -17Q610 -17 569 -2T498 40T450 99T421 167H443Q439 106 412 66T340 6T240 -14Q183 -14 141 6T75 64T51 156Q51 209 75 246T145 302T258 321H413V264H254Q191 264 158 234T124 155Q124 105 158 76T254 46Q290
46 324 59T380 105T405 195V347Q405 406 375 437T281 469Q251 469 221 468T162 466T113 462V528Q135 530 158 532T205 534T252 535Q332 535 380 516T448 453T469 340H419Q430 397 459 443T538 517T659 545Q741 545 796 509T880 415T908 292V253H464V311H856L837
281Q837 340 817 384T757 453T659 478Q598 478 557 450T496 374T475 265Q475 205 495 156T558 79T665 50Q734 50 776 80T829 154H899Q889 102 857 64T777 4T665 -17Z" />
<glyph unicode="&#xe7;" horiz-adv-x="604" d="M320 -17Q253 -17 204 6T121 70T72 160T55 259V273Q55 324 71 372T121 460T203 523T318 547Q384 547 435 523T519 455T557 351H485Q476 406 434 442T318 479Q255 479 214 451T151 374T130 266Q130 208 151 159T214
80T320 50Q369 50 405 67T464 115T491 181H563Q559 121 526 77T439 8T320 -17ZM316 -235Q297 -235 280 -233T248 -227V-175Q262 -179 280 -181T316 -183Q349 -183 364 -172T380 -141Q380 -123 367 -112T322 -101H288V10H336V-85L305 -54H319Q373 -54 404 -77T436
-140Q436 -181 404 -208T316 -235Z" />
<glyph unicode="&#xe8;" horiz-adv-x="609" d="M318 -17Q250 -17 200 6T118 69T71 158T55 259V273Q55 324 70 373T118 461T198 523T312 547Q395 547 450 510T534 416T562 292V253H89V311H510L491 282Q491 341 471 385T411 455T312 481Q250 481 209 452T148 375T127
266Q127 206 147 157T210 78T318 49Q387 49 430 80T483 155H553Q543 102 511 64T430 4T318 -17ZM289 612L184 805H265L355 612H289Z" />
<glyph unicode="&#xe9;" horiz-adv-x="609" d="M318 -17Q250 -17 200 6T118 69T71 158T55 259V273Q55 324 70 373T118 461T198 523T312 547Q395 547 450 510T534 416T562 292V253H89V311H510L491 282Q491 341 471 385T411 455T312 481Q250 481 209 452T148 375T127
266Q127 206 147 157T210 78T318 49Q387 49 430 80T483 155H553Q543 102 511 64T430 4T318 -17ZM271 612L358 805H436L334 612H271Z" />
<glyph unicode="&#xea;" horiz-adv-x="609" d="M318 -17Q250 -17 200 6T118 69T71 158T55 259V273Q55 324 70 373T118 461T198 523T312 547Q395 547 450 510T534 416T562 292V253H89V311H510L491 282Q491 341 471 385T411 455T312 481Q250 481 209 452T148 375T127
266Q127 206 147 157T210 78T318 49Q387 49 430 80T483 155H553Q543 102 511 64T430 4T318 -17ZM159 612L268 805H356L464 612H401L316 766H308L222 612H159Z" />
<glyph unicode="&#xeb;" horiz-adv-x="609" d="M318 -17Q250 -17 200 6T118 69T71 158T55 259V273Q55 324 70 373T118 461T198 523T312 547Q395 547 450 510T534 416T562 292V253H89V311H510L491 282Q491 341 471 385T411 455T312 481Q250 481 209 452T148 375T127
266Q127 206 147 157T210 78T318 49Q387 49 430 80T483 155H553Q543 102 511 64T430 4T318 -17ZM213 647Q187 647 174 661T160 698Q160 720 173 734T213 749Q241 749 254 735T267 698Q267 676 254 662T213 647ZM410 647Q384 647 371 661T357 698Q357 720 370 734T410
749Q438 749 451 735T464 698Q464 676 451 662T410 647Z" />
<glyph unicode="&#xec;" horiz-adv-x="299" d="M125 0V529H199V0H125ZM40 469V529H199V469H40ZM360 612L255 805H336L426 612H360Z" />
<glyph unicode="&#xed;" horiz-adv-x="299" d="M125 0V529H199V0H125ZM40 469V529H199V469H40ZM86 612L173 805H251L149 612H86Z" />
<glyph unicode="&#xee;" horiz-adv-x="299" d="M125 0V529H199V0H125ZM40 469V529H199V469H40ZM230 612L339 805H427L535 612H472L387 766H379L293 612H230Z" />
<glyph unicode="&#xef;" horiz-adv-x="299" d="M125 0V529H199V0H125ZM40 469V529H199V469H40ZM284 647Q258 647 245 661T231 698Q231 720 244 734T284 749Q312 749 325 735T338 698Q338 676 325 662T284 647ZM481 647Q455 647 442 661T428 698Q428 720 441 734T481
749Q509 749 522 735T535 698Q535 676 522 662T481 647Z" />
<glyph unicode="&#xf0;" horiz-adv-x="639" d="M320 -19Q251 -19 201 3T119 62T71 145T55 239V260Q55 327 84 385T170 480T312 516Q378 516 423 493T493 432T524 347H514Q513 456 495 528T432 632Q409 650 377 659T295 669Q268 669 242 667T190 661V721Q214 725
240 727T295 729Q398 729 460 687T551 552T580 310V288Q580 199 553 130T469 21T320 -19ZM320 49Q384 49 426 74T488 145T509 250Q509 310 487 355T423 426T318 451Q256 451 214 426T151 355T130 250Q130 192 151 147T214 75T320 49ZM354 540L326 575L548 758L576
723L354 540Z" />
<glyph unicode="&#xf1;" horiz-adv-x="635" d="M97 0V529H157V307H145Q145 381 167 434T233 516T344 545H347Q447 545 496 483T545 307V0H471V323Q471 392 433 434T327 476Q257 476 215 433T172 318V0H97ZM392 645Q368 645 351 653T320 671T291 688T257 696Q237
696 221 686T190 655L172 704Q187 726 209 739T260 752Q284 752 301 745T332 727T361 709T394 701Q414 701 431 712T462 742L480 694Q465 672 443 659T392 645Z" />
<glyph unicode="&#xf2;" horiz-adv-x="669" d="M334 -17Q266 -17 215 6T128 69T74 158T55 258V272Q55 323 74 372T129 461T216 523T334 547Q401 547 452 524T540 461T594 373T613 272V258Q613 207 595 158T542 70T454 7T334 -17ZM334 50Q400 50 445 79T515 157T539
265Q539 325 515 373T444 450T334 479Q271 479 225 451T155 374T130 265Q130 206 154 158T223 80T334 50ZM311 612L206 805H287L377 612H311Z" />
<glyph unicode="&#xf3;" horiz-adv-x="669" d="M334 -17Q266 -17 215 6T128 69T74 158T55 258V272Q55 323 74 372T129 461T216 523T334 547Q401 547 452 524T540 461T594 373T613 272V258Q613 207 595 158T542 70T454 7T334 -17ZM334 50Q400 50 445 79T515 157T539
265Q539 325 515 373T444 450T334 479Q271 479 225 451T155 374T130 265Q130 206 154 158T223 80T334 50ZM293 612L380 805H458L356 612H293Z" />
<glyph unicode="&#xf4;" horiz-adv-x="669" d="M334 -17Q266 -17 215 6T128 69T74 158T55 258V272Q55 323 74 372T129 461T216 523T334 547Q401 547 452 524T540 461T594 373T613 272V258Q613 207 595 158T542 70T454 7T334 -17ZM334 50Q400 50 445 79T515 157T539
265Q539 325 515 373T444 450T334 479Q271 479 225 451T155 374T130 265Q130 206 154 158T223 80T334 50ZM181 612L290 805H378L486 612H423L338 766H330L244 612H181Z" />
<glyph unicode="&#xf5;" horiz-adv-x="669" d="M334 -17Q266 -17 215 6T128 69T74 158T55 258V272Q55 323 74 372T129 461T216 523T334 547Q401 547 452 524T540 461T594 373T613 272V258Q613 207 595 158T542 70T454 7T334 -17ZM334 50Q400 50 445 79T515 157T539
265Q539 325 515 373T444 450T334 479Q271 479 225 451T155 374T130 265Q130 206 154 158T223 80T334 50ZM401 645Q377 645 360 653T329 671T300 688T266 696Q246 696 230 686T199 655L181 704Q196 726 218 739T269 752Q293 752 310 745T341 727T370 709T403 701Q423
701 440 712T471 742L489 694Q474 672 452 659T401 645Z" />
<glyph unicode="&#xf6;" horiz-adv-x="669" d="M334 -17Q266 -17 215 6T128 69T74 158T55 258V272Q55 323 74 372T129 461T216 523T334 547Q401 547 452 524T540 461T594 373T613 272V258Q613 207 595 158T542 70T454 7T334 -17ZM334 50Q400 50 445 79T515 157T539
265Q539 325 515 373T444 450T334 479Q271 479 225 451T155 374T130 265Q130 206 154 158T223 80T334 50ZM236 647Q210 647 197 661T183 698Q183 720 196 734T236 749Q264 749 277 735T290 698Q290 676 277 662T236 647ZM433 647Q407 647 394 661T380 698Q380 720
393 734T433 749Q461 749 474 735T487 698Q487 676 474 662T433 647Z" />
<glyph unicode="&#xf7;" horiz-adv-x="588" d="M73 314V374H515V314H73ZM251 101V195H337V101H251ZM251 494V588H337V494H251Z" />
<glyph unicode="&#xf8;" horiz-adv-x="669" d="M83 -47L522 581H588L149 -47H83ZM334 -17Q266 -17 215 6T128 69T74 158T55 258V272Q55 323 74 372T129 461T216 523T334 547Q401 547 452 524T540 461T594 373T613 272V258Q613 207 595 158T542 70T454 7T334 -17ZM334
50Q400 50 445 79T515 157T539 265Q539 325 515 373T444 450T334 479Q271 479 225 451T155 374T130 265Q130 206 154 158T223 80T334 50Z" />
<glyph unicode="&#xf9;" horiz-adv-x="620" d="M280 -15Q185 -15 135 46T85 218V530H159V203Q159 134 195 94T297 53Q365 53 405 96T446 211V530H521V0H461V221H473Q473 147 452 95T389 14T283 -15H280ZM280 612L175 805H256L346 612H280Z" />
<glyph unicode="&#xfa;" horiz-adv-x="620" d="M280 -15Q185 -15 135 46T85 218V530H159V203Q159 134 195 94T297 53Q365 53 405 96T446 211V530H521V0H461V221H473Q473 147 452 95T389 14T283 -15H280ZM262 612L349 805H427L325 612H262Z" />
<glyph unicode="&#xfb;" horiz-adv-x="620" d="M280 -15Q185 -15 135 46T85 218V530H159V203Q159 134 195 94T297 53Q365 53 405 96T446 211V530H521V0H461V221H473Q473 147 452 95T389 14T283 -15H280ZM150 612L259 805H347L455 612H392L307 766H299L213 612H150Z" />
<glyph unicode="&#xfc;" horiz-adv-x="620" d="M280 -15Q185 -15 135 46T85 218V530H159V203Q159 134 195 94T297 53Q365 53 405 96T446 211V530H521V0H461V221H473Q473 147 452 95T389 14T283 -15H280ZM204 647Q178 647 165 661T151 698Q151 720 164 734T204
749Q232 749 245 735T258 698Q258 676 245 662T204 647ZM401 647Q375 647 362 661T348 698Q348 720 361 734T401 749Q429 749 442 735T455 698Q455 676 442 662T401 647Z" />
<glyph unicode="&#xfd;" horiz-adv-x="534" d="M50 -206V-139H118Q153 -139 178 -131T220 -101T249 -43L427 529H500L314 -64Q298 -115 270 -146T203 -192T114 -206H50ZM222 13V76H317V13H222ZM213 13L21 529H98L283 13H213ZM223 612L310 805H388L286 612H223Z" />
<glyph unicode="&#xfe;" horiz-adv-x="684" d="M97 -200V730H172V357L142 302Q145 381 176 436T259 519T378 548Q436 548 482 527T561 467T611 380T629 272V257Q629 201 611 152T560 65T479 6T374 -16Q308 -16 256 12T171 97T136 235L172 160V-200H97ZM362 50Q422
50 465 79T531 158T554 267Q554 329 531 377T464 454T362 482Q308 482 264 458T195 391T169 288V240Q169 184 194 141T264 74T362 50Z" />
<glyph unicode="&#xff;" horiz-adv-x="534" d="M50 -206V-139H118Q153 -139 178 -131T220 -101T249 -43L427 529H500L314 -64Q298 -115 270 -146T203 -192T114 -206H50ZM222 13V76H317V13H222ZM213 13L21 529H98L283 13H213ZM165 647Q139 647 126 661T112 698Q112
720 125 734T165 749Q193 749 206 735T219 698Q219 676 206 662T165 647ZM362 647Q336 647 323 661T309 698Q309 720 322 734T362 749Q390 749 403 735T416 698Q416 676 403 662T362 647Z" />
<glyph unicode="&#x2013;" horiz-adv-x="506" d="M18 246V310H488V246H18Z" />
<glyph unicode="&#x2014;" horiz-adv-x="894" d="M18 246V310H876V246H18Z" />
<glyph unicode="&#x2018;" horiz-adv-x="238" d="M187 736V692H179Q148 692 130 682T102 646T93 579V513L75 547Q81 551 91 553T112 555Q137 555 153 540T169 498Q169 473 154 457T113 441Q95 441 80 450T55 480T45 540V559Q45 630 61 668T108 721T179 736H187Z" />
<glyph unicode="&#x2019;" horiz-adv-x="238" d="M51 442V486H59Q90 486 108 496T136 532T145 599V665L163 631Q157 627 147 625T126 623Q101 623 85 638T69 680Q69 705 84 721T125 737Q143 737 158 728T183 698T193 638V619Q193 548 177 510T130 457T59 442H51Z" />
<glyph unicode="&#x201a;" horiz-adv-x="238" d="M51 -182V-138H59Q90 -138 108 -128T136 -92T145 -25V41L163 7Q157 3 147 1T126 -1Q101 -1 85 14T69 56Q69 81 84 97T125 113Q143 113 158 104T183 74T193 14V-5Q193 -76 177 -114T130 -167T59 -182H51Z" />
<glyph unicode="&#x201c;" horiz-adv-x="422" d="M371 736V692H363Q332 692 314 682T286 646T277 579V513L259 547Q265 551 275 553T296 555Q321 555 337 540T353 498Q353 473 338 457T297 441Q279 441 264 450T239 480T229 540V559Q229 630 245 668T292 721T363
736H371ZM187 736V692H179Q148 692 130 682T102 646T93 579V513L75 547Q81 551 91 553T112 555Q137 555 153 540T169 498Q169 473 154 457T113 441Q95 441 80 450T55 480T45 540V559Q45 630 61 668T108 721T179 736H187Z" />
<glyph unicode="&#x201d;" horiz-adv-x="422" d="M51 442V486H59Q90 486 108 496T136 532T145 599V665L163 631Q157 627 147 625T126 623Q101 623 85 638T69 680Q69 705 84 721T125 737Q143 737 158 728T183 698T193 638V619Q193 548 177 510T130 457T59 442H51ZM235
442V486H243Q274 486 292 496T320 532T329 599V665L347 631Q341 627 331 625T310 623Q285 623 269 638T253 680Q253 705 268 721T309 737Q327 737 342 728T367 698T377 638V619Q377 548 361 510T314 457T243 442H235Z" />
<glyph unicode="&#x201e;" horiz-adv-x="422" d="M51 -182V-138H59Q90 -138 108 -128T136 -92T145 -25V41L163 7Q157 3 147 1T126 -1Q101 -1 85 14T69 56Q69 81 84 97T125 113Q143 113 158 104T183 74T193 14V-5Q193 -76 177 -114T130 -167T59 -182H51ZM235 -182V-138H243Q274
-138 292 -128T320 -92T329 -25V41L347 7Q341 3 331 1T310 -1Q285 -1 269 14T253 56Q253 81 268 97T309 113Q327 113 342 104T367 74T377 14V-5Q377 -76 361 -114T314 -167T243 -182H235Z" />
<glyph unicode="&#x2022;" horiz-adv-x="431" d="M101 168V408H330V168H101Z" />
<glyph unicode="&#x2039;" horiz-adv-x="307" d="M176 39L48 239V277L180 483H250L117 269V252L251 39H176Z" />
<glyph unicode="&#x203a;" horiz-adv-x="307" d="M131 483L259 283V245L127 39H57L190 253V270L56 483H131Z" />
</font>
</defs>
</svg>
